osu file format v14

[General]
AudioFilename: audio.mp3
AudioLeadIn: 0
PreviewTime: 53086
Countdown: 0
SampleSet: Normal
StackLeniency: 0.7
Mode: 1
LetterboxInBreaks: 0
WidescreenStoryboard: 1

[Editor]
DistanceSpacing: 1.5
BeatDivisor: 12
GridSize: 32
TimelineZoom: 3.699999

[Metadata]
Title:The Creator
TitleUnicode:The Creator
Artist:Yousei Teikoku
ArtistUnicode:妖精帝國
Creator:ler1211
Version:Oni
Source:未来日記
Tags:yassu- Mirai Nikki Yōsei Teikoku PAX VESANIA LACA-15285 oad ova ending ed YUI 橘尭葉 Takaha Tachibana Das Feenreich japanese rock jrock j-rock
BeatmapID:3736419
BeatmapSetID:1798859

[Difficulty]
HPDrainRate:5
CircleSize:5
OverallDifficulty:5
ApproachRate:5
SliderMultiplier:1.2
SliderTickRate:1

[Events]
//Background and Video events
0,0,"yuno.jpg",0,0
//Break Periods
//Storyboard Layer 0 (Background)
//Storyboard Layer 1 (Fail)
//Storyboard Layer 2 (Pass)
//Storyboard Layer 3 (Foreground)
//Storyboard Layer 4 (Overlay)
//Storyboard Sound Samples

[TimingPoints]
373,214.285714285714,8,1,0,80,1,8
373,-111.111111111111,4,1,0,80,0,0
2087,214.285714285714,4,1,0,80,1,0
2087,-111.111111111111,4,1,0,80,0,0
8890,-100,4,1,0,100,0,0
22765,-111.111111111111,4,1,0,80,0,0
29462,-100,4,1,0,100,0,0
36479,-111.111111111111,4,1,0,80,0,0
43229,214.285714285714,5,1,0,90,1,0
43229,-111.111111111111,5,1,0,90,0,0
43336,-100,5,1,0,90,0,0
51800,214.285714285714,4,1,0,90,1,0
53514,214.285714285714,4,1,0,100,1,1
74085,-100,4,1,0,100,0,0
87907,-111.111111111111,4,1,0,80,0,0
94550,-100,4,1,0,100,0,0
101621,-111.111111111111,4,1,0,80,0,0
108371,214.285714285714,5,1,0,90,1,0
108371,-111.111111111111,5,1,0,90,0,0
108478,-100,5,1,0,90,0,0
116942,214.285714285714,4,1,0,90,1,0
118656,214.285714285714,4,1,0,100,1,1
139227,-100,4,1,0,100,0,0
139334,-111.111111111111,4,1,0,90,0,0
146084,-100,4,1,0,100,0,1
159798,-100,4,1,0,100,0,0
160548,-100,4,1,0,80,0,0
161513,214.285714285714,5,1,0,90,1,0
170084,214.285714285714,4,1,0,90,1,0
171798,214.285714285714,4,1,0,90,1,0
172012,-111.111111111111,4,1,0,80,0,0
178601,-100,4,1,0,90,0,0
185512,-100,4,1,0,100,0,1
206083,-100,4,1,0,100,0,0

[HitObjects]
256,192,2087,5,12,0:0:0:0:
256,192,2301,1,0,0:0:0:0:
256,192,2515,1,8,0:0:0:0:
256,192,2729,1,8,0:0:0:0:
256,192,3801,1,8,0:0:0:0:
256,192,4015,1,8,0:0:0:0:
256,192,4229,1,0,0:0:0:0:
256,192,4444,1,8,0:0:0:0:
256,192,5086,1,0,0:0:0:0:
256,192,5515,1,12,0:0:0:0:
256,192,5729,1,0,0:0:0:0:
256,192,5944,1,8,0:0:0:0:
256,192,6158,1,8,0:0:0:0:
256,192,7229,1,8,0:0:0:0:
256,192,7444,1,8,0:0:0:0:
256,192,7658,1,0,0:0:0:0:
256,192,7872,1,8,0:0:0:0:
256,192,8515,1,8,0:0:0:0:
256,192,8729,1,8,0:0:0:0:
256,192,8944,1,4,0:0:0:0:
256,192,9372,1,0,0:0:0:0:
256,192,9586,1,8,0:0:0:0:
256,192,9694,1,8,0:0:0:0:
256,192,9801,1,0,0:0:0:0:
256,192,10015,1,0,0:0:0:0:
256,192,10229,1,8,0:0:0:0:
256,192,10336,1,0,0:0:0:0:
256,192,10444,1,8,0:0:0:0:
256,192,10658,1,0,0:0:0:0:
256,192,10872,1,8,0:0:0:0:
256,192,11086,1,0,0:0:0:0:
256,192,11194,1,8,0:0:0:0:
256,192,11301,1,0,0:0:0:0:
256,192,11408,1,0,0:0:0:0:
256,192,11515,1,8,0:0:0:0:
256,192,11729,1,8,0:0:0:0:
256,192,11944,1,0,0:0:0:0:
256,192,12051,1,0,0:0:0:0:
256,192,12158,1,8,0:0:0:0:
256,192,12372,1,4,0:0:0:0:
256,192,12801,1,8,0:0:0:0:
256,192,13015,1,8,0:0:0:0:
256,192,13229,1,0,0:0:0:0:
256,192,13336,1,0,0:0:0:0:
256,192,13444,1,8,0:0:0:0:
256,192,13658,1,8,0:0:0:0:
256,192,13765,1,0,0:0:0:0:
256,192,13872,1,8,0:0:0:0:
256,192,14086,1,0,0:0:0:0:
256,192,14301,1,0,0:0:0:0:
256,192,14515,1,8,0:0:0:0:
256,192,14622,1,8,0:0:0:0:
256,192,14729,1,0,0:0:0:0:
256,192,14944,1,8,0:0:0:0:
256,192,15158,1,0,0:0:0:0:
256,192,15265,1,8,0:0:0:0:
256,192,15372,1,0,0:0:0:0:
256,192,15426,1,0,0:0:0:0:
256,192,15479,1,0,0:0:0:0:
256,192,15586,1,8,0:0:0:0:
256,192,15801,1,4,0:0:0:0:
256,192,16229,1,8,0:0:0:0:
256,192,16444,1,0,0:0:0:0:
256,192,16551,1,8,0:0:0:0:
256,192,16658,1,0,0:0:0:0:
256,192,16872,1,0,0:0:0:0:
256,192,17086,1,8,0:0:0:0:
256,192,17194,1,0,0:0:0:0:
256,192,17301,1,8,0:0:0:0:
256,192,17515,1,0,0:0:0:0:
256,192,17729,1,0,0:0:0:0:
256,192,17944,1,8,0:0:0:0:
256,192,18051,1,8,0:0:0:0:
256,192,18158,1,0,0:0:0:0:
256,192,18265,1,0,0:0:0:0:
256,192,18372,1,8,0:0:0:0:
256,192,18586,1,0,0:0:0:0:
256,192,18801,1,8,0:0:0:0:
256,192,18908,1,0,0:0:0:0:
256,192,19015,1,8,0:0:0:0:
256,192,19229,1,4,0:0:0:0:
256,192,19658,1,8,0:0:0:0:
256,192,19872,1,0,0:0:0:0:
256,192,19979,1,0,0:0:0:0:
256,192,20086,1,8,0:0:0:0:
256,192,20301,1,0,0:0:0:0:
256,192,20515,1,8,0:0:0:0:
256,192,20622,1,0,0:0:0:0:
256,192,20729,1,8,0:0:0:0:
256,192,20944,1,0,0:0:0:0:
256,192,21158,1,0,0:0:0:0:
256,192,21372,1,8,0:0:0:0:
256,192,21479,1,8,0:0:0:0:
256,192,21586,1,8,0:0:0:0:
256,192,21801,1,0,0:0:0:0:
256,192,22015,1,8,0:0:0:0:
256,192,22229,1,8,0:0:0:0:
256,192,22301,1,8,0:0:0:0:
256,192,22372,1,8,0:0:0:0:
256,192,22444,1,0,0:0:0:0:
256,192,22658,1,12,0:0:0:0:
256,192,23086,1,8,0:0:0:0:
256,192,23301,1,0,0:0:0:0:
256,192,23408,1,8,0:0:0:0:
256,192,23622,1,8,0:0:0:0:
256,192,23729,1,0,0:0:0:0:
256,192,23944,1,8,0:0:0:0:
256,192,24158,1,0,0:0:0:0:
256,192,24372,1,12,0:0:0:0:
256,192,24801,1,8,0:0:0:0:
256,192,25015,1,0,0:0:0:0:
256,192,25122,1,0,0:0:0:0:
256,192,25336,1,8,0:0:0:0:
256,192,25444,1,8,0:0:0:0:
256,192,25658,1,0,0:0:0:0:
256,192,25872,1,0,0:0:0:0:
256,192,26086,1,12,0:0:0:0:
256,192,26515,1,8,0:0:0:0:
256,192,26729,1,0,0:0:0:0:
256,192,26836,1,8,0:0:0:0:
256,192,27051,1,8,0:0:0:0:
256,192,27158,1,0,0:0:0:0:
256,192,27265,1,0,0:0:0:0:
256,192,27372,1,8,0:0:0:0:
256,192,27586,1,0,0:0:0:0:
256,192,27801,1,12,0:0:0:0:
256,192,28229,1,0,0:0:0:0:
256,192,28444,1,8,0:0:0:0:
256,192,28551,1,0,0:0:0:0:
256,192,29086,1,8,0:0:0:0:
256,192,29301,1,8,0:0:0:0:
256,192,29515,1,4,0:0:0:0:
256,192,29944,1,8,0:0:0:0:
256,192,30158,1,0,0:0:0:0:
256,192,30265,1,0,0:0:0:0:
256,192,30372,1,8,0:0:0:0:
256,192,30586,1,0,0:0:0:0:
256,192,30801,1,8,0:0:0:0:
256,192,30908,1,0,0:0:0:0:
256,192,31015,1,8,0:0:0:0:
256,192,31229,1,0,0:0:0:0:
256,192,31444,1,8,0:0:0:0:
256,192,31658,1,0,0:0:0:0:
256,192,31765,1,0,0:0:0:0:
256,192,31872,1,8,0:0:0:0:
256,192,31979,1,0,0:0:0:0:
256,192,32086,1,8,0:0:0:0:
256,192,32301,1,0,0:0:0:0:
256,192,32515,1,8,0:0:0:0:
256,192,32622,1,8,0:0:0:0:
256,192,32729,1,8,0:0:0:0:
256,192,32944,1,4,0:0:0:0:
256,192,33372,1,8,0:0:0:0:
256,192,33586,1,0,0:0:0:0:
256,192,33801,1,8,0:0:0:0:
256,192,33908,1,8,0:0:0:0:
256,192,34015,1,0,0:0:0:0:
256,192,34229,1,8,0:0:0:0:
256,192,34336,1,0,0:0:0:0:
256,192,34444,1,8,0:0:0:0:
256,192,34658,1,0,0:0:0:0:
256,192,34872,1,8,0:0:0:0:
256,192,35086,1,0,0:0:0:0:
256,192,35194,1,8,0:0:0:0:
256,192,35301,1,0,0:0:0:0:
256,192,35515,1,8,0:0:0:0:
256,192,35729,1,0,0:0:0:0:
256,192,35944,1,8,0:0:0:0:
256,192,36015,1,8,0:0:0:0:
256,192,36086,1,8,0:0:0:0:
256,192,36158,1,0,0:0:0:0:
256,192,36372,1,12,0:0:0:0:
256,192,36801,1,0,0:0:0:0:
256,192,37015,1,8,0:0:0:0:
256,192,37122,1,8,0:0:0:0:
256,192,37336,1,0,0:0:0:0:
256,192,37444,1,8,0:0:0:0:
256,192,37658,1,0,0:0:0:0:
256,192,37872,1,0,0:0:0:0:
256,192,38086,1,12,0:0:0:0:
256,192,38515,1,0,0:0:0:0:
256,192,38729,1,8,0:0:0:0:
256,192,38836,1,8,0:0:0:0:
256,192,39051,1,0,0:0:0:0:
256,192,39158,1,8,0:0:0:0:
256,192,39372,1,0,0:0:0:0:
256,192,39586,1,0,0:0:0:0:
256,192,39801,1,12,0:0:0:0:
256,192,40229,1,0,0:0:0:0:
256,192,40444,1,8,0:0:0:0:
256,192,40551,1,0,0:0:0:0:
256,192,40765,1,0,0:0:0:0:
256,192,40872,1,8,0:0:0:0:
256,192,40979,1,8,0:0:0:0:
256,192,41086,1,0,0:0:0:0:
256,192,41301,1,0,0:0:0:0:
256,192,41515,1,12,0:0:0:0:
256,192,41944,1,0,0:0:0:0:
256,192,42158,1,8,0:0:0:0:
256,192,42265,1,0,0:0:0:0:
256,192,42801,1,8,0:0:0:0:
256,192,43015,1,0,0:0:0:0:
256,192,43443,1,12,0:0:0:0:
256,192,43657,1,8,0:0:0:0:
256,192,44086,1,8,0:0:0:0:
256,192,44300,1,4,0:0:0:0:
256,192,44729,1,0,0:0:0:0:
256,192,44943,1,8,0:0:0:0:
256,192,45050,1,8,0:0:0:0:
256,192,45157,1,8,0:0:0:0:
256,192,45371,1,0,0:0:0:0:
256,192,45586,1,12,0:0:0:0:
256,192,45800,1,0,0:0:0:0:
256,192,46228,1,8,0:0:0:0:
256,192,46443,1,4,0:0:0:0:
256,192,46657,1,4,0:0:0:0:
256,192,47086,1,12,0:0:0:0:
256,192,47514,1,0,0:0:0:0:
256,192,47728,1,12,0:0:0:0:
256,192,47943,1,8,0:0:0:0:
256,192,48371,1,8,0:0:0:0:
256,192,48586,1,4,0:0:0:0:
256,192,49014,1,0,0:0:0:0:
256,192,49228,1,8,0:0:0:0:
256,192,49336,1,0,0:0:0:0:
256,192,49443,1,8,0:0:0:0:
256,192,49657,1,0,0:0:0:0:
256,192,49871,1,12,0:0:0:0:
256,192,50086,1,0,0:0:0:0:
256,192,50514,1,8,0:0:0:0:
256,192,50728,1,4,0:0:0:0:
256,192,50943,1,4,0:0:0:0:
256,192,51371,1,12,0:0:0:0:
256,192,51800,1,0,0:0:0:0:
256,192,51907,1,0,0:0:0:0:
256,192,52121,1,0,0:0:0:0:
256,192,52228,1,0,0:0:0:0:
256,192,52442,1,8,0:0:0:0:
256,192,52764,1,8,0:0:0:0:
256,192,52871,1,0,0:0:0:0:
256,192,53085,1,8,0:0:0:0:
256,192,53300,1,8,0:0:0:0:
256,192,53514,1,4,0:0:0:0:
256,192,53835,1,8,0:0:0:0:
256,192,53942,1,0,0:0:0:0:
256,192,54156,1,8,0:0:0:0:
256,192,54264,1,0,0:0:0:0:
256,192,54371,1,8,0:0:0:0:
256,192,54478,1,8,0:0:0:0:
256,192,54692,1,0,0:0:0:0:
256,192,54799,1,8,0:0:0:0:
256,192,55014,1,0,0:0:0:0:
256,192,55228,1,8,0:0:0:0:
256,192,55335,1,0,0:0:0:0:
256,192,55549,1,0,0:0:0:0:
256,192,55656,1,8,0:0:0:0:
256,192,55871,1,0,0:0:0:0:
256,192,55978,1,0,0:0:0:0:
256,192,56085,1,8,0:0:0:0:
256,192,56299,1,8,0:0:0:0:
256,192,56513,1,0,0:0:0:0:
256,192,56621,1,0,0:0:0:0:
256,192,56728,1,8,0:0:0:0:
256,192,56781,1,8,0:0:0:0:
256,192,56835,1,8,0:0:0:0:
256,192,56942,1,0,0:0:0:0:
256,192,57263,1,8,0:0:0:0:
256,192,57371,1,0,0:0:0:0:
256,192,57585,1,0,0:0:0:0:
256,192,57692,1,0,0:0:0:0:
256,192,57799,1,8,0:0:0:0:
256,192,58013,1,0,0:0:0:0:
256,192,58121,1,8,0:0:0:0:
256,192,58228,1,0,0:0:0:0:
256,192,58442,1,8,0:0:0:0:
256,192,58549,1,0,0:0:0:0:
256,192,58656,1,8,0:0:0:0:
256,192,58871,1,0,0:0:0:0:
256,192,58978,1,8,0:0:0:0:
256,192,59085,1,0,0:0:0:0:
256,192,59192,1,0,0:0:0:0:
256,192,59299,1,8,0:0:0:0:
256,192,59513,1,0,0:0:0:0:
256,192,59728,1,8,0:0:0:0:
256,192,59835,1,8,0:0:0:0:
256,192,59942,1,0,0:0:0:0:
256,192,59996,1,0,0:0:0:0:
256,192,60049,1,0,0:0:0:0:
256,192,60156,1,8,0:0:0:0:
256,192,60371,1,4,0:0:0:0:
256,192,60692,1,4,0:0:0:0:
256,192,61013,1,4,0:0:0:0:
256,192,61228,1,12,0:0:0:0:
256,192,61549,1,12,0:0:0:0:
256,192,61871,1,12,0:0:0:0:
256,192,62085,1,4,0:0:0:0:
256,192,62406,1,4,0:0:0:0:
256,192,62728,1,4,0:0:0:0:
256,192,62942,1,12,0:0:0:0:
256,192,63263,1,12,0:0:0:0:
256,192,63585,1,12,0:0:0:0:
256,192,63799,1,4,0:0:0:0:
256,192,64013,1,8,0:0:0:0:
256,192,64228,1,0,0:0:0:0:
256,192,64335,1,0,0:0:0:0:
256,192,64442,1,8,0:0:0:0:
256,192,64656,1,0,0:0:0:0:
256,192,64763,1,8,0:0:0:0:
256,192,64978,1,8,0:0:0:0:
256,192,65085,1,0,0:0:0:0:
256,192,65299,1,0,0:0:0:0:
256,192,65513,1,8,0:0:0:0:
256,192,65621,1,0,0:0:0:0:
256,192,65835,1,0,0:0:0:0:
256,192,65942,1,8,0:0:0:0:
256,192,66156,1,0,0:0:0:0:
256,192,66371,1,8,0:0:0:0:
256,192,66478,1,8,0:0:0:0:
256,192,66585,1,0,0:0:0:0:
256,192,66799,1,8,0:0:0:0:
256,192,66871,1,8,0:0:0:0:
256,192,66942,1,8,0:0:0:0:
256,192,67013,1,0,0:0:0:0:
256,192,67228,1,12,0:0:0:0:
256,192,67656,1,0,0:0:0:0:
256,192,67871,1,8,0:0:0:0:
256,192,68085,1,0,0:0:0:0:
256,192,68192,1,0,0:0:0:0:
256,192,68299,1,8,0:0:0:0:
256,192,68406,1,0,0:0:0:0:
256,192,68513,1,8,0:0:0:0:
256,192,68728,1,0,0:0:0:0:
256,192,68942,1,8,0:0:0:0:
256,192,69049,1,8,0:0:0:0:
256,192,69156,1,0,0:0:0:0:
256,192,69263,1,0,0:0:0:0:
256,192,69371,1,8,0:0:0:0:
256,192,69585,1,0,0:0:0:0:
256,192,69799,1,8,0:0:0:0:
256,192,69906,1,0,0:0:0:0:
256,192,70121,1,0,0:0:0:0:
256,192,70228,1,8,0:0:0:0:
256,192,70335,1,8,0:0:0:0:
256,192,70442,1,0,0:0:0:0:
256,192,70656,1,12,0:0:0:0:
256,192,70871,1,0,0:0:0:0:
256,192,71085,1,12,0:0:0:0:
256,192,71406,1,12,0:0:0:0:
256,192,71728,1,12,0:0:0:0:
256,192,71942,1,0,0:0:0:0:
256,192,72156,1,0,0:0:0:0:
256,192,72371,1,12,0:0:0:0:
256,192,72585,1,0,0:0:0:0:
256,192,72799,1,12,0:0:0:0:
256,192,73121,1,12,0:0:0:0:
256,192,73442,1,12,0:0:0:0:
256,192,73656,1,0,0:0:0:0:
256,192,73871,1,8,0:0:0:0:
256,192,74085,1,4,0:0:0:0:
256,192,74513,1,0,0:0:0:0:
256,192,74728,1,8,0:0:0:0:
256,192,74835,1,8,0:0:0:0:
256,192,74942,1,0,0:0:0:0:
256,192,75156,1,0,0:0:0:0:
256,192,75371,1,8,0:0:0:0:
256,192,75478,1,0,0:0:0:0:
256,192,75585,1,8,0:0:0:0:
256,192,75799,1,0,0:0:0:0:
256,192,76013,1,8,0:0:0:0:
256,192,76228,1,0,0:0:0:0:
256,192,76335,1,8,0:0:0:0:
256,192,76442,1,0,0:0:0:0:
256,192,76549,1,0,0:0:0:0:
256,192,76656,1,8,0:0:0:0:
256,192,76871,1,8,0:0:0:0:
256,192,77085,1,0,0:0:0:0:
256,192,77192,1,0,0:0:0:0:
256,192,77299,1,8,0:0:0:0:
256,192,77513,1,4,0:0:0:0:
256,192,77942,1,8,0:0:0:0:
256,192,78156,1,8,0:0:0:0:
256,192,78371,1,0,0:0:0:0:
256,192,78478,1,0,0:0:0:0:
256,192,78585,1,8,0:0:0:0:
256,192,78799,1,8,0:0:0:0:
256,192,78906,1,0,0:0:0:0:
256,192,79013,1,8,0:0:0:0:
256,192,79228,1,0,0:0:0:0:
256,192,79442,1,0,0:0:0:0:
256,192,79656,1,8,0:0:0:0:
256,192,79763,1,8,0:0:0:0:
256,192,79871,1,0,0:0:0:0:
256,192,80085,1,8,0:0:0:0:
256,192,80299,1,0,0:0:0:0:
256,192,80406,1,8,0:0:0:0:
256,192,80513,1,0,0:0:0:0:
256,192,80567,1,0,0:0:0:0:
256,192,80621,1,0,0:0:0:0:
256,192,80728,1,8,0:0:0:0:
256,192,80942,1,4,0:0:0:0:
256,192,81371,1,8,0:0:0:0:
256,192,81585,1,0,0:0:0:0:
256,192,81692,1,8,0:0:0:0:
256,192,81799,1,0,0:0:0:0:
256,192,82013,1,0,0:0:0:0:
256,192,82228,1,8,0:0:0:0:
256,192,82335,1,0,0:0:0:0:
256,192,82442,1,8,0:0:0:0:
256,192,82656,1,0,0:0:0:0:
256,192,82871,1,0,0:0:0:0:
256,192,83085,1,8,0:0:0:0:
256,192,83192,1,8,0:0:0:0:
256,192,83299,1,0,0:0:0:0:
256,192,83406,1,0,0:0:0:0:
256,192,83513,1,8,0:0:0:0:
256,192,83728,1,0,0:0:0:0:
256,192,83942,1,8,0:0:0:0:
256,192,84049,1,0,0:0:0:0:
256,192,84156,1,8,0:0:0:0:
256,192,84371,1,4,0:0:0:0:
256,192,84799,1,8,0:0:0:0:
256,192,85013,1,0,0:0:0:0:
256,192,85121,1,0,0:0:0:0:
256,192,85228,1,8,0:0:0:0:
256,192,85442,1,0,0:0:0:0:
256,192,85656,1,8,0:0:0:0:
256,192,85763,1,0,0:0:0:0:
256,192,85871,1,8,0:0:0:0:
256,192,86085,1,0,0:0:0:0:
256,192,86299,1,0,0:0:0:0:
256,192,86513,1,8,0:0:0:0:
256,192,86621,1,8,0:0:0:0:
256,192,86728,1,8,0:0:0:0:
256,192,86942,1,0,0:0:0:0:
256,192,87156,1,8,0:0:0:0:
256,192,87371,1,8,0:0:0:0:
256,192,87442,1,8,0:0:0:0:
256,192,87513,1,8,0:0:0:0:
256,192,87585,1,0,0:0:0:0:
256,192,87799,1,12,0:0:0:0:
256,192,88228,1,8,0:0:0:0:
256,192,88442,1,0,0:0:0:0:
256,192,88549,1,8,0:0:0:0:
256,192,88763,1,8,0:0:0:0:
256,192,88871,1,0,0:0:0:0:
256,192,89085,1,8,0:0:0:0:
256,192,89299,1,0,0:0:0:0:
256,192,89513,1,12,0:0:0:0:
256,192,89942,1,8,0:0:0:0:
256,192,90156,1,0,0:0:0:0:
256,192,90263,1,0,0:0:0:0:
256,192,90478,1,8,0:0:0:0:
256,192,90585,1,8,0:0:0:0:
256,192,90799,1,0,0:0:0:0:
256,192,91013,1,0,0:0:0:0:
256,192,91228,1,12,0:0:0:0:
256,192,91656,1,8,0:0:0:0:
256,192,91871,1,0,0:0:0:0:
256,192,91978,1,8,0:0:0:0:
256,192,92192,1,8,0:0:0:0:
256,192,92299,1,0,0:0:0:0:
256,192,92406,1,0,0:0:0:0:
256,192,92513,1,8,0:0:0:0:
256,192,92728,1,0,0:0:0:0:
256,192,92942,1,12,0:0:0:0:
256,192,93371,1,0,0:0:0:0:
256,192,93585,1,8,0:0:0:0:
256,192,93692,1,0,0:0:0:0:
256,192,93906,1,8,0:0:0:0:
256,192,94013,1,0,0:0:0:0:
256,192,94228,1,8,0:0:0:0:
256,192,94656,1,4,0:0:0:0:
256,192,95085,1,8,0:0:0:0:
256,192,95299,1,0,0:0:0:0:
256,192,95406,1,0,0:0:0:0:
256,192,95513,1,8,0:0:0:0:
256,192,95728,1,0,0:0:0:0:
256,192,95942,1,8,0:0:0:0:
256,192,96049,1,0,0:0:0:0:
256,192,96156,1,8,0:0:0:0:
256,192,96371,1,0,0:0:0:0:
256,192,96585,1,8,0:0:0:0:
256,192,96799,1,0,0:0:0:0:
256,192,96906,1,0,0:0:0:0:
256,192,97013,1,8,0:0:0:0:
256,192,97121,1,0,0:0:0:0:
256,192,97228,1,8,0:0:0:0:
256,192,97442,1,0,0:0:0:0:
256,192,97656,1,8,0:0:0:0:
256,192,97763,1,8,0:0:0:0:
256,192,97871,1,8,0:0:0:0:
256,192,98085,1,4,0:0:0:0:
256,192,98513,1,8,0:0:0:0:
256,192,98728,1,0,0:0:0:0:
256,192,98942,1,8,0:0:0:0:
256,192,99049,1,8,0:0:0:0:
256,192,99156,1,0,0:0:0:0:
256,192,99371,1,8,0:0:0:0:
256,192,99478,1,0,0:0:0:0:
256,192,99585,1,8,0:0:0:0:
256,192,99799,1,0,0:0:0:0:
256,192,100013,1,8,0:0:0:0:
256,192,100228,1,0,0:0:0:0:
256,192,100335,1,8,0:0:0:0:
256,192,100442,1,0,0:0:0:0:
256,192,100656,1,8,0:0:0:0:
256,192,100871,1,0,0:0:0:0:
256,192,101085,1,8,0:0:0:0:
256,192,101156,1,8,0:0:0:0:
256,192,101228,1,8,0:0:0:0:
256,192,101299,1,0,0:0:0:0:
256,192,101513,1,12,0:0:0:0:
256,192,101942,1,0,0:0:0:0:
256,192,102156,1,8,0:0:0:0:
256,192,102263,1,8,0:0:0:0:
256,192,102478,1,0,0:0:0:0:
256,192,102585,1,8,0:0:0:0:
256,192,102799,1,0,0:0:0:0:
256,192,103013,1,0,0:0:0:0:
256,192,103228,1,12,0:0:0:0:
256,192,103656,1,0,0:0:0:0:
256,192,103871,1,8,0:0:0:0:
256,192,103978,1,8,0:0:0:0:
256,192,104192,1,0,0:0:0:0:
256,192,104299,1,8,0:0:0:0:
256,192,104513,1,0,0:0:0:0:
256,192,104728,1,0,0:0:0:0:
256,192,104942,1,12,0:0:0:0:
256,192,105371,1,0,0:0:0:0:
256,192,105585,1,8,0:0:0:0:
256,192,105692,1,0,0:0:0:0:
256,192,105906,1,0,0:0:0:0:
256,192,106013,1,8,0:0:0:0:
256,192,106121,1,8,0:0:0:0:
256,192,106228,1,0,0:0:0:0:
256,192,106442,1,0,0:0:0:0:
256,192,106656,1,12,0:0:0:0:
256,192,107085,1,0,0:0:0:0:
256,192,107299,1,8,0:0:0:0:
256,192,107406,1,0,0:0:0:0:
256,192,107942,1,8,0:0:0:0:
256,192,108156,1,0,0:0:0:0:
256,192,108585,1,12,0:0:0:0:
256,192,108799,1,8,0:0:0:0:
256,192,109228,1,8,0:0:0:0:
256,192,109442,1,4,0:0:0:0:
256,192,109871,1,0,0:0:0:0:
256,192,110085,1,8,0:0:0:0:
256,192,110192,1,8,0:0:0:0:
256,192,110299,1,8,0:0:0:0:
256,192,110513,1,0,0:0:0:0:
256,192,110728,1,12,0:0:0:0:
256,192,110942,1,0,0:0:0:0:
256,192,111371,1,8,0:0:0:0:
256,192,111585,1,4,0:0:0:0:
256,192,111799,1,4,0:0:0:0:
256,192,112228,1,12,0:0:0:0:
256,192,112656,1,0,0:0:0:0:
256,192,112871,1,12,0:0:0:0:
256,192,113085,1,8,0:0:0:0:
256,192,113513,1,8,0:0:0:0:
256,192,113728,1,4,0:0:0:0:
256,192,114156,1,0,0:0:0:0:
256,192,114370,1,8,0:0:0:0:
256,192,114478,1,0,0:0:0:0:
256,192,114585,1,8,0:0:0:0:
256,192,114799,1,0,0:0:0:0:
256,192,115013,1,12,0:0:0:0:
256,192,115228,1,0,0:0:0:0:
256,192,115656,1,8,0:0:0:0:
256,192,115870,1,4,0:0:0:0:
256,192,116085,1,4,0:0:0:0:
256,192,116513,1,12,0:0:0:0:
256,192,116942,1,0,0:0:0:0:
256,192,117049,1,0,0:0:0:0:
256,192,117263,1,0,0:0:0:0:
256,192,117370,1,0,0:0:0:0:
256,192,117584,1,8,0:0:0:0:
256,192,117906,1,8,0:0:0:0:
256,192,118013,1,0,0:0:0:0:
256,192,118227,1,8,0:0:0:0:
256,192,118442,1,8,0:0:0:0:
256,192,118656,1,4,0:0:0:0:
256,192,118977,1,8,0:0:0:0:
256,192,119084,1,0,0:0:0:0:
256,192,119298,1,8,0:0:0:0:
256,192,119513,1,0,0:0:0:0:
256,192,119620,1,8,0:0:0:0:
256,192,119834,1,8,0:0:0:0:
256,192,119941,1,0,0:0:0:0:
256,192,120048,1,0,0:0:0:0:
256,192,120156,1,8,0:0:0:0:
256,192,120370,1,0,0:0:0:0:
256,192,120477,1,0,0:0:0:0:
256,192,120584,1,8,0:0:0:0:
256,192,120691,1,0,0:0:0:0:
256,192,120798,1,8,0:0:0:0:
256,192,121013,1,0,0:0:0:0:
256,192,121227,1,8,0:0:0:0:
256,192,121334,1,8,0:0:0:0:
256,192,121441,1,0,0:0:0:0:
256,192,121656,1,8,0:0:0:0:
256,192,121763,1,0,0:0:0:0:
256,192,121870,1,8,0:0:0:0:
256,192,121923,1,8,0:0:0:0:
256,192,121977,1,8,0:0:0:0:
256,192,122084,1,0,0:0:0:0:
256,192,122406,1,0,0:0:0:0:
256,192,122513,1,8,0:0:0:0:
256,192,122727,1,0,0:0:0:0:
256,192,122834,1,0,0:0:0:0:
256,192,122941,1,8,0:0:0:0:
256,192,123048,1,0,0:0:0:0:
256,192,123263,1,0,0:0:0:0:
256,192,123370,1,8,0:0:0:0:
256,192,123584,1,0,0:0:0:0:
256,192,123798,1,8,0:0:0:0:
256,192,123906,1,8,0:0:0:0:
256,192,124120,1,0,0:0:0:0:
256,192,124227,1,8,0:0:0:0:
256,192,124441,1,8,0:0:0:0:
256,192,124548,1,8,0:0:0:0:
256,192,124655,1,0,0:0:0:0:
256,192,124870,1,8,0:0:0:0:
256,192,124977,1,8,0:0:0:0:
256,192,125084,1,0,0:0:0:0:
256,192,125138,1,0,0:0:0:0:
256,192,125191,1,0,0:0:0:0:
256,192,125298,1,8,0:0:0:0:
256,192,125513,1,4,0:0:0:0:
256,192,125834,1,4,0:0:0:0:
256,192,126155,1,4,0:0:0:0:
256,192,126370,1,12,0:0:0:0:
256,192,126691,1,12,0:0:0:0:
256,192,127013,1,12,0:0:0:0:
256,192,127227,1,4,0:0:0:0:
256,192,127548,1,4,0:0:0:0:
256,192,127870,1,4,0:0:0:0:
256,192,128084,1,12,0:0:0:0:
256,192,128405,1,12,0:0:0:0:
256,192,128727,1,12,0:0:0:0:
256,192,128941,1,4,0:0:0:0:
256,192,129155,1,8,0:0:0:0:
256,192,129370,1,0,0:0:0:0:
256,192,129477,1,0,0:0:0:0:
256,192,129584,1,8,0:0:0:0:
256,192,129798,1,0,0:0:0:0:
256,192,129905,1,8,0:0:0:0:
256,192,130120,1,8,0:0:0:0:
256,192,130227,1,0,0:0:0:0:
256,192,130441,1,0,0:0:0:0:
256,192,130655,1,8,0:0:0:0:
256,192,130763,1,8,0:0:0:0:
256,192,130977,1,0,0:0:0:0:
256,192,131084,1,8,0:0:0:0:
256,192,131298,1,0,0:0:0:0:
256,192,131513,1,8,0:0:0:0:
256,192,131620,1,8,0:0:0:0:
256,192,131727,1,0,0:0:0:0:
256,192,131941,1,8,0:0:0:0:
256,192,132013,1,8,0:0:0:0:
256,192,132084,1,8,0:0:0:0:
256,192,132155,1,0,0:0:0:0:
256,192,132370,1,12,0:0:0:0:
256,192,132798,1,0,0:0:0:0:
256,192,133013,1,8,0:0:0:0:
256,192,133227,1,0,0:0:0:0:
256,192,133334,1,8,0:0:0:0:
256,192,133441,1,0,0:0:0:0:
256,192,133655,1,8,0:0:0:0:
256,192,133870,1,0,0:0:0:0:
256,192,133977,1,0,0:0:0:0:
256,192,134084,1,8,0:0:0:0:
256,192,134298,1,0,0:0:0:0:
256,192,134513,1,8,0:0:0:0:
256,192,134620,1,0,0:0:0:0:
256,192,134727,1,8,0:0:0:0:
256,192,134941,1,0,0:0:0:0:
256,192,135048,1,8,0:0:0:0:
256,192,135263,1,8,0:0:0:0:
256,192,135370,1,0,0:0:0:0:
256,192,135584,1,0,0:0:0:0:
256,192,135798,1,12,0:0:0:0:
256,192,136013,1,0,0:0:0:0:
256,192,136227,1,12,0:0:0:0:
256,192,136548,1,12,0:0:0:0:
256,192,136870,1,12,0:0:0:0:
256,192,137084,1,0,0:0:0:0:
256,192,137298,1,0,0:0:0:0:
256,192,137513,1,12,0:0:0:0:
256,192,137727,1,0,0:0:0:0:
256,192,137941,1,12,0:0:0:0:
256,192,138263,1,12,0:0:0:0:
256,192,138584,1,12,0:0:0:0:
256,192,138798,1,0,0:0:0:0:
256,192,139013,1,8,0:0:0:0:
256,192,139227,1,4,0:0:0:0:
256,192,139655,1,0,0:0:0:0:
256,192,139870,1,8,0:0:0:0:
256,192,139977,1,0,0:0:0:0:
256,192,140191,1,0,0:0:0:0:
256,192,140298,1,8,0:0:0:0:
256,192,140513,1,0,0:0:0:0:
256,192,140727,1,8,0:0:0:0:
256,192,140941,1,4,0:0:0:0:
256,192,141370,1,0,0:0:0:0:
256,192,141584,1,8,0:0:0:0:
256,192,141691,1,8,0:0:0:0:
256,192,141905,1,0,0:0:0:0:
256,192,142013,1,8,0:0:0:0:
256,192,142227,1,0,0:0:0:0:
256,192,142441,1,8,0:0:0:0:
256,192,142655,1,4,0:0:0:0:
256,192,143084,1,0,0:0:0:0:
256,192,143298,1,8,0:0:0:0:
256,192,143405,1,0,0:0:0:0:
256,192,143620,1,0,0:0:0:0:
256,192,143727,1,8,0:0:0:0:
256,192,143834,1,0,0:0:0:0:
256,192,143941,1,0,0:0:0:0:
256,192,144155,1,8,0:0:0:0:
256,192,144370,1,4,0:0:0:0:
256,192,144584,1,8,0:0:0:0:
256,192,144798,1,8,0:0:0:0:
256,192,145013,1,8,0:0:0:0:
256,192,145120,1,0,0:0:0:0:
256,192,145227,1,8,0:0:0:0:
256,192,145441,1,8,0:0:0:0:
256,192,145655,1,0,0:0:0:0:
256,192,145763,1,0,0:0:0:0:
256,192,145870,1,8,0:0:0:0:
256,192,146084,1,4,0:0:0:0:
256,192,146513,1,0,0:0:0:0:
256,192,146727,1,8,0:0:0:0:
256,192,146834,1,8,0:0:0:0:
256,192,146941,1,0,0:0:0:0:
256,192,147155,1,8,0:0:0:0:
256,192,147263,1,0,0:0:0:0:
256,192,147477,1,0,0:0:0:0:
256,192,147584,1,8,0:0:0:0:
256,192,147691,1,8,0:0:0:0:
256,192,147798,1,0,0:0:0:0:
256,192,148013,1,8,0:0:0:0:
256,192,148227,1,0,0:0:0:0:
256,192,148441,1,8,0:0:0:0:
256,192,148548,1,0,0:0:0:0:
256,192,148655,1,8,0:0:0:0:
256,192,148870,1,0,0:0:0:0:
256,192,149084,1,8,0:0:0:0:
256,192,149191,1,0,0:0:0:0:
256,192,149298,1,8,0:0:0:0:
256,192,149352,1,8,0:0:0:0:
256,192,149405,1,8,0:0:0:0:
256,192,149513,1,0,0:0:0:0:
256,192,149941,1,0,0:0:0:0:
256,192,150155,1,0,0:0:0:0:
256,192,150370,1,8,0:0:0:0:
256,192,150477,1,0,0:0:0:0:
256,192,150691,1,0,0:0:0:0:
256,192,150798,1,8,0:0:0:0:
256,192,151013,1,0,0:0:0:0:
256,192,151120,1,0,0:0:0:0:
256,192,151227,1,8,0:0:0:0:
256,192,151441,1,0,0:0:0:0:
256,192,151655,1,8,0:0:0:0:
256,192,151763,1,0,0:0:0:0:
256,192,151870,1,8,0:0:0:0:
256,192,152084,1,0,0:0:0:0:
256,192,152191,1,8,0:0:0:0:
256,192,152298,1,0,0:0:0:0:
256,192,152352,1,0,0:0:0:0:
256,192,152405,1,0,0:0:0:0:
256,192,152513,1,8,0:0:0:0:
256,192,152727,1,0,0:0:0:0:
256,192,152941,1,12,0:0:0:0:
256,192,153263,1,0,0:0:0:0:
256,192,153370,1,8,0:0:0:0:
256,192,153584,1,0,0:0:0:0:
256,192,153798,1,12,0:0:0:0:
256,192,154120,1,8,0:0:0:0:
256,192,154227,1,0,0:0:0:0:
256,192,154441,1,0,0:0:0:0:
256,192,154655,1,12,0:0:0:0:
256,192,154977,1,0,0:0:0:0:
256,192,155084,1,8,0:0:0:0:
256,192,155191,1,8,0:0:0:0:
256,192,155298,1,0,0:0:0:0:
256,192,155513,1,12,0:0:0:0:
256,192,155834,1,8,0:0:0:0:
256,192,155941,1,0,0:0:0:0:
256,192,156155,1,0,0:0:0:0:
256,192,156370,1,12,0:0:0:0:
256,192,156798,1,8,0:0:0:0:
256,192,157013,1,0,0:0:0:0:
256,192,157227,1,8,0:0:0:0:
256,192,157334,1,0,0:0:0:0:
256,192,157548,1,0,0:0:0:0:
256,192,157655,1,8,0:0:0:0:
256,192,157870,1,0,0:0:0:0:
256,192,157977,1,0,0:0:0:0:
256,192,158084,1,8,0:0:0:0:
256,192,158298,1,8,0:0:0:0:
256,192,158513,1,8,0:0:0:0:
256,192,158727,1,8,0:0:0:0:
256,192,158941,1,0,0:0:0:0:
256,192,159048,1,0,0:0:0:0:
256,192,159155,1,8,0:0:0:0:
256,192,159370,1,0,0:0:0:0:
256,192,159441,1,0,0:0:0:0:
256,192,159513,1,0,0:0:0:0:
256,192,159584,1,8,0:0:0:0:
256,192,159798,1,4,0:0:0:0:
256,192,160655,1,8,0:0:0:0:
256,192,161084,1,0,0:0:0:0:
256,192,161298,1,8,0:0:0:0:
256,192,161513,1,0,0:0:0:0:
256,192,161727,1,12,0:0:0:0:
256,192,161941,1,8,0:0:0:0:
256,192,162370,1,8,0:0:0:0:
256,192,162584,1,4,0:0:0:0:
256,192,163013,1,0,0:0:0:0:
256,192,163227,1,8,0:0:0:0:
256,192,163334,1,8,0:0:0:0:
256,192,163441,1,8,0:0:0:0:
256,192,163655,1,0,0:0:0:0:
256,192,163870,1,12,0:0:0:0:
256,192,164084,1,0,0:0:0:0:
256,192,164513,1,8,0:0:0:0:
256,192,164727,1,4,0:0:0:0:
256,192,164941,1,4,0:0:0:0:
256,192,165370,1,12,0:0:0:0:
256,192,165798,1,0,0:0:0:0:
256,192,166013,1,12,0:0:0:0:
256,192,166227,1,8,0:0:0:0:
256,192,166655,1,8,0:0:0:0:
256,192,166870,1,4,0:0:0:0:
256,192,167298,1,0,0:0:0:0:
256,192,167513,1,8,0:0:0:0:
256,192,167620,1,0,0:0:0:0:
256,192,167727,1,8,0:0:0:0:
256,192,167941,1,0,0:0:0:0:
256,192,168155,1,12,0:0:0:0:
256,192,168370,1,0,0:0:0:0:
256,192,168798,1,8,0:0:0:0:
256,192,169013,1,4,0:0:0:0:
256,192,169227,1,4,0:0:0:0:
256,192,169655,1,12,0:0:0:0:
256,192,170084,1,0,0:0:0:0:
256,192,170191,1,0,0:0:0:0:
256,192,170405,1,0,0:0:0:0:
256,192,170512,1,0,0:0:0:0:
256,192,170726,1,8,0:0:0:0:
256,192,171048,1,8,0:0:0:0:
256,192,171155,1,0,0:0:0:0:
256,192,171369,1,8,0:0:0:0:
256,192,171584,1,8,0:0:0:0:
256,192,171798,1,4,0:0:0:0:
256,192,173512,1,4,0:0:0:0:
256,192,175226,1,4,0:0:0:0:
256,192,175655,1,8,0:0:0:0:
256,192,176083,1,0,0:0:0:0:
256,192,176512,1,8,0:0:0:0:
256,192,176940,1,4,0:0:0:0:
256,192,177369,1,8,0:0:0:0:
256,192,177798,1,0,0:0:0:0:
256,192,178226,1,8,0:0:0:0:
256,192,178440,1,8,0:0:0:0:
256,192,178655,1,4,0:0:0:0:
256,192,178976,1,4,0:0:0:0:
256,192,179298,1,4,0:0:0:0:
256,192,179512,1,12,0:0:0:0:
256,192,179833,1,12,0:0:0:0:
256,192,180155,1,12,0:0:0:0:
256,192,180369,1,4,0:0:0:0:
256,192,180690,1,4,0:0:0:0:
256,192,181012,1,4,0:0:0:0:
256,192,181226,1,12,0:0:0:0:
256,192,181548,1,12,0:0:0:0:
256,192,181869,1,12,0:0:0:0:
256,192,182083,1,4,0:0:0:0:
256,192,182512,1,8,0:0:0:0:
256,192,182726,1,0,0:0:0:0:
256,192,182940,1,8,0:0:0:0:
256,192,183262,1,0,0:0:0:0:
256,192,183369,1,8,0:0:0:0:
256,192,183583,1,0,0:0:0:0:
256,192,183797,1,8,0:0:0:0:
256,192,183905,1,0,0:0:0:0:
256,192,184119,1,0,0:0:0:0:
256,192,184226,1,8,0:0:0:0:
256,192,184440,1,8,0:0:0:0:
256,192,184655,1,0,0:0:0:0:
256,192,184762,1,0,0:0:0:0:
256,192,184869,1,8,0:0:0:0:
256,192,185083,1,0,0:0:0:0:
256,192,185155,1,0,0:0:0:0:
256,192,185226,1,0,0:0:0:0:
256,192,185297,1,8,0:0:0:0:
256,192,185512,1,4,0:0:0:0:
256,192,185833,1,8,0:0:0:0:
256,192,185940,1,0,0:0:0:0:
256,192,186155,1,8,0:0:0:0:
256,192,186262,1,0,0:0:0:0:
256,192,186369,1,8,0:0:0:0:
256,192,186476,1,8,0:0:0:0:
256,192,186690,1,0,0:0:0:0:
256,192,186797,1,8,0:0:0:0:
256,192,187012,1,0,0:0:0:0:
256,192,187226,1,8,0:0:0:0:
256,192,187333,1,0,0:0:0:0:
256,192,187547,1,0,0:0:0:0:
256,192,187655,1,8,0:0:0:0:
256,192,187869,1,0,0:0:0:0:
256,192,187976,1,0,0:0:0:0:
256,192,188083,1,8,0:0:0:0:
256,192,188297,1,8,0:0:0:0:
256,192,188512,1,0,0:0:0:0:
256,192,188619,1,0,0:0:0:0:
256,192,188726,1,8,0:0:0:0:
256,192,188780,1,8,0:0:0:0:
256,192,188833,1,8,0:0:0:0:
256,192,188940,1,0,0:0:0:0:
256,192,189262,1,8,0:0:0:0:
256,192,189369,1,0,0:0:0:0:
256,192,189583,1,0,0:0:0:0:
256,192,189690,1,0,0:0:0:0:
256,192,189797,1,8,0:0:0:0:
256,192,190012,1,0,0:0:0:0:
256,192,190119,1,8,0:0:0:0:
256,192,190226,1,0,0:0:0:0:
256,192,190440,1,8,0:0:0:0:
256,192,190547,1,0,0:0:0:0:
256,192,190655,1,8,0:0:0:0:
256,192,190869,1,0,0:0:0:0:
256,192,190976,1,8,0:0:0:0:
256,192,191083,1,0,0:0:0:0:
256,192,191190,1,0,0:0:0:0:
256,192,191297,1,8,0:0:0:0:
256,192,191512,1,0,0:0:0:0:
256,192,191726,1,8,0:0:0:0:
256,192,191833,1,8,0:0:0:0:
256,192,191940,1,0,0:0:0:0:
256,192,191994,1,0,0:0:0:0:
256,192,192047,1,0,0:0:0:0:
256,192,192155,1,8,0:0:0:0:
256,192,192369,1,4,0:0:0:0:
256,192,192690,1,4,0:0:0:0:
256,192,193012,1,4,0:0:0:0:
256,192,193226,1,12,0:0:0:0:
256,192,193547,1,12,0:0:0:0:
256,192,193869,1,12,0:0:0:0:
256,192,194083,1,4,0:0:0:0:
256,192,194405,1,4,0:0:0:0:
256,192,194726,1,4,0:0:0:0:
256,192,194940,1,12,0:0:0:0:
256,192,195262,1,12,0:0:0:0:
256,192,195583,1,12,0:0:0:0:
256,192,195797,1,4,0:0:0:0:
256,192,196012,1,8,0:0:0:0:
256,192,196226,1,0,0:0:0:0:
256,192,196333,1,0,0:0:0:0:
256,192,196440,1,8,0:0:0:0:
256,192,196655,1,0,0:0:0:0:
256,192,196762,1,8,0:0:0:0:
256,192,196976,1,8,0:0:0:0:
256,192,197083,1,0,0:0:0:0:
256,192,197297,1,0,0:0:0:0:
256,192,197512,1,8,0:0:0:0:
256,192,197619,1,0,0:0:0:0:
256,192,197833,1,0,0:0:0:0:
256,192,197940,1,8,0:0:0:0:
256,192,198155,1,0,0:0:0:0:
256,192,198369,1,8,0:0:0:0:
256,192,198476,1,8,0:0:0:0:
256,192,198583,1,0,0:0:0:0:
256,192,198797,1,8,0:0:0:0:
256,192,198869,1,8,0:0:0:0:
256,192,198940,1,8,0:0:0:0:
256,192,199012,1,0,0:0:0:0:
256,192,199226,1,12,0:0:0:0:
256,192,199655,1,0,0:0:0:0:
256,192,199869,1,8,0:0:0:0:
256,192,200083,1,0,0:0:0:0:
256,192,200190,1,0,0:0:0:0:
256,192,200297,1,8,0:0:0:0:
256,192,200405,1,0,0:0:0:0:
256,192,200512,1,8,0:0:0:0:
256,192,200726,1,0,0:0:0:0:
256,192,200940,1,8,0:0:0:0:
256,192,201047,1,8,0:0:0:0:
256,192,201155,1,0,0:0:0:0:
256,192,201262,1,0,0:0:0:0:
256,192,201369,1,8,0:0:0:0:
256,192,201583,1,0,0:0:0:0:
256,192,201797,1,8,0:0:0:0:
256,192,201905,1,0,0:0:0:0:
256,192,202119,1,0,0:0:0:0:
256,192,202226,1,8,0:0:0:0:
256,192,202333,1,8,0:0:0:0:
256,192,202440,1,0,0:0:0:0:
256,192,202655,1,12,0:0:0:0:
256,192,202869,1,0,0:0:0:0:
256,192,203083,1,12,0:0:0:0:
256,192,203405,1,12,0:0:0:0:
256,192,203726,1,12,0:0:0:0:
256,192,203940,1,0,0:0:0:0:
256,192,204155,1,0,0:0:0:0:
256,192,204369,1,12,0:0:0:0:
256,192,204583,1,0,0:0:0:0:
256,192,204797,1,12,0:0:0:0:
256,192,205119,1,12,0:0:0:0:
256,192,205440,1,12,0:0:0:0:
256,192,205655,1,0,0:0:0:0:
256,192,205869,1,8,0:0:0:0:
256,192,206083,1,4,0:0:0:0:
256,192,206512,1,8,0:0:0:0:
256,192,206726,1,0,0:0:0:0:
256,192,206833,1,8,0:0:0:0:
256,192,207047,1,8,0:0:0:0:
256,192,207155,1,0,0:0:0:0:
256,192,207262,1,0,0:0:0:0:
256,192,207369,1,8,0:0:0:0:
256,192,207583,1,0,0:0:0:0:
256,192,207797,1,8,0:0:0:0:
256,192,208012,1,0,0:0:0:0:
256,192,208119,1,0,0:0:0:0:
256,192,208226,1,8,0:0:0:0:
256,192,208440,1,0,0:0:0:0:
256,192,208547,1,8,0:0:0:0:
256,192,208762,1,8,0:0:0:0:
256,192,208869,1,0,0:0:0:0:
256,192,209083,1,8,0:0:0:0:
256,192,209190,1,0,0:0:0:0:
256,192,209297,1,8,0:0:0:0:
256,192,209512,1,4,0:0:0:0:
256,192,209940,1,8,0:0:0:0:
256,192,210155,1,0,0:0:0:0:
256,192,210262,1,8,0:0:0:0:
256,192,210476,1,8,0:0:0:0:
256,192,210583,1,0,0:0:0:0:
256,192,210797,1,8,0:0:0:0:
256,192,210905,1,0,0:0:0:0:
256,192,211012,1,8,0:0:0:0:
256,192,211226,1,0,0:0:0:0:
256,192,211440,1,8,0:0:0:0:
256,192,211547,1,8,0:0:0:0:
256,192,211655,1,0,0:0:0:0:
256,192,211869,1,8,0:0:0:0:
256,192,211976,1,0,0:0:0:0:
256,192,212190,1,0,0:0:0:0:
256,192,212297,1,8,0:0:0:0:
256,192,212512,1,0,0:0:0:0:
256,192,212619,1,0,0:0:0:0:
256,192,212726,1,8,0:0:0:0:
256,192,212940,1,4,0:0:0:0:
256,192,213369,1,0,0:0:0:0:
256,192,213583,1,8,0:0:0:0:
256,192,213690,1,0,0:0:0:0:
256,192,213905,1,0,0:0:0:0:
256,192,214012,1,8,0:0:0:0:
256,192,214119,1,8,0:0:0:0:
256,192,214226,1,0,0:0:0:0:
256,192,214440,1,8,0:0:0:0:
256,192,214655,1,0,0:0:0:0:
256,192,214869,1,8,0:0:0:0:
256,192,214976,1,0,0:0:0:0:
256,192,215083,1,8,0:0:0:0:
256,192,215297,1,0,0:0:0:0:
256,192,215405,1,0,0:0:0:0:
256,192,215619,1,8,0:0:0:0:
256,192,215726,1,0,0:0:0:0:
256,192,215940,1,8,0:0:0:0:
256,192,216047,1,0,0:0:0:0:
256,192,216155,1,8,0:0:0:0:
256,192,216369,1,4,0:0:0:0:
256,192,216797,1,8,0:0:0:0:
256,192,217012,1,0,0:0:0:0:
256,192,217119,1,8,0:0:0:0:
256,192,217333,1,8,0:0:0:0:
256,192,217440,1,0,0:0:0:0:
256,192,217655,1,8,0:0:0:0:
256,192,217762,1,8,0:0:0:0:
256,192,217869,1,0,0:0:0:0:
256,192,218083,1,8,0:0:0:0:
256,192,218297,1,0,0:0:0:0:
256,192,218405,1,8,0:0:0:0:
256,192,218512,1,0,0:0:0:0:
256,192,218726,1,8,0:0:0:0:
256,192,218833,1,8,0:0:0:0:
256,192,219047,1,0,0:0:0:0:
256,192,219155,1,8,0:0:0:0:
256,192,219369,1,0,0:0:0:0:
256,192,219440,1,0,0:0:0:0:
256,192,219512,1,0,0:0:0:0:
256,192,219583,1,8,0:0:0:0:
256,192,219798,1,4,0:0:0:0:
