osu file format v14

[General]
AudioFilename: audio.mp3
AudioLeadIn: 0
PreviewTime: 53086
Countdown: 0
SampleSet: Normal
StackLeniency: 0.7
Mode: 1
LetterboxInBreaks: 0
WidescreenStoryboard: 1

[Editor]
DistanceSpacing: 1.5
BeatDivisor: 4
GridSize: 32
TimelineZoom: 2.200001

[Metadata]
Title:The Creator
TitleUnicode:The Creator
Artist:Yousei Teikoku
ArtistUnicode:妖精帝國
Creator:ler1211
Version:Kantan
Source:未来日記
Tags:yassu- Mirai Nikki Yōsei Teikoku PAX VESANIA LACA-15285 oad ova ending ed YUI 橘尭葉 Takaha Tachibana Das Feenreich japanese rock jrock j-rock
BeatmapID:3737597
BeatmapSetID:1798859

[Difficulty]
HPDrainRate:7.5
CircleSize:5
OverallDifficulty:3
ApproachRate:5
SliderMultiplier:1
SliderTickRate:1

[Events]
//Background and Video events
0,0,"yuno.jpg",0,0
//Break Periods
//Storyboard Layer 0 (Background)
//Storyboard Layer 1 (Fail)
//Storyboard Layer 2 (Pass)
//Storyboard Layer 3 (Foreground)
//Storyboard Layer 4 (Overlay)
//Storyboard Sound Samples

[TimingPoints]
373,214.285714285714,8,1,0,80,1,8
2087,214.285714285714,4,1,0,80,1,0
2087,-100,4,1,0,80,0,0
8890,-100,4,1,0,100,0,0
22765,-100,4,1,0,80,0,0
29462,-100,4,1,0,100,0,0
36479,-100,4,1,0,80,0,0
43229,214.285714285714,5,1,0,90,1,0
43229,-100,5,1,0,90,0,0
43336,-100,5,1,0,90,0,0
51800,214.285714285714,4,1,0,90,1,0
53514,214.285714285714,4,1,0,100,1,1
74085,-100,4,1,0,100,0,0
87907,-100,4,1,0,80,0,0
94550,-100,4,1,0,100,0,0
101621,-100,4,1,0,80,0,0
108371,214.285714285714,5,1,0,90,1,0
108371,-100,5,1,0,90,0,0
108478,-100,5,1,0,90,0,0
116942,214.285714285714,4,1,0,90,1,0
118656,214.285714285714,4,1,0,100,1,1
139227,-100,4,1,0,100,0,0
139334,-100,4,1,0,90,0,0
146084,-100,4,1,0,100,0,1
159798,-100,4,1,0,100,0,0
160548,-100,4,1,0,80,0,0
161513,214.285714285714,5,1,0,90,1,0
170084,214.285714285714,4,1,0,90,1,0
171798,214.285714285714,4,1,0,90,1,0
172012,-100,4,1,0,80,0,0
178601,-100,4,1,0,90,0,0
185512,-100,4,1,0,100,0,1
206083,-100,4,1,0,100,0,0

[HitObjects]
256,192,2087,5,12,0:0:0:0:
256,192,3801,1,0,0:0:0:0:
256,192,5086,1,0,0:0:0:0:
256,192,5515,1,12,0:0:0:0:
256,192,7229,1,8,0:0:0:0:
256,192,8944,1,4,0:0:0:0:
256,192,9372,1,8,0:0:0:0:
256,192,10658,1,0,0:0:0:0:
256,192,11086,1,8,0:0:0:0:
256,192,11944,1,8,0:0:0:0:
256,192,12372,1,4,0:0:0:0:
256,192,13229,1,8,0:0:0:0:
256,192,14086,1,0,0:0:0:0:
256,192,14515,1,8,0:0:0:0:
256,192,15372,1,0,0:0:0:0:
256,192,15801,1,4,0:0:0:0:
256,192,16658,1,8,0:0:0:0:
256,192,17515,1,0,0:0:0:0:
256,192,17944,1,8,0:0:0:0:
256,192,18801,1,8,0:0:0:0:
256,192,19229,1,4,0:0:0:0:
256,192,20086,1,8,0:0:0:0:
256,192,20944,1,0,0:0:0:0:
256,192,21372,1,8,0:0:0:0:
256,192,22229,1,0,0:0:0:0:
256,192,22658,1,12,0:0:0:0:
256,192,23944,1,0,0:0:0:0:
256,192,24372,1,12,0:0:0:0:
256,192,25658,1,8,0:0:0:0:
256,192,26086,1,12,0:0:0:0:
256,192,27372,1,0,0:0:0:0:
256,192,27801,1,12,0:0:0:0:
256,192,29086,1,8,0:0:0:0:
256,192,29515,1,4,0:0:0:0:
256,192,30372,1,8,0:0:0:0:
256,192,31229,1,0,0:0:0:0:
256,192,31658,1,8,0:0:0:0:
256,192,32515,1,8,0:0:0:0:
256,192,32944,1,4,0:0:0:0:
256,192,33801,1,8,0:0:0:0:
256,192,34658,1,0,0:0:0:0:
256,192,35086,1,8,0:0:0:0:
256,192,35944,1,0,0:0:0:0:
256,192,36372,1,12,0:0:0:0:
256,192,37658,1,0,0:0:0:0:
256,192,38086,1,12,0:0:0:0:
256,192,39372,1,8,0:0:0:0:
256,192,39801,1,12,0:0:0:0:
256,192,41086,1,0,0:0:0:0:
256,192,41515,1,12,0:0:0:0:
256,192,42801,1,0,0:0:0:0:
256,192,43443,1,12,0:0:0:0:
256,192,44300,1,4,0:0:0:0:
256,192,45586,1,12,0:0:0:0:
256,192,46443,1,4,0:0:0:0:
256,192,47086,1,12,0:0:0:0:
256,192,47728,1,12,0:0:0:0:
256,192,48586,1,4,0:0:0:0:
256,192,49871,1,12,0:0:0:0:
256,192,50728,1,4,0:0:0:0:
256,192,51371,1,12,0:0:0:0:
256,192,51800,1,0,0:0:0:0:
256,192,53514,1,4,0:0:0:0:
256,192,54371,1,8,0:0:0:0:
256,192,55228,1,0,0:0:0:0:
256,192,55871,1,8,0:0:0:0:
256,192,56513,1,0,0:0:0:0:
256,192,56942,1,8,0:0:0:0:
256,192,57799,1,0,0:0:0:0:
256,192,58656,1,8,0:0:0:0:
256,192,59299,1,0,0:0:0:0:
256,192,59942,1,8,0:0:0:0:
256,192,60371,1,4,0:0:0:0:
256,192,61228,1,12,0:0:0:0:
256,192,62085,1,4,0:0:0:0:
256,192,62942,1,12,0:0:0:0:
256,192,63799,1,4,0:0:0:0:
256,192,64656,1,8,0:0:0:0:
256,192,65513,1,0,0:0:0:0:
256,192,66156,1,8,0:0:0:0:
256,192,66799,1,0,0:0:0:0:
256,192,67228,1,12,0:0:0:0:
256,192,68085,1,0,0:0:0:0:
256,192,68513,1,0,0:0:0:0:
256,192,68942,1,8,0:0:0:0:
256,192,69799,1,0,0:0:0:0:
256,192,70656,1,12,0:0:0:0:
256,192,71085,1,4,0:0:0:0:
256,192,72371,1,12,0:0:0:0:
256,192,72799,1,12,0:0:0:0:
256,192,74085,1,4,0:0:0:0:
256,192,74513,1,8,0:0:0:0:
256,192,75799,1,0,0:0:0:0:
256,192,76228,1,8,0:0:0:0:
256,192,77085,1,8,0:0:0:0:
256,192,77513,1,4,0:0:0:0:
256,192,78371,1,8,0:0:0:0:
256,192,79228,1,0,0:0:0:0:
256,192,79656,1,8,0:0:0:0:
256,192,80513,1,0,0:0:0:0:
256,192,80942,1,4,0:0:0:0:
256,192,81799,1,8,0:0:0:0:
256,192,82656,1,0,0:0:0:0:
256,192,83085,1,8,0:0:0:0:
256,192,83942,1,8,0:0:0:0:
256,192,84371,1,4,0:0:0:0:
256,192,85228,1,8,0:0:0:0:
256,192,86085,1,0,0:0:0:0:
256,192,86513,1,8,0:0:0:0:
256,192,87371,1,0,0:0:0:0:
256,192,87799,1,12,0:0:0:0:
256,192,89085,1,0,0:0:0:0:
256,192,89513,1,12,0:0:0:0:
256,192,90799,1,8,0:0:0:0:
256,192,91228,1,12,0:0:0:0:
256,192,92513,1,0,0:0:0:0:
256,192,92942,1,12,0:0:0:0:
256,192,94228,1,8,0:0:0:0:
256,192,94656,1,4,0:0:0:0:
256,192,95513,1,8,0:0:0:0:
256,192,96371,1,0,0:0:0:0:
256,192,96799,1,8,0:0:0:0:
256,192,97656,1,8,0:0:0:0:
256,192,98085,1,4,0:0:0:0:
256,192,98942,1,8,0:0:0:0:
256,192,99799,1,0,0:0:0:0:
256,192,100228,1,8,0:0:0:0:
256,192,101085,1,0,0:0:0:0:
256,192,101513,1,12,0:0:0:0:
256,192,102799,1,0,0:0:0:0:
256,192,103228,1,12,0:0:0:0:
256,192,104513,1,8,0:0:0:0:
256,192,104942,1,12,0:0:0:0:
256,192,106228,1,0,0:0:0:0:
256,192,106656,1,12,0:0:0:0:
256,192,107942,1,0,0:0:0:0:
256,192,108585,1,12,0:0:0:0:
256,192,109442,1,4,0:0:0:0:
256,192,110728,1,12,0:0:0:0:
256,192,111585,1,4,0:0:0:0:
256,192,112228,1,12,0:0:0:0:
256,192,112871,1,12,0:0:0:0:
256,192,113728,1,4,0:0:0:0:
256,192,115013,1,12,0:0:0:0:
256,192,115870,1,4,0:0:0:0:
256,192,116513,1,12,0:0:0:0:
256,192,116942,1,0,0:0:0:0:
256,192,118656,1,4,0:0:0:0:
256,192,119513,1,8,0:0:0:0:
256,192,120370,1,0,0:0:0:0:
256,192,121013,1,8,0:0:0:0:
256,192,121656,1,0,0:0:0:0:
256,192,122084,1,8,0:0:0:0:
256,192,122941,1,0,0:0:0:0:
256,192,123798,1,8,0:0:0:0:
256,192,124441,1,0,0:0:0:0:
256,192,125084,1,8,0:0:0:0:
256,192,125513,1,4,0:0:0:0:
256,192,126370,1,12,0:0:0:0:
256,192,127227,1,4,0:0:0:0:
256,192,128084,1,12,0:0:0:0:
256,192,128941,1,4,0:0:0:0:
256,192,129798,1,8,0:0:0:0:
256,192,130655,1,0,0:0:0:0:
256,192,131298,1,8,0:0:0:0:
256,192,131941,1,0,0:0:0:0:
256,192,132370,1,12,0:0:0:0:
256,192,133227,1,0,0:0:0:0:
256,192,133655,1,8,0:0:0:0:
256,192,134084,1,0,0:0:0:0:
256,192,134941,1,0,0:0:0:0:
256,192,135798,1,12,0:0:0:0:
256,192,136227,1,4,0:0:0:0:
256,192,137513,1,12,0:0:0:0:
256,192,137941,1,12,0:0:0:0:
256,192,139227,1,4,0:0:0:0:
256,192,139870,1,8,0:0:0:0:
256,192,140298,1,8,0:0:0:0:
256,192,140941,1,4,0:0:0:0:
256,192,141584,1,8,0:0:0:0:
256,192,142013,1,8,0:0:0:0:
256,192,142655,1,4,0:0:0:0:
256,192,143298,1,8,0:0:0:0:
256,192,143727,1,8,0:0:0:0:
256,192,144370,1,4,0:0:0:0:
256,192,145227,1,0,0:0:0:0:
256,192,145655,1,8,0:0:0:0:
256,192,146084,1,4,0:0:0:0:
256,192,146727,1,8,0:0:0:0:
256,192,147798,1,0,0:0:0:0:
256,192,148441,1,8,0:0:0:0:
256,192,149084,1,8,0:0:0:0:
256,192,149513,1,0,0:0:0:0:
256,192,150370,1,8,0:0:0:0:
256,192,151227,1,0,0:0:0:0:
256,192,152084,1,8,0:0:0:0:
256,192,152941,1,12,0:0:0:0:
256,192,153798,1,4,0:0:0:0:
256,192,154655,1,12,0:0:0:0:
256,192,155513,1,4,0:0:0:0:
256,192,156370,1,12,0:0:0:0:
256,192,157227,1,0,0:0:0:0:
256,192,158084,1,8,0:0:0:0:
256,192,158941,1,0,0:0:0:0:
256,192,159370,1,8,0:0:0:0:
256,192,159798,1,4,0:0:0:0:
256,192,160655,1,8,0:0:0:0:
256,192,161298,1,0,0:0:0:0:
256,192,161727,1,12,0:0:0:0:
256,192,162584,1,4,0:0:0:0:
256,192,163870,1,12,0:0:0:0:
256,192,164727,1,4,0:0:0:0:
256,192,165370,1,12,0:0:0:0:
256,192,166013,1,12,0:0:0:0:
256,192,166870,1,4,0:0:0:0:
256,192,168155,1,12,0:0:0:0:
256,192,169013,1,4,0:0:0:0:
256,192,169655,1,12,0:0:0:0:
256,192,170084,1,0,0:0:0:0:
256,192,171798,1,4,0:0:0:0:
256,192,173512,1,0,0:0:0:0:
256,192,175226,1,0,0:0:0:0:
256,192,176940,1,0,0:0:0:0:
256,192,178226,1,8,0:0:0:0:
256,192,178655,1,4,0:0:0:0:
256,192,179512,1,12,0:0:0:0:
256,192,180369,1,4,0:0:0:0:
256,192,181226,1,12,0:0:0:0:
256,192,182083,1,4,0:0:0:0:
256,192,182940,1,8,0:0:0:0:
256,192,183797,1,8,0:0:0:0:
256,192,184655,1,0,0:0:0:0:
256,192,185083,1,8,0:0:0:0:
256,192,185512,1,4,0:0:0:0:
256,192,186369,1,8,0:0:0:0:
256,192,187226,1,0,0:0:0:0:
256,192,187869,1,8,0:0:0:0:
256,192,188512,1,0,0:0:0:0:
256,192,188940,1,8,0:0:0:0:
256,192,189797,1,0,0:0:0:0:
256,192,190655,1,8,0:0:0:0:
256,192,191297,1,0,0:0:0:0:
256,192,191940,1,8,0:0:0:0:
256,192,192369,1,4,0:0:0:0:
256,192,193226,1,12,0:0:0:0:
256,192,194083,1,4,0:0:0:0:
256,192,194940,1,12,0:0:0:0:
256,192,195797,1,4,0:0:0:0:
256,192,196655,1,8,0:0:0:0:
256,192,197512,1,0,0:0:0:0:
256,192,198155,1,8,0:0:0:0:
256,192,198797,1,0,0:0:0:0:
256,192,199226,1,12,0:0:0:0:
256,192,200083,1,0,0:0:0:0:
256,192,200512,1,8,0:0:0:0:
256,192,200940,1,0,0:0:0:0:
256,192,201797,1,0,0:0:0:0:
256,192,202655,1,12,0:0:0:0:
256,192,203083,1,4,0:0:0:0:
256,192,204369,1,12,0:0:0:0:
256,192,204797,1,12,0:0:0:0:
256,192,206083,1,4,0:0:0:0:
256,192,207369,1,8,0:0:0:0:
256,192,208012,1,0,0:0:0:0:
256,192,208440,1,0,0:0:0:0:
256,192,209083,1,8,0:0:0:0:
256,192,209512,1,4,0:0:0:0:
256,192,210797,1,0,0:0:0:0:
256,192,211440,1,8,0:0:0:0:
256,192,211869,1,0,0:0:0:0:
256,192,212512,1,8,0:0:0:0:
256,192,212940,1,4,0:0:0:0:
256,192,214226,1,8,0:0:0:0:
256,192,214869,1,0,0:0:0:0:
256,192,215297,1,0,0:0:0:0:
256,192,215940,1,8,0:0:0:0:
256,192,216369,1,4,0:0:0:0:
256,192,217655,1,0,0:0:0:0:
256,192,218297,1,8,0:0:0:0:
256,192,218726,1,0,0:0:0:0:
256,192,219369,1,8,0:0:0:0:
256,192,219798,1,4,0:0:0:0:
