osu file format v14

[General]
AudioFilename: audio.mp3
AudioLeadIn: 0
PreviewTime: 39526
Countdown: 0
SampleSet: Soft
StackLeniency: 0.5
Mode: 0
LetterboxInBreaks: 0
WidescreenStoryboard: 1

[Editor]
Bookmarks: 39586,109404,157404,198859,227223,239223
DistanceSpacing: 0.9
BeatDivisor: 4
GridSize: 32
TimelineZoom: 1.8

[Metadata]
Title:Soushi
TitleUnicode:葬詩
Artist:Yousei Teikoku
ArtistUnicode:妖精帝國
Creator:Nao Tomori
Version:Normal
Source:
Tags:mordred pax vesania fairy empire yosei Das Feenreich 伊月 ゆい Itsuki Yui funeral poem dirge gothic rock japanese
BeatmapID:2616307
BeatmapSetID:1255776

[Difficulty]
HPDrainRate:3
CircleSize:3.5
OverallDifficulty:4
ApproachRate:5
SliderMultiplier:2
SliderTickRate:1

[Events]
//Background and Video events
0,0,"81139046_p0_master1200.jpg",0,0
//Break Periods
2,70150,77659
2,179586,186750
//Storyboard Layer 0 (Background)
//Storyboard Layer 1 (Fail)
//Storyboard Layer 2 (Pass)
//Storyboard Layer 3 (Foreground)
//Storyboard Layer 4 (Overlay)
//Storyboard Sound Samples

[TimingPoints]
314,727.272727272727,3,2,2,30,1,0
314,-133.333333333333,3,2,2,30,0,0
38495,-100,3,2,1,55,0,0
39586,-90.9090909090909,3,2,1,70,0,1
69768,-133.333333333333,3,2,1,70,0,0
70495,-133.333333333333,3,2,1,30,0,0
78859,-133.333333333333,3,2,2,35,0,0
81041,-133.333333333333,3,2,2,35,0,0
87586,-133.333333333333,3,2,2,40,0,0
108313,-90.9090909090909,3,2,1,55,0,0
109404,-90.9090909090909,3,2,1,70,0,1
139586,-90.9090909090909,3,2,1,70,0,0
139950,-90.9090909090909,3,2,1,70,0,1
157404,-90.9090909090909,3,2,1,75,0,0
165768,-90.9090909090909,3,2,1,75,0,0
169404,-90.9090909090909,3,2,1,75,0,0
170132,-90.9090909090909,3,2,1,75,0,0
174859,-90.9090909090909,3,2,1,75,0,0
175586,-90.9090909090909,3,2,1,75,0,0
176313,-90.9090909090909,3,2,1,75,0,0
177041,-90.9090909090909,3,2,1,75,0,0
177768,-90.9090909090909,3,2,1,75,0,0
179586,-133.333333333333,3,2,1,30,0,0
187950,-133.333333333333,3,2,2,35,0,0
195586,-133.333333333333,3,2,2,35,0,0
196677,-90.9090909090909,3,2,1,80,0,1
196768,-90.9090909090909,3,2,1,50,0,0
197768,-90.9090909090909,3,2,1,55,0,0
198859,-90.9090909090909,3,2,1,70,0,1
227223,-133.333333333333,3,2,1,70,0,0
230132,-133.333333333333,3,2,1,60,0,0
231586,-90.9090909090909,3,2,1,60,0,0
233768,-109.289617486339,3,2,1,50,0,0
233950,-109.289617486339,3,2,0,10,0,0
238132,727.272727272727,3,2,1,5,1,8
239223,727.272727272727,3,2,0,25,1,0
239223,-133.333333333333,3,2,0,25,0,0
240677,-133.333333333333,3,2,2,30,0,0
254495,807.537012113055,3,2,2,30,1,0
254495,-152.671755725191,3,2,2,30,0,0
255706,845.070422535211,3,2,2,30,1,8
256973,845.070422535211,3,2,2,30,1,0
256973,-166.666666666667,3,2,2,30,0,0
258452,983.606557377049,3,2,2,20,1,0
259927,983.606557377049,3,2,2,20,1,0
259927,-303.030303030303,3,2,2,20,0,0
261894,-303.030303030303,3,2,2,20,0,0
262877,983.606557377049,3,2,2,20,1,8
263615,1215.80547112462,3,2,2,20,1,0
263615,-100,3,2,2,20,0,0

[Colours]
Combo1 : 183,183,255
Combo2 : 128,128,192

[HitObjects]
82,150,314,6,0,L|65:242,2,75.0000028610231,2|0|0,0:2|0:2|0:2,0:0:0:0:
152,107,1404,1,2,0:2:0:0:
310,297,2495,6,0,L|327:389,2,75.0000028610231,2|0|0,0:2|0:2|0:2,0:0:0:0:
240,254,3585,1,2,0:2:0:0:
376,105,4677,6,0,P|430:89|459:100,2,75.0000028610231,2|0|0,0:2|0:2|0:2,0:0:0:0:
328,172,5768,1,2,0:2:0:0:
168,57,6859,6,0,P|118:71|84:61,2,75.0000028610231,2|0|0,0:2|0:2|0:2,0:0:0:0:
238,13,7950,2,0,P|288:-1|322:9,2,75.0000028610231,2|2|2,0:2|0:2|0:2,0:0:0:0:
282,82,9041,2,0,L|297:169,2,75.0000028610231,2|0|0,0:2|0:2|0:2,0:0:0:0:
238,13,10132,1,2,0:2:0:0:
487,190,11223,6,0,L|477:281,2,75.0000028610231,2|0|0,0:2|0:2|0:2,0:0:0:0:
418,143,12313,1,2,0:2:0:0:
288,272,13404,6,0,P|237:282|211:268,2,75.0000028610231,2|0|0,0:2|0:2|0:2,0:0:0:0:
249,199,14495,1,2,0:2:0:0:
65,278,15586,6,0,L|76:357,2,75.0000028610231,2|0|0,0:2|0:2|0:2,0:0:0:0:
13,213,16677,2,0,L|23:138,2,75.0000028610231,2|2|2,0:2|0:2|0:2,0:0:0:0:
65,278,17768,5,2,0:2:0:0:
65,278,19950,1,2,0:2:0:0:
65,278,22132,1,2,0:2:0:0:
65,278,24313,2,0,P|136:252|203:379,2,225.000008583069,2|0|2,0:2|0:0|0:2,0:0:0:0:
65,278,28677,1,2,0:2:0:0:
65,278,30859,1,2,0:2:0:0:
65,278,33041,2,0,P|84:232|-12:97,1,225.000008583069,2|2,0:2|0:2,0:0:0:0:
40,28,34495,1,0,0:2:0:0:
115,61,34859,1,0,0:2:0:0:
186,19,35223,6,0,B|240:56|240:56|406:15,2,225.000008583069,2|0|2,0:2|0:0|0:2,0:0:0:0:
186,19,38495,2,0,P|169:57|161:89,1,66.6666666666667,8|8,0:2|0:2,0:0:0:0:
127,91,38859,2,0,B|143:127|144:127|150:160,1,66.6666666666667,8|8,0:3|0:3,0:0:0:0:
131,186,39223,2,0,P|123:223|123:266,1,66.6666666666667,4|4,0:3|0:3,0:0:0:0:
156,242,39586,6,0,P|220:272|291:211,1,165.000005035401,6|0,3:2|3:2,0:0:0:0:
313,164,40313,1,10,0:2:0:0:
423,213,40677,1,2,3:2:0:0:
501,120,41041,1,2,0:2:0:0:
390,71,41404,1,8,0:2:0:0:
313,164,41768,2,0,P|217:181|176:105,1,165.000005035401,2|0,3:2|3:2,0:0:0:0:
171,76,42495,1,10,0:2:0:0:
68,140,42859,2,0,L|83:270,2,110.000003356934,2|0|8,3:2|3:2|0:2,0:0:0:0:
20,28,43950,6,0,B|114:4|94:85|206:47,1,165.000005035401,6|0,3:2|3:2,0:0:0:0:
231,28,44677,1,10,0:2:0:0:
331,95,45041,1,2,3:2:0:0:
252,187,45404,1,2,3:2:0:0:
349,258,45768,1,10,0:2:0:0:
452,195,46132,2,0,P|471:135|429:84,2,110.000003356934,2|2|10,3:2|0:2|0:2,0:0:0:0:
349,258,47223,2,0,B|260:247|260:247|232:271|232:271|119:293,1,220.000006713867,2|8,3:2|0:3,0:0:0:0:
52,205,48313,6,0,B|8:142|46:78|46:78|82:121,1,165.000005035401,6|0,3:2|3:2,0:0:0:0:
121,78,49041,1,10,0:2:0:0:
222,143,49404,1,2,3:2:0:0:
324,77,49768,1,2,3:2:0:0:
417,153,50132,1,10,0:2:0:0:
507,73,50495,2,0,B|485:22|444:15|444:15|390:76|304:46,1,220.000006713867,2|10,3:2|0:2,0:0:0:0:
208,70,51586,2,0,P|145:59|99:120,2,110.000003356934,2|0|8,3:2|3:2|0:2,0:0:0:0:
278,181,52677,5,6,3:2:0:0:
278,181,52859,1,2,0:2:0:0:
278,181,53041,2,0,L|265:308,1,110.000003356934,2|10,0:2|0:2,0:0:0:0:
176,371,53768,1,2,3:2:0:0:
70,310,54132,1,2,3:2:0:0:
137,209,54495,1,10,0:2:0:0:
85,99,54859,2,0,B|56:81|29:93|29:93|57:148|125:145|175:99,1,220.000006713867,2|8,3:2|0:2,0:0:0:0:
282,137,55950,2,0,P|352:173|426:66,1,220.000006713867,2|4,3:2|0:3,0:0:0:0:
312,47,57041,6,0,B|276:108|276:108|304:273,2,220.000006713867,6|8|2,3:2|0:2|3:2,0:0:0:0:
198,5,58859,1,14,0:2:0:0:
122,98,59223,2,0,P|55:113|10:78,2,110.000003356934,6|2|10,3:2|0:2|0:2,0:0:0:0:
192,196,60313,2,0,B|312:227|278:128|430:168,1,220.000006713867,2|8,3:2|0:2,0:0:0:0:
477,255,61404,5,6,3:2:0:0:
399,348,61768,1,2,0:2:0:0:
399,348,61950,1,0,3:2:0:0:
399,348,62132,2,0,P|325:330|283:362,1,110.000003356934,10|2,0:2|3:2,0:0:0:0:
183,306,62859,1,2,3:2:0:0:
77,364,63223,1,14,0:2:0:0:
12,261,63586,6,0,L|-3:33,1,220.000006713867,6|10,3:2|0:2,0:0:0:0:
47,7,64495,1,0,0:2:0:0:
47,7,64677,2,0,P|102:38|148:23,1,110.000003356934,2|2,3:2|3:2,0:0:0:0:
252,80,65404,1,10,0:2:0:0:
361,28,65768,6,0,L|378:215,1,165.000005035401,6|0,3:2|3:2,0:0:0:0:
334,236,66495,2,0,L|320:353,2,110.000003356934,8|0|2,0:2|3:2|3:2,0:0:0:0:
232,169,67586,1,12,0:2:0:0:
139,246,67950,2,0,B|76:266|46:207|46:207|115:154|130:53|52:7|52:7|19:57|61:109,1,440.000013427735,6|0,3:2|3:2,0:0:0:0:
131,135,69768,5,10,0:2:0:0:
131,135,69950,1,10,0:2:0:0:
131,135,78859,6,0,P|255:165|308:72,1,225.000008583069,2|0,0:2|0:2,0:0:0:0:
268,31,80313,1,0,0:2:0:0:
268,31,80677,1,2,0:2:0:0:
204,83,81041,2,0,L|179:251,1,150.000005722046,2|0,0:2|0:2,0:0:0:0:
264,235,82132,2,0,L|285:394,1,150.000005722046,2|0,0:2|0:2,0:0:0:0:
361,355,83223,6,0,B|410:328|410:328|509:361,1,150.000005722046,2|0,0:2|0:2,0:0:0:0:
500,275,84313,2,0,P|466:243|497:140,1,150.000005722046,2|2,0:2|0:2,0:0:0:0:
464,69,85404,2,0,L|309:97,1,150.000005722046,2|0,0:2|0:2,0:0:0:0:
250,46,86495,1,2,0:2:0:0:
129,158,87223,1,0,0:2:0:0:
129,158,87586,6,0,P|64:138|5:260,2,225.000008583069,6|2|2,0:2|0:2|0:2,0:0:0:0:
129,158,90859,1,2,0:2:0:0:
272,81,91950,2,0,L|367:66,2,75.0000028610231,2|0|0,0:2|0:0|0:2,0:0:0:0:
228,151,93041,1,2,0:2:0:0:
228,151,93404,1,2,0:2:0:0:
228,151,93768,1,0,0:2:0:0:
278,216,94132,6,0,P|309:260|281:359,1,150.000005722046,2|2,0:2|0:2,0:0:0:0:
209,362,95223,2,0,P|178:318|206:219,1,150.000005722046,0|2,3:2|0:2,0:0:0:0:
278,216,96313,6,0,L|433:231,1,150.000005722046,6|2,0:2|0:2,0:0:0:0:
448,150,97404,2,0,L|293:135,1,150.000005722046,2|0,0:2|0:2,0:0:0:0:
239,78,98495,1,2,0:2:0:0:
192,146,98859,2,0,P|135:171|113:165,2,75.0000028610231,0|2|2,0:2|0:2|0:2,0:0:0:0:
192,146,100677,6,0,P|123:122|12:222,2,225.000008583069,2|2|2,0:2|0:2|0:2,0:0:0:0:
192,146,103950,1,2,0:2:0:0:
267,112,104313,1,2,0:2:0:0:
336,156,104677,1,2,0:2:0:0:
401,106,105041,6,0,B|453:140|453:140|430:313,1,225.000008583069,6|2,0:2|0:2,0:0:0:0:
374,361,106495,1,0,0:2:0:0:
301,322,106859,1,2,0:2:0:0:
227,360,107223,2,0,P|171:377|117:303,1,150.000005722046,2|2,0:2|0:2,0:0:0:0:
193,221,108313,2,0,L|177:129,1,73.3333355712891,14|8,0:2|0:2,0:0:0:0:
147,124,108677,2,0,L|163:32,1,73.3333355712891,8|8,0:3|0:3,0:0:0:0:
190,25,109041,2,0,P|237:27|274:53,1,73.3333355712891,8|4,0:2|0:3,0:0:0:0:
297,26,109404,6,0,P|356:73|430:35,1,165.000005035401,6|0,3:2|3:2,0:0:0:0:
489,42,110132,2,0,L|502:171,1,110.000003356934,10|2,0:2|3:2,0:0:0:0:
449,261,110859,1,2,3:2:0:0:
335,219,111223,1,10,0:2:0:0:
269,320,111586,2,0,B|244:352|211:357|211:357|152:300|25:338,1,220.000006713867,2|10,3:2|0:2,0:0:0:0:
7,223,112677,2,0,P|57:182|128:209,2,110.000003356934,2|2|8,3:2|3:2|0:2,0:0:0:0:
70,327,113768,6,0,P|137:357|224:285,1,165.000005035401,6|0,3:2|3:2,0:0:0:0:
229,257,114495,1,10,0:2:0:0:
333,319,114859,1,2,3:2:0:0:
415,230,115223,2,0,L|420:105,1,110.000003356934,2|10,3:2|0:2,0:0:0:0:
325,43,115950,1,2,3:2:0:0:
226,113,116313,1,2,0:2:0:0:
121,51,116677,1,10,0:2:0:0:
22,121,117041,2,0,P|-3:174|123:260,1,220.000006713867,2|8,3:2|0:3,0:0:0:0:
208,218,118132,6,0,B|271:207|271:207|297:222|297:222|387:235,1,165.000005035401,6|0,3:2|3:2,0:0:0:0:
426,244,118859,1,10,0:2:0:0:
501,149,119223,2,0,P|503:92|457:56,1,110.000003356934,2|2,3:2|3:2,0:0:0:0:
345,59,119950,1,10,0:2:0:0:
302,171,120313,2,0,L|327:300,1,110.000003356934,2|0,3:2|0:0,0:0:0:0:
239,367,121041,1,10,0:2:0:0:
135,304,121404,2,0,B|98:331|98:331|17:316,2,110.000003356934,2|0|8,3:2|3:2|0:2,0:0:0:0:
215,213,122495,5,6,3:2:0:0:
215,213,122677,1,2,0:2:0:0:
215,213,122859,2,0,P|214:158|161:121,1,110.000003356934,2|8,3:2|0:2,0:0:0:0:
54,114,123586,1,2,3:2:0:0:
107,222,123950,1,2,3:2:0:0:
174,123,124313,1,10,0:2:0:0:
241,22,124677,2,0,B|363:-6|352:92|480:51,1,220.000006713867,2|8,3:2|0:2,0:0:0:0:
448,179,125768,2,0,B|413:229|357:235|357:235|329:175|372:111,1,220.000006713867,2|4,3:2|0:3,0:0:0:0:
474,172,126859,6,0,L|468:300,2,110.000003356934,6|2|8,3:2|0:0|0:2,0:0:0:0:
366,228,127950,2,0,L|360:356,2,110.000003356934,0|2|14,3:2|3:2|0:2,0:0:0:0:
262,165,129041,2,0,P|202:142|119:266,1,220.000006713867,6|10,3:2|0:2,0:0:0:0:
200,328,130132,2,0,B|251:323|274:292|274:292|316:364|438:352,1,220.000006713867,2|8,3:2|0:2,0:0:0:0:
486,282,131223,5,6,3:2:0:0:
395,201,131586,1,2,0:2:0:0:
395,201,131768,1,0,3:2:0:0:
395,201,131950,2,0,B|377:164|377:164|397:97,2,110.000003356934,10|2|2,0:2|3:2|3:2,0:0:0:0:
308,286,133041,1,10,0:2:0:0:
204,223,133404,2,0,P|137:193|75:321,1,220.000006713867,6|10,3:2|0:2,0:0:0:0:
104,337,134313,1,2,0:2:0:0:
104,337,134495,2,0,L|231:319,2,110.000003356934,2|2|10,3:2|3:2|0:2,0:0:0:0:
28,242,135586,6,0,P|84:149|40:69,1,165.000005035401,6|0,3:2|3:2,0:0:0:0:
23,62,136313,2,0,P|70:105|196:21,1,220.000006713867,8|2,0:2|3:2,0:0:0:0:
284,123,137404,1,10,0:2:0:0:
388,62,137768,2,0,B|379:117|379:117|412:191,1,110.000003356934,6|0,3:2|0:0,0:0:0:0:
431,219,138313,1,0,3:2:0:0:
431,219,138495,1,8,0:2:0:0:
357,315,138859,2,0,P|300:298|171:390,1,220.000006713867,8|2,0:2|3:2,0:0:0:0:
66,325,139950,5,6,3:2:0:0:
66,325,140132,2,0,L|54:144,1,165.000005035401,0|4,3:2|0:3,0:0:0:0:
137,71,141041,1,6,3:2:0:0:
237,138,141404,1,10,0:2:0:0:
328,58,141768,1,4,0:3:0:0:
420,136,142132,6,0,P|450:194|315:233,1,220.000006713867,6|10,3:2|0:2,0:0:0:0:
296,217,143041,1,0,3:2:0:0:
296,217,143223,2,0,L|188:233,2,110.000003356934,2|0|8,3:2|3:2|0:2,0:0:0:0:
224,119,144313,5,6,3:2:0:0:
224,119,144495,2,0,B|163:116|163:116|143:144|143:144|67:171,1,165.000005035401,0|8,3:2|0:2,0:0:0:0:
16,272,145404,1,2,3:2:0:0:
101,357,145768,1,8,0:2:0:0:
211,307,146132,1,8,0:3:0:0:
311,374,146495,6,0,B|354:369|384:327|384:327|441:373|487:356|487:356|457:319,1,220.000006713867,6|10,3:2|0:2,0:0:0:0:
466,282,147404,1,2,0:2:0:0:
466,282,147586,2,0,P|446:222|482:164,1,110.000003356934,2|0,3:2|3:2,0:0:0:0:
397,79,148313,1,8,0:2:0:0:
397,79,148495,1,8,0:2:0:0:
397,79,148677,5,6,3:2:0:0:
284,124,149041,2,0,L|219:140,1,55.0000016784668,2|0,0:2|3:2,0:0:0:0:
177,107,149404,2,0,L|92:96,1,55.0000016784668,10|2,0:2|0:2,0:0:0:0:
73,135,149768,2,0,P|48:176|78:246,1,110.000003356934,2|0,3:2|3:2,0:0:0:0:
102,278,150313,2,0,P|143:253|234:329,1,165.000005035401,2|0,0:2|3:2,0:0:0:0:
342,258,151223,5,2,0:2:0:0:
342,258,151404,1,0,3:2:0:0:
342,258,151586,2,0,L|358:345,2,55.0000016784668,10|2|2,0:2|0:2|3:2,0:0:0:0:
423,168,152313,1,2,3:2:0:0:
423,168,152495,2,0,P|432:92|377:58,1,110.000003356934,2|2,0:2|0:2,0:0:0:0:
359,43,153041,6,0,B|246:19|276:108|155:112,1,220.000006713867,6|8,3:2|0:2,0:0:0:0:
50,59,154132,1,0,3:2:0:0:
6,171,154495,2,0,P|18:207|29:253,1,55.0000016784668,2|0,3:2|0:2,0:0:0:0:
76,251,154859,2,0,P|65:293|63:323,1,55.0000016784668,10|10,0:2|0:2,0:0:0:0:
108,346,155223,6,0,P|164:366|253:290,1,165.000005035401,4|8,0:3|0:2,0:0:0:0:
288,268,155950,2,0,B|323:243|323:243|372:277,2,82.5000025177003,8|4|4,0:3|0:3|0:3,0:0:0:0:
244,225,156677,2,0,L|235:88,1,110.000003356934,8|8,0:2|0:3,0:0:0:0:
322,29,157404,6,0,P|372:4|406:136,1,220.000006713867,6|8,3:1|0:2,0:0:0:0:
482,226,158495,2,0,P|397:272|278:252,1,220.000006713867,2|8,3:1|0:2,0:0:0:0:
184,328,159586,1,0,3:2:0:0:
76,272,159950,1,2,2:1:0:0:
136,167,160313,1,10,2:1:0:0:
48,82,160677,2,0,B|66:40|66:41|66:41|99:134|-2:203,1,220.000006713867,2|10,3:1|0:1,0:0:0:0:
86,288,161768,6,0,L|99:374,2,55.0000016784668,2|0|2,3:1|0:2|2:1,0:0:0:0:
118,236,162313,1,2,3:1:0:0:
222,296,162677,1,0,0:2:0:0:
222,296,162859,2,0,L|211:379,2,55.0000016784668,2|0|2,3:1|0:2|3:1,0:0:0:0:
274,266,163404,2,0,B|359:249|347:324|439:291,1,165.000005035401,2|2,0:1|3:1,0:0:0:0:
503,197,164313,1,2,3:1:0:0:
402,129,164677,2,0,P|338:120|289:158,2,110.000003356934,8|2|2,0:2|3:1|3:2,0:0:0:0:
473,31,165768,1,10,0:1:0:0:
354,8,166132,6,0,B|288:47|288:47|164:14,1,165.000005035401,6|2,3:1|0:1,0:0:0:0:
153,60,166859,2,0,P|137:105|166:169,1,110.000003356934,8|2,0:2|3:1,0:0:0:0:
88,260,167586,1,2,0:2:0:0:
88,260,167768,1,2,3:1:0:0:
88,260,167950,1,8,0:2:0:0:
173,345,168313,5,6,3:1:0:0:
275,281,168677,2,0,P|328:267|355:267,1,55.0000016784668,2|2,0:2|3:2,0:0:0:0:
374,228,169041,2,0,P|434:251|447:260,1,55.0000016784668,10|2,0:2|0:2,0:0:0:0:
462,293,169404,2,0,P|434:228|513:105,1,220.000006713867,2|10,3:1|0:2,0:0:0:0:
428,13,170495,6,0,L|303:33,1,110.000003356934,6|2,3:1|0:2,0:0:0:0:
286,81,171041,1,2,3:2:0:0:
286,81,171223,2,0,P|224:72|185:105,1,110.000003356934,10|2,0:1|3:2,0:0:0:0:
269,189,171950,1,0,3:2:0:0:
269,189,172132,1,0,3:2:0:0:
269,189,172313,2,0,L|252:265,1,55.0000016784668,10|0,0:1|0:2,0:0:0:0:
205,275,172677,6,0,L|220:384,2,110.000003356934,6|2|8,3:1|0:2|0:2,0:0:0:0:
109,199,173768,1,2,3:1:0:0:
181,102,174132,1,2,3:2:0:0:
181,102,174313,1,0,3:2:0:0:
181,102,174495,2,0,L|249:91,1,55.0000016784668,8|8,0:2|0:2,0:0:0:0:
279,134,174859,6,0,P|333:165|406:67,1,165.000005035401,6|0,3:1|3:2,0:0:0:0:
419,51,175586,2,0,L|437:199,1,110.000003356934,8|0,0:2|3:2,0:0:0:0:
510,252,176313,1,2,3:1:0:0:
433,345,176677,1,10,0:1:0:0:
317,307,177041,2,0,B|229:293|257:355|152:344,1,165.000005035401,2|0,3:1|3:2,0:0:0:0:
104,324,177768,1,8,0:2:0:0:
164,221,178132,1,0,3:2:0:0:
84,129,178495,1,0,3:2:0:0:
159,34,178859,5,10,0:2:0:0:
159,34,179041,1,10,0:2:0:0:
21,328,187950,6,0,P|80:304|216:377,1,225.000008583069,2|0,0:2|0:2,0:0:0:0:
282,326,189404,1,2,0:2:0:0:
282,326,189768,1,0,0:2:0:0:
359,353,190132,2,0,P|416:377|488:313,1,150.000005722046,2|0,0:2|0:2,0:0:0:0:
431,266,191223,2,0,P|450:224|384:152,1,150.000005722046,2|0,0:2|0:2,0:0:0:0:
327,99,192313,6,0,L|175:136,1,150.000005722046,2|0,0:2|0:2,0:0:0:0:
107,97,193404,1,2,0:2:0:0:
37,141,193768,1,0,0:2:0:0:
52,222,194132,1,2,0:2:0:0:
127,254,194495,2,0,P|170:241|226:336,1,150.000005722046,2|0,0:2|0:2,0:0:0:0:
308,342,195586,2,0,P|369:305|427:345,1,150.000005722046,2|0,0:2|0:2,0:0:0:0:
501,298,196677,5,6,3:2:0:0:
501,298,197768,2,0,L|475:161,1,110.000003356934,6|8,3:2|0:3,0:0:0:0:
510,72,198495,1,4,0:3:0:0:
405,10,198859,2,0,B|277:19|354:96|204:110,1,220.000006713867,6|10,3:2|0:2,0:0:0:0:
104,67,199950,2,0,P|38:52|-9:68,2,110.000003356934,2|0|8,3:2|3:2|0:2,0:0:0:0:
138,183,201041,6,0,L|127:320,1,110.000003356934,6|0,3:2|0:0,0:0:0:0:
219,372,201768,1,10,0:2:0:0:
313,296,202132,1,2,3:2:0:0:
411,366,202495,1,2,3:2:0:0:
506,290,202859,1,10,0:2:0:0:
431,194,203223,2,0,L|421:81,2,110.000003356934,2|2|10,3:2|2:2|0:2,0:0:0:0:
334,267,204313,2,0,B|283:249|283:249|217:328|110:292,1,220.000006713867,2|8,3:2|0:3,0:0:0:0:
71,195,205404,6,0,B|83:146|113:122|113:122|168:152|178:207,1,165.000005035401,6|0,3:2|3:2,0:0:0:0:
229,175,206132,1,10,0:2:0:0:
309,84,206495,1,2,3:2:0:0:
393,170,206859,2,0,L|514:158,1,110.000003356934,2|10,3:2|0:2,0:0:0:0:
469,275,207586,2,0,L|260:296,1,165.000005035401,2|0,3:2|3:2,0:0:0:0:
267,339,208313,1,10,0:2:0:0:
151,302,208677,2,0,B|135:265|135:265|162:197,1,110.000003356934,2|0,3:2|3:2,0:0:0:0:
188,145,209223,1,0,3:2:0:0:
188,145,209404,1,8,0:2:0:0:
115,48,209768,5,6,3:2:0:0:
115,48,209950,1,2,0:2:0:0:
115,48,210132,2,0,P|179:65|219:11,1,110.000003356934,2|10,0:2|0:2,0:0:0:0:
311,106,210859,1,2,3:2:0:0:
412,40,211223,1,2,3:2:0:0:
503,118,211586,1,10,0:2:0:0:
443,223,211950,2,0,P|389:255|310:149,1,220.000006713867,8|4,0:2|0:3,0:0:0:0:
207,219,213041,2,0,P|179:298|53:256,1,220.000006713867,8|10,0:2|2:2,0:0:0:0:
109,167,214132,6,0,L|97:43,1,110.000003356934,6|0,3:2|0:2,0:0:0:0:
210,12,214859,2,0,L|222:136,1,110.000003356934,8|0,0:2|3:2,0:0:0:0:
314,197,215586,1,2,3:2:0:0:
410,124,215950,1,10,0:2:0:0:
495,208,216313,2,0,B|519:248|519:248|499:277|502:329,2,110.000003356934,6|2|10,3:2|0:2|0:2,0:0:0:0:
389,148,217404,2,0,B|278:146|328:228|176:233,1,220.000006713867,2|8,3:2|0:2,0:0:0:0:
107,147,218495,6,0,P|97:101|140:54,1,110.000003356934,6|2,3:2|0:2,0:0:0:0:
195,47,219041,1,2,3:2:0:0:
195,47,219223,2,0,L|320:75,1,110.000003356934,10|2,0:2|3:2,0:0:0:0:
412,19,219950,1,2,3:2:0:0:
489,112,220313,1,10,0:2:0:0:
385,174,220677,6,0,B|349:226|349:226|390:393,1,220.000006713867,6|10,3:2|0:2,0:0:0:0:
432,338,221586,1,2,0:2:0:0:
432,338,221768,1,2,3:2:0:0:
319,293,222132,1,2,3:2:0:0:
219,361,222495,1,8,0:2:0:0:
115,297,222859,6,0,B|103:268|103:268|114:170,1,110.000003356934,6|0,3:2|0:0,0:0:0:0:
123,130,223404,1,0,3:2:0:0:
123,130,223586,2,0,P|116:68|75:31,1,110.000003356934,8|0,0:2|3:2,0:0:0:0:
3,125,224313,1,2,3:2:0:0:
90,209,224677,1,10,0:2:0:0:
197,152,225041,6,0,P|251:136|315:154,1,110.000003356934,10|0,2:2|3:2,0:0:0:0:
359,128,225586,2,0,B|393:168|393:168|371:244,1,110.000003356934,8|0,0:2|3:2,0:0:0:0:
402,278,226132,2,0,P|370:335|372:381,2,110.000003356934,14|8|4,0:2|0:3|0:3,0:0:0:0:
498,247,227223,5,6,3:2:0:0:
256,192,227404,12,6,229404,0:2:0:0:
436,50,230495,6,0,P|367:47|344:72,2,75.0000028610231,2|8|4,3:2|2:3|2:3,0:0:0:0:
398,165,231586,2,0,B|287:195|300:101|153:153,1,220.000006713867,6|8,3:2|0:2,0:0:0:0:
102,231,232677,1,8,0:2:0:0:
26,136,233041,2,0,L|31:64,1,55.0000016784668,8|8,0:2|0:2,0:0:0:0:
87,64,233404,2,0,L|90:9,1,55.0000016784668,8|4,0:3|0:3,0:0:0:0:
140,0,233768,5,6,3:2:0:0:
256,192,233950,12,2,239223,0:2:0:0:
256,192,241404,5,2,0:2:0:0:
256,192,243586,1,2,0:2:0:0:
256,192,245768,2,0,P|320:224|416:128,2,225.000008583069,2|2|2,0:2|0:2|0:2,0:0:0:0:
256,192,250132,1,2,0:2:0:0:
256,192,252313,1,2,0:2:0:0:
256,192,254495,6,0,P|192:160|96:256,1,196.500003598023,2|2,0:2|0:2,0:0:0:0:
140,316,256128,1,0,0:2:0:0:
234,297,256551,1,2,0:2:0:0:
319,354,256973,2,0,P|366:328|441:351,1,119.999996337891,2|0,0:2|0:2,0:0:0:0:
428,340,258452,5,2,0:2:0:0:
476,266,258943,1,0,0:2:0:0:
424,189,259435,1,2,0:2:0:0:
462,106,259927,2,0,B|511:68|511:68|484:254,1,247.49999924469,2|2,0:2|0:2,0:0:0:0:
484,251,266046,1,2,0:2:0:0:
