osu file format v14

[General]
AudioFilename: audio.ogg
AudioLeadIn: 0
PreviewTime: 57327
Countdown: 0
SampleSet: Normal
StackLeniency: 0.7
Mode: 1
LetterboxInBreaks: 0
WidescreenStoryboard: 0

[Editor]
DistanceSpacing: 1.2
BeatDivisor: 2
GridSize: 4
TimelineZoom: 1.1

[Metadata]
Title:Shinteki Souzou
TitleUnicode:神的創造
Artist:Yousei Teikoku
ArtistUnicode:妖精帝國
Creator:yassu-
Version:komasy's Futsuu
Source:fortissimo FA//Akkord:nächsten Phase
Tags:FA//Akkord:nachsten フォルテシモフルアクセス アコルト:ネクステンファーゼ LACA-15470 Lantis Hades:The other world itsuki yui 伊月ゆい Das Feenreich La'cryma video game Visual Novel Eroge opening op ver version full japanese j-rock jrock Volta TKS TKSalt komasy
BeatmapID:3416912
BeatmapSetID:1650287

[Difficulty]
HPDrainRate:7
CircleSize:7
OverallDifficulty:4
ApproachRate:10
SliderMultiplier:1.4
SliderTickRate:1

[Events]
//Background and Video events
0,0,"Futsuu BG.jpg",0,60
//Break Periods
2,163861,168895
2,170505,173728
2,202517,207585
//Storyboard Layer 0 (Background)
//Storyboard Layer 1 (Fail)
//Storyboard Layer 2 (Pass)
//Storyboard Layer 3 (Foreground)
//Storyboard Layer 4 (Overlay)
//Storyboard Sound Samples

[TimingPoints]
179,434.782608695652,4,1,0,50,1,0
9744,451.127819548872,4,1,0,50,1,8
9744,-96.3762528912876,4,1,0,50,0,0
10646,458.015267175573,4,1,0,50,1,0
10646,-94.9275465500956,4,1,0,50,0,0
10875,-94.9275465500956,4,1,0,20,0,0
12478,491.803278688525,4,1,0,20,1,0
12478,-88.4056049153516,4,1,0,20,0,0
13461,402.684563758389,4,1,0,90,1,8
13863,201.342281879195,4,1,0,90,1,1
13863,-200,4,1,0,90,0,1
31480,-200,4,1,0,70,0,1
31581,-200,4,1,0,70,0,0
34701,-200,4,1,0,90,0,0
57352,-166.666666666667,4,1,0,100,0,1
88762,-166.666666666667,4,1,0,100,0,0
89567,-200,4,1,0,90,0,1
105675,-200,4,1,0,90,0,0
131446,-166.666666666667,4,1,0,100,0,1
163661,402.684563758389,4,1,0,80,1,0
163661,-100,4,1,0,80,0,0
163862,-100,4,1,0,30,0,0
170003,-100,4,1,0,80,0,0
170506,-100,4,1,0,30,0,0
176546,201.342281879195,4,1,0,90,1,0
176546,-200,4,1,0,90,0,0
182938,-200,4,1,0,100,0,0
189733,-200,4,1,0,90,0,0
200707,-200,4,1,0,60,0,0
201512,-207.684319833853,4,1,0,60,0,0
202317,-215.982721382289,4,1,0,30,0,0
202351,402.684563758389,4,1,0,30,1,8
202351,-100,4,1,0,30,0,0
208592,-100,4,1,0,50,0,0
213424,-100,4,1,0,30,0,0
214431,-100,4,1,0,50,0,0
215102,-100,4,1,0,100,0,0
215203,201.342281879195,4,1,0,100,1,1
215203,-166.666666666667,4,1,0,100,0,1
234531,-166.666666666667,4,1,0,100,0,0
234632,-166.666666666667,4,1,0,50,0,0
235337,-176.600441501104,4,1,0,45,0,0
236142,-184.331797235023,4,1,0,40,0,0
236947,-192.771084337349,4,1,0,35,0,0
237753,-202.020202020202,4,1,0,30,0,0
238558,-212.201591511936,4,1,0,25,0,0
239363,-223.463687150838,4,1,0,20,0,0
240169,-235.98820058997,4,1,0,15,0,0
240974,-250,4,1,0,10,0,0

[HitObjects]
352,96,179,5,8,0:0:0:0:
352,96,1048,5,8,0:0:0:0:
160,96,1918,5,0,0:0:0:0:
352,96,2352,5,8,0:0:0:0:
160,96,2787,5,0,0:0:0:0:
160,96,3657,5,0,0:0:0:0:
160,96,4092,5,0,0:0:0:0:
160,96,4526,5,0,0:0:0:0:
352,96,5396,5,8,0:0:0:0:
352,96,5831,5,8,0:0:0:0:
352,96,6048,5,8,0:0:0:0:
160,96,6265,5,0,0:0:0:0:
160,96,6700,5,0,0:0:0:0:
352,96,7135,5,8,0:0:0:0:
352,96,8005,5,8,0:0:0:0:
160,96,8657,5,0,0:0:0:0:
352,96,8874,5,8,0:0:0:0:
160,96,9526,5,0,0:0:0:0:
352,96,9744,5,8,0:0:0:0:
352,96,10082,5,8,0:0:0:0:
352,96,10420,5,8,0:0:0:0:
160,96,10646,5,0,0:0:0:0:
256,192,12478,12,0,13461,0:0:0:0:
160,288,13863,5,4,0:0:0:0:
352,96,14265,5,8,0:0:0:0:
160,96,14668,5,0,0:0:0:0:
160,96,14869,5,0,0:0:0:0:
352,96,15071,5,8,0:0:0:0:
160,96,15473,5,0,0:0:0:0:
352,96,15876,5,8,0:0:0:0:
160,96,16077,5,0,0:0:0:0:
160,96,16279,5,0,0:0:0:0:
160,288,17084,5,4,0:0:0:0:
352,96,17487,5,8,0:0:0:0:
160,96,17889,5,0,0:0:0:0:
160,96,18091,5,0,0:0:0:0:
352,96,18292,5,8,0:0:0:0:
160,96,18695,5,0,0:0:0:0:
352,288,18896,5,12,0:0:0:0:
352,288,19299,5,12,0:0:0:0:
352,288,19701,5,12,0:0:0:0:
160,288,20305,5,4,0:0:0:0:
352,96,20708,5,8,0:0:0:0:
160,96,21111,5,0,0:0:0:0:
352,96,21312,5,8,0:0:0:0:
352,96,21514,5,8,0:0:0:0:
160,96,21916,5,0,0:0:0:0:
352,96,22319,5,8,0:0:0:0:
352,96,22520,5,8,0:0:0:0:
160,96,22722,5,0,0:0:0:0:
160,288,23527,5,4,0:0:0:0:
352,96,23930,5,8,0:0:0:0:
160,96,24332,5,0,0:0:0:0:
352,96,24534,5,8,0:0:0:0:
352,96,24735,5,8,0:0:0:0:
160,96,25138,5,0,0:0:0:0:
352,288,25339,5,12,0:0:0:0:
352,288,25742,5,12,0:0:0:0:
352,288,26144,5,12,0:0:0:0:
352,288,26547,5,12,0:0:0:0:
160,96,26748,5,0,0:0:0:0:
352,96,27151,5,8,0:0:0:0:
160,96,27554,5,0,0:0:0:0:
352,96,27755,5,8,0:0:0:0:
160,96,27956,5,0,0:0:0:0:
160,96,28158,5,0,0:0:0:0:
256,192,28359,12,0,29567,0:0:0:0:
352,96,29970,5,8,0:0:0:0:
352,96,30272,5,8,0:0:0:0:
352,96,30574,5,8,0:0:0:0:
160,96,30775,5,0,0:0:0:0:
352,96,31178,5,8,0:0:0:0:
160,288,31581,5,4,0:0:0:0:
160,288,31782,5,4,0:0:0:0:
160,288,32990,5,4,0:0:0:0:
160,288,33191,5,4,0:0:0:0:
352,96,34399,5,8,0:0:0:0:
352,96,34601,5,8,0:0:0:0:
160,288,34802,5,4,0:0:0:0:
352,96,35104,5,8,0:0:0:0:
352,96,35406,5,8,0:0:0:0:
160,96,35607,5,0,0:0:0:0:
352,96,35909,5,8,0:0:0:0:
352,96,36211,5,8,0:0:0:0:
160,96,36413,5,0,0:0:0:0:
352,96,36816,5,8,0:0:0:0:
352,96,37621,5,8,0:0:0:0:
160,96,38024,5,0,0:0:0:0:
352,96,38426,5,8,0:0:0:0:
160,96,38829,5,0,0:0:0:0:
160,96,39030,5,0,0:0:0:0:
352,96,39433,5,8,0:0:0:0:
160,96,39634,5,0,0:0:0:0:
352,96,40037,5,8,0:0:0:0:
160,96,40440,5,0,0:0:0:0:
160,96,40641,5,0,0:0:0:0:
160,96,41044,5,0,0:0:0:0:
352,96,41245,5,8,0:0:0:0:
352,96,42050,5,8,0:0:0:0:
160,96,42352,5,0,0:0:0:0:
160,96,42654,5,0,0:0:0:0:
352,96,42856,5,8,0:0:0:0:
160,96,43158,5,0,0:0:0:0:
352,96,43460,5,8,0:0:0:0:
160,96,43661,5,0,0:0:0:0:
352,96,44064,5,8,0:0:0:0:
160,288,44467,5,4,0:0:0:0:
352,96,45272,5,8,0:0:0:0:
160,96,45574,5,0,0:0:0:0:
160,96,45876,5,0,0:0:0:0:
352,96,46077,5,8,0:0:0:0:
352,96,46681,5,8,0:0:0:0:
160,96,46883,5,0,0:0:0:0:
352,96,47185,5,8,0:0:0:0:
352,96,47487,5,8,0:0:0:0:
160,96,47688,5,0,0:0:0:0:
160,96,48292,5,0,0:0:0:0:
352,96,48493,5,8,0:0:0:0:
160,96,48795,5,0,0:0:0:0:
160,96,49097,5,0,0:0:0:0:
352,96,49299,5,8,0:0:0:0:
160,96,49903,5,0,0:0:0:0:
352,96,50104,5,8,0:0:0:0:
352,96,50406,5,8,0:0:0:0:
352,96,50708,5,8,0:0:0:0:
160,288,50909,5,4,0:0:0:0:
352,96,51715,5,8,0:0:0:0:
160,96,52017,5,0,0:0:0:0:
160,96,52319,5,0,0:0:0:0:
352,96,52520,5,8,0:0:0:0:
352,96,53124,5,8,0:0:0:0:
160,96,53326,5,0,0:0:0:0:
160,96,53628,5,0,0:0:0:0:
160,96,53930,5,0,0:0:0:0:
352,96,54131,5,8,0:0:0:0:
160,96,54534,5,0,0:0:0:0:
352,96,54936,5,8,0:0:0:0:
352,96,55238,5,8,0:0:0:0:
352,96,55540,5,8,0:0:0:0:
256,192,55742,12,0,56748,0:0:0:0:
160,288,57352,5,4,0:0:0:0:
352,96,57554,5,8,0:0:0:0:
352,96,57956,5,8,0:0:0:0:
352,96,58158,5,8,0:0:0:0:
160,96,58560,5,0,0:0:0:0:
352,96,58963,5,8,0:0:0:0:
352,96,59265,5,8,0:0:0:0:
352,96,59567,5,8,0:0:0:0:
160,96,59769,5,0,0:0:0:0:
160,96,60574,5,0,0:0:0:0:
352,96,60775,5,8,0:0:0:0:
352,96,61178,5,8,0:0:0:0:
160,96,61379,5,0,0:0:0:0:
352,96,61782,5,8,0:0:0:0:
160,96,62185,5,0,0:0:0:0:
160,96,62487,5,0,0:0:0:0:
160,96,62789,5,0,0:0:0:0:
352,96,62990,5,8,0:0:0:0:
352,96,63393,5,8,0:0:0:0:
160,96,63795,5,0,0:0:0:0:
352,96,64399,5,8,0:0:0:0:
352,96,64601,5,8,0:0:0:0:
160,96,64903,5,0,0:0:0:0:
352,96,65205,5,8,0:0:0:0:
352,96,65406,5,8,0:0:0:0:
160,96,65809,5,0,0:0:0:0:
160,96,66211,5,0,0:0:0:0:
352,96,66614,5,8,0:0:0:0:
160,96,67017,5,0,0:0:0:0:
160,96,67822,5,0,0:0:0:0:
352,96,68225,5,8,0:0:0:0:
160,96,68628,5,0,0:0:0:0:
160,96,68829,5,0,0:0:0:0:
352,96,69030,5,8,0:0:0:0:
160,96,69433,5,0,0:0:0:0:
352,96,69836,5,8,0:0:0:0:
160,288,70238,5,4,0:0:0:0:
352,96,70440,5,8,0:0:0:0:
352,96,70842,5,8,0:0:0:0:
352,96,71044,5,8,0:0:0:0:
160,96,71446,5,0,0:0:0:0:
352,96,71849,5,8,0:0:0:0:
352,96,72151,5,8,0:0:0:0:
352,96,72453,5,8,0:0:0:0:
160,96,72654,5,0,0:0:0:0:
160,96,73460,5,0,0:0:0:0:
352,96,73661,5,8,0:0:0:0:
352,96,74064,5,8,0:0:0:0:
160,96,74265,5,0,0:0:0:0:
352,96,74668,5,8,0:0:0:0:
352,288,75071,5,12,0:0:0:0:
160,288,75373,5,4,0:0:0:0:
352,288,75675,5,12,0:0:0:0:
160,288,75876,5,4,0:0:0:0:
160,96,76681,5,0,0:0:0:0:
160,96,76983,5,0,0:0:0:0:
160,96,77285,5,0,0:0:0:0:
352,96,77487,5,8,0:0:0:0:
160,96,77889,5,0,0:0:0:0:
352,96,78292,5,8,0:0:0:0:
160,96,78594,5,0,0:0:0:0:
160,96,78896,5,0,0:0:0:0:
352,96,79097,5,8,0:0:0:0:
160,96,79500,5,0,0:0:0:0:
352,96,79903,5,8,0:0:0:0:
352,96,80507,5,8,0:0:0:0:
160,96,80708,5,0,0:0:0:0:
352,96,81010,5,8,0:0:0:0:
160,96,81312,5,0,0:0:0:0:
352,96,81514,5,8,0:0:0:0:
352,96,81916,5,8,0:0:0:0:
160,96,82319,5,0,0:0:0:0:
352,96,82722,5,8,0:0:0:0:
160,288,83124,5,4,0:0:0:0:
160,96,83930,5,0,0:0:0:0:
160,96,84131,5,0,0:0:0:0:
352,96,84332,5,8,0:0:0:0:
160,288,84735,5,4,0:0:0:0:
352,96,85138,5,8,0:0:0:0:
352,96,85339,5,8,0:0:0:0:
160,96,85540,5,0,0:0:0:0:
160,96,85742,5,0,0:0:0:0:
352,96,85943,5,8,0:0:0:0:
160,288,86346,5,4,0:0:0:0:
352,96,86950,5,8,0:0:0:0:
160,96,87151,5,0,0:0:0:0:
160,96,87352,5,0,0:0:0:0:
352,96,87554,5,8,0:0:0:0:
160,96,87956,5,0,0:0:0:0:
160,96,88258,5,0,0:0:0:0:
160,96,88560,5,0,0:0:0:0:
352,288,88762,5,12,0:0:0:0:
160,288,89567,5,4,0:0:0:0:
352,96,89970,5,8,0:0:0:0:
160,96,90373,5,0,0:0:0:0:
160,96,90574,5,0,0:0:0:0:
352,96,90775,5,8,0:0:0:0:
160,96,91178,5,0,0:0:0:0:
352,96,91581,5,8,0:0:0:0:
160,96,91782,5,0,0:0:0:0:
160,96,91983,5,0,0:0:0:0:
160,288,92789,5,4,0:0:0:0:
352,96,93191,5,8,0:0:0:0:
160,96,93594,5,0,0:0:0:0:
160,96,93795,5,0,0:0:0:0:
352,96,93997,5,8,0:0:0:0:
160,96,94399,5,0,0:0:0:0:
352,288,94601,5,12,0:0:0:0:
352,288,95003,5,12,0:0:0:0:
352,288,95406,5,12,0:0:0:0:
160,288,96010,5,4,0:0:0:0:
352,96,96413,5,8,0:0:0:0:
160,96,96816,5,0,0:0:0:0:
352,96,97017,5,8,0:0:0:0:
352,96,97218,5,8,0:0:0:0:
160,96,97621,5,0,0:0:0:0:
352,96,98024,5,8,0:0:0:0:
352,96,98225,5,8,0:0:0:0:
160,96,98426,5,0,0:0:0:0:
160,288,99232,5,4,0:0:0:0:
352,96,99634,5,8,0:0:0:0:
160,96,100037,5,0,0:0:0:0:
352,96,100238,5,8,0:0:0:0:
352,96,100440,5,8,0:0:0:0:
160,96,100842,5,0,0:0:0:0:
352,288,101044,5,12,0:0:0:0:
352,288,101446,5,12,0:0:0:0:
352,288,101849,5,12,0:0:0:0:
352,288,102252,5,12,0:0:0:0:
160,96,102453,5,0,0:0:0:0:
352,96,102856,5,8,0:0:0:0:
160,96,103258,5,0,0:0:0:0:
352,96,103460,5,8,0:0:0:0:
160,96,103661,5,0,0:0:0:0:
160,96,103863,5,0,0:0:0:0:
256,192,104064,12,0,105272,0:0:0:0:
160,288,105675,5,4,0:0:0:0:
352,96,106077,5,8,0:0:0:0:
160,96,106681,5,0,0:0:0:0:
352,96,106883,5,8,0:0:0:0:
160,96,107285,5,0,0:0:0:0:
352,96,107688,5,8,0:0:0:0:
160,96,108292,5,0,0:0:0:0:
352,96,108493,5,8,0:0:0:0:
160,96,108896,5,0,0:0:0:0:
352,96,109198,5,8,0:0:0:0:
352,96,109500,5,8,0:0:0:0:
160,96,109701,5,0,0:0:0:0:
352,96,110003,5,8,0:0:0:0:
352,96,110305,5,8,0:0:0:0:
160,96,110507,5,0,0:0:0:0:
352,96,110909,5,8,0:0:0:0:
352,96,111715,5,8,0:0:0:0:
160,96,112118,5,0,0:0:0:0:
352,96,112520,5,8,0:0:0:0:
160,96,112923,5,0,0:0:0:0:
160,96,113124,5,0,0:0:0:0:
352,96,113527,5,8,0:0:0:0:
160,96,113728,5,0,0:0:0:0:
352,96,114131,5,8,0:0:0:0:
160,96,114534,5,0,0:0:0:0:
160,96,114735,5,0,0:0:0:0:
160,96,115138,5,0,0:0:0:0:
352,96,115339,5,8,0:0:0:0:
352,96,116144,5,8,0:0:0:0:
160,96,116446,5,0,0:0:0:0:
160,96,116748,5,0,0:0:0:0:
352,96,116950,5,8,0:0:0:0:
160,96,117252,5,0,0:0:0:0:
352,96,117554,5,8,0:0:0:0:
160,96,117755,5,0,0:0:0:0:
352,96,118158,5,8,0:0:0:0:
160,288,118560,5,4,0:0:0:0:
352,96,119366,5,8,0:0:0:0:
160,96,119668,5,0,0:0:0:0:
160,96,119970,5,0,0:0:0:0:
352,96,120171,5,8,0:0:0:0:
352,96,120775,5,8,0:0:0:0:
160,96,120977,5,0,0:0:0:0:
352,96,121279,5,8,0:0:0:0:
352,96,121581,5,8,0:0:0:0:
160,96,121782,5,0,0:0:0:0:
160,96,122386,5,0,0:0:0:0:
352,96,122587,5,8,0:0:0:0:
160,96,122889,5,0,0:0:0:0:
160,96,123191,5,0,0:0:0:0:
352,96,123393,5,8,0:0:0:0:
160,96,123997,5,0,0:0:0:0:
352,96,124198,5,8,0:0:0:0:
352,96,124500,5,8,0:0:0:0:
352,96,124802,5,8,0:0:0:0:
160,288,125003,5,4,0:0:0:0:
352,96,125809,5,8,0:0:0:0:
160,96,126111,5,0,0:0:0:0:
160,96,126413,5,0,0:0:0:0:
352,96,126614,5,8,0:0:0:0:
352,96,127218,5,8,0:0:0:0:
160,96,127420,5,0,0:0:0:0:
160,96,127722,5,0,0:0:0:0:
160,96,128024,5,0,0:0:0:0:
352,96,128225,5,8,0:0:0:0:
160,96,128628,5,0,0:0:0:0:
352,96,129030,5,8,0:0:0:0:
352,96,129332,5,8,0:0:0:0:
352,96,129634,5,8,0:0:0:0:
256,192,129836,12,0,130641,0:0:0:0:
160,288,131446,5,4,0:0:0:0:
352,96,131648,5,8,0:0:0:0:
352,96,132050,5,8,0:0:0:0:
352,96,132252,5,8,0:0:0:0:
160,96,132654,5,0,0:0:0:0:
352,96,133057,5,8,0:0:0:0:
352,96,133359,5,8,0:0:0:0:
352,96,133661,5,8,0:0:0:0:
160,96,133863,5,0,0:0:0:0:
160,96,134668,5,0,0:0:0:0:
352,96,134869,5,8,0:0:0:0:
352,96,135272,5,8,0:0:0:0:
160,96,135473,5,0,0:0:0:0:
352,96,135876,5,8,0:0:0:0:
160,96,136279,5,0,0:0:0:0:
160,96,136581,5,0,0:0:0:0:
160,96,136883,5,0,0:0:0:0:
352,96,137084,5,8,0:0:0:0:
352,96,137487,5,8,0:0:0:0:
160,96,137889,5,0,0:0:0:0:
352,96,138493,5,8,0:0:0:0:
352,96,138695,5,8,0:0:0:0:
160,96,138997,5,0,0:0:0:0:
352,96,139299,5,8,0:0:0:0:
352,96,139500,5,8,0:0:0:0:
160,96,139903,5,0,0:0:0:0:
160,96,140305,5,0,0:0:0:0:
352,96,140708,5,8,0:0:0:0:
160,96,141111,5,0,0:0:0:0:
160,96,141916,5,0,0:0:0:0:
352,96,142319,5,8,0:0:0:0:
160,96,142722,5,0,0:0:0:0:
160,96,142923,5,0,0:0:0:0:
352,96,143124,5,8,0:0:0:0:
160,96,143527,5,0,0:0:0:0:
352,96,143930,5,8,0:0:0:0:
160,288,144332,5,4,0:0:0:0:
352,96,144534,5,8,0:0:0:0:
352,96,144936,5,8,0:0:0:0:
352,96,145138,5,8,0:0:0:0:
160,96,145540,5,0,0:0:0:0:
352,96,145943,5,8,0:0:0:0:
352,96,146245,5,8,0:0:0:0:
352,96,146547,5,8,0:0:0:0:
160,96,146748,5,0,0:0:0:0:
160,96,147554,5,0,0:0:0:0:
352,96,147755,5,8,0:0:0:0:
352,96,148158,5,8,0:0:0:0:
160,96,148359,5,0,0:0:0:0:
352,96,148762,5,8,0:0:0:0:
352,288,149165,5,12,0:0:0:0:
160,288,149467,5,4,0:0:0:0:
352,288,149769,5,12,0:0:0:0:
160,288,149970,5,4,0:0:0:0:
160,96,150775,5,0,0:0:0:0:
160,96,151077,5,0,0:0:0:0:
160,96,151379,5,0,0:0:0:0:
352,96,151581,5,8,0:0:0:0:
160,96,151983,5,0,0:0:0:0:
352,96,152386,5,8,0:0:0:0:
160,96,152688,5,0,0:0:0:0:
160,96,152990,5,0,0:0:0:0:
352,96,153191,5,8,0:0:0:0:
160,96,153594,5,0,0:0:0:0:
352,96,153997,5,8,0:0:0:0:
352,96,154601,5,8,0:0:0:0:
160,96,154802,5,0,0:0:0:0:
352,96,155104,5,8,0:0:0:0:
160,96,155406,5,0,0:0:0:0:
352,96,155607,5,8,0:0:0:0:
352,96,156010,5,8,0:0:0:0:
160,96,156413,5,0,0:0:0:0:
352,96,156816,5,8,0:0:0:0:
160,288,157218,5,4,0:0:0:0:
160,96,158024,5,0,0:0:0:0:
160,96,158225,5,0,0:0:0:0:
352,96,158426,5,8,0:0:0:0:
160,288,158829,5,4,0:0:0:0:
352,96,159232,5,8,0:0:0:0:
352,96,159433,5,8,0:0:0:0:
160,96,159634,5,0,0:0:0:0:
160,96,159836,5,0,0:0:0:0:
352,96,160037,5,8,0:0:0:0:
160,288,160440,5,4,0:0:0:0:
352,96,161044,5,8,0:0:0:0:
160,96,161245,5,0,0:0:0:0:
160,96,161446,5,0,0:0:0:0:
352,96,161648,5,8,0:0:0:0:
160,96,162050,5,0,0:0:0:0:
160,96,162352,5,0,0:0:0:0:
160,96,162654,5,0,0:0:0:0:
352,96,162856,5,8,0:0:0:0:
160,96,163057,5,0,0:0:0:0:
352,288,163258,5,12,0:0:0:0:
160,288,163661,5,4,0:0:0:0:
352,288,170103,5,12,0:0:0:0:
352,288,170305,5,12,0:0:0:0:
256,192,174936,12,0,176144,0:0:0:0:
160,288,176546,5,4,0:0:0:0:
160,96,176948,5,0,0:0:0:0:
160,96,177150,5,0,0:0:0:0:
352,96,177754,5,8,0:0:0:0:
160,96,177955,5,0,0:0:0:0:
352,96,178559,5,8,0:0:0:0:
352,96,178760,5,8,0:0:0:0:
352,96,179364,5,8,0:0:0:0:
160,96,179566,5,0,0:0:0:0:
160,288,179767,5,4,0:0:0:0:
160,96,180170,5,0,0:0:0:0:
160,96,180371,5,0,0:0:0:0:
352,96,180975,5,8,0:0:0:0:
160,96,181176,5,0,0:0:0:0:
352,96,181780,5,8,0:0:0:0:
352,96,181982,5,8,0:0:0:0:
352,96,182183,5,8,0:0:0:0:
160,96,182485,5,0,0:0:0:0:
352,96,182787,5,8,0:0:0:0:
160,288,182988,5,4,0:0:0:0:
160,96,183391,5,0,0:0:0:0:
160,96,183592,5,0,0:0:0:0:
352,96,184197,5,8,0:0:0:0:
160,96,184398,5,0,0:0:0:0:
160,96,184599,5,0,0:0:0:0:
352,96,185002,5,8,0:0:0:0:
352,96,185203,5,8,0:0:0:0:
160,96,185405,5,0,0:0:0:0:
352,96,185807,5,8,0:0:0:0:
160,288,186210,5,4,0:0:0:0:
160,96,186613,5,0,0:0:0:0:
160,96,186814,5,0,0:0:0:0:
352,96,187418,5,8,0:0:0:0:
160,96,187619,5,0,0:0:0:0:
160,96,187821,5,0,0:0:0:0:
352,96,188223,5,8,0:0:0:0:
352,96,188425,5,8,0:0:0:0:
352,96,188626,5,8,0:0:0:0:
160,96,188928,5,0,0:0:0:0:
160,96,189230,5,0,0:0:0:0:
352,288,189431,5,12,0:0:0:0:
352,96,190237,5,8,0:0:0:0:
352,96,190639,5,8,0:0:0:0:
160,96,191042,5,0,0:0:0:0:
160,96,191848,5,0,0:0:0:0:
352,96,192150,5,8,0:0:0:0:
352,96,192452,5,8,0:0:0:0:
160,96,192653,5,0,0:0:0:0:
160,96,193458,5,0,0:0:0:0:
160,96,193760,5,0,0:0:0:0:
352,96,194062,5,8,0:0:0:0:
160,96,194264,5,0,0:0:0:0:
352,96,195069,5,8,0:0:0:0:
160,96,195472,5,0,0:0:0:0:
160,288,195874,5,4,0:0:0:0:
352,96,196680,5,8,0:0:0:0:
160,96,196982,5,0,0:0:0:0:
160,96,197284,5,0,0:0:0:0:
352,96,197485,5,8,0:0:0:0:
352,96,197888,5,8,0:0:0:0:
160,96,198290,5,0,0:0:0:0:
352,96,198693,5,8,0:0:0:0:
160,96,199096,5,0,0:0:0:0:
352,96,199901,5,8,0:0:0:0:
352,96,200203,5,8,0:0:0:0:
352,96,200505,5,8,0:0:0:0:
256,192,200707,12,0,202317,0:0:0:0:
352,96,208793,5,8,0:0:0:0:
352,96,209599,5,8,0:0:0:0:
352,96,210404,5,8,0:0:0:0:
352,96,210807,5,8,0:0:0:0:
352,96,211210,5,8,0:0:0:0:
352,96,211612,5,8,0:0:0:0:
352,96,212015,5,8,0:0:0:0:
352,96,212820,5,8,0:0:0:0:
256,192,213626,12,0,214834,0:0:0:0:
160,288,215203,5,4,0:0:0:0:
352,96,215404,5,8,0:0:0:0:
352,96,215807,5,8,0:0:0:0:
160,96,216008,5,0,0:0:0:0:
352,96,216209,5,8,0:0:0:0:
160,96,216411,5,0,0:0:0:0:
352,96,216813,5,8,0:0:0:0:
352,96,217115,5,8,0:0:0:0:
352,96,217417,5,8,0:0:0:0:
160,96,217619,5,0,0:0:0:0:
160,96,218424,5,0,0:0:0:0:
352,96,218625,5,8,0:0:0:0:
352,96,219028,5,8,0:0:0:0:
160,96,219229,5,0,0:0:0:0:
160,96,219431,5,0,0:0:0:0:
352,96,219632,5,8,0:0:0:0:
352,288,220035,5,12,0:0:0:0:
160,288,220337,5,4,0:0:0:0:
352,288,220639,5,12,0:0:0:0:
160,288,220840,5,4,0:0:0:0:
160,96,221645,5,0,0:0:0:0:
160,96,221947,5,0,0:0:0:0:
160,96,222249,5,0,0:0:0:0:
352,96,222451,5,8,0:0:0:0:
160,96,222854,5,0,0:0:0:0:
352,96,223256,5,8,0:0:0:0:
160,96,223558,5,0,0:0:0:0:
160,96,223860,5,0,0:0:0:0:
352,96,224062,5,8,0:0:0:0:
160,96,224464,5,0,0:0:0:0:
352,96,224867,5,8,0:0:0:0:
352,96,225471,5,8,0:0:0:0:
160,96,225672,5,0,0:0:0:0:
352,96,225974,5,8,0:0:0:0:
160,96,226276,5,0,0:0:0:0:
352,96,226478,5,8,0:0:0:0:
352,96,226880,5,8,0:0:0:0:
160,96,227283,5,0,0:0:0:0:
352,96,227686,5,8,0:0:0:0:
160,288,228088,5,4,0:0:0:0:
160,96,228894,5,0,0:0:0:0:
160,96,229095,5,0,0:0:0:0:
352,96,229296,5,8,0:0:0:0:
160,288,229699,5,4,0:0:0:0:
352,96,230102,5,8,0:0:0:0:
352,96,230303,5,8,0:0:0:0:
160,96,230505,5,0,0:0:0:0:
160,96,230706,5,0,0:0:0:0:
352,96,230907,5,8,0:0:0:0:
160,288,231310,5,4,0:0:0:0:
352,96,231914,5,8,0:0:0:0:
160,96,232115,5,0,0:0:0:0:
160,96,232317,5,0,0:0:0:0:
352,96,232518,5,8,0:0:0:0:
160,96,232921,5,0,0:0:0:0:
160,96,233223,5,0,0:0:0:0:
160,96,233525,5,0,0:0:0:0:
352,96,233726,5,8,0:0:0:0:
352,96,234129,5,8,0:0:0:0:
352,96,234330,5,8,0:0:0:0:
160,288,234531,5,4,0:0:0:0:
256,192,234733,12,0,240974,0:0:0:0:
