osu file format v14

[General]
AudioFilename: audio.ogg
AudioLeadIn: 0
PreviewTime: 57327
Countdown: 0
SampleSet: Normal
StackLeniency: 0.7
Mode: 1
LetterboxInBreaks: 0
WidescreenStoryboard: 1

[Editor]
Bookmarks: 16087,64309
DistanceSpacing: 1.2
BeatDivisor: 4
GridSize: 4
TimelineZoom: 0.5999999

[Metadata]
Title:Shinteki Souzou
TitleUnicode:神的創造
Artist:Yousei Teikoku
ArtistUnicode:妖精帝國
Creator:yassu-
Version:Kantan
Source:fortissimo FA//Akkord:nächsten Phase
Tags:FA//Akkord:nachsten フォルテシモフルアクセス アコルト:ネクステンファーゼ LACA-15470 Lantis Hades:The other world itsuki yui 伊月ゆい Das Feenreich La'cryma video game Visual Novel Eroge opening op ver version full japanese j-rock jrock Volta TKS TKSalt komasy
BeatmapID:3395249
BeatmapSetID:1650287

[Difficulty]
HPDrainRate:8
CircleSize:5
OverallDifficulty:3
ApproachRate:5
SliderMultiplier:1.4
SliderTickRate:1

[Events]
//Background and Video events
0,0,"Kantan BG.jpg",0,100
//Break Periods
2,163861,168903
2,170303,175346
2,202517,207593
//Storyboard Layer 0 (Background)
//Storyboard Layer 1 (Fail)
//Storyboard Layer 2 (Pass)
//Storyboard Layer 3 (Foreground)
//Storyboard Layer 4 (Overlay)
//Storyboard Sound Samples

[TimingPoints]
179,434.782608695652,4,1,0,50,1,0
9744,451.127819548872,4,1,0,50,1,8
9744,-96.3762528912876,4,1,0,50,0,0
10646,458.015267175573,4,1,0,50,1,0
10646,-94.9275465500956,4,1,0,50,0,0
12478,491.803278688525,4,1,0,50,1,0
12478,-88.4056049153516,4,1,0,50,0,0
13461,402.684563758389,4,1,0,90,1,8
13863,201.342281879195,4,1,0,90,1,0
13863,-200,4,1,0,90,0,0
57352,-200,4,1,0,100,0,1
89567,-200,4,1,0,100,0,0
89668,-200,4,1,0,90,0,0
131446,-200,4,1,0,100,0,1
163661,402.684563758389,4,1,0,80,1,0
163661,-100,4,1,0,80,0,0
163862,-100,4,1,0,30,0,0
170003,-100,4,1,0,80,0,0
170506,-100,4,1,0,30,0,0
176546,201.342281879195,4,1,0,90,1,0
176546,-200,4,1,0,90,0,0
182938,-200,4,1,0,100,0,0
189733,-200,4,1,0,90,0,0
200707,-200,4,1,0,30,0,0
202317,-200,4,1,0,50,0,0
202351,402.684563758389,4,1,0,50,1,8
202351,-100,4,1,0,50,0,0
215203,201.342281879195,4,1,0,100,1,1
215203,-200,4,1,0,100,0,1
234531,-200,4,1,0,100,0,0
234632,-200,4,1,0,30,0,0

[HitObjects]
212,170,179,5,2,0:0:0:0:
249,167,1918,1,0,0:0:0:0:
242,150,3657,1,2,0:0:0:0:
243,147,4092,1,2,0:0:0:0:
240,143,4526,1,2,0:0:0:0:
241,142,5396,1,0,0:0:0:0:
251,163,7135,1,0,0:0:0:0:
260,158,8005,1,2,0:0:0:0:
256,148,8874,1,2,0:0:0:0:
242,194,9744,1,2,0:0:0:0:
256,197,10646,1,0,0:0:0:0:
256,192,12478,12,0,13461,0:0:0:0:
253,202,13863,5,4,0:0:0:0:
265,220,14668,1,2,0:0:0:0:
276,199,15473,1,0,0:0:0:0:
285,193,16279,1,2,0:0:0:0:
272,217,16681,1,2,0:0:0:0:
275,216,17084,1,0,0:0:0:0:
282,211,18896,1,2,0:0:0:0:
285,193,19299,1,2,0:0:0:0:
274,209,19701,1,2,0:0:0:0:
253,202,20305,1,4,0:0:0:0:
265,220,21111,1,2,0:0:0:0:
276,199,21916,1,0,0:0:0:0:
281,212,22722,1,2,0:0:0:0:
285,198,23124,1,2,0:0:0:0:
253,202,23527,1,0,0:0:0:0:
282,211,25339,1,2,0:0:0:0:
285,193,25742,1,2,0:0:0:0:
274,209,26144,1,2,0:0:0:0:
285,206,26547,1,2,0:0:0:0:
294,207,27554,1,2,0:0:0:0:
260,167,27956,1,0,0:0:0:0:
272,172,28359,1,6,0:0:0:0:
246,183,29970,1,2,0:0:0:0:
277,188,30775,1,0,0:0:0:0:
259,209,31178,1,2,0:0:0:0:
276,201,31581,1,4,0:0:0:0:
267,198,32990,1,4,0:0:0:0:
263,180,34802,1,4,0:0:0:0:
275,161,35607,1,0,0:0:0:0:
230,209,36413,1,2,0:0:0:0:
249,150,38024,1,4,0:0:0:0:
275,161,38829,1,2,0:0:0:0:
230,209,39634,1,0,0:0:0:0:
280,155,40440,1,0,0:0:0:0:
281,155,40842,1,0,0:0:0:0:
304,161,41245,1,6,0:0:0:0:
275,161,42050,1,0,0:0:0:0:
230,209,42856,1,2,0:0:0:0:
296,171,44467,1,4,0:0:0:0:
251,186,45272,1,0,0:0:0:0:
272,178,46279,1,2,0:0:0:0:
265,197,46883,1,2,0:0:0:0:
276,225,47688,1,4,0:0:0:0:
278,197,48493,1,0,0:0:0:0:
294,140,49500,1,2,0:0:0:0:
262,151,50104,1,2,0:0:0:0:
298,155,50909,1,4,0:0:0:0:
268,192,51715,1,2,0:0:0:0:
244,177,52118,1,2,0:0:0:0:
276,170,52520,1,0,0:0:0:0:
261,170,53326,1,2,0:0:0:0:
251,141,54131,1,0,0:0:0:0:
246,135,54534,1,0,0:0:0:0:
246,136,54936,1,0,0:0:0:0:
278,195,55339,1,0,0:0:0:0:
240,199,55742,1,2,0:0:0:0:
274,193,57352,5,4,0:0:0:0:
269,209,58158,1,2,0:0:0:0:
285,193,58963,1,0,0:0:0:0:
278,169,59366,1,0,0:0:0:0:
289,193,59769,1,2,0:0:0:0:
285,186,60574,1,4,0:0:0:0:
279,202,61379,1,2,0:0:0:0:
266,191,61782,1,2,0:0:0:0:
285,193,62185,1,0,0:0:0:0:
289,193,62990,1,2,0:0:0:0:
285,186,63795,1,4,0:0:0:0:
258,186,64601,1,2,0:0:0:0:
283,193,65406,1,0,0:0:0:0:
270,204,65809,1,0,0:0:0:0:
289,193,66211,1,2,0:0:0:0:
257,184,66614,1,2,0:0:0:0:
257,184,67017,1,4,0:0:0:0:
285,193,68628,1,0,0:0:0:0:
292,183,69030,1,0,0:0:0:0:
289,202,69433,1,2,0:0:0:0:
285,186,70238,1,4,0:0:0:0:
258,186,71044,1,2,0:0:0:0:
265,161,71446,1,2,0:0:0:0:
285,193,71849,1,0,0:0:0:0:
289,193,72654,1,2,0:0:0:0:
276,165,73460,1,4,0:0:0:0:
258,186,74265,1,0,0:0:0:0:
267,180,74668,1,0,0:0:0:0:
285,193,75071,1,6,0:0:0:0:
289,193,75876,1,6,0:0:0:0:
285,186,76681,1,4,0:0:0:0:
267,185,78292,1,2,0:0:0:0:
260,186,79097,1,2,0:0:0:0:
267,183,79903,1,4,0:0:0:0:
267,152,80708,1,0,0:0:0:0:
276,171,81514,1,2,0:0:0:0:
276,171,81916,1,2,0:0:0:0:
333,147,82319,1,2,0:0:0:0:
263,195,83124,5,0,0:0:0:0:
261,206,83527,1,2,0:0:0:0:
264,202,84332,1,2,0:0:0:0:
265,200,84735,1,0,0:0:0:0:
252,190,85138,1,0,0:0:0:0:
262,194,85540,1,2,0:0:0:0:
266,179,86346,1,0,0:0:0:0:
271,177,86748,1,2,0:0:0:0:
281,180,87554,1,0,0:0:0:0:
276,178,87956,1,2,0:0:0:0:
269,160,88762,1,2,0:0:0:0:
253,202,89567,5,4,0:0:0:0:
265,220,90373,1,2,0:0:0:0:
276,199,91178,1,0,0:0:0:0:
285,193,91983,1,2,0:0:0:0:
272,217,92386,1,2,0:0:0:0:
275,216,92789,1,0,0:0:0:0:
282,211,94601,1,2,0:0:0:0:
285,193,95003,1,2,0:0:0:0:
274,209,95406,1,2,0:0:0:0:
253,202,96010,1,0,0:0:0:0:
265,220,96816,1,2,0:0:0:0:
276,199,97621,1,0,0:0:0:0:
281,212,98426,1,2,0:0:0:0:
285,198,98829,1,2,0:0:0:0:
253,202,99232,1,0,0:0:0:0:
282,211,101044,1,2,0:0:0:0:
285,193,101446,1,2,0:0:0:0:
274,209,101849,1,2,0:0:0:0:
285,206,102252,1,2,0:0:0:0:
294,207,103258,1,2,0:0:0:0:
260,167,103661,1,0,0:0:0:0:
272,172,104064,1,6,0:0:0:0:
246,183,104869,1,2,0:0:0:0:
256,179,105272,1,2,0:0:0:0:
277,188,105675,1,4,0:0:0:0:
276,201,106480,1,2,0:0:0:0:
269,188,107285,1,0,0:0:0:0:
285,168,107688,1,0,0:0:0:0:
267,198,108091,1,2,0:0:0:0:
263,180,108896,1,4,0:0:0:0:
275,161,109701,1,0,0:0:0:0:
230,209,110507,1,2,0:0:0:0:
249,150,112118,1,4,0:0:0:0:
275,161,112923,1,2,0:0:0:0:
230,209,113728,1,0,0:0:0:0:
280,155,114534,1,0,0:0:0:0:
281,155,114936,1,0,0:0:0:0:
304,161,115339,1,6,0:0:0:0:
275,161,116144,1,0,0:0:0:0:
230,209,116950,1,2,0:0:0:0:
296,171,118560,1,4,0:0:0:0:
251,186,119366,1,0,0:0:0:0:
272,178,120373,1,2,0:0:0:0:
265,197,120977,1,2,0:0:0:0:
276,225,121782,1,4,0:0:0:0:
278,197,122587,1,0,0:0:0:0:
294,140,123594,1,2,0:0:0:0:
262,151,124198,1,2,0:0:0:0:
298,155,125003,1,4,0:0:0:0:
268,192,125809,1,2,0:0:0:0:
244,177,126211,1,2,0:0:0:0:
276,170,126614,1,0,0:0:0:0:
261,170,127420,1,2,0:0:0:0:
251,141,128225,1,0,0:0:0:0:
246,135,128628,1,0,0:0:0:0:
246,136,129030,1,0,0:0:0:0:
278,195,129433,1,0,0:0:0:0:
257,181,129836,1,2,0:0:0:0:
274,193,131446,5,4,0:0:0:0:
269,209,132252,1,2,0:0:0:0:
265,161,132654,1,2,0:0:0:0:
285,193,133057,1,0,0:0:0:0:
289,193,133863,1,2,0:0:0:0:
285,186,134668,1,4,0:0:0:0:
279,202,135473,1,0,0:0:0:0:
276,183,135876,1,0,0:0:0:0:
285,193,136279,1,2,0:0:0:0:
289,193,137084,1,2,0:0:0:0:
285,186,137889,1,4,0:0:0:0:
258,186,138695,1,0,0:0:0:0:
283,193,139500,1,2,0:0:0:0:
288,202,139903,1,2,0:0:0:0:
294,197,140305,1,0,0:0:0:0:
278,156,140708,1,0,0:0:0:0:
253,177,141111,1,6,0:0:0:0:
285,193,142722,1,0,0:0:0:0:
270,204,143527,1,2,0:0:0:0:
299,198,143930,1,2,0:0:0:0:
285,186,144332,1,4,0:0:0:0:
258,186,145138,1,2,0:0:0:0:
285,193,145943,1,0,0:0:0:0:
265,161,146346,1,0,0:0:0:0:
293,197,146748,1,2,0:0:0:0:
276,165,147554,1,4,0:0:0:0:
258,186,148359,1,2,0:0:0:0:
288,180,148762,1,2,0:0:0:0:
285,193,149165,1,4,0:0:0:0:
289,193,149970,1,6,0:0:0:0:
285,186,150775,1,4,0:0:0:0:
267,185,152386,1,2,0:0:0:0:
265,191,153191,1,2,0:0:0:0:
267,183,153997,1,4,0:0:0:0:
267,152,154802,1,0,0:0:0:0:
273,166,155205,1,0,0:0:0:0:
276,171,155607,1,2,0:0:0:0:
333,147,156413,1,2,0:0:0:0:
263,195,157218,5,0,0:0:0:0:
261,206,157621,1,2,0:0:0:0:
264,202,158426,1,2,0:0:0:0:
265,200,158829,1,0,0:0:0:0:
269,198,159232,1,0,0:0:0:0:
262,194,159634,1,2,0:0:0:0:
266,179,160440,1,0,0:0:0:0:
271,177,160842,1,2,0:0:0:0:
281,180,161648,1,0,0:0:0:0:
276,178,162050,1,2,0:0:0:0:
269,160,162856,1,2,0:0:0:0:
265,184,163258,1,0,0:0:0:0:
230,238,163661,1,6,0:0:0:0:
259,191,170103,5,6,0:0:0:0:
243,188,176546,5,4,0:0:0:0:
243,188,176948,1,2,0:0:0:0:
260,166,177754,1,0,0:0:0:0:
270,154,178559,1,2,0:0:0:0:
286,138,179364,1,0,0:0:0:0:
270,132,179767,1,0,0:0:0:0:
287,167,180170,1,2,0:0:0:0:
297,142,180975,1,0,0:0:0:0:
300,143,181780,1,2,0:0:0:0:
283,156,182183,1,0,0:0:0:0:
277,178,182988,1,4,0:0:0:0:
322,163,183391,1,2,0:0:0:0:
322,173,184197,1,2,0:0:0:0:
322,174,184599,1,0,0:0:0:0:
295,167,185002,1,2,0:0:0:0:
323,163,185807,1,2,0:0:0:0:
326,163,186210,1,0,0:0:0:0:
329,156,186613,1,2,0:0:0:0:
301,165,187418,1,2,0:0:0:0:
324,160,187821,1,0,0:0:0:0:
320,170,188223,1,2,0:0:0:0:
324,115,188626,1,0,0:0:0:0:
300,119,189431,1,4,0:0:0:0:
292,216,191042,1,2,0:0:0:0:
297,195,191848,1,0,0:0:0:0:
283,184,192250,1,0,0:0:0:0:
277,199,192653,1,2,0:0:0:0:
280,202,193861,1,0,0:0:0:0:
281,201,194264,1,2,0:0:0:0:
268,212,195069,1,2,0:0:0:0:
274,207,195472,1,2,0:0:0:0:
288,206,195874,1,4,0:0:0:0:
292,216,197485,1,2,0:0:0:0:
268,191,198693,1,0,0:0:0:0:
277,199,199096,1,2,0:0:0:0:
254,184,199901,5,2,0:0:0:0:
269,195,200304,1,2,0:0:0:0:
256,192,200707,12,0,202317,0:0:0:0:
261,202,208793,5,0,0:0:0:0:
290,192,209599,1,2,0:0:0:0:
287,174,210404,1,0,0:0:0:0:
290,192,210807,1,0,0:0:0:0:
265,182,211210,1,2,0:0:0:0:
269,196,212015,1,0,0:0:0:0:
269,196,212820,1,2,0:0:0:0:
269,196,213223,1,2,0:0:0:0:
256,192,213626,12,0,214834,0:0:0:0:
285,186,215203,5,4,0:0:0:0:
258,186,216008,1,2,0:0:0:0:
265,161,216411,1,2,0:0:0:0:
285,193,216813,1,0,0:0:0:0:
290,190,217216,1,0,0:0:0:0:
289,193,217619,1,2,0:0:0:0:
276,165,218424,1,4,0:0:0:0:
258,186,219229,1,0,0:0:0:0:
267,180,219632,1,0,0:0:0:0:
285,193,220035,1,6,0:0:0:0:
289,193,220840,1,6,0:0:0:0:
285,186,221645,1,4,0:0:0:0:
267,185,223256,1,2,0:0:0:0:
278,199,224062,1,2,0:0:0:0:
276,187,224464,1,2,0:0:0:0:
267,183,224867,5,4,0:0:0:0:
267,152,225672,1,0,0:0:0:0:
276,171,226478,1,2,0:0:0:0:
299,173,226880,1,2,0:0:0:0:
333,147,227283,1,2,0:0:0:0:
263,195,228088,5,0,0:0:0:0:
261,206,228491,1,2,0:0:0:0:
264,202,229296,1,2,0:0:0:0:
265,200,229699,1,0,0:0:0:0:
260,216,230102,1,0,0:0:0:0:
262,194,230505,1,2,0:0:0:0:
266,179,231310,1,0,0:0:0:0:
271,177,231713,1,2,0:0:0:0:
278,187,232115,1,0,0:0:0:0:
281,180,232518,1,0,0:0:0:0:
276,178,232921,1,2,0:0:0:0:
269,160,233726,5,2,0:0:0:0:
260,175,234129,1,2,0:0:0:0:
253,202,234531,5,4,0:0:0:0:
256,192,234934,12,0,240974,0:0:0:0:
