osu file format v14

[General]
AudioFilename: audio.ogg
AudioLeadIn: 0
PreviewTime: 57327
Countdown: 0
SampleSet: Normal
StackLeniency: 0.7
Mode: 1
LetterboxInBreaks: 0
WidescreenStoryboard: 0

[Editor]
Bookmarks: 64309
DistanceSpacing: 1.2
BeatDivisor: 8
GridSize: 4
TimelineZoom: 2.4

[Metadata]
Title:Shinteki Souzou
TitleUnicode:神的創造
Artist:Yousei Teikoku
ArtistUnicode:妖精帝國
Creator:yassu-
Version:Divine Creation
Source:fortissimo FA//Akkord:nächsten Phase
Tags:FA//Akkord:nachsten フォルテシモフルアクセス アコルト:ネクステンファーゼ LACA-15470 Lantis Hades:The other world itsuki yui 伊月ゆい Das Feenreich La'cryma video game Visual Novel Eroge opening op ver version full japanese j-rock jrock Volta TKS TKSalt komasy
BeatmapID:3368303
BeatmapSetID:1650287

[Difficulty]
HPDrainRate:6.5
CircleSize:5
OverallDifficulty:8
ApproachRate:5
SliderMultiplier:1.4
SliderTickRate:1

[Events]
//Background and Video events
0,0,"Divine Creation BG.jpg",0,85
//Break Periods
2,163861,168903
2,170505,173736
//Storyboard Layer 0 (Background)
//Storyboard Layer 1 (Fail)
//Storyboard Layer 2 (Pass)
//Storyboard Layer 3 (Foreground)
//Storyboard Layer 4 (Overlay)
//Storyboard Sound Samples

[TimingPoints]
179,434.782608695652,4,1,0,50,1,0
9744,451.127819548872,4,1,0,50,1,8
9744,-96.3762528912876,4,1,0,50,0,0
10646,458.015267175573,4,1,0,50,1,0
10646,-94.9275465500956,4,1,0,50,0,0
12478,491.803278688525,4,1,0,50,1,0
12478,-88.4056049153516,4,1,0,50,0,0
13461,402.684563758389,4,1,0,90,1,8
13461,-83.3333333333333,4,1,0,90,0,0
13561,-71.4285714285714,4,1,0,90,0,0
13662,-62.5,4,1,0,90,0,0
13763,-55.5555555555556,4,1,0,90,0,0
13863,201.342281879195,4,1,0,90,1,0
31581,-83.3333333333333,4,1,0,90,0,0
32990,-90.9090909090909,4,1,0,90,0,0
33997,-100,4,1,0,90,0,0
34064,-100.840336202246,4,1,0,90,0,0
34131,-101.694915257685,4,1,0,90,0,0
34198,-102.564102564103,4,1,0,90,0,0
34399,-105.263157894737,4,1,0,90,0,0
34500,-106.666666666667,4,1,0,90,0,0
34601,-108.108108108108,4,1,0,90,0,0
34701,-109.58904109589,4,1,0,90,0,0
34802,-111.111111111111,4,1,0,90,0,0
44668,-99.9999999999999,4,1,0,90,0,0
55742,-80,4,1,0,90,0,0
57050,-83.3333333333333,4,1,0,90,0,0
57101,-85.1063829787234,4,1,0,90,0,0
57151,-86.9565217391304,4,1,0,90,0,0
57252,-90.9090909090909,4,1,0,90,0,0
57352,-95.2380952380952,4,1,0,100,0,1
82420,-96.1538461538461,4,1,0,100,0,1
82520,-97.0873786407767,4,1,0,100,0,1
82621,-98.0392156862745,4,1,0,100,0,1
82722,-99.009900990099,4,1,0,100,0,1
82822,-100,4,1,0,100,0,1
82923,-100.502512562814,4,1,0,100,0,1
83024,-102.040816326531,4,1,0,100,0,1
83124,-90.9090909090909,4,1,0,100,0,1
89265,-93.0232558139535,4,1,0,100,0,1
89366,-95.2380952380952,4,1,0,100,0,1
89467,-97.5609756097561,4,1,0,100,0,1
89567,-100,4,1,0,100,0,0
89668,-100,4,1,0,90,0,0
105876,-111.111111111111,4,1,0,90,0,0
118762,-100,4,1,0,90,0,0
129810,-80,4,1,0,90,0,0
131118,-83.3333333333333,4,1,0,90,0,0
131169,-85.1063829787234,4,1,0,90,0,0
131219,-86.9565217391304,4,1,0,90,0,0
131320,-90.9090909090909,4,1,0,90,0,0
131446,-95.2380952380952,4,1,0,100,0,1
156463,-96.1538461538461,4,1,0,100,0,1
156563,-97.0873786407767,4,1,0,100,0,1
156664,-98.0392156862745,4,1,0,100,0,1
156765,-99.009900990099,4,1,0,100,0,1
156865,-100,4,1,0,100,0,1
156966,-100.502512562814,4,1,0,100,0,1
157067,-102.040816326531,4,1,0,100,0,1
157218,-90.9090909090909,4,1,0,100,0,1
163661,402.684563758389,4,1,0,80,1,0
163661,-66.6666666666667,4,1,0,80,0,0
163862,-66.6666666666667,4,1,0,30,0,0
170003,-66.6666666666667,4,1,0,80,0,0
170506,-66.6666666666667,4,1,0,30,0,0
176546,201.342281879195,4,1,0,90,1,0
176546,-100,4,1,0,90,0,0
182938,-90.9090909090909,4,1,0,100,0,0
189733,-111.111111111111,4,1,0,90,0,0
200707,-111.111111111111,4,1,0,30,0,0
201512,-153.846153846154,4,1,0,30,0,0
202317,-200,4,1,0,50,0,0
202351,402.684563758389,4,1,0,50,1,8
215203,201.342281879195,4,1,0,100,1,1
215203,-95.2380952380952,4,1,0,100,0,1
227333,-96.1538461538461,4,1,0,100,0,1
227433,-97.0873786407767,4,1,0,100,0,1
227534,-98.0392156862745,4,1,0,100,0,1
227635,-99.009900990099,4,1,0,100,0,1
227735,-100,4,1,0,100,0,1
227836,-100.502512562814,4,1,0,100,0,1
227937,-102.040816326531,4,1,0,100,0,1
228088,-90.9090909090909,4,1,0,100,0,1
234531,-90.9090909090909,4,1,0,100,0,0
234632,-90.9090909090909,4,1,0,30,0,0

[HitObjects]
212,170,179,5,2,0:0:0:0:
217,173,396,1,0,0:0:0:0:
242,170,505,1,0,0:0:0:0:
242,170,613,1,2,0:0:0:0:
242,170,831,1,0,0:0:0:0:
242,170,1048,1,2,0:0:0:0:
253,177,1483,1,0,0:0:0:0:
242,165,1700,1,2,0:0:0:0:
249,167,1918,1,0,0:0:0:0:
233,167,2352,1,2,0:0:0:0:
233,166,2570,1,2,0:0:0:0:
249,167,2787,1,0,0:0:0:0:
253,177,3222,1,2,0:0:0:0:
248,168,3439,1,0,0:0:0:0:
244,163,3548,1,0,0:0:0:0:
242,150,3657,1,2,0:0:0:0:
240,149,3765,1,0,0:0:0:0:
240,149,3874,1,0,0:0:0:0:
241,148,3983,1,0,0:0:0:0:
243,147,4092,1,2,0:0:0:0:
241,142,4200,1,0,0:0:0:0:
241,142,4309,1,0,0:0:0:0:
241,142,4418,1,0,0:0:0:0:
240,143,4526,1,2,0:0:0:0:
240,139,4635,1,0,0:0:0:0:
240,140,4744,1,0,0:0:0:0:
240,141,4852,1,0,0:0:0:0:
241,148,4961,1,2,0:0:0:0:
241,142,5396,1,2,0:0:0:0:
252,176,5613,1,0,0:0:0:0:
252,165,5722,1,2,0:0:0:0:
251,164,5831,1,2,0:0:0:0:
251,163,5939,1,2,0:0:0:0:
251,163,6048,1,0,0:0:0:0:
251,163,6157,1,2,0:0:0:0:
251,157,6265,1,2,0:0:0:0:
251,157,6483,1,2,0:0:0:0:
251,157,6700,1,0,0:0:0:0:
251,163,7135,1,2,0:0:0:0:
217,172,7352,1,0,0:0:0:0:
257,160,7570,1,2,0:0:0:0:
262,159,7787,1,0,0:0:0:0:
262,158,7896,1,0,0:0:0:0:
260,158,8005,1,2,0:0:0:0:
273,158,8222,1,2,0:0:0:0:
273,158,8439,1,0,0:0:0:0:
262,159,8657,1,0,0:0:0:0:
258,149,8765,1,0,0:0:0:0:
256,148,8874,1,2,0:0:0:0:
273,158,9092,1,0,0:0:0:0:
273,158,9309,1,2,0:0:0:0:
244,211,9526,1,0,0:0:0:0:
243,207,9635,1,0,0:0:0:0:
242,194,9744,1,2,0:0:0:0:
263,177,10082,1,0,0:0:0:0:
263,177,10195,1,2,0:0:0:0:
255,184,10420,1,2,0:0:0:0:
256,197,10646,1,0,0:0:0:0:
276,180,12249,1,2,0:0:0:0:
245,189,12363,1,2,0:0:0:0:
276,180,12478,1,0,0:0:0:0:
253,202,13461,5,2,0:0:0:0:
256,211,13561,1,2,0:0:0:0:
251,209,13662,1,2,0:0:0:0:
253,202,13763,1,2,0:0:0:0:
253,202,13863,1,4,0:0:0:0:
246,221,14064,1,2,0:0:0:0:
250,220,14114,1,2,0:0:0:0:
250,220,14165,1,0,0:0:0:0:
250,220,14265,1,2,0:0:0:0:
250,220,14366,1,0,0:0:0:0:
264,218,14467,1,2,0:0:0:0:
264,215,14517,1,2,0:0:0:0:
264,215,14567,1,0,0:0:0:0:
264,215,14618,1,0,0:0:0:0:
265,220,14668,1,2,0:0:0:0:
269,220,14769,1,0,0:0:0:0:
269,220,14869,1,2,0:0:0:0:
272,217,14920,1,2,0:0:0:0:
272,217,14970,1,0,0:0:0:0:
272,217,15071,1,2,0:0:0:0:
272,217,15171,1,0,0:0:0:0:
275,217,15222,1,0,0:0:0:0:
275,217,15272,1,2,0:0:0:0:
274,209,15322,1,2,0:0:0:0:
276,218,15373,1,2,0:0:0:0:
274,211,15423,1,2,0:0:0:0:
276,199,15473,1,0,0:0:0:0:
269,211,15574,1,0,0:0:0:0:
282,211,15675,1,2,0:0:0:0:
283,210,15725,1,2,0:0:0:0:
283,207,15775,1,0,0:0:0:0:
283,201,15876,1,2,0:0:0:0:
274,196,15977,1,0,0:0:0:0:
280,202,16027,1,0,0:0:0:0:
285,193,16077,1,2,0:0:0:0:
281,212,16178,1,2,0:0:0:0:
281,212,16279,1,0,0:0:0:0:
281,212,16329,1,0,0:0:0:0:
281,212,16379,1,2,0:0:0:0:
274,211,16430,1,2,0:0:0:0:
274,209,16480,1,0,0:0:0:0:
275,213,16581,1,0,0:0:0:0:
275,216,16681,1,2,0:0:0:0:
277,214,16732,1,2,0:0:0:0:
274,216,16782,1,0,0:0:0:0:
276,211,16832,1,2,0:0:0:0:
274,216,16883,1,0,0:0:0:0:
274,216,16933,1,0,0:0:0:0:
274,216,16983,1,2,0:0:0:0:
253,202,17084,1,4,0:0:0:0:
246,221,17285,1,2,0:0:0:0:
250,220,17336,1,2,0:0:0:0:
250,220,17386,1,0,0:0:0:0:
250,220,17487,1,2,0:0:0:0:
250,220,17587,1,0,0:0:0:0:
264,218,17688,1,2,0:0:0:0:
264,215,17738,1,2,0:0:0:0:
264,215,17789,1,0,0:0:0:0:
264,215,17839,1,0,0:0:0:0:
265,220,17889,1,2,0:0:0:0:
269,220,17990,1,0,0:0:0:0:
269,220,18091,1,2,0:0:0:0:
272,217,18141,1,2,0:0:0:0:
272,217,18191,1,0,0:0:0:0:
272,217,18292,1,2,0:0:0:0:
272,217,18393,1,0,0:0:0:0:
275,217,18443,1,0,0:0:0:0:
275,217,18493,1,2,0:0:0:0:
274,209,18544,1,2,0:0:0:0:
276,218,18594,1,2,0:0:0:0:
274,211,18644,1,2,0:0:0:0:
276,199,18695,1,0,0:0:0:0:
269,211,18795,1,0,0:0:0:0:
282,211,18896,1,6,0:0:0:0:
283,207,18997,1,0,0:0:0:0:
283,210,19047,1,0,0:0:0:0:
283,201,19097,1,2,0:0:0:0:
274,196,19198,1,0,0:0:0:0:
285,193,19299,1,6,0:0:0:0:
281,212,19399,1,0,0:0:0:0:
276,205,19450,1,0,0:0:0:0:
281,212,19500,1,2,0:0:0:0:
274,209,19550,1,2,0:0:0:0:
281,212,19601,1,0,0:0:0:0:
274,209,19701,1,6,0:0:0:0:
275,213,19802,1,0,0:0:0:0:
267,211,19852,1,0,0:0:0:0:
275,216,19903,1,2,0:0:0:0:
274,216,20003,1,0,0:0:0:0:
285,206,20104,1,2,0:0:0:0:
274,216,20205,1,2,0:0:0:0:
253,202,20305,1,4,0:0:0:0:
246,221,20507,1,2,0:0:0:0:
250,220,20557,1,2,0:0:0:0:
250,220,20607,1,0,0:0:0:0:
250,220,20708,1,2,0:0:0:0:
250,220,20809,1,0,0:0:0:0:
264,218,20909,1,2,0:0:0:0:
264,215,20960,1,2,0:0:0:0:
264,215,21010,1,0,0:0:0:0:
264,215,21060,1,0,0:0:0:0:
265,220,21111,1,2,0:0:0:0:
269,220,21211,1,0,0:0:0:0:
269,220,21312,1,2,0:0:0:0:
272,217,21363,1,2,0:0:0:0:
272,217,21413,1,0,0:0:0:0:
272,217,21514,1,2,0:0:0:0:
272,217,21614,1,0,0:0:0:0:
275,217,21665,1,0,0:0:0:0:
275,217,21715,1,2,0:0:0:0:
274,209,21765,1,0,0:0:0:0:
276,218,21816,1,2,0:0:0:0:
274,211,21866,1,2,0:0:0:0:
276,199,21916,1,0,0:0:0:0:
269,211,22017,1,0,0:0:0:0:
282,211,22118,1,2,0:0:0:0:
283,210,22168,1,2,0:0:0:0:
283,207,22218,1,0,0:0:0:0:
283,201,22319,1,2,0:0:0:0:
274,196,22420,1,0,0:0:0:0:
280,202,22470,1,0,0:0:0:0:
285,193,22520,1,2,0:0:0:0:
281,212,22621,1,2,0:0:0:0:
281,212,22722,1,0,0:0:0:0:
281,212,22772,1,0,0:0:0:0:
281,212,22822,1,2,0:0:0:0:
274,211,22873,1,2,0:0:0:0:
274,209,22923,1,0,0:0:0:0:
275,213,23024,1,0,0:0:0:0:
275,216,23124,1,2,0:0:0:0:
277,214,23175,1,2,0:0:0:0:
274,216,23225,1,0,0:0:0:0:
276,211,23275,1,2,0:0:0:0:
274,216,23326,1,0,0:0:0:0:
274,216,23376,1,0,0:0:0:0:
274,216,23426,1,2,0:0:0:0:
253,202,23527,1,4,0:0:0:0:
246,221,23728,1,2,0:0:0:0:
250,220,23779,1,2,0:0:0:0:
250,220,23829,1,0,0:0:0:0:
250,220,23930,1,2,0:0:0:0:
250,220,24030,1,0,0:0:0:0:
264,218,24131,1,2,0:0:0:0:
264,215,24181,1,2,0:0:0:0:
264,215,24232,1,0,0:0:0:0:
264,215,24282,1,0,0:0:0:0:
265,220,24332,1,2,0:0:0:0:
269,220,24433,1,0,0:0:0:0:
269,220,24534,1,2,0:0:0:0:
272,217,24584,1,2,0:0:0:0:
272,217,24634,1,0,0:0:0:0:
272,217,24735,1,2,0:0:0:0:
272,217,24836,1,0,0:0:0:0:
275,217,24886,1,0,0:0:0:0:
275,217,24936,1,2,0:0:0:0:
274,209,24987,1,2,0:0:0:0:
276,218,25037,1,2,0:0:0:0:
274,211,25087,1,2,0:0:0:0:
276,199,25138,1,0,0:0:0:0:
269,211,25238,1,0,0:0:0:0:
282,211,25339,1,6,0:0:0:0:
283,207,25440,1,0,0:0:0:0:
283,210,25490,1,0,0:0:0:0:
283,201,25540,1,2,0:0:0:0:
274,196,25641,1,0,0:0:0:0:
285,193,25742,1,6,0:0:0:0:
281,212,25842,1,0,0:0:0:0:
276,205,25893,1,0,0:0:0:0:
281,212,25943,1,2,0:0:0:0:
274,209,25993,1,2,0:0:0:0:
281,212,26044,1,0,0:0:0:0:
274,209,26144,1,6,0:0:0:0:
275,213,26245,1,0,0:0:0:0:
267,211,26295,1,0,0:0:0:0:
275,216,26346,1,2,0:0:0:0:
274,216,26446,1,0,0:0:0:0:
285,206,26547,1,6,0:0:0:0:
253,202,26748,1,4,0:0:0:0:
285,216,26849,1,0,0:0:0:0:
297,221,26950,1,2,0:0:0:0:
297,221,27050,1,0,0:0:0:0:
253,188,27101,1,0,0:0:0:0:
285,210,27151,1,2,0:0:0:0:
292,207,27252,1,0,0:0:0:0:
294,207,27352,1,2,0:0:0:0:
267,171,27403,1,2,0:0:0:0:
294,206,27453,1,0,0:0:0:0:
292,178,27503,1,0,0:0:0:0:
296,206,27554,1,2,0:0:0:0:
256,181,27654,1,0,0:0:0:0:
261,168,27755,1,2,0:0:0:0:
260,167,27856,1,0,0:0:0:0:
269,169,27906,1,0,0:0:0:0:
272,181,27956,1,2,0:0:0:0:
272,186,28024,1,2,0:0:0:0:
272,187,28091,1,2,0:0:0:0:
272,175,28158,1,0,0:0:0:0:
272,174,28225,1,0,0:0:0:0:
272,172,28292,1,0,0:0:0:0:
272,172,28359,1,2,0:0:0:0:
246,195,29165,1,2,0:0:0:0:
258,194,29567,1,2,0:0:0:0:
260,189,29970,1,6,0:0:0:0:
258,189,30071,1,0,0:0:0:0:
258,189,30171,1,0,0:0:0:0:
258,194,30272,1,6,0:0:0:0:
255,189,30373,1,0,0:0:0:0:
254,190,30473,1,0,0:0:0:0:
258,194,30574,1,6,0:0:0:0:
260,189,30675,1,0,0:0:0:0:
301,179,30725,1,0,0:0:0:0:
277,188,30775,1,2,0:0:0:0:
277,188,30876,1,2,0:0:0:0:
259,209,30977,1,0,0:0:0:0:
272,202,31044,1,0,0:0:0:0:
278,198,31111,1,0,0:0:0:0:
282,193,31178,1,2,0:0:0:0:
292,237,31228,1,2,0:0:0:0:
278,187,31279,1,0,0:0:0:0:
330,202,31329,1,0,0:0:0:0:
261,199,31379,1,2,0:0:0:0:
274,202,31446,1,2,0:0:0:0:
276,207,31514,1,2,0:0:0:0:
276,201,31581,1,4,0:0:0:0:
276,201,31782,1,4,0:0:0:0:
267,198,32990,1,4,0:0:0:0:
288,186,33191,1,4,0:0:0:0:
250,193,33997,1,0,0:0:0:0:
260,186,34064,1,0,0:0:0:0:
263,185,34131,1,0,0:0:0:0:
263,183,34198,1,2,0:0:0:0:
263,183,34399,1,2,0:0:0:0:
263,180,34500,1,2,0:0:0:0:
263,180,34601,1,2,0:0:0:0:
263,180,34701,1,2,0:0:0:0:
263,180,34802,1,4,0:0:0:0:
262,188,35003,1,2,0:0:0:0:
260,186,35104,1,0,0:0:0:0:
263,185,35154,1,0,0:0:0:0:
262,170,35205,1,0,0:0:0:0:
262,168,35305,1,0,0:0:0:0:
262,169,35406,1,2,0:0:0:0:
264,170,35507,1,2,0:0:0:0:
264,172,35557,1,2,0:0:0:0:
275,161,35607,1,0,0:0:0:0:
275,161,35809,1,2,0:0:0:0:
275,163,35909,1,0,0:0:0:0:
274,164,35960,1,0,0:0:0:0:
274,163,36010,1,2,0:0:0:0:
274,153,36111,1,0,0:0:0:0:
274,154,36211,1,2,0:0:0:0:
225,212,36312,1,2,0:0:0:0:
230,209,36413,1,0,0:0:0:0:
274,154,36614,1,2,0:0:0:0:
274,154,36715,1,2,0:0:0:0:
275,156,36816,1,0,0:0:0:0:
258,165,36916,1,0,0:0:0:0:
288,154,37017,1,2,0:0:0:0:
280,155,37218,1,0,0:0:0:0:
280,155,37319,1,0,0:0:0:0:
279,156,37420,1,2,0:0:0:0:
279,156,37520,1,2,0:0:0:0:
281,155,37621,1,0,0:0:0:0:
267,163,37722,1,0,0:0:0:0:
285,169,37772,1,0,0:0:0:0:
291,156,37822,1,2,0:0:0:0:
249,150,38024,1,4,0:0:0:0:
262,188,38225,1,2,0:0:0:0:
260,186,38326,1,0,0:0:0:0:
263,185,38376,1,0,0:0:0:0:
262,170,38426,1,0,0:0:0:0:
262,168,38527,1,0,0:0:0:0:
262,169,38628,1,2,0:0:0:0:
264,170,38728,1,2,0:0:0:0:
264,172,38779,1,2,0:0:0:0:
275,161,38829,1,0,0:0:0:0:
226,138,38930,1,0,0:0:0:0:
275,161,39030,1,2,0:0:0:0:
275,163,39131,1,0,0:0:0:0:
274,164,39181,1,0,0:0:0:0:
274,163,39232,1,2,0:0:0:0:
274,153,39332,1,0,0:0:0:0:
274,154,39433,1,2,0:0:0:0:
225,212,39534,1,2,0:0:0:0:
230,209,39634,1,0,0:0:0:0:
274,154,39836,1,2,0:0:0:0:
274,154,39936,1,2,0:0:0:0:
275,156,40037,1,0,0:0:0:0:
278,147,40087,1,0,0:0:0:0:
275,156,40138,1,0,0:0:0:0:
288,154,40238,1,2,0:0:0:0:
295,152,40339,1,2,0:0:0:0:
280,155,40540,1,0,0:0:0:0:
282,165,40591,1,0,0:0:0:0:
279,156,40641,1,2,0:0:0:0:
279,156,40742,1,2,0:0:0:0:
281,155,40842,1,0,0:0:0:0:
267,163,40943,1,0,0:0:0:0:
291,156,41044,1,2,0:0:0:0:
290,160,41144,1,2,0:0:0:0:
249,150,41245,1,4,0:0:0:0:
262,188,41446,1,2,0:0:0:0:
260,186,41547,1,0,0:0:0:0:
262,168,41748,1,0,0:0:0:0:
262,169,41849,1,2,0:0:0:0:
264,170,41950,1,2,0:0:0:0:
256,156,42000,1,2,0:0:0:0:
275,161,42050,1,0,0:0:0:0:
253,158,42151,1,0,0:0:0:0:
275,161,42252,1,2,0:0:0:0:
275,163,42352,1,0,0:0:0:0:
258,153,42403,1,0,0:0:0:0:
274,163,42453,1,2,0:0:0:0:
274,153,42554,1,0,0:0:0:0:
274,154,42654,1,2,0:0:0:0:
263,211,42722,1,2,0:0:0:0:
262,206,42789,1,2,0:0:0:0:
230,209,42856,1,0,0:0:0:0:
233,186,43057,1,2,0:0:0:0:
251,187,43158,1,0,0:0:0:0:
254,180,43208,1,0,0:0:0:0:
256,177,43258,1,0,0:0:0:0:
237,189,43359,1,0,0:0:0:0:
251,187,43460,1,2,0:0:0:0:
256,173,43661,1,0,0:0:0:0:
276,172,43762,1,2,0:0:0:0:
277,166,43863,1,2,0:0:0:0:
280,164,43963,1,2,0:0:0:0:
267,165,44064,1,0,0:0:0:0:
276,175,44131,1,0,0:0:0:0:
294,151,44198,1,0,0:0:0:0:
292,154,44265,1,2,0:0:0:0:
292,154,44332,1,2,0:0:0:0:
292,156,44399,1,2,0:0:0:0:
292,157,44467,1,0,0:0:0:0:
296,171,44668,1,6,0:0:0:0:
268,172,44869,1,0,0:0:0:0:
255,176,44970,1,2,0:0:0:0:
255,178,45071,1,0,0:0:0:0:
255,179,45171,1,0,0:0:0:0:
251,186,45272,1,2,0:0:0:0:
238,152,45322,1,2,0:0:0:0:
251,190,45373,1,2,0:0:0:0:
246,190,45473,1,2,0:0:0:0:
263,193,45574,1,0,0:0:0:0:
237,137,45624,1,0,0:0:0:0:
264,188,45675,1,0,0:0:0:0:
272,180,45775,1,0,0:0:0:0:
276,180,45876,1,2,0:0:0:0:
273,180,45977,1,2,0:0:0:0:
272,178,46077,1,0,0:0:0:0:
261,192,46279,1,6,0:0:0:0:
277,222,46480,1,0,0:0:0:0:
272,209,46581,1,2,0:0:0:0:
265,197,46681,1,0,0:0:0:0:
268,197,46782,1,0,0:0:0:0:
244,206,46883,1,2,0:0:0:0:
276,196,46933,1,2,0:0:0:0:
248,207,46983,1,0,0:0:0:0:
248,207,47084,1,0,0:0:0:0:
266,211,47185,1,2,0:0:0:0:
254,211,47235,1,2,0:0:0:0:
264,206,47285,1,0,0:0:0:0:
265,204,47386,1,0,0:0:0:0:
268,208,47487,1,2,0:0:0:0:
274,203,47537,1,2,0:0:0:0:
274,202,47587,1,2,0:0:0:0:
274,222,47688,1,0,0:0:0:0:
276,225,47889,1,6,0:0:0:0:
260,197,48091,1,0,0:0:0:0:
255,193,48191,1,2,0:0:0:0:
275,199,48292,1,0,0:0:0:0:
277,199,48393,1,0,0:0:0:0:
278,197,48493,1,2,0:0:0:0:
276,198,48544,1,2,0:0:0:0:
279,196,48594,1,2,0:0:0:0:
284,193,48695,1,2,0:0:0:0:
288,192,48795,1,0,0:0:0:0:
292,185,48846,1,0,0:0:0:0:
288,192,48896,1,0,0:0:0:0:
288,192,48997,1,0,0:0:0:0:
289,193,49097,1,2,0:0:0:0:
290,192,49198,1,2,0:0:0:0:
290,191,49299,1,0,0:0:0:0:
290,191,49500,1,6,0:0:0:0:
275,197,49701,1,0,0:0:0:0:
275,158,49802,1,2,0:0:0:0:
253,158,49903,1,0,0:0:0:0:
253,165,50003,1,0,0:0:0:0:
278,178,50104,1,2,0:0:0:0:
278,164,50154,1,2,0:0:0:0:
275,187,50205,1,0,0:0:0:0:
292,170,50305,1,0,0:0:0:0:
295,151,50406,1,2,0:0:0:0:
295,151,50456,1,2,0:0:0:0:
295,150,50507,1,0,0:0:0:0:
301,154,50607,1,0,0:0:0:0:
299,160,50708,1,2,0:0:0:0:
298,161,50758,1,2,0:0:0:0:
297,161,50809,1,2,0:0:0:0:
298,155,50909,1,4,0:0:0:0:
285,185,51111,1,2,0:0:0:0:
283,188,51211,1,0,0:0:0:0:
285,194,51262,1,0,0:0:0:0:
285,195,51312,1,2,0:0:0:0:
301,177,51413,1,0,0:0:0:0:
301,177,51514,1,2,0:0:0:0:
285,195,51614,1,2,0:0:0:0:
268,192,51715,1,0,0:0:0:0:
285,194,51765,1,0,0:0:0:0:
268,192,51816,1,0,0:0:0:0:
263,161,51916,1,2,0:0:0:0:
232,178,52017,1,0,0:0:0:0:
237,178,52067,1,0,0:0:0:0:
244,177,52118,1,2,0:0:0:0:
253,181,52218,1,0,0:0:0:0:
261,170,52319,1,2,0:0:0:0:
261,170,52420,1,2,0:0:0:0:
276,170,52520,1,4,0:0:0:0:
229,156,52722,1,2,0:0:0:0:
229,156,52923,1,0,0:0:0:0:
229,156,53024,1,0,0:0:0:0:
229,156,53124,1,2,0:0:0:0:
229,156,53225,1,0,0:0:0:0:
261,170,53326,1,2,0:0:0:0:
261,170,53376,1,2,0:0:0:0:
270,165,53426,1,0,0:0:0:0:
270,165,53527,1,0,0:0:0:0:
270,165,53628,1,2,0:0:0:0:
260,158,53678,1,2,0:0:0:0:
260,158,53728,1,0,0:0:0:0:
260,158,53829,1,0,0:0:0:0:
260,159,53930,1,2,0:0:0:0:
254,142,53980,1,2,0:0:0:0:
254,142,54030,1,2,0:0:0:0:
251,141,54131,1,0,0:0:0:0:
259,147,54232,1,0,0:0:0:0:
252,141,54332,1,2,0:0:0:0:
252,141,54433,1,0,0:0:0:0:
249,138,54483,1,0,0:0:0:0:
246,135,54534,1,2,0:0:0:0:
246,135,54634,1,0,0:0:0:0:
246,136,54735,1,2,0:0:0:0:
284,206,54785,1,2,0:0:0:0:
246,136,54836,1,0,0:0:0:0:
246,136,54886,1,0,0:0:0:0:
246,136,54936,1,2,0:0:0:0:
284,206,55037,1,0,0:0:0:0:
284,206,55138,1,2,0:0:0:0:
284,206,55238,1,0,0:0:0:0:
268,198,55289,1,0,0:0:0:0:
278,195,55339,1,2,0:0:0:0:
269,216,55440,1,0,0:0:0:0:
272,197,55540,1,2,0:0:0:0:
264,206,55742,5,4,0:0:0:0:
269,202,55842,1,4,0:0:0:0:
274,187,56044,1,6,0:0:0:0:
274,187,56144,1,6,0:0:0:0:
274,193,56346,1,4,0:0:0:0:
274,193,56446,1,6,0:0:0:0:
271,196,56648,1,6,0:0:0:0:
272,198,56748,1,4,0:0:0:0:
265,209,56950,1,6,0:0:0:0:
251,184,57050,1,0,0:0:0:0:
253,185,57101,1,0,0:0:0:0:
262,194,57151,1,2,0:0:0:0:
262,194,57252,1,2,0:0:0:0:
274,193,57352,1,4,0:0:0:0:
269,187,57554,1,2,0:0:0:0:
288,174,57654,1,0,0:0:0:0:
288,176,57705,1,0,0:0:0:0:
288,176,57755,1,2,0:0:0:0:
292,161,57856,1,0,0:0:0:0:
280,157,57906,1,0,0:0:0:0:
279,202,57956,1,2,0:0:0:0:
244,139,58007,1,0,0:0:0:0:
269,209,58057,1,2,0:0:0:0:
260,186,58107,1,2,0:0:0:0:
258,186,58158,1,0,0:0:0:0:
265,161,58258,1,0,0:0:0:0:
283,200,58359,1,2,0:0:0:0:
266,161,58409,1,2,0:0:0:0:
266,161,58460,1,0,0:0:0:0:
265,161,58560,1,2,0:0:0:0:
265,161,58661,1,0,0:0:0:0:
265,161,58711,1,0,0:0:0:0:
283,193,58762,1,2,0:0:0:0:
265,161,58863,1,2,0:0:0:0:
285,193,58963,1,0,0:0:0:0:
284,179,59014,1,0,0:0:0:0:
284,179,59064,1,0,0:0:0:0:
283,193,59114,1,0,0:0:0:0:
288,194,59165,1,2,0:0:0:0:
288,194,59265,1,0,0:0:0:0:
288,182,59316,1,0,0:0:0:0:
288,182,59366,1,2,0:0:0:0:
289,181,59467,1,0,0:0:0:0:
289,193,59567,1,2,0:0:0:0:
267,200,59618,1,0,0:0:0:0:
265,193,59668,1,2,0:0:0:0:
266,191,59718,1,2,0:0:0:0:
289,193,59769,1,0,0:0:0:0:
266,191,59869,1,0,0:0:0:0:
285,193,59970,1,2,0:0:0:0:
266,191,60071,1,0,0:0:0:0:
290,197,60121,1,0,0:0:0:0:
288,185,60171,1,2,0:0:0:0:
276,165,60272,1,0,0:0:0:0:
276,165,60373,1,2,0:0:0:0:
289,181,60423,1,2,0:0:0:0:
285,186,60473,1,2,0:0:0:0:
254,170,60524,1,2,0:0:0:0:
285,186,60574,1,0,0:0:0:0:
282,171,60675,1,0,0:0:0:0:
269,187,60775,1,2,0:0:0:0:
244,139,60826,1,2,0:0:0:0:
288,174,60876,1,0,0:0:0:0:
288,176,60977,1,2,0:0:0:0:
292,161,61077,1,0,0:0:0:0:
288,176,61128,1,0,0:0:0:0:
279,202,61178,1,2,0:0:0:0:
234,170,61228,1,0,0:0:0:0:
269,209,61279,1,2,0:0:0:0:
258,186,61379,1,0,0:0:0:0:
260,186,61430,1,0,0:0:0:0:
265,161,61480,1,0,0:0:0:0:
283,200,61581,1,2,0:0:0:0:
266,161,61681,1,0,0:0:0:0:
266,161,61732,1,0,0:0:0:0:
265,161,61782,1,2,0:0:0:0:
265,161,61883,1,0,0:0:0:0:
283,193,61983,1,2,0:0:0:0:
265,161,62084,1,2,0:0:0:0:
265,161,62134,1,2,0:0:0:0:
285,193,62185,1,0,0:0:0:0:
284,179,62235,1,0,0:0:0:0:
284,179,62285,1,0,0:0:0:0:
283,193,62336,1,0,0:0:0:0:
288,194,62386,1,2,0:0:0:0:
288,194,62487,1,0,0:0:0:0:
288,182,62587,1,2,0:0:0:0:
269,178,62638,1,2,0:0:0:0:
289,181,62688,1,0,0:0:0:0:
310,190,62738,1,0,0:0:0:0:
289,193,62789,1,2,0:0:0:0:
265,193,62889,1,0,0:0:0:0:
289,193,62990,1,2,0:0:0:0:
285,193,63040,1,2,0:0:0:0:
266,191,63091,1,0,0:0:0:0:
285,193,63191,1,0,0:0:0:0:
266,191,63292,1,2,0:0:0:0:
283,193,63342,1,2,0:0:0:0:
290,197,63393,1,0,0:0:0:0:
276,165,63493,1,0,0:0:0:0:
276,165,63594,1,2,0:0:0:0:
289,181,63644,1,2,0:0:0:0:
285,186,63695,1,2,0:0:0:0:
285,186,63745,1,2,0:0:0:0:
285,186,63795,1,0,0:0:0:0:
268,158,63896,1,0,0:0:0:0:
269,187,63997,1,2,0:0:0:0:
288,174,64097,1,0,0:0:0:0:
288,176,64148,1,0,0:0:0:0:
288,176,64198,1,2,0:0:0:0:
292,161,64299,1,0,0:0:0:0:
279,202,64399,1,2,0:0:0:0:
244,139,64450,1,2,0:0:0:0:
269,209,64500,1,0,0:0:0:0:
260,186,64550,1,2,0:0:0:0:
258,186,64601,1,0,0:0:0:0:
266,161,64651,1,0,0:0:0:0:
265,161,64701,1,2,0:0:0:0:
283,200,64802,1,2,0:0:0:0:
289,179,64852,1,2,0:0:0:0:
266,161,64903,1,0,0:0:0:0:
265,161,65003,1,2,0:0:0:0:
265,161,65104,1,0,0:0:0:0:
265,198,65154,1,0,0:0:0:0:
283,193,65205,1,2,0:0:0:0:
265,161,65305,1,2,0:0:0:0:
285,193,65406,1,0,0:0:0:0:
284,179,65456,1,0,0:0:0:0:
284,179,65507,1,0,0:0:0:0:
283,193,65557,1,0,0:0:0:0:
288,194,65607,1,2,0:0:0:0:
288,194,65708,1,0,0:0:0:0:
288,182,65809,1,2,0:0:0:0:
288,182,65859,1,2,0:0:0:0:
289,181,65909,1,0,0:0:0:0:
289,193,66010,1,2,0:0:0:0:
265,193,66111,1,2,0:0:0:0:
289,193,66211,1,0,0:0:0:0:
275,177,66262,1,2,0:0:0:0:
266,191,66312,1,0,0:0:0:0:
242,199,66363,1,0,0:0:0:0:
285,193,66413,1,2,0:0:0:0:
266,191,66514,1,0,0:0:0:0:
288,185,66614,1,2,0:0:0:0:
276,165,66715,1,0,0:0:0:0:
274,152,66765,1,0,0:0:0:0:
276,165,66816,1,2,0:0:0:0:
290,197,66866,1,2,0:0:0:0:
285,186,66916,1,2,0:0:0:0:
294,193,66967,1,2,0:0:0:0:
285,186,67017,1,0,0:0:0:0:
282,171,67118,1,0,0:0:0:0:
269,187,67218,1,2,0:0:0:0:
244,139,67269,1,2,0:0:0:0:
288,174,67319,1,0,0:0:0:0:
288,176,67420,1,2,0:0:0:0:
292,161,67520,1,0,0:0:0:0:
234,170,67621,1,2,0:0:0:0:
242,170,67671,1,2,0:0:0:0:
269,209,67722,1,0,0:0:0:0:
266,197,67772,1,2,0:0:0:0:
258,186,67822,1,0,0:0:0:0:
265,161,67923,1,2,0:0:0:0:
272,201,67973,1,2,0:0:0:0:
283,200,68024,1,2,0:0:0:0:
266,161,68124,1,0,0:0:0:0:
266,161,68175,1,0,0:0:0:0:
265,161,68225,1,2,0:0:0:0:
265,161,68326,1,0,0:0:0:0:
283,193,68426,1,2,0:0:0:0:
265,161,68527,1,2,0:0:0:0:
265,161,68577,1,2,0:0:0:0:
285,193,68628,1,0,0:0:0:0:
284,179,68678,1,2,0:0:0:0:
284,179,68728,1,0,0:0:0:0:
283,193,68779,1,0,0:0:0:0:
288,194,68829,1,2,0:0:0:0:
288,194,68930,1,0,0:0:0:0:
288,182,69030,1,2,0:0:0:0:
269,178,69081,1,2,0:0:0:0:
289,181,69131,1,0,0:0:0:0:
310,190,69181,1,0,0:0:0:0:
289,193,69232,1,2,0:0:0:0:
265,193,69332,1,0,0:0:0:0:
289,193,69433,1,2,0:0:0:0:
285,193,69483,1,2,0:0:0:0:
266,191,69534,1,0,0:0:0:0:
213,168,69584,1,2,0:0:0:0:
233,169,69634,1,0,0:0:0:0:
213,168,69685,1,0,0:0:0:0:
266,191,69735,1,2,0:0:0:0:
283,193,69785,1,0,0:0:0:0:
290,197,69836,1,2,0:0:0:0:
233,169,69886,1,2,0:0:0:0:
276,165,69936,1,0,0:0:0:0:
233,169,69987,1,0,0:0:0:0:
276,165,70037,1,2,0:0:0:0:
289,181,70087,1,2,0:0:0:0:
285,186,70138,1,2,0:0:0:0:
285,186,70188,1,2,0:0:0:0:
285,186,70238,1,0,0:0:0:0:
269,187,70440,1,2,0:0:0:0:
288,176,70490,1,2,0:0:0:0:
288,174,70540,1,0,0:0:0:0:
288,176,70641,1,2,0:0:0:0:
292,161,70742,1,0,0:0:0:0:
280,157,70792,1,0,0:0:0:0:
279,202,70842,1,2,0:0:0:0:
244,139,70893,1,0,0:0:0:0:
269,209,70943,1,2,0:0:0:0:
258,186,71044,1,0,0:0:0:0:
260,186,71094,1,0,0:0:0:0:
265,161,71144,1,0,0:0:0:0:
283,200,71245,1,2,0:0:0:0:
266,161,71295,1,2,0:0:0:0:
266,161,71346,1,0,0:0:0:0:
265,161,71446,1,2,0:0:0:0:
265,161,71547,1,0,0:0:0:0:
265,161,71597,1,0,0:0:0:0:
283,193,71648,1,2,0:0:0:0:
265,161,71748,1,2,0:0:0:0:
285,193,71849,1,0,0:0:0:0:
284,179,71899,1,0,0:0:0:0:
284,179,71950,1,0,0:0:0:0:
283,193,72000,1,0,0:0:0:0:
288,194,72050,1,2,0:0:0:0:
288,194,72151,1,0,0:0:0:0:
288,182,72201,1,0,0:0:0:0:
288,182,72252,1,2,0:0:0:0:
289,181,72352,1,0,0:0:0:0:
289,193,72453,1,2,0:0:0:0:
267,200,72503,1,0,0:0:0:0:
265,193,72554,1,2,0:0:0:0:
266,191,72604,1,2,0:0:0:0:
289,193,72654,1,0,0:0:0:0:
266,191,72755,1,0,0:0:0:0:
285,193,72856,1,2,0:0:0:0:
266,191,72956,1,0,0:0:0:0:
290,197,73007,1,0,0:0:0:0:
288,185,73057,1,2,0:0:0:0:
276,165,73158,1,0,0:0:0:0:
276,165,73258,1,2,0:0:0:0:
289,181,73309,1,2,0:0:0:0:
285,186,73359,1,2,0:0:0:0:
254,170,73409,1,2,0:0:0:0:
285,186,73460,1,0,0:0:0:0:
282,171,73560,1,0,0:0:0:0:
269,187,73661,1,2,0:0:0:0:
288,174,73762,1,0,0:0:0:0:
244,139,73812,1,0,0:0:0:0:
288,176,73863,1,2,0:0:0:0:
292,161,73963,1,0,0:0:0:0:
288,176,74014,1,0,0:0:0:0:
279,202,74064,1,2,0:0:0:0:
234,170,74114,1,0,0:0:0:0:
269,209,74165,1,2,0:0:0:0:
265,177,74215,1,2,0:0:0:0:
258,186,74265,1,0,0:0:0:0:
265,161,74366,1,0,0:0:0:0:
283,200,74467,1,2,0:0:0:0:
265,161,74517,1,2,0:0:0:0:
266,161,74567,1,0,0:0:0:0:
266,161,74668,1,2,0:0:0:0:
265,161,74769,1,0,0:0:0:0:
295,206,74819,1,0,0:0:0:0:
283,193,74869,1,2,0:0:0:0:
265,161,74970,1,0,0:0:0:0:
285,193,75071,1,6,0:0:0:0:
265,161,75171,1,0,0:0:0:0:
265,161,75272,1,0,0:0:0:0:
261,139,75373,1,6,0:0:0:0:
261,96,75473,1,0,0:0:0:0:
249,97,75574,1,0,0:0:0:0:
249,97,75675,1,6,0:0:0:0:
249,97,75775,1,0,0:0:0:0:
255,136,75876,1,2,0:0:0:0:
255,136,75926,1,2,0:0:0:0:
249,97,75977,1,0,0:0:0:0:
249,97,76077,1,0,0:0:0:0:
249,97,76178,1,2,0:0:0:0:
255,136,76228,1,2,0:0:0:0:
249,97,76279,1,0,0:0:0:0:
249,97,76379,1,0,0:0:0:0:
249,97,76480,1,2,0:0:0:0:
254,119,76530,1,2,0:0:0:0:
253,113,76581,1,2,0:0:0:0:
261,136,76681,1,4,0:0:0:0:
256,162,76883,1,2,0:0:0:0:
241,150,76983,1,0,0:0:0:0:
269,163,77034,1,0,0:0:0:0:
271,164,77084,1,0,0:0:0:0:
275,164,77185,1,0,0:0:0:0:
256,162,77285,1,2,0:0:0:0:
267,164,77336,1,2,0:0:0:0:
281,153,77386,1,0,0:0:0:0:
283,175,77436,1,0,0:0:0:0:
279,159,77487,1,2,0:0:0:0:
267,164,77587,1,0,0:0:0:0:
256,162,77688,1,2,0:0:0:0:
277,159,77789,1,0,0:0:0:0:
274,171,77839,1,0,0:0:0:0:
275,152,77889,1,2,0:0:0:0:
276,160,77990,1,0,0:0:0:0:
256,162,78091,1,2,0:0:0:0:
254,157,78141,1,2,0:0:0:0:
252,158,78191,1,2,0:0:0:0:
267,185,78292,1,4,0:0:0:0:
240,161,78393,1,0,0:0:0:0:
256,162,78493,1,2,0:0:0:0:
256,162,78544,1,2,0:0:0:0:
252,161,78594,1,0,0:0:0:0:
256,162,78695,1,2,0:0:0:0:
255,147,78795,1,0,0:0:0:0:
254,138,78846,1,0,0:0:0:0:
262,159,78896,1,0,0:0:0:0:
254,146,78997,1,2,0:0:0:0:
254,137,79097,1,0,0:0:0:0:
270,153,79198,1,0,0:0:0:0:
269,151,79248,1,0,0:0:0:0:
280,174,79299,1,2,0:0:0:0:
266,155,79349,1,2,0:0:0:0:
276,155,79399,1,0,0:0:0:0:
276,155,79500,1,2,0:0:0:0:
294,184,79601,1,0,0:0:0:0:
290,190,79651,1,0,0:0:0:0:
275,179,79701,1,2,0:0:0:0:
249,173,79802,1,2,0:0:0:0:
267,183,79903,1,4,0:0:0:0:
267,170,80003,1,0,0:0:0:0:
275,179,80104,1,2,0:0:0:0:
267,170,80205,1,0,0:0:0:0:
267,169,80255,1,0,0:0:0:0:
265,160,80305,1,0,0:0:0:0:
267,160,80406,1,0,0:0:0:0:
275,179,80507,1,2,0:0:0:0:
267,152,80557,1,2,0:0:0:0:
267,152,80607,1,0,0:0:0:0:
267,152,80658,1,0,0:0:0:0:
267,152,80708,1,2,0:0:0:0:
267,152,80809,1,0,0:0:0:0:
276,175,80909,1,2,0:0:0:0:
267,152,81010,1,0,0:0:0:0:
267,152,81060,1,0,0:0:0:0:
267,152,81111,1,2,0:0:0:0:
269,152,81211,1,0,0:0:0:0:
276,171,81312,1,2,0:0:0:0:
269,152,81363,1,2,0:0:0:0:
269,153,81413,1,0,0:0:0:0:
267,182,81514,5,6,0:0:0:0:
309,161,81614,1,0,0:0:0:0:
269,187,81715,1,2,0:0:0:0:
309,161,81765,1,2,0:0:0:0:
322,160,81816,1,0,0:0:0:0:
324,160,81916,1,2,0:0:0:0:
326,215,82017,1,0,0:0:0:0:
326,215,82067,1,0,0:0:0:0:
327,204,82118,1,2,0:0:0:0:
328,204,82168,1,2,0:0:0:0:
330,204,82218,1,0,0:0:0:0:
304,197,82269,1,0,0:0:0:0:
333,147,82319,1,2,0:0:0:0:
333,159,82420,1,2,0:0:0:0:
331,144,82520,1,0,0:0:0:0:
269,169,82621,1,2,0:0:0:0:
297,158,82722,1,0,0:0:0:0:
299,145,82822,1,0,0:0:0:0:
299,145,82923,1,2,0:0:0:0:
299,143,83024,1,0,0:0:0:0:
263,195,83124,5,2,0:0:0:0:
248,186,83175,1,2,0:0:0:0:
270,200,83225,1,0,0:0:0:0:
270,200,83326,1,2,0:0:0:0:
270,200,83426,1,0,0:0:0:0:
257,208,83477,1,0,0:0:0:0:
261,206,83527,1,2,0:0:0:0:
265,206,83577,1,2,0:0:0:0:
265,206,83628,1,0,0:0:0:0:
265,206,83728,1,2,0:0:0:0:
269,194,83779,1,0,0:0:0:0:
253,193,83829,1,2,0:0:0:0:
256,196,83879,1,2,0:0:0:0:
257,199,83930,1,0,0:0:0:0:
257,199,84030,1,2,0:0:0:0:
261,202,84131,1,0,0:0:0:0:
264,202,84181,1,0,0:0:0:0:
264,202,84232,1,2,0:0:0:0:
270,200,84282,1,0,0:0:0:0:
256,186,84332,1,2,0:0:0:0:
264,202,84383,1,2,0:0:0:0:
265,202,84433,1,0,0:0:0:0:
259,195,84483,1,0,0:0:0:0:
258,187,84534,1,2,0:0:0:0:
264,197,84634,1,0,0:0:0:0:
265,200,84735,1,2,0:0:0:0:
271,196,84785,1,2,0:0:0:0:
271,188,84836,1,0,0:0:0:0:
261,159,84886,1,2,0:0:0:0:
269,188,84936,1,0,0:0:0:0:
259,193,84987,1,0,0:0:0:0:
256,192,85037,1,2,0:0:0:0:
252,190,85138,1,2,0:0:0:0:
246,185,85188,1,2,0:0:0:0:
246,185,85238,1,0,0:0:0:0:
268,194,85339,1,2,0:0:0:0:
269,196,85389,1,0,0:0:0:0:
265,202,85440,1,2,0:0:0:0:
265,186,85490,1,2,0:0:0:0:
265,186,85540,1,0,0:0:0:0:
265,186,85641,1,2,0:0:0:0:
265,179,85742,1,0,0:0:0:0:
265,179,85792,1,0,0:0:0:0:
262,178,85842,1,2,0:0:0:0:
269,172,85893,1,0,0:0:0:0:
261,175,85943,1,2,0:0:0:0:
256,184,86010,1,2,0:0:0:0:
262,187,86077,1,0,0:0:0:0:
269,161,86144,1,2,0:0:0:0:
264,183,86211,1,0,0:0:0:0:
266,180,86279,1,0,0:0:0:0:
266,179,86346,1,2,0:0:0:0:
277,175,86396,1,2,0:0:0:0:
271,177,86446,1,0,0:0:0:0:
270,178,86547,1,2,0:0:0:0:
270,177,86648,1,0,0:0:0:0:
270,177,86698,1,0,0:0:0:0:
271,177,86748,1,2,0:0:0:0:
271,177,86799,1,2,0:0:0:0:
275,177,86849,1,0,0:0:0:0:
276,178,86950,1,2,0:0:0:0:
228,191,87000,1,0,0:0:0:0:
276,178,87050,1,2,0:0:0:0:
273,172,87101,1,2,0:0:0:0:
260,179,87151,1,0,0:0:0:0:
266,180,87252,1,2,0:0:0:0:
266,179,87352,1,0,0:0:0:0:
262,173,87403,1,0,0:0:0:0:
285,188,87453,1,2,0:0:0:0:
278,213,87503,1,0,0:0:0:0:
281,180,87554,1,2,0:0:0:0:
274,165,87604,1,2,0:0:0:0:
276,167,87654,1,0,0:0:0:0:
337,213,87705,1,0,0:0:0:0:
284,171,87755,1,2,0:0:0:0:
279,174,87856,1,0,0:0:0:0:
276,178,87956,1,2,0:0:0:0:
276,170,88007,1,2,0:0:0:0:
276,178,88057,1,0,0:0:0:0:
255,158,88158,1,0,0:0:0:0:
278,180,88258,1,2,0:0:0:0:
298,204,88309,1,2,0:0:0:0:
285,175,88359,1,0,0:0:0:0:
286,175,88460,1,0,0:0:0:0:
267,174,88560,1,2,0:0:0:0:
317,220,88611,1,2,0:0:0:0:
272,174,88661,1,0,0:0:0:0:
317,220,88711,1,0,0:0:0:0:
269,160,88762,1,2,0:0:0:0:
283,170,89165,1,2,0:0:0:0:
311,236,89265,1,2,0:0:0:0:
306,209,89366,1,2,0:0:0:0:
304,195,89467,1,2,0:0:0:0:
315,182,89567,1,4,0:0:0:0:
246,221,89769,1,2,0:0:0:0:
250,220,89819,1,2,0:0:0:0:
250,220,89869,1,0,0:0:0:0:
250,220,89970,1,2,0:0:0:0:
250,220,90071,1,0,0:0:0:0:
264,218,90171,1,2,0:0:0:0:
264,215,90222,1,2,0:0:0:0:
264,215,90272,1,0,0:0:0:0:
264,215,90322,1,0,0:0:0:0:
265,220,90373,1,2,0:0:0:0:
269,220,90473,1,0,0:0:0:0:
269,220,90574,1,2,0:0:0:0:
272,217,90624,1,2,0:0:0:0:
272,217,90675,1,0,0:0:0:0:
272,217,90775,1,2,0:0:0:0:
272,217,90876,1,0,0:0:0:0:
275,217,90926,1,0,0:0:0:0:
275,217,90977,1,2,0:0:0:0:
274,209,91027,1,0,0:0:0:0:
276,218,91077,1,2,0:0:0:0:
274,211,91128,1,2,0:0:0:0:
276,199,91178,1,0,0:0:0:0:
269,211,91279,1,0,0:0:0:0:
282,211,91379,1,2,0:0:0:0:
283,210,91430,1,2,0:0:0:0:
283,207,91480,1,0,0:0:0:0:
283,201,91581,1,2,0:0:0:0:
274,196,91681,1,0,0:0:0:0:
280,202,91732,1,0,0:0:0:0:
285,193,91782,1,2,0:0:0:0:
281,212,91883,1,2,0:0:0:0:
281,212,91983,1,0,0:0:0:0:
281,212,92034,1,0,0:0:0:0:
281,212,92084,1,2,0:0:0:0:
274,211,92134,1,2,0:0:0:0:
274,209,92185,1,0,0:0:0:0:
275,213,92285,1,0,0:0:0:0:
275,216,92386,1,2,0:0:0:0:
277,214,92436,1,2,0:0:0:0:
274,216,92487,1,2,0:0:0:0:
276,211,92537,1,2,0:0:0:0:
274,216,92587,1,0,0:0:0:0:
274,216,92638,1,0,0:0:0:0:
274,216,92688,1,2,0:0:0:0:
253,202,92789,1,4,0:0:0:0:
246,221,92990,1,2,0:0:0:0:
250,220,93040,1,2,0:0:0:0:
250,220,93091,1,0,0:0:0:0:
250,220,93191,1,2,0:0:0:0:
250,220,93292,1,0,0:0:0:0:
264,218,93393,1,2,0:0:0:0:
264,215,93443,1,2,0:0:0:0:
264,215,93493,1,0,0:0:0:0:
264,215,93544,1,0,0:0:0:0:
265,220,93594,1,2,0:0:0:0:
269,220,93695,1,0,0:0:0:0:
269,220,93795,1,2,0:0:0:0:
272,217,93846,1,2,0:0:0:0:
272,217,93896,1,0,0:0:0:0:
272,217,93997,1,2,0:0:0:0:
272,217,94097,1,0,0:0:0:0:
275,217,94148,1,0,0:0:0:0:
275,217,94198,1,2,0:0:0:0:
274,209,94248,1,0,0:0:0:0:
276,218,94299,1,2,0:0:0:0:
274,211,94349,1,2,0:0:0:0:
276,199,94399,1,0,0:0:0:0:
269,211,94500,1,0,0:0:0:0:
282,211,94601,1,6,0:0:0:0:
283,207,94701,1,0,0:0:0:0:
283,210,94752,1,0,0:0:0:0:
283,201,94802,1,2,0:0:0:0:
274,196,94903,1,0,0:0:0:0:
285,193,95003,1,6,0:0:0:0:
281,212,95104,1,0,0:0:0:0:
276,205,95154,1,0,0:0:0:0:
281,212,95205,1,2,0:0:0:0:
274,209,95255,1,2,0:0:0:0:
281,212,95305,1,0,0:0:0:0:
274,209,95406,1,6,0:0:0:0:
275,213,95507,1,0,0:0:0:0:
267,211,95557,1,0,0:0:0:0:
275,216,95607,1,2,0:0:0:0:
274,216,95708,1,0,0:0:0:0:
285,206,95809,1,2,0:0:0:0:
274,216,95909,1,2,0:0:0:0:
253,202,96010,1,4,0:0:0:0:
246,221,96211,1,2,0:0:0:0:
250,220,96262,1,2,0:0:0:0:
250,220,96312,1,0,0:0:0:0:
250,220,96413,1,2,0:0:0:0:
250,220,96514,1,0,0:0:0:0:
264,218,96614,1,2,0:0:0:0:
264,215,96665,1,2,0:0:0:0:
264,215,96715,1,0,0:0:0:0:
264,215,96765,1,0,0:0:0:0:
265,220,96816,1,2,0:0:0:0:
269,220,96916,1,0,0:0:0:0:
269,220,97017,1,2,0:0:0:0:
272,217,97067,1,2,0:0:0:0:
272,217,97118,1,0,0:0:0:0:
272,217,97218,1,2,0:0:0:0:
272,217,97319,1,0,0:0:0:0:
275,217,97369,1,0,0:0:0:0:
275,217,97420,1,2,0:0:0:0:
274,209,97470,1,0,0:0:0:0:
276,218,97520,1,2,0:0:0:0:
274,211,97571,1,2,0:0:0:0:
276,199,97621,1,0,0:0:0:0:
269,211,97722,1,0,0:0:0:0:
282,211,97822,1,2,0:0:0:0:
283,210,97873,1,2,0:0:0:0:
283,207,97923,1,0,0:0:0:0:
283,201,98024,1,2,0:0:0:0:
274,196,98124,1,0,0:0:0:0:
280,202,98175,1,0,0:0:0:0:
285,193,98225,1,2,0:0:0:0:
281,212,98326,1,2,0:0:0:0:
281,212,98426,1,0,0:0:0:0:
281,212,98477,1,0,0:0:0:0:
281,212,98527,1,2,0:0:0:0:
274,211,98577,1,2,0:0:0:0:
274,209,98628,1,0,0:0:0:0:
275,213,98728,1,0,0:0:0:0:
275,216,98829,1,2,0:0:0:0:
277,214,98879,1,2,0:0:0:0:
274,216,98930,1,2,0:0:0:0:
276,211,98980,1,2,0:0:0:0:
274,216,99030,1,0,0:0:0:0:
274,216,99081,1,0,0:0:0:0:
274,216,99131,1,2,0:0:0:0:
253,202,99232,1,4,0:0:0:0:
246,221,99433,1,2,0:0:0:0:
250,220,99483,1,2,0:0:0:0:
250,220,99534,1,0,0:0:0:0:
250,220,99634,1,2,0:0:0:0:
250,220,99735,1,0,0:0:0:0:
264,218,99836,1,2,0:0:0:0:
264,215,99886,1,2,0:0:0:0:
264,215,99936,1,0,0:0:0:0:
264,215,99987,1,0,0:0:0:0:
265,220,100037,1,2,0:0:0:0:
269,220,100138,1,0,0:0:0:0:
269,220,100238,1,2,0:0:0:0:
272,217,100289,1,2,0:0:0:0:
272,217,100339,1,0,0:0:0:0:
272,217,100440,1,2,0:0:0:0:
272,217,100540,1,0,0:0:0:0:
275,217,100591,1,0,0:0:0:0:
275,217,100641,1,2,0:0:0:0:
274,209,100691,1,0,0:0:0:0:
276,218,100742,1,2,0:0:0:0:
274,211,100792,1,2,0:0:0:0:
276,199,100842,1,0,0:0:0:0:
269,211,100943,1,0,0:0:0:0:
282,211,101044,1,6,0:0:0:0:
283,207,101144,1,0,0:0:0:0:
283,210,101195,1,0,0:0:0:0:
283,201,101245,1,2,0:0:0:0:
274,196,101346,1,0,0:0:0:0:
285,193,101446,1,6,0:0:0:0:
281,212,101547,1,0,0:0:0:0:
276,205,101597,1,0,0:0:0:0:
281,212,101648,1,2,0:0:0:0:
274,209,101698,1,2,0:0:0:0:
281,212,101748,1,0,0:0:0:0:
274,209,101849,1,6,0:0:0:0:
275,213,101950,1,0,0:0:0:0:
267,211,102000,1,0,0:0:0:0:
275,216,102050,1,2,0:0:0:0:
274,216,102151,1,0,0:0:0:0:
285,206,102252,1,6,0:0:0:0:
253,202,102453,1,4,0:0:0:0:
285,216,102554,1,0,0:0:0:0:
297,221,102654,1,2,0:0:0:0:
297,221,102755,1,0,0:0:0:0:
253,188,102805,1,0,0:0:0:0:
285,210,102856,1,2,0:0:0:0:
292,207,102956,1,0,0:0:0:0:
294,207,103057,1,2,0:0:0:0:
267,171,103107,1,2,0:0:0:0:
294,206,103158,1,0,0:0:0:0:
292,178,103208,1,0,0:0:0:0:
296,206,103258,1,2,0:0:0:0:
256,181,103359,1,0,0:0:0:0:
261,168,103460,1,2,0:0:0:0:
260,167,103560,1,0,0:0:0:0:
269,169,103611,1,0,0:0:0:0:
272,181,103661,1,2,0:0:0:0:
272,186,103728,1,2,0:0:0:0:
272,187,103795,1,2,0:0:0:0:
272,175,103863,1,0,0:0:0:0:
272,174,103930,1,0,0:0:0:0:
272,172,103997,1,0,0:0:0:0:
272,172,104064,1,2,0:0:0:0:
245,180,104114,1,2,0:0:0:0:
269,173,104165,1,0,0:0:0:0:
269,173,104215,1,0,0:0:0:0:
276,187,104265,1,2,0:0:0:0:
276,181,104332,1,0,0:0:0:0:
260,184,104399,1,0,0:0:0:0:
186,90,104467,1,2,0:0:0:0:
256,195,104567,1,2,0:0:0:0:
264,188,104668,1,0,0:0:0:0:
266,184,104769,1,0,0:0:0:0:
257,208,104869,1,2,0:0:0:0:
279,184,104936,1,2,0:0:0:0:
283,190,105003,1,0,0:0:0:0:
281,191,105071,1,2,0:0:0:0:
276,187,105138,1,0,0:0:0:0:
272,191,105205,1,0,0:0:0:0:
272,191,105272,1,2,0:0:0:0:
272,191,105339,1,2,0:0:0:0:
274,191,105406,1,2,0:0:0:0:
280,191,105473,1,2,0:0:0:0:
272,185,105574,1,2,0:0:0:0:
269,185,105675,1,4,0:0:0:0:
262,188,105876,1,2,0:0:0:0:
260,186,105977,1,0,0:0:0:0:
263,185,106027,1,0,0:0:0:0:
262,170,106077,1,2,0:0:0:0:
262,168,106178,1,0,0:0:0:0:
262,169,106279,1,2,0:0:0:0:
264,170,106379,1,2,0:0:0:0:
264,172,106430,1,2,0:0:0:0:
275,161,106480,1,0,0:0:0:0:
226,138,106581,1,0,0:0:0:0:
275,161,106681,1,2,0:0:0:0:
275,163,106782,1,0,0:0:0:0:
274,164,106832,1,0,0:0:0:0:
275,138,106883,1,2,0:0:0:0:
275,138,106933,1,2,0:0:0:0:
274,153,106983,1,0,0:0:0:0:
274,154,107084,1,2,0:0:0:0:
225,212,107185,1,2,0:0:0:0:
230,209,107285,1,0,0:0:0:0:
274,154,107487,1,2,0:0:0:0:
274,154,107587,1,2,0:0:0:0:
275,156,107688,1,0,0:0:0:0:
278,147,107738,1,0,0:0:0:0:
275,156,107789,1,0,0:0:0:0:
288,154,107889,1,2,0:0:0:0:
295,152,107990,1,2,0:0:0:0:
249,150,108040,1,2,0:0:0:0:
269,164,108091,1,0,0:0:0:0:
280,155,108191,1,0,0:0:0:0:
282,165,108242,1,0,0:0:0:0:
279,156,108292,1,2,0:0:0:0:
279,156,108393,1,2,0:0:0:0:
281,155,108493,1,0,0:0:0:0:
267,163,108594,1,0,0:0:0:0:
291,156,108695,1,2,0:0:0:0:
275,140,108745,1,2,0:0:0:0:
290,160,108795,1,2,0:0:0:0:
249,150,108896,1,4,0:0:0:0:
262,188,109097,1,2,0:0:0:0:
260,186,109198,1,0,0:0:0:0:
263,185,109248,1,0,0:0:0:0:
262,170,109299,1,0,0:0:0:0:
262,168,109399,1,0,0:0:0:0:
262,169,109500,1,2,0:0:0:0:
264,170,109601,1,2,0:0:0:0:
264,172,109651,1,2,0:0:0:0:
275,161,109701,1,0,0:0:0:0:
259,202,109802,1,0,0:0:0:0:
275,161,109903,1,2,0:0:0:0:
275,163,110003,1,0,0:0:0:0:
274,164,110054,1,0,0:0:0:0:
274,163,110104,1,2,0:0:0:0:
274,153,110205,1,0,0:0:0:0:
274,154,110305,1,2,0:0:0:0:
304,179,110356,1,2,0:0:0:0:
225,212,110406,1,2,0:0:0:0:
304,179,110456,1,2,0:0:0:0:
230,209,110507,1,0,0:0:0:0:
290,192,110607,1,0,0:0:0:0:
274,154,110708,1,2,0:0:0:0:
274,154,110809,1,2,0:0:0:0:
275,156,110909,1,0,0:0:0:0:
258,165,111010,1,0,0:0:0:0:
288,154,111111,1,2,0:0:0:0:
259,202,111161,1,2,0:0:0:0:
259,197,111211,1,2,0:0:0:0:
280,155,111312,1,0,0:0:0:0:
280,155,111413,1,0,0:0:0:0:
279,156,111514,1,2,0:0:0:0:
279,156,111614,1,2,0:0:0:0:
281,155,111715,1,0,0:0:0:0:
309,151,111765,1,0,0:0:0:0:
267,163,111816,1,0,0:0:0:0:
285,169,111866,1,0,0:0:0:0:
291,156,111916,1,2,0:0:0:0:
249,150,112118,1,4,0:0:0:0:
262,188,112319,1,2,0:0:0:0:
260,186,112420,1,0,0:0:0:0:
263,185,112470,1,0,0:0:0:0:
262,170,112520,1,0,0:0:0:0:
262,168,112621,1,0,0:0:0:0:
262,169,112722,1,2,0:0:0:0:
264,170,112822,1,2,0:0:0:0:
264,172,112873,1,2,0:0:0:0:
275,161,112923,1,0,0:0:0:0:
226,138,113024,1,0,0:0:0:0:
275,161,113124,1,2,0:0:0:0:
245,147,113175,1,2,0:0:0:0:
275,163,113225,1,0,0:0:0:0:
274,164,113275,1,0,0:0:0:0:
274,163,113326,1,2,0:0:0:0:
274,153,113426,1,0,0:0:0:0:
274,154,113527,1,2,0:0:0:0:
225,212,113628,1,2,0:0:0:0:
230,209,113728,1,0,0:0:0:0:
274,154,113930,1,2,0:0:0:0:
274,154,114030,1,2,0:0:0:0:
275,156,114131,1,0,0:0:0:0:
278,147,114181,1,0,0:0:0:0:
275,156,114232,1,2,0:0:0:0:
288,154,114332,1,0,0:0:0:0:
295,152,114433,1,2,0:0:0:0:
263,155,114483,1,2,0:0:0:0:
249,150,114534,1,0,0:0:0:0:
280,155,114634,1,0,0:0:0:0:
282,165,114685,1,0,0:0:0:0:
279,156,114735,1,2,0:0:0:0:
279,156,114836,1,0,0:0:0:0:
281,155,114936,1,2,0:0:0:0:
267,163,115037,1,2,0:0:0:0:
291,156,115138,1,0,0:0:0:0:
309,151,115188,1,0,0:0:0:0:
290,160,115238,1,0,0:0:0:0:
249,150,115339,1,6,0:0:0:0:
262,188,115540,1,2,0:0:0:0:
260,186,115641,1,0,0:0:0:0:
246,172,115691,1,0,0:0:0:0:
275,173,115742,1,2,0:0:0:0:
262,168,115842,1,0,0:0:0:0:
262,169,115943,1,2,0:0:0:0:
264,170,116044,1,2,0:0:0:0:
256,156,116094,1,2,0:0:0:0:
275,161,116144,1,0,0:0:0:0:
253,158,116245,1,0,0:0:0:0:
275,161,116346,1,2,0:0:0:0:
275,163,116446,1,0,0:0:0:0:
258,153,116497,1,0,0:0:0:0:
274,163,116547,1,2,0:0:0:0:
274,153,116648,1,0,0:0:0:0:
274,154,116748,1,2,0:0:0:0:
263,211,116816,1,2,0:0:0:0:
262,206,116883,1,2,0:0:0:0:
230,209,116950,1,0,0:0:0:0:
263,177,117050,1,0,0:0:0:0:
233,186,117151,1,2,0:0:0:0:
251,187,117252,1,0,0:0:0:0:
254,180,117302,1,0,0:0:0:0:
256,177,117352,1,2,0:0:0:0:
237,189,117453,1,0,0:0:0:0:
251,187,117554,1,2,0:0:0:0:
280,177,117654,1,2,0:0:0:0:
283,171,117705,1,2,0:0:0:0:
256,173,117755,1,0,0:0:0:0:
276,172,117856,1,2,0:0:0:0:
277,166,117956,1,2,0:0:0:0:
280,164,118057,1,2,0:0:0:0:
267,165,118158,1,0,0:0:0:0:
276,175,118225,1,0,0:0:0:0:
294,151,118292,1,0,0:0:0:0:
292,154,118359,1,2,0:0:0:0:
292,154,118426,1,2,0:0:0:0:
292,156,118493,1,2,0:0:0:0:
292,157,118560,1,0,0:0:0:0:
296,171,118762,1,6,0:0:0:0:
268,172,118963,1,0,0:0:0:0:
201,185,119064,1,2,0:0:0:0:
255,178,119165,1,0,0:0:0:0:
255,179,119265,1,0,0:0:0:0:
251,186,119366,1,2,0:0:0:0:
253,194,119416,1,2,0:0:0:0:
251,190,119467,1,2,0:0:0:0:
246,190,119567,1,2,0:0:0:0:
263,193,119668,1,0,0:0:0:0:
246,145,119718,1,0,0:0:0:0:
264,188,119769,1,0,0:0:0:0:
272,180,119869,1,0,0:0:0:0:
276,180,119970,1,2,0:0:0:0:
273,180,120071,1,2,0:0:0:0:
272,178,120171,1,0,0:0:0:0:
261,192,120373,1,6,0:0:0:0:
277,222,120574,1,0,0:0:0:0:
263,193,120675,1,2,0:0:0:0:
265,197,120775,1,0,0:0:0:0:
268,197,120876,1,0,0:0:0:0:
244,206,120977,1,6,0:0:0:0:
248,207,121178,1,2,0:0:0:0:
266,211,121279,1,4,0:0:0:0:
265,204,121480,1,0,0:0:0:0:
268,208,121581,1,6,0:0:0:0:
274,222,121782,1,0,0:0:0:0:
276,225,121983,1,6,0:0:0:0:
260,197,122185,1,0,0:0:0:0:
275,199,122386,1,0,0:0:0:0:
277,199,122487,1,0,0:0:0:0:
278,197,122587,1,2,0:0:0:0:
283,211,122638,1,2,0:0:0:0:
279,196,122688,1,2,0:0:0:0:
284,193,122789,1,2,0:0:0:0:
288,192,122889,1,0,0:0:0:0:
285,208,122940,1,0,0:0:0:0:
288,192,122990,1,0,0:0:0:0:
288,192,123091,1,0,0:0:0:0:
289,193,123191,1,2,0:0:0:0:
290,192,123292,1,2,0:0:0:0:
290,191,123393,1,0,0:0:0:0:
290,191,123594,1,6,0:0:0:0:
275,197,123795,1,0,0:0:0:0:
254,151,123896,1,2,0:0:0:0:
253,158,123997,1,0,0:0:0:0:
253,165,124097,1,0,0:0:0:0:
278,178,124198,1,6,0:0:0:0:
292,170,124399,1,2,0:0:0:0:
295,151,124500,1,4,0:0:0:0:
301,154,124701,1,0,0:0:0:0:
299,160,124802,1,6,0:0:0:0:
298,155,125003,1,4,0:0:0:0:
285,185,125205,1,2,0:0:0:0:
283,188,125305,1,0,0:0:0:0:
285,194,125356,1,0,0:0:0:0:
285,195,125406,1,2,0:0:0:0:
301,177,125507,1,0,0:0:0:0:
301,177,125607,1,2,0:0:0:0:
285,195,125708,1,2,0:0:0:0:
268,192,125809,1,0,0:0:0:0:
285,194,125859,1,0,0:0:0:0:
268,192,125909,1,0,0:0:0:0:
263,161,126010,1,2,0:0:0:0:
232,178,126111,1,0,0:0:0:0:
237,178,126161,1,0,0:0:0:0:
244,177,126211,1,2,0:0:0:0:
253,181,126312,1,0,0:0:0:0:
261,170,126413,1,2,0:0:0:0:
261,170,126514,1,2,0:0:0:0:
276,170,126614,1,4,0:0:0:0:
229,156,126816,1,2,0:0:0:0:
229,156,127017,1,0,0:0:0:0:
229,156,127118,1,0,0:0:0:0:
229,156,127218,1,2,0:0:0:0:
229,156,127319,1,0,0:0:0:0:
261,170,127420,1,6,0:0:0:0:
270,165,127520,1,0,0:0:0:0:
270,165,127621,1,0,0:0:0:0:
270,165,127722,1,6,0:0:0:0:
260,158,127822,1,0,0:0:0:0:
260,158,127923,1,0,0:0:0:0:
260,159,128024,1,6,0:0:0:0:
251,141,128225,1,0,0:0:0:0:
259,147,128326,1,0,0:0:0:0:
252,141,128426,1,2,0:0:0:0:
252,141,128527,1,0,0:0:0:0:
249,138,128577,1,0,0:0:0:0:
246,135,128628,1,2,0:0:0:0:
246,135,128728,5,0,0:0:0:0:
246,136,128829,1,2,0:0:0:0:
284,206,128879,1,2,0:0:0:0:
246,136,128930,1,0,0:0:0:0:
246,136,128980,1,0,0:0:0:0:
246,136,129030,1,2,0:0:0:0:
284,206,129131,1,0,0:0:0:0:
284,206,129232,1,2,0:0:0:0:
284,206,129332,1,0,0:0:0:0:
268,198,129383,1,0,0:0:0:0:
278,195,129433,1,2,0:0:0:0:
269,216,129534,1,0,0:0:0:0:
272,197,129634,1,2,0:0:0:0:
265,184,129836,5,4,0:0:0:0:
265,184,129936,1,6,0:0:0:0:
267,195,130138,1,6,0:0:0:0:
268,197,130238,1,4,0:0:0:0:
271,205,130440,1,6,0:0:0:0:
274,207,130540,1,6,0:0:0:0:
281,210,130742,1,4,0:0:0:0:
288,202,130842,1,4,0:0:0:0:
288,202,131044,1,6,0:0:0:0:
288,202,131144,1,0,0:0:0:0:
299,200,131195,1,0,0:0:0:0:
300,201,131245,1,2,0:0:0:0:
300,201,131346,1,2,0:0:0:0:
301,202,131446,1,4,0:0:0:0:
269,187,131648,1,2,0:0:0:0:
288,176,131698,1,2,0:0:0:0:
288,174,131748,1,0,0:0:0:0:
288,176,131849,1,2,0:0:0:0:
292,161,131950,1,0,0:0:0:0:
280,157,132000,1,0,0:0:0:0:
279,202,132050,1,2,0:0:0:0:
244,139,132101,1,0,0:0:0:0:
269,209,132151,1,2,0:0:0:0:
258,186,132252,1,0,0:0:0:0:
260,186,132302,1,0,0:0:0:0:
265,161,132352,1,0,0:0:0:0:
283,200,132453,1,2,0:0:0:0:
266,161,132554,1,0,0:0:0:0:
266,161,132604,1,0,0:0:0:0:
265,161,132654,1,2,0:0:0:0:
265,161,132755,1,0,0:0:0:0:
283,193,132856,1,2,0:0:0:0:
265,161,132956,1,2,0:0:0:0:
265,161,133007,1,2,0:0:0:0:
285,193,133057,1,0,0:0:0:0:
284,179,133107,1,0,0:0:0:0:
284,179,133158,1,0,0:0:0:0:
283,193,133208,1,0,0:0:0:0:
288,194,133258,1,2,0:0:0:0:
288,194,133359,1,0,0:0:0:0:
288,182,133409,1,0,0:0:0:0:
288,182,133460,1,2,0:0:0:0:
289,181,133560,1,0,0:0:0:0:
289,193,133661,1,2,0:0:0:0:
267,200,133711,1,0,0:0:0:0:
265,193,133762,1,2,0:0:0:0:
266,191,133812,1,2,0:0:0:0:
289,193,133863,1,0,0:0:0:0:
266,191,133963,1,0,0:0:0:0:
285,193,134064,1,2,0:0:0:0:
266,191,134165,1,0,0:0:0:0:
290,197,134215,1,0,0:0:0:0:
288,185,134265,1,2,0:0:0:0:
276,165,134366,1,0,0:0:0:0:
276,165,134467,1,2,0:0:0:0:
289,181,134517,1,2,0:0:0:0:
285,186,134567,1,2,0:0:0:0:
254,170,134618,1,2,0:0:0:0:
285,186,134668,1,0,0:0:0:0:
282,171,134769,1,0,0:0:0:0:
269,187,134869,1,2,0:0:0:0:
288,174,134970,1,0,0:0:0:0:
244,139,135020,1,0,0:0:0:0:
288,176,135071,1,2,0:0:0:0:
292,161,135171,1,0,0:0:0:0:
288,176,135222,1,0,0:0:0:0:
279,202,135272,1,2,0:0:0:0:
234,170,135322,1,0,0:0:0:0:
269,209,135373,1,2,0:0:0:0:
260,186,135423,1,2,0:0:0:0:
258,186,135473,1,0,0:0:0:0:
265,161,135574,1,0,0:0:0:0:
283,200,135675,1,2,0:0:0:0:
266,161,135725,1,2,0:0:0:0:
266,161,135775,1,0,0:0:0:0:
265,161,135876,1,2,0:0:0:0:
265,161,135977,1,0,0:0:0:0:
265,161,136027,1,0,0:0:0:0:
283,193,136077,1,2,0:0:0:0:
265,161,136178,1,2,0:0:0:0:
285,193,136279,1,0,0:0:0:0:
284,179,136329,1,0,0:0:0:0:
284,179,136379,1,0,0:0:0:0:
283,193,136430,1,0,0:0:0:0:
288,194,136480,1,2,0:0:0:0:
288,194,136581,1,0,0:0:0:0:
288,182,136681,1,2,0:0:0:0:
269,178,136732,1,2,0:0:0:0:
289,181,136782,1,0,0:0:0:0:
310,190,136832,1,0,0:0:0:0:
289,193,136883,1,2,0:0:0:0:
265,193,136983,1,0,0:0:0:0:
289,193,137084,1,2,0:0:0:0:
285,193,137134,1,2,0:0:0:0:
266,191,137185,1,0,0:0:0:0:
285,193,137285,1,0,0:0:0:0:
266,191,137386,1,2,0:0:0:0:
283,193,137436,1,2,0:0:0:0:
290,197,137487,1,0,0:0:0:0:
276,165,137587,1,0,0:0:0:0:
276,165,137688,1,2,0:0:0:0:
289,181,137738,1,2,0:0:0:0:
285,186,137789,1,2,0:0:0:0:
285,186,137839,1,2,0:0:0:0:
285,186,137889,1,0,0:0:0:0:
268,158,137990,1,0,0:0:0:0:
269,187,138091,1,2,0:0:0:0:
288,174,138191,1,0,0:0:0:0:
288,176,138242,1,0,0:0:0:0:
288,176,138292,1,2,0:0:0:0:
292,161,138393,1,0,0:0:0:0:
279,202,138493,1,2,0:0:0:0:
244,139,138544,1,2,0:0:0:0:
269,209,138594,1,0,0:0:0:0:
260,186,138644,1,2,0:0:0:0:
258,186,138695,1,0,0:0:0:0:
265,161,138795,1,2,0:0:0:0:
266,161,138846,1,2,0:0:0:0:
283,200,138896,1,2,0:0:0:0:
266,161,138997,1,0,0:0:0:0:
265,198,139047,1,0,0:0:0:0:
265,161,139097,1,2,0:0:0:0:
265,161,139198,1,0,0:0:0:0:
283,193,139299,1,2,0:0:0:0:
265,161,139399,1,2,0:0:0:0:
290,191,139450,1,2,0:0:0:0:
285,193,139500,1,0,0:0:0:0:
284,179,139550,1,0,0:0:0:0:
284,179,139601,1,0,0:0:0:0:
283,193,139651,1,0,0:0:0:0:
288,194,139701,1,2,0:0:0:0:
288,194,139802,1,0,0:0:0:0:
288,182,139903,1,2,0:0:0:0:
288,182,139953,1,2,0:0:0:0:
289,181,140003,1,0,0:0:0:0:
289,193,140104,1,2,0:0:0:0:
265,193,140205,1,2,0:0:0:0:
289,193,140305,1,0,0:0:0:0:
275,177,140356,1,2,0:0:0:0:
266,191,140406,1,0,0:0:0:0:
242,199,140456,1,0,0:0:0:0:
285,193,140507,1,2,0:0:0:0:
266,191,140607,1,0,0:0:0:0:
288,185,140708,1,2,0:0:0:0:
276,165,140809,1,0,0:0:0:0:
274,152,140859,1,0,0:0:0:0:
276,165,140909,1,2,0:0:0:0:
290,197,140960,1,2,0:0:0:0:
285,186,141010,1,2,0:0:0:0:
294,193,141060,1,2,0:0:0:0:
285,186,141111,1,0,0:0:0:0:
282,171,141211,1,0,0:0:0:0:
269,187,141312,1,2,0:0:0:0:
244,139,141363,1,2,0:0:0:0:
288,174,141413,1,0,0:0:0:0:
288,176,141514,1,2,0:0:0:0:
292,161,141614,1,0,0:0:0:0:
234,170,141715,1,2,0:0:0:0:
266,197,141765,1,2,0:0:0:0:
269,209,141816,1,0,0:0:0:0:
242,170,141866,1,2,0:0:0:0:
258,186,141916,1,0,0:0:0:0:
272,201,141967,1,0,0:0:0:0:
265,161,142017,1,2,0:0:0:0:
283,200,142118,1,2,0:0:0:0:
266,161,142168,1,2,0:0:0:0:
266,161,142218,1,0,0:0:0:0:
265,161,142319,1,2,0:0:0:0:
265,161,142420,1,0,0:0:0:0:
265,161,142470,1,0,0:0:0:0:
283,193,142520,1,2,0:0:0:0:
265,161,142621,1,2,0:0:0:0:
285,193,142722,1,0,0:0:0:0:
284,179,142772,1,0,0:0:0:0:
284,179,142822,1,0,0:0:0:0:
283,193,142873,1,0,0:0:0:0:
288,194,142923,1,2,0:0:0:0:
288,194,143024,1,2,0:0:0:0:
288,182,143124,1,0,0:0:0:0:
269,178,143175,1,2,0:0:0:0:
289,181,143225,1,0,0:0:0:0:
310,190,143275,1,0,0:0:0:0:
289,193,143326,1,2,0:0:0:0:
265,193,143426,1,0,0:0:0:0:
289,193,143527,1,2,0:0:0:0:
285,193,143577,1,2,0:0:0:0:
266,191,143628,1,0,0:0:0:0:
213,168,143678,1,0,0:0:0:0:
233,169,143728,1,2,0:0:0:0:
213,168,143779,1,0,0:0:0:0:
266,191,143829,1,2,0:0:0:0:
283,193,143879,1,2,0:0:0:0:
290,197,143930,1,0,0:0:0:0:
233,169,143980,1,2,0:0:0:0:
276,165,144030,1,0,0:0:0:0:
233,169,144081,1,0,0:0:0:0:
276,165,144131,1,2,0:0:0:0:
289,181,144181,1,2,0:0:0:0:
285,186,144232,1,2,0:0:0:0:
285,186,144282,1,2,0:0:0:0:
285,186,144332,1,0,0:0:0:0:
269,187,144534,1,2,0:0:0:0:
288,174,144634,1,0,0:0:0:0:
288,176,144685,1,0,0:0:0:0:
288,176,144735,1,2,0:0:0:0:
292,161,144836,1,0,0:0:0:0:
280,157,144886,1,0,0:0:0:0:
279,202,144936,1,2,0:0:0:0:
244,139,144987,1,0,0:0:0:0:
269,209,145037,1,2,0:0:0:0:
260,186,145087,1,2,0:0:0:0:
258,186,145138,1,0,0:0:0:0:
265,161,145238,1,0,0:0:0:0:
283,200,145339,1,2,0:0:0:0:
266,161,145389,1,2,0:0:0:0:
266,161,145440,1,0,0:0:0:0:
265,161,145540,1,2,0:0:0:0:
265,161,145641,1,0,0:0:0:0:
265,161,145691,1,0,0:0:0:0:
283,193,145742,1,2,0:0:0:0:
265,161,145842,1,2,0:0:0:0:
285,193,145943,1,0,0:0:0:0:
284,179,145993,1,0,0:0:0:0:
284,179,146044,1,0,0:0:0:0:
283,193,146094,1,0,0:0:0:0:
288,194,146144,1,2,0:0:0:0:
288,194,146245,1,0,0:0:0:0:
288,182,146295,1,0,0:0:0:0:
288,182,146346,1,2,0:0:0:0:
289,181,146446,1,0,0:0:0:0:
289,193,146547,1,2,0:0:0:0:
267,200,146597,1,0,0:0:0:0:
265,193,146648,1,2,0:0:0:0:
266,191,146698,1,2,0:0:0:0:
289,193,146748,1,0,0:0:0:0:
266,191,146849,1,0,0:0:0:0:
285,193,146950,1,2,0:0:0:0:
266,191,147050,1,0,0:0:0:0:
290,197,147101,1,0,0:0:0:0:
288,185,147151,1,2,0:0:0:0:
276,165,147252,1,0,0:0:0:0:
276,165,147352,1,2,0:0:0:0:
289,181,147403,1,2,0:0:0:0:
285,186,147453,1,2,0:0:0:0:
254,170,147503,1,2,0:0:0:0:
285,186,147554,1,0,0:0:0:0:
282,171,147654,1,0,0:0:0:0:
269,187,147755,1,2,0:0:0:0:
244,139,147805,1,2,0:0:0:0:
288,174,147856,1,0,0:0:0:0:
288,176,147956,1,2,0:0:0:0:
292,161,148057,1,0,0:0:0:0:
234,170,148107,1,0,0:0:0:0:
288,176,148158,1,2,0:0:0:0:
279,202,148208,1,0,0:0:0:0:
269,209,148258,1,2,0:0:0:0:
258,186,148359,1,0,0:0:0:0:
265,177,148409,1,0,0:0:0:0:
265,161,148460,1,0,0:0:0:0:
283,200,148560,1,2,0:0:0:0:
265,161,148611,1,2,0:0:0:0:
266,161,148661,1,0,0:0:0:0:
266,161,148762,1,2,0:0:0:0:
265,161,148863,1,0,0:0:0:0:
295,206,148913,1,0,0:0:0:0:
283,193,148963,1,2,0:0:0:0:
265,161,149064,1,2,0:0:0:0:
285,193,149165,1,4,0:0:0:0:
265,161,149265,1,2,0:0:0:0:
265,161,149366,1,2,0:0:0:0:
261,139,149467,1,4,0:0:0:0:
261,96,149567,1,2,0:0:0:0:
249,97,149668,1,2,0:0:0:0:
249,97,149769,1,4,0:0:0:0:
249,97,149869,1,0,0:0:0:0:
255,136,149970,1,2,0:0:0:0:
255,136,150020,1,2,0:0:0:0:
249,97,150071,1,0,0:0:0:0:
249,97,150171,1,0,0:0:0:0:
249,97,150272,1,2,0:0:0:0:
255,136,150322,1,2,0:0:0:0:
249,97,150373,1,0,0:0:0:0:
249,97,150473,1,0,0:0:0:0:
249,97,150574,1,2,0:0:0:0:
254,119,150624,1,2,0:0:0:0:
253,113,150675,1,2,0:0:0:0:
261,136,150775,1,4,0:0:0:0:
256,162,150977,1,2,0:0:0:0:
269,163,151027,1,2,0:0:0:0:
241,150,151077,1,0,0:0:0:0:
271,164,151178,1,2,0:0:0:0:
275,164,151279,1,0,0:0:0:0:
283,175,151329,1,0,0:0:0:0:
256,162,151379,1,2,0:0:0:0:
267,164,151430,1,2,0:0:0:0:
281,153,151480,1,0,0:0:0:0:
279,159,151581,1,2,0:0:0:0:
267,164,151681,1,0,0:0:0:0:
256,162,151782,1,2,0:0:0:0:
277,159,151883,1,0,0:0:0:0:
274,171,151933,1,0,0:0:0:0:
275,152,151983,1,0,0:0:0:0:
276,160,152084,1,2,0:0:0:0:
256,162,152185,1,0,0:0:0:0:
254,157,152235,1,0,0:0:0:0:
252,158,152285,1,2,0:0:0:0:
267,185,152386,1,4,0:0:0:0:
240,161,152487,1,0,0:0:0:0:
256,162,152587,1,2,0:0:0:0:
252,161,152688,1,0,0:0:0:0:
256,162,152738,1,0,0:0:0:0:
256,162,152789,1,0,0:0:0:0:
255,147,152889,1,0,0:0:0:0:
262,159,152990,1,2,0:0:0:0:
266,158,153040,1,2,0:0:0:0:
266,158,153091,1,0,0:0:0:0:
254,137,153191,1,2,0:0:0:0:
270,153,153292,1,0,0:0:0:0:
280,174,153393,1,2,0:0:0:0:
266,155,153443,1,2,0:0:0:0:
276,155,153493,1,0,0:0:0:0:
269,151,153544,1,0,0:0:0:0:
276,155,153594,1,2,0:0:0:0:
294,184,153695,1,0,0:0:0:0:
275,179,153795,1,2,0:0:0:0:
290,190,153846,1,2,0:0:0:0:
249,173,153896,1,2,0:0:0:0:
267,183,153997,1,4,0:0:0:0:
267,170,154097,1,0,0:0:0:0:
275,179,154198,1,2,0:0:0:0:
267,169,154248,1,2,0:0:0:0:
267,170,154299,1,0,0:0:0:0:
265,160,154399,1,2,0:0:0:0:
267,160,154500,1,0,0:0:0:0:
267,152,154550,1,0,0:0:0:0:
275,179,154601,1,2,0:0:0:0:
267,152,154651,1,2,0:0:0:0:
267,152,154701,1,0,0:0:0:0:
267,152,154802,1,2,0:0:0:0:
267,152,154903,1,0,0:0:0:0:
276,175,155003,1,2,0:0:0:0:
267,152,155104,1,0,0:0:0:0:
267,152,155154,1,0,0:0:0:0:
267,152,155205,1,0,0:0:0:0:
269,152,155305,1,0,0:0:0:0:
276,171,155406,1,2,0:0:0:0:
269,152,155456,1,2,0:0:0:0:
269,153,155507,1,0,0:0:0:0:
267,182,155607,5,6,0:0:0:0:
309,161,155708,1,0,0:0:0:0:
309,161,155758,1,0,0:0:0:0:
269,187,155809,1,2,0:0:0:0:
322,160,155909,1,0,0:0:0:0:
324,160,156010,1,2,0:0:0:0:
326,215,156111,5,0,0:0:0:0:
326,215,156161,1,0,0:0:0:0:
327,204,156211,1,2,0:0:0:0:
328,204,156262,1,2,0:0:0:0:
330,204,156312,1,0,0:0:0:0:
226,181,156363,1,0,0:0:0:0:
333,147,156413,1,2,0:0:0:0:
333,159,156514,1,2,0:0:0:0:
331,144,156614,1,2,0:0:0:0:
269,169,156715,1,0,0:0:0:0:
297,158,156816,1,0,0:0:0:0:
299,145,156916,1,0,0:0:0:0:
299,145,157017,1,2,0:0:0:0:
299,143,157118,1,0,0:0:0:0:
263,195,157218,5,2,0:0:0:0:
248,186,157269,1,2,0:0:0:0:
270,200,157319,1,0,0:0:0:0:
270,200,157420,1,2,0:0:0:0:
270,200,157520,1,0,0:0:0:0:
257,208,157571,1,0,0:0:0:0:
261,206,157621,1,2,0:0:0:0:
265,206,157671,1,2,0:0:0:0:
265,206,157722,1,0,0:0:0:0:
265,206,157822,1,2,0:0:0:0:
269,194,157873,1,0,0:0:0:0:
253,193,157923,1,2,0:0:0:0:
256,196,157973,1,2,0:0:0:0:
257,199,158024,1,0,0:0:0:0:
257,199,158124,1,2,0:0:0:0:
261,202,158225,1,0,0:0:0:0:
264,202,158275,1,0,0:0:0:0:
264,202,158326,1,2,0:0:0:0:
270,200,158376,1,0,0:0:0:0:
256,186,158426,1,2,0:0:0:0:
264,202,158477,1,2,0:0:0:0:
265,202,158527,1,0,0:0:0:0:
259,195,158577,1,0,0:0:0:0:
258,187,158628,1,2,0:0:0:0:
264,197,158728,1,0,0:0:0:0:
265,200,158829,1,2,0:0:0:0:
271,196,158879,1,2,0:0:0:0:
271,188,158930,1,0,0:0:0:0:
280,195,158980,1,2,0:0:0:0:
269,188,159030,1,0,0:0:0:0:
256,192,159081,1,0,0:0:0:0:
259,193,159131,1,2,0:0:0:0:
252,190,159232,1,2,0:0:0:0:
246,185,159282,1,2,0:0:0:0:
246,185,159332,1,0,0:0:0:0:
268,194,159433,1,2,0:0:0:0:
269,196,159483,1,0,0:0:0:0:
265,202,159534,1,2,0:0:0:0:
265,186,159584,1,2,0:0:0:0:
265,186,159634,1,0,0:0:0:0:
265,186,159735,1,2,0:0:0:0:
265,179,159836,1,0,0:0:0:0:
265,179,159886,1,0,0:0:0:0:
262,178,159936,1,2,0:0:0:0:
269,172,159987,1,0,0:0:0:0:
261,175,160037,1,2,0:0:0:0:
256,184,160104,1,2,0:0:0:0:
262,187,160171,1,0,0:0:0:0:
269,161,160238,1,2,0:0:0:0:
264,183,160305,1,0,0:0:0:0:
266,180,160373,1,0,0:0:0:0:
266,179,160440,1,2,0:0:0:0:
277,175,160490,1,2,0:0:0:0:
271,177,160540,1,0,0:0:0:0:
270,178,160641,1,2,0:0:0:0:
270,177,160742,1,0,0:0:0:0:
270,177,160792,1,0,0:0:0:0:
271,177,160842,1,2,0:0:0:0:
271,177,160893,1,2,0:0:0:0:
275,177,160943,1,0,0:0:0:0:
276,178,161044,1,2,0:0:0:0:
228,191,161094,1,0,0:0:0:0:
276,178,161144,1,2,0:0:0:0:
273,172,161195,1,2,0:0:0:0:
260,179,161245,1,0,0:0:0:0:
266,180,161346,1,2,0:0:0:0:
266,179,161446,1,0,0:0:0:0:
262,173,161497,1,0,0:0:0:0:
285,188,161547,1,2,0:0:0:0:
278,213,161597,1,0,0:0:0:0:
281,180,161648,1,2,0:0:0:0:
274,165,161698,1,2,0:0:0:0:
276,167,161748,1,0,0:0:0:0:
337,213,161799,1,0,0:0:0:0:
284,171,161849,1,2,0:0:0:0:
279,174,161950,1,0,0:0:0:0:
276,178,162050,1,2,0:0:0:0:
276,170,162101,1,2,0:0:0:0:
276,178,162151,1,0,0:0:0:0:
255,158,162252,1,0,0:0:0:0:
278,180,162352,1,2,0:0:0:0:
298,204,162403,1,2,0:0:0:0:
285,175,162453,1,0,0:0:0:0:
286,175,162554,1,0,0:0:0:0:
267,174,162654,1,2,0:0:0:0:
317,220,162705,1,2,0:0:0:0:
272,174,162755,1,0,0:0:0:0:
317,220,162805,1,0,0:0:0:0:
269,160,162856,1,2,0:0:0:0:
298,204,162923,1,2,0:0:0:0:
292,201,162990,1,2,0:0:0:0:
286,196,163057,1,0,0:0:0:0:
297,191,163124,1,0,0:0:0:0:
283,170,163191,1,0,0:0:0:0:
283,170,163258,1,2,0:0:0:0:
315,182,163661,1,4,0:0:0:0:
259,191,170103,5,6,0:0:0:0:
254,203,170305,1,6,0:0:0:0:
256,192,174936,12,0,176144,0:0:0:0:
243,188,176546,5,0,0:0:0:0:
243,188,176646,1,0,0:0:0:0:
243,188,176747,1,0,0:0:0:0:
243,188,176848,1,0,0:0:0:0:
243,188,176948,1,2,0:0:0:0:
266,162,176999,1,0,0:0:0:0:
243,188,177049,1,0,0:0:0:0:
270,132,177099,1,0,0:0:0:0:
260,194,177150,1,2,0:0:0:0:
249,170,177250,1,2,0:0:0:0:
249,170,177351,1,0,0:0:0:0:
250,172,177452,1,0,0:0:0:0:
253,174,177552,1,0,0:0:0:0:
258,166,177653,1,0,0:0:0:0:
260,166,177754,1,2,0:0:0:0:
258,178,177804,1,2,0:0:0:0:
269,165,177854,1,0,0:0:0:0:
269,165,177955,1,2,0:0:0:0:
274,154,178056,1,2,0:0:0:0:
269,151,178156,1,0,0:0:0:0:
269,152,178257,1,0,0:0:0:0:
269,152,178358,1,0,0:0:0:0:
270,154,178458,1,0,0:0:0:0:
270,154,178559,1,2,0:0:0:0:
327,144,178609,1,2,0:0:0:0:
270,154,178660,1,0,0:0:0:0:
270,132,178710,1,0,0:0:0:0:
268,154,178760,1,2,0:0:0:0:
272,143,178861,1,2,0:0:0:0:
274,142,178962,1,0,0:0:0:0:
283,142,179062,1,0,0:0:0:0:
283,141,179163,1,0,0:0:0:0:
283,141,179264,1,0,0:0:0:0:
286,138,179364,1,2,0:0:0:0:
278,91,179415,1,0,0:0:0:0:
272,131,179465,1,0,0:0:0:0:
269,133,179566,1,2,0:0:0:0:
272,133,179616,1,2,0:0:0:0:
269,135,179666,1,2,0:0:0:0:
270,132,179767,1,4,0:0:0:0:
287,167,179868,1,0,0:0:0:0:
287,167,179968,1,0,0:0:0:0:
287,167,180069,1,0,0:0:0:0:
287,167,180170,1,2,0:0:0:0:
287,161,180220,1,0,0:0:0:0:
283,147,180270,1,0,0:0:0:0:
291,142,180321,1,0,0:0:0:0:
283,147,180371,1,2,0:0:0:0:
283,145,180472,1,2,0:0:0:0:
286,141,180572,1,0,0:0:0:0:
287,140,180673,1,0,0:0:0:0:
289,140,180774,1,0,0:0:0:0:
289,140,180874,1,0,0:0:0:0:
297,142,180975,1,2,0:0:0:0:
299,142,181025,1,2,0:0:0:0:
299,142,181076,1,0,0:0:0:0:
299,142,181176,1,2,0:0:0:0:
299,142,181277,1,2,0:0:0:0:
299,142,181378,1,0,0:0:0:0:
300,143,181478,1,0,0:0:0:0:
300,143,181579,1,0,0:0:0:0:
300,143,181680,1,0,0:0:0:0:
300,143,181780,1,2,0:0:0:0:
300,143,181831,1,2,0:0:0:0:
307,143,181881,1,0,0:0:0:0:
307,143,181931,1,0,0:0:0:0:
312,144,181982,1,2,0:0:0:0:
312,144,182082,1,0,0:0:0:0:
283,156,182183,1,2,0:0:0:0:
317,163,182233,1,2,0:0:0:0:
283,156,182284,1,2,0:0:0:0:
288,156,182384,1,2,0:0:0:0:
288,156,182485,1,0,0:0:0:0:
297,138,182535,1,0,0:0:0:0:
290,156,182586,1,0,0:0:0:0:
291,156,182686,1,0,0:0:0:0:
291,156,182787,1,2,0:0:0:0:
291,156,182888,1,0,0:0:0:0:
277,178,182988,1,6,0:0:0:0:
312,155,183089,1,0,0:0:0:0:
322,173,183139,1,0,0:0:0:0:
322,163,183190,1,2,0:0:0:0:
322,163,183290,1,0,0:0:0:0:
310,181,183341,1,0,0:0:0:0:
322,163,183391,1,2,0:0:0:0:
322,163,183441,1,0,0:0:0:0:
322,163,183492,1,0,0:0:0:0:
322,163,183542,1,0,0:0:0:0:
308,170,183592,1,2,0:0:0:0:
310,170,183693,1,0,0:0:0:0:
310,170,183794,1,2,0:0:0:0:
310,170,183894,1,0,0:0:0:0:
322,173,183945,1,0,0:0:0:0:
310,170,183995,1,2,0:0:0:0:
310,170,184096,1,0,0:0:0:0:
309,186,184146,1,0,0:0:0:0:
322,173,184197,1,2,0:0:0:0:
322,173,184247,1,2,0:0:0:0:
322,174,184297,1,0,0:0:0:0:
322,174,184398,1,2,0:0:0:0:
322,174,184499,1,2,0:0:0:0:
322,174,184599,1,0,0:0:0:0:
322,174,184700,1,0,0:0:0:0:
322,174,184750,1,0,0:0:0:0:
322,174,184801,1,2,0:0:0:0:
326,175,184901,1,0,0:0:0:0:
309,186,184952,1,0,0:0:0:0:
326,175,185002,1,2,0:0:0:0:
326,175,185052,1,2,0:0:0:0:
326,175,185103,1,0,0:0:0:0:
332,175,185153,1,0,0:0:0:0:
332,175,185203,1,2,0:0:0:0:
330,175,185304,1,0,0:0:0:0:
330,175,185405,1,2,0:0:0:0:
330,175,185505,1,0,0:0:0:0:
330,175,185556,1,0,0:0:0:0:
330,173,185606,1,2,0:0:0:0:
330,173,185707,1,0,0:0:0:0:
310,188,185757,1,0,0:0:0:0:
330,173,185807,1,2,0:0:0:0:
326,175,185858,1,0,0:0:0:0:
326,175,185908,1,0,0:0:0:0:
330,172,186009,1,2,0:0:0:0:
330,172,186059,1,2,0:0:0:0:
326,163,186109,1,2,0:0:0:0:
326,163,186210,1,4,0:0:0:0:
329,156,186311,1,0,0:0:0:0:
329,156,186361,1,0,0:0:0:0:
329,156,186411,1,2,0:0:0:0:
329,156,186512,1,0,0:0:0:0:
310,188,186562,1,0,0:0:0:0:
329,156,186613,1,2,0:0:0:0:
330,173,186663,1,0,0:0:0:0:
329,156,186713,1,0,0:0:0:0:
317,115,186764,1,0,0:0:0:0:
331,158,186814,1,2,0:0:0:0:
317,154,186915,1,0,0:0:0:0:
322,164,187015,1,2,0:0:0:0:
326,163,187116,1,0,0:0:0:0:
326,163,187166,1,0,0:0:0:0:
326,163,187217,1,2,0:0:0:0:
324,164,187317,1,0,0:0:0:0:
310,188,187368,1,0,0:0:0:0:
324,164,187418,1,2,0:0:0:0:
324,164,187468,1,2,0:0:0:0:
324,160,187519,1,0,0:0:0:0:
324,160,187619,1,2,0:0:0:0:
324,160,187720,1,2,0:0:0:0:
321,156,187821,1,0,0:0:0:0:
323,141,187921,1,0,0:0:0:0:
323,141,187972,1,0,0:0:0:0:
345,124,188022,1,2,0:0:0:0:
345,124,188123,1,0,0:0:0:0:
310,188,188173,1,0,0:0:0:0:
345,124,188223,1,2,0:0:0:0:
340,117,188274,1,2,0:0:0:0:
339,116,188324,1,0,0:0:0:0:
338,113,188374,1,0,0:0:0:0:
324,115,188425,1,2,0:0:0:0:
324,115,188525,1,0,0:0:0:0:
324,115,188626,1,2,0:0:0:0:
324,115,188676,1,2,0:0:0:0:
324,115,188727,1,0,0:0:0:0:
320,108,188827,1,0,0:0:0:0:
320,108,188928,1,2,0:0:0:0:
318,110,188978,1,2,0:0:0:0:
320,110,189029,1,0,0:0:0:0:
318,112,189129,1,0,0:0:0:0:
316,112,189230,1,2,0:0:0:0:
315,106,189280,1,2,0:0:0:0:
315,106,189331,1,2,0:0:0:0:
300,119,189431,1,4,0:0:0:0:
291,172,189733,1,0,0:0:0:0:
282,213,189834,1,2,0:0:0:0:
282,213,190035,1,0,0:0:0:0:
286,217,190237,1,2,0:0:0:0:
286,217,190438,1,2,0:0:0:0:
288,213,190539,1,2,0:0:0:0:
290,213,190639,1,0,0:0:0:0:
292,213,190740,1,0,0:0:0:0:
292,213,190841,1,0,0:0:0:0:
292,215,190941,1,0,0:0:0:0:
292,216,191042,1,6,0:0:0:0:
259,208,191243,1,0,0:0:0:0:
259,208,191344,1,0,0:0:0:0:
272,218,191445,1,2,0:0:0:0:
264,213,191546,1,0,0:0:0:0:
265,213,191646,1,0,0:0:0:0:
266,213,191848,1,2,0:0:0:0:
268,191,192250,1,0,0:0:0:0:
271,194,192351,1,0,0:0:0:0:
271,196,192452,1,0,0:0:0:0:
275,197,192552,1,0,0:0:0:0:
277,199,192653,1,6,0:0:0:0:
277,199,192955,1,0,0:0:0:0:
277,199,193056,1,2,0:0:0:0:
281,201,193257,1,0,0:0:0:0:
280,202,193458,1,2,0:0:0:0:
280,202,193861,1,4,0:0:0:0:
281,201,194264,1,6,0:0:0:0:
254,196,194465,1,0,0:0:0:0:
261,203,194566,1,0,0:0:0:0:
273,207,194666,1,2,0:0:0:0:
267,203,194767,1,0,0:0:0:0:
267,203,194868,1,0,0:0:0:0:
268,212,195069,1,2,0:0:0:0:
260,206,195136,1,2,0:0:0:0:
257,229,195203,1,0,0:0:0:0:
260,206,195270,1,2,0:0:0:0:
272,206,195337,1,0,0:0:0:0:
272,206,195405,1,0,0:0:0:0:
274,207,195472,1,2,0:0:0:0:
274,209,195539,1,2,0:0:0:0:
284,209,195606,1,2,0:0:0:0:
287,208,195673,1,2,0:0:0:0:
286,208,195774,1,2,0:0:0:0:
288,206,195874,1,4,0:0:0:0:
291,172,196176,1,0,0:0:0:0:
282,213,196277,1,2,0:0:0:0:
282,213,196478,1,0,0:0:0:0:
286,217,196680,1,2,0:0:0:0:
286,217,196881,1,2,0:0:0:0:
288,213,196982,1,2,0:0:0:0:
290,213,197082,1,0,0:0:0:0:
292,213,197183,1,0,0:0:0:0:
292,213,197284,1,0,0:0:0:0:
292,215,197384,1,0,0:0:0:0:
292,216,197485,1,6,0:0:0:0:
259,208,197686,1,0,0:0:0:0:
259,208,197787,1,0,0:0:0:0:
301,229,197888,1,2,0:0:0:0:
264,213,197988,1,0,0:0:0:0:
265,213,198089,1,0,0:0:0:0:
266,213,198290,1,2,0:0:0:0:
268,191,198693,1,4,0:0:0:0:
277,199,199096,1,6,0:0:0:0:
277,199,199499,1,2,0:0:0:0:
281,201,199700,1,0,0:0:0:0:
267,186,199801,1,0,0:0:0:0:
259,189,199901,1,2,0:0:0:0:
267,186,200002,1,2,0:0:0:0:
268,190,200103,1,2,0:0:0:0:
269,193,200203,1,2,0:0:0:0:
269,195,200304,1,0,0:0:0:0:
256,199,200405,1,0,0:0:0:0:
262,199,200505,1,2,0:0:0:0:
273,188,200606,1,2,0:0:0:0:
256,192,200707,12,0,202317,0:0:0:0:
282,208,202552,5,2,0:0:0:0:
260,193,202753,5,0,0:0:0:0:
267,193,202955,1,2,0:0:0:0:
267,193,203055,1,2,0:0:0:0:
269,194,203357,1,0,0:0:0:0:
265,177,203559,1,2,0:0:0:0:
265,177,203760,1,2,0:0:0:0:
265,177,203961,1,0,0:0:0:0:
265,177,204263,1,0,0:0:0:0:
265,177,204565,1,0,0:0:0:0:
260,193,204767,1,2,0:0:0:0:
260,193,205169,1,2,0:0:0:0:
260,193,205572,1,0,0:0:0:0:
264,176,205773,1,0,0:0:0:0:
264,176,205975,1,2,0:0:0:0:
264,176,206176,1,0,0:0:0:0:
264,176,206277,1,0,0:0:0:0:
264,176,206579,1,0,0:0:0:0:
264,176,206780,1,2,0:0:0:0:
264,176,206981,1,2,0:0:0:0:
260,197,207183,1,0,0:0:0:0:
265,181,207485,1,0,0:0:0:0:
265,182,207787,1,0,0:0:0:0:
260,197,207988,1,2,0:0:0:0:
260,197,208290,1,0,0:0:0:0:
245,186,208391,1,2,0:0:0:0:
260,197,208592,1,2,0:0:0:0:
261,202,208793,1,0,0:0:0:0:
262,191,209196,1,2,0:0:0:0:
265,191,209397,1,0,0:0:0:0:
287,174,209498,1,0,0:0:0:0:
272,177,209599,1,2,0:0:0:0:
272,177,209800,1,0,0:0:0:0:
273,176,210002,1,2,0:0:0:0:
287,177,210203,1,2,0:0:0:0:
287,174,210404,1,0,0:0:0:0:
265,182,210807,1,0,0:0:0:0:
265,182,211210,1,2,0:0:0:0:
265,182,211612,1,2,0:0:0:0:
269,196,212015,1,0,0:0:0:0:
269,196,212216,1,0,0:0:0:0:
269,196,212418,1,2,0:0:0:0:
269,196,212619,1,0,0:0:0:0:
269,196,212820,1,2,0:0:0:0:
269,196,212921,1,2,0:0:0:0:
269,196,213022,1,0,0:0:0:0:
269,196,213122,1,0,0:0:0:0:
269,196,213223,1,2,0:0:0:0:
269,196,213324,1,2,0:0:0:0:
269,196,213424,1,2,0:0:0:0:
269,196,213525,1,2,0:0:0:0:
256,192,213626,12,0,214834,0:0:0:0:
308,193,215203,5,4,0:0:0:0:
269,187,215404,1,2,0:0:0:0:
288,176,215454,1,2,0:0:0:0:
288,174,215505,1,0,0:0:0:0:
288,176,215605,1,2,0:0:0:0:
292,161,215706,1,0,0:0:0:0:
280,157,215756,1,0,0:0:0:0:
279,202,215807,1,2,0:0:0:0:
244,139,215857,1,0,0:0:0:0:
269,209,215907,1,2,0:0:0:0:
258,186,216008,1,0,0:0:0:0:
284,153,216058,1,0,0:0:0:0:
265,161,216109,1,0,0:0:0:0:
287,139,216159,1,0,0:0:0:0:
283,200,216209,1,2,0:0:0:0:
266,161,216260,1,2,0:0:0:0:
266,161,216310,1,0,0:0:0:0:
265,161,216411,1,2,0:0:0:0:
265,161,216511,1,0,0:0:0:0:
265,161,216562,1,0,0:0:0:0:
283,193,216612,1,2,0:0:0:0:
265,161,216713,1,2,0:0:0:0:
299,206,216763,1,2,0:0:0:0:
285,193,216813,1,0,0:0:0:0:
284,179,216864,1,2,0:0:0:0:
284,179,216914,1,0,0:0:0:0:
283,193,216964,1,0,0:0:0:0:
288,194,217015,1,2,0:0:0:0:
288,194,217115,1,0,0:0:0:0:
288,182,217166,1,0,0:0:0:0:
288,182,217216,1,2,0:0:0:0:
289,181,217317,1,0,0:0:0:0:
289,193,217417,1,2,0:0:0:0:
267,200,217468,1,0,0:0:0:0:
265,193,217518,1,2,0:0:0:0:
266,191,217568,1,2,0:0:0:0:
289,193,217619,1,0,0:0:0:0:
266,191,217719,1,0,0:0:0:0:
285,193,217820,1,2,0:0:0:0:
278,168,217870,1,2,0:0:0:0:
266,191,217921,1,0,0:0:0:0:
290,197,217971,1,0,0:0:0:0:
288,185,218021,1,2,0:0:0:0:
276,165,218122,1,0,0:0:0:0:
292,174,218172,1,0,0:0:0:0:
276,165,218223,1,2,0:0:0:0:
289,181,218273,1,2,0:0:0:0:
285,186,218323,1,2,0:0:0:0:
254,170,218374,1,2,0:0:0:0:
285,186,218424,1,0,0:0:0:0:
282,171,218525,1,0,0:0:0:0:
269,187,218625,1,2,0:0:0:0:
288,174,218726,1,0,0:0:0:0:
244,139,218776,1,0,0:0:0:0:
288,176,218827,1,2,0:0:0:0:
292,161,218927,1,0,0:0:0:0:
288,176,218978,1,0,0:0:0:0:
279,202,219028,1,2,0:0:0:0:
234,170,219078,1,0,0:0:0:0:
269,209,219129,1,2,0:0:0:0:
265,177,219179,1,2,0:0:0:0:
258,186,219229,1,0,0:0:0:0:
265,161,219330,1,0,0:0:0:0:
283,200,219431,1,2,0:0:0:0:
265,161,219481,1,2,0:0:0:0:
266,161,219531,1,2,0:0:0:0:
296,207,219582,1,2,0:0:0:0:
296,207,219632,1,0,0:0:0:0:
296,207,219682,1,2,0:0:0:0:
291,159,219733,1,0,0:0:0:0:
261,149,219783,1,0,0:0:0:0:
278,181,219833,1,2,0:0:0:0:
265,161,219934,1,0,0:0:0:0:
285,193,220035,1,6,0:0:0:0:
265,161,220135,1,0,0:0:0:0:
265,161,220236,1,0,0:0:0:0:
261,139,220337,1,6,0:0:0:0:
261,96,220437,1,0,0:0:0:0:
249,97,220538,1,0,0:0:0:0:
249,97,220639,1,6,0:0:0:0:
249,97,220739,1,0,0:0:0:0:
255,136,220840,1,2,0:0:0:0:
255,136,220890,1,2,0:0:0:0:
249,97,220941,1,0,0:0:0:0:
249,97,221041,1,0,0:0:0:0:
249,97,221142,1,2,0:0:0:0:
255,136,221192,1,2,0:0:0:0:
249,97,221243,1,0,0:0:0:0:
249,97,221343,1,0,0:0:0:0:
249,97,221444,1,2,0:0:0:0:
254,119,221494,1,2,0:0:0:0:
253,113,221545,1,2,0:0:0:0:
261,136,221645,1,4,0:0:0:0:
256,162,221847,1,2,0:0:0:0:
241,150,221947,1,0,0:0:0:0:
269,163,221998,1,0,0:0:0:0:
271,164,222048,1,2,0:0:0:0:
275,164,222149,1,0,0:0:0:0:
256,162,222249,1,2,0:0:0:0:
267,164,222300,1,2,0:0:0:0:
281,153,222350,1,0,0:0:0:0:
273,196,222400,1,2,0:0:0:0:
273,196,222451,1,0,0:0:0:0:
273,196,222501,1,0,0:0:0:0:
267,164,222551,1,2,0:0:0:0:
256,162,222652,1,2,0:0:0:0:
277,159,222753,1,0,0:0:0:0:
274,171,222803,1,0,0:0:0:0:
275,152,222854,1,2,0:0:0:0:
277,157,222904,1,2,0:0:0:0:
276,160,222954,1,0,0:0:0:0:
256,162,223055,1,2,0:0:0:0:
254,157,223105,1,2,0:0:0:0:
252,158,223156,1,2,0:0:0:0:
267,185,223256,1,4,0:0:0:0:
240,161,223357,1,0,0:0:0:0:
256,162,223458,1,2,0:0:0:0:
256,162,223508,1,2,0:0:0:0:
252,161,223558,1,0,0:0:0:0:
256,162,223659,1,2,0:0:0:0:
255,147,223760,1,0,0:0:0:0:
254,138,223810,1,0,0:0:0:0:
262,159,223860,1,0,0:0:0:0:
278,163,223911,1,0,0:0:0:0:
254,146,223961,1,2,0:0:0:0:
254,137,224062,1,0,0:0:0:0:
270,153,224162,1,0,0:0:0:0:
269,151,224213,1,0,0:0:0:0:
280,174,224263,1,2,0:0:0:0:
266,155,224313,1,2,0:0:0:0:
276,155,224364,1,0,0:0:0:0:
276,155,224464,1,2,0:0:0:0:
294,184,224565,1,0,0:0:0:0:
290,190,224615,1,0,0:0:0:0:
275,179,224666,1,2,0:0:0:0:
273,196,224716,1,2,0:0:0:0:
249,173,224766,1,2,0:0:0:0:
267,183,224867,1,4,0:0:0:0:
267,170,224968,1,0,0:0:0:0:
275,179,225068,1,2,0:0:0:0:
267,170,225169,1,0,0:0:0:0:
267,169,225219,1,0,0:0:0:0:
265,160,225270,1,2,0:0:0:0:
267,160,225370,1,0,0:0:0:0:
275,179,225471,1,2,0:0:0:0:
267,152,225521,1,2,0:0:0:0:
267,152,225572,1,0,0:0:0:0:
267,152,225622,1,2,0:0:0:0:
267,152,225672,1,0,0:0:0:0:
281,154,225723,1,0,0:0:0:0:
284,156,225773,1,2,0:0:0:0:
276,175,225874,1,2,0:0:0:0:
267,152,225974,1,0,0:0:0:0:
267,152,226025,1,0,0:0:0:0:
267,152,226075,1,2,0:0:0:0:
294,174,226125,1,2,0:0:0:0:
269,152,226176,1,0,0:0:0:0:
276,171,226276,1,2,0:0:0:0:
269,152,226327,1,2,0:0:0:0:
269,153,226377,1,0,0:0:0:0:
267,182,226478,5,6,0:0:0:0:
309,161,226578,1,0,0:0:0:0:
269,187,226679,1,2,0:0:0:0:
309,161,226729,1,2,0:0:0:0:
322,160,226780,1,0,0:0:0:0:
327,170,226830,1,0,0:0:0:0:
327,170,226880,1,2,0:0:0:0:
327,170,226931,1,0,0:0:0:0:
327,172,226981,1,2,0:0:0:0:
326,215,227031,1,2,0:0:0:0:
327,204,227082,1,0,0:0:0:0:
328,204,227132,1,2,0:0:0:0:
330,204,227182,1,0,0:0:0:0:
324,168,227233,1,0,0:0:0:0:
333,147,227283,1,2,0:0:0:0:
333,159,227384,1,2,0:0:0:0:
331,144,227484,1,0,0:0:0:0:
269,169,227585,1,2,0:0:0:0:
297,158,227686,1,0,0:0:0:0:
299,145,227786,1,0,0:0:0:0:
299,145,227887,1,2,0:0:0:0:
299,143,227988,1,0,0:0:0:0:
263,195,228088,5,2,0:0:0:0:
248,186,228139,1,2,0:0:0:0:
270,200,228189,1,0,0:0:0:0:
265,181,228239,1,0,0:0:0:0:
270,200,228290,1,2,0:0:0:0:
270,200,228390,1,0,0:0:0:0:
239,176,228441,1,0,0:0:0:0:
261,206,228491,1,2,0:0:0:0:
265,206,228541,1,2,0:0:0:0:
265,206,228592,1,0,0:0:0:0:
265,206,228692,1,2,0:0:0:0:
268,187,228743,1,0,0:0:0:0:
253,193,228793,1,2,0:0:0:0:
256,196,228843,1,2,0:0:0:0:
257,199,228894,1,0,0:0:0:0:
258,207,228944,1,0,0:0:0:0:
257,199,228994,1,2,0:0:0:0:
261,202,229095,1,0,0:0:0:0:
264,202,229145,1,0,0:0:0:0:
264,202,229196,1,2,0:0:0:0:
270,200,229246,1,0,0:0:0:0:
256,186,229296,1,2,0:0:0:0:
264,202,229347,1,2,0:0:0:0:
265,202,229397,1,0,0:0:0:0:
259,195,229447,1,0,0:0:0:0:
258,187,229498,1,2,0:0:0:0:
258,207,229598,1,0,0:0:0:0:
265,200,229699,1,2,0:0:0:0:
271,196,229749,1,2,0:0:0:0:
271,188,229800,1,0,0:0:0:0:
262,208,229850,1,2,0:0:0:0:
269,188,229900,1,0,0:0:0:0:
258,187,229951,1,0,0:0:0:0:
262,198,230001,1,2,0:0:0:0:
256,192,230051,1,0,0:0:0:0:
252,190,230102,1,2,0:0:0:0:
246,185,230152,1,2,0:0:0:0:
246,185,230203,1,0,0:0:0:0:
268,194,230303,1,2,0:0:0:0:
269,196,230354,1,0,0:0:0:0:
265,202,230404,1,2,0:0:0:0:
265,186,230454,1,2,0:0:0:0:
265,186,230505,1,0,0:0:0:0:
258,207,230555,1,0,0:0:0:0:
265,186,230605,1,2,0:0:0:0:
265,179,230706,1,0,0:0:0:0:
265,179,230756,1,0,0:0:0:0:
262,178,230807,1,2,0:0:0:0:
269,172,230857,1,0,0:0:0:0:
261,175,230907,1,2,0:0:0:0:
256,184,230974,1,2,0:0:0:0:
262,187,231041,1,0,0:0:0:0:
269,161,231109,1,2,0:0:0:0:
264,183,231176,1,0,0:0:0:0:
266,180,231243,1,0,0:0:0:0:
266,179,231310,1,2,0:0:0:0:
277,175,231360,1,2,0:0:0:0:
271,177,231411,1,0,0:0:0:0:
269,208,231461,1,0,0:0:0:0:
270,178,231511,1,2,0:0:0:0:
270,177,231612,1,0,0:0:0:0:
270,177,231662,1,0,0:0:0:0:
271,177,231713,1,2,0:0:0:0:
271,177,231763,1,2,0:0:0:0:
275,177,231813,1,0,0:0:0:0:
276,178,231914,1,2,0:0:0:0:
228,191,231964,1,0,0:0:0:0:
276,178,232015,1,2,0:0:0:0:
273,172,232065,1,2,0:0:0:0:
260,179,232115,1,0,0:0:0:0:
268,208,232166,1,0,0:0:0:0:
266,180,232216,1,2,0:0:0:0:
266,179,232317,1,0,0:0:0:0:
262,173,232367,1,0,0:0:0:0:
285,188,232417,1,2,0:0:0:0:
278,213,232468,1,0,0:0:0:0:
281,180,232518,1,2,0:0:0:0:
274,165,232568,1,2,0:0:0:0:
276,167,232619,1,0,0:0:0:0:
337,213,232669,1,0,0:0:0:0:
284,171,232719,1,2,0:0:0:0:
279,174,232820,1,0,0:0:0:0:
276,178,232921,1,2,0:0:0:0:
276,170,232971,1,2,0:0:0:0:
276,178,233021,1,0,0:0:0:0:
255,158,233122,1,0,0:0:0:0:
278,180,233223,1,2,0:0:0:0:
298,204,233273,1,2,0:0:0:0:
285,175,233323,1,0,0:0:0:0:
286,175,233424,1,0,0:0:0:0:
267,174,233525,1,2,0:0:0:0:
317,220,233575,1,2,0:0:0:0:
272,174,233625,1,0,0:0:0:0:
317,220,233676,1,0,0:0:0:0:
269,160,233726,1,2,0:0:0:0:
285,218,233793,1,2,0:0:0:0:
294,215,233860,1,2,0:0:0:0:
286,196,233927,1,0,0:0:0:0:
297,191,233994,1,0,0:0:0:0:
283,170,234062,1,0,0:0:0:0:
283,170,234129,1,2,0:0:0:0:
311,236,234229,1,2,0:0:0:0:
306,209,234330,1,2,0:0:0:0:
304,195,234431,1,2,0:0:0:0:
315,182,234531,1,4,0:0:0:0:
256,192,234632,12,0,240974,0:0:0:0:
