osu file format v14

[General]
AudioFilename: shintekiop.mp3
AudioLeadIn: 0
PreviewTime: 15025
Countdown: 0
SampleSet: Normal
StackLeniency: 0.7
Mode: 0
LetterboxInBreaks: 1
WidescreenStoryboard: 1

[Editor]
Bookmarks: 16232,18044,20057,33145,34554,35561,36366,39588,45578,46031,48447,49202,51618,52423,55695,62138,65359,70141,71752,74973,76685,78296,84638
DistanceSpacing: 1
BeatDivisor: 2
GridSize: 8
TimelineZoom: 1.3

[Metadata]
Title:Shinteki Souzou
TitleUnicode:神的創造
Artist:Yousei Teikoku
ArtistUnicode:妖精帝國
Creator:Antares-
Version:Normal
Source:fortissimo FA//Akkord:nächsten Phase
Tags:フォルテシモ エグゼス ネクステン ファーゼ La'cryma Kurobane Sayuki 黒羽 紗雪
BeatmapID:1739153
BeatmapSetID:822858

[Difficulty]
HPDrainRate:2
CircleSize:3
OverallDifficulty:3
ApproachRate:4
SliderMultiplier:0.7
SliderTickRate:0.5

[Events]
//Background and Video events
Video,0,"fortissimo.avi"
0,0,"bg2.jpg",0,0
//Break Periods
//Storyboard Layer 0 (Background)
//Storyboard Layer 1 (Fail)
//Storyboard Layer 2 (Pass)
//Storyboard Layer 3 (Foreground)
//Storyboard Sound Samples

[TimingPoints]
1740,434.782608695652,4,2,1,65,1,0
11305,452.830188679245,4,2,1,65,1,8
12210,458.015267175573,4,2,1,65,1,0
14042,491.803278688525,4,2,1,65,1,0
15025,201.342281879195,4,1,1,80,1,8
15025,-133.333333333333,4,1,1,80,0,0
15427,201.342281879195,4,1,1,80,1,0
15427,-133.333333333333,4,1,1,80,0,0
58916,-133.333333333333,4,1,1,90,0,1
87507,-133.333333333333,4,1,1,90,0,0
87910,-133.333333333333,4,1,1,90,0,1
90326,-133.333333333333,4,1,1,90,0,0
91131,-133.333333333333,4,1,1,80,0,0

[Colours]
Combo1 : 254,88,65
Combo2 : 210,0,0
Combo3 : 252,95,27
Combo4 : 185,51,28
SliderBorder : 255,242,182
SliderTrackOverride : 122,31,11

[HitObjects]
57,192,15025,5,0,0:0:0:0:
57,192,15226,1,0,0:0:0:0:
57,192,15427,6,0,L|177:183,1,105.000004005432
218,253,16232,1,0,0:0:0:0:
246,173,16635,1,0,0:0:0:0:
104,149,17037,6,0,B|257:139|257:139|290:89|346:83|367:109,1,262.500010013581
385,249,18447,1,0,0:0:0:0:
385,249,18648,6,0,L|267:252,1,105.000004005432
315,163,19453,2,0,L|197:166,1,105.000004005432
71,168,20259,6,0,P|122:143|219:163,1,157.500006008148
263,186,21064,2,0,P|325:200|416:176,1,157.500006008148
445,134,21869,6,0,L|418:240,1,105.000004005432
381,311,22675,1,0,0:0:0:0:
277,275,23078,1,0,0:0:0:0:
178,328,23480,6,0,B|123:337|38:300|38:300|91:242|80:191,1,262.500010013581
32,93,24890,1,0,0:0:0:0:
32,93,25091,6,0,L|144:110,1,105.000004005432
207,143,25896,1,0,0:0:0:0:
175,66,26299,1,0,0:0:0:0:
266,89,26702,6,0,P|324:99|383:181,1,157.500006008148
395,220,27507,2,0,P|404:157|473:92,1,157.500006008148
486,83,28312,6,0,L|463:252,1,157.500006008148
462,278,29118,2,0,P|408:257|306:306,1,157.500006008148
302,317,29923,5,0,0:0:0:0:
256,192,30326,12,8,33145,0:0:0:0:
211,232,34554,6,0,L|240:184,1,52.5000020027161,8|0,0:0|0:0,0:0:0:0:
279,116,35963,5,0,0:0:0:0:
279,116,36165,1,0,0:0:0:0:
279,116,36366,6,0,L|170:103,1,105.000004005432
87,185,37171,2,0,L|191:197,1,105.000004005432
329,202,37977,6,0,P|307:255|369:343,1,157.500006008148
419,290,38984,1,0,0:0:0:0:
387,189,39386,1,0,0:0:0:0:
387,189,39588,6,0,P|332:165|279:192,1,105.000004005432
266,203,40192,2,0,P|305:142|296:52,1,157.500006008148
118,83,41198,5,0,0:0:0:0:
118,83,41400,2,0,L|126:195,1,105.000004005432
122,241,42004,2,0,P|173:209|276:222,1,157.500006008148
286,239,42809,5,0,0:0:0:0:
203,284,43212,1,0,0:0:0:0:
202,196,43614,2,0,P|142:184|63:248,1,157.500006008148
43,264,44420,6,0,L|48:361,2,78.7500030040742
75,248,45225,2,0,P|120:176|99:98,1,157.500006008148
78,81,46031,6,0,P|159:112|249:98,1,157.500006008148
249,92,46836,1,0,0:0:0:0:
353,69,47239,1,0,0:0:0:0:
302,167,47641,6,0,P|361:138|448:163,1,157.500006008148
466,190,48447,2,0,L|465:98,2,78.7500030040742
445,222,49252,6,0,P|381:242|303:193,1,157.500006008148
290,179,50057,1,0,0:0:0:0:
242,259,50460,1,0,0:0:0:0:
167,187,50863,6,0,P|119:166|9:195,1,157.500006008148
25,225,51668,2,0,L|41:131,2,78.7500030040742
39,255,52473,6,0,P|95:289|191:271,1,157.500006008148
203,250,53279,1,0,0:0:0:0:
303,286,53682,1,0,0:0:0:0:
395,233,54084,6,0,L|419:122,1,105.000004005432
433,100,54688,1,0,0:0:0:0:
433,100,54890,2,0,P|331:133|274:113,1,157.500006008148
243,91,55695,1,0,0:0:0:0:
149,156,56098,1,0,0:0:0:0:
59,108,56500,6,0,L|31:274,1,157.500006008148
48,313,57306,6,0,B|128:282|128:282|196:325|196:325|261:290|261:290|333:337,1,315.000012016297
380,344,58715,1,0,0:0:0:0:
380,344,58916,6,0,P|345:286|353:236,1,105.000004005432
422,177,59722,2,0,P|443:211|435:291,1,105.000004005432
347,250,60527,2,0,L|262:298,2,78.7500030040742
349,197,61333,2,0,P|394:183|461:204,1,105.000004005432
505,107,62138,5,0,0:0:0:0:
505,107,62339,2,0,P|474:53|475:12,1,105.000004005432
374,43,63145,2,0,P|386:80|365:150,1,105.000004005432
326,171,63749,6,0,P|274:157|175:185,1,157.500006008148
129,207,64554,2,0,P|151:147|126:54,1,157.500006008148
93,20,65359,6,0,L|207:31,1,105.000004005432
269,105,66165,2,0,L|155:95,1,105.000004005432
166,200,66970,5,8,0:0:0:0:
256,227,67373,1,8,0:0:0:0:
335,177,67775,1,8,0:0:0:0:
376,92,68178,1,8,0:0:0:0:
466,77,68581,6,0,P|488:114|461:218,1,157.500006008148
456,262,69386,2,0,P|408:249|314:294,1,157.500006008148
295,322,70192,6,0,L|181:334,1,105.000004005432
103,210,70997,2,0,L|217:222,1,105.000004005432
321,191,71802,5,0,0:0:0:0:
321,191,72004,2,0,P|339:117|320:80,1,105.000004005432
306,76,72608,2,0,P|250:85|195:58,1,105.000004005432
110,110,73413,6,0,L|92:34,2,78.7500030040742
110,162,74218,2,0,P|159:127|257:146,1,157.500006008148
273,171,75024,6,0,L|249:4,1,157.500006008148
354,28,76031,2,0,L|371:136,1,105.000004005432
368,184,76635,6,0,B|442:152|442:152|462:243,1,157.500006008148
415,256,77440,2,0,B|431:334|431:334|517:299,1,157.500006008148
507,269,78245,6,0,P|435:244|404:266,1,105.000004005432
376,291,78849,1,0,0:0:0:0:
376,291,79051,2,0,P|327:309|275:285,1,105.000004005432
208,220,79856,6,0,L|224:127,2,78.7500030040742
206,272,80661,5,0,0:0:0:0:
107,236,81064,1,0,0:0:0:0:
16,288,81467,6,0,P|6:228|62:137,1,157.500006008148
90,134,82272,2,0,L|12:105,2,78.7500030040742
113,161,83078,5,8,0:0:0:0:
212,141,83480,1,8,0:0:0:0:
288,205,83883,1,8,0:0:0:0:
298,300,84286,1,8,0:0:0:0:
216,319,84688,6,0,P|159:346|69:267,1,183.750007009506
88,254,85594,2,0,P|111:212|76:129,1,131.25000500679
112,124,86299,2,0,L|223:130,1,105.000004005432
252,122,86903,2,0,L|187:68,2,78.7500030040742
235,261,87910,6,0,P|178:288|88:209,1,183.750007009506
117,208,88816,2,0,P|140:166|105:83,1,131.25000500679
99,102,89521,2,0,L|258:106,1,157.500006008148
299,107,90326,1,0,0:0:0:0:
256,192,91131,12,0,97574,0:0:0:0:
