osu file format v14

[General]
AudioFilename: audio.mp3
AudioLeadIn: 0
PreviewTime: 58818
Countdown: 0
SampleSet: Soft
StackLeniency: 0.7
Mode: 0
LetterboxInBreaks: 0
WidescreenStoryboard: 1

[Editor]
DistanceSpacing: 1.2
BeatDivisor: 1
GridSize: 32
TimelineZoom: 2.499999

[Metadata]
Title:Shinteki Souzou
TitleUnicode:神的創造
Artist:Yousei Teikoku
ArtistUnicode:妖精帝國
Creator:-Keitaro
Version:SMOKELIND's Extreme
Source:fortissimo FA//Akkord:nachsten Phase
Tags:フォルテシモフルアクセス アコルト:ネクステンファーゼ La'cryma Visual Novel Eroge opening op ver version short japanese ancul smokelind shurelia alphabet venax
BeatmapID:2076801
BeatmapSetID:985170

[Difficulty]
HPDrainRate:3.6
CircleSize:3.8
OverallDifficulty:9.6
ApproachRate:9.6
SliderMultiplier:2.07
SliderTickRate:1

[Events]
//Background and Video events
0,0,"bg for.jpg",0,0
Video,621,"Shinteki Souzou.avi"
//Break Periods
2,30166,31068
//Storyboard Layer 0 (Background)
//Storyboard Layer 1 (Fail)
//Storyboard Layer 2 (Pass)
//Storyboard Layer 3 (Foreground)
//Storyboard Layer 4 (Overlay)
//Storyboard Sound Samples

[TimingPoints]
1781,434.782608695652,4,2,1,100,1,0
11346,452.830188679245,4,2,1,100,1,0
12251,458.015267175573,4,2,1,100,1,0
14083,491.803278688525,4,2,1,100,1,0
15066,402.684563758389,4,2,1,100,1,0
15470,201.342281879195,4,2,1,80,1,0
15470,-103.092783505155,4,2,1,80,0,0
29966,-103.092783505155,4,2,1,60,0,0
31577,-103.092783505155,4,2,1,70,0,0
31678,-114.942528735633,4,2,1,70,0,0
32584,-149.253731343285,4,2,1,70,0,0
32784,-149.253731343285,4,2,1,70,0,0
32986,-149.253731343285,4,2,1,70,0,0
35604,-212.765957446809,4,2,1,70,0,0
36409,-175.43859649123,4,2,1,75,0,0
38825,-175.43859649123,4,2,1,75,0,0
43355,-175.43859649123,4,2,1,75,0,0
44160,-175.43859649123,4,2,1,75,0,0
45268,-175.43859649123,4,2,1,75,0,0
46074,-149.253731343285,4,2,1,70,0,0
47784,-149.253731343285,4,2,1,80,0,0
47886,-149.253731343285,4,2,1,70,0,0
51711,-129.870129870131,4,2,1,70,0,0
52516,-129.870129870131,4,2,1,75,0,0
53523,-129.870129870131,4,2,1,75,0,0
53825,-129.870129870131,4,2,1,75,0,0
54933,-114.942528735633,4,2,1,75,0,0
55738,-103.092783505155,4,2,1,75,0,0
58959,-93.4579439252336,4,2,1,85,0,0
59865,-93.4579439252336,4,2,1,85,0,0
61074,-93.4579439252336,4,2,1,85,0,0
62382,-93.4579439252336,4,2,1,85,0,0
63086,-93.4579439252336,4,2,1,85,0,0
64798,-93.4579439252336,4,2,1,85,0,0
65100,-93.4579439252336,4,2,1,85,0,0
66409,-93.4579439252336,4,2,1,85,0,0
66610,-93.4579439252336,4,2,1,80,0,0
66711,-93.4579439252336,4,2,1,85,0,0
68624,-103.092783505155,4,2,1,85,0,0
68825,-103.092783505155,4,2,1,85,0,0
69529,-103.092783505155,4,2,1,85,0,0
71845,-93.4579439252336,4,2,1,85,0,0
72047,-93.4579439252336,4,2,1,85,0,0
72751,-93.4579439252336,4,2,1,85,0,0
73959,-93.4579439252336,4,2,1,85,0,0
75268,-93.4579439252336,4,2,1,85,0,0
75972,-93.4579439252336,4,2,1,85,0,0
78288,-103.092783505155,4,2,1,85,0,0
82516,-103.092783505155,4,2,1,85,0,0
82818,-103.092783505155,4,2,1,85,0,0
84731,-68.0272108843537,4,2,1,90,0,0
87550,-114.942528735633,4,2,1,90,0,0
87953,-68.0272108843537,4,2,1,90,0,0
89563,-78.7401574803149,4,2,1,90,0,0
91174,-588.23529411765,4,2,1,90,0,0
91376,-588.23529411765,4,2,1,5,0,0
97616,-588.23529411765,4,2,0,25,0,0

[Colours]
Combo1 : 126,111,1
Combo2 : 254,217,5
Combo3 : 214,214,214
Combo4 : 255,255,40

[HitObjects]
0,126,15066,5,0,2:0:0:0:
50,48,15166,1,0,2:0:0:0:
141,28,15267,1,0,2:0:0:0:
227,63,15368,1,0,2:0:0:0:
250,148,15470,6,0,P|228:195|210:251,1,100.395002374455,4|0,1:2|2:0,2:0:0:0:
499,336,15671,1,8,2:0:0:0:
430,292,15772,1,0,2:0:0:0:
373,348,15872,2,0,P|332:374|263:375,1,100.395002374455,0|0,1:2|1:2,2:0:0:0:
86,228,16074,1,8,2:0:0:0:
155,184,16175,1,0,2:0:0:0:
212,240,16275,2,0,P|253:266|321:267,1,100.395002374455,0|0,1:2|2:0,2:0:0:0:
432,65,16476,1,8,2:0:0:0:
374,121,16577,1,0,2:0:0:0:
401,196,16678,2,0,P|419:243|431:302,1,100.395002374455,0|0,1:2|1:2,2:0:0:0:
118,383,16879,2,0,P|136:336|148:277,1,100.395002374455,8|0,2:0|2:0,2:0:0:0:
37,60,17080,6,0,P|79:85|138:98,1,100.395002374455,0|0,1:2|2:0,2:0:0:0:
386,0,17282,2,0,P|337:11|294:37,1,100.395002374455,8|0,2:0|2:0,2:0:0:0:
175,266,17483,1,0,1:2:0:0:
223,329,17584,1,0,1:2:0:0:
300,348,17684,1,8,2:0:0:0:
368,305,17785,1,0,2:0:0:0:
396,229,17886,2,0,P|442:204|495:193,1,100.395002374455,0|0,1:2|2:0,2:0:0:0:
223,329,18087,2,0,P|174:317|130:293,1,100.395002374455,8|0,2:0|2:0,2:0:0:0:
39,37,18288,1,0,1:2:0:0:
75,109,18389,1,0,1:2:0:0:
32,177,18490,2,0,P|12:229|-2:297,1,100.395002374455,8|0,2:0|2:0,2:0:0:0:
255,64,18691,6,0,P|275:116|289:184,1,100.395002374455,4|0,1:2|2:0,2:0:0:0:
114,303,18892,1,8,2:0:0:0:
162,238,18993,1,0,2:0:0:0:
241,225,19094,2,0,P|284:253|348:260,1,100.395002374455,0|0,1:2|1:2,2:0:0:0:
477,79,19295,1,8,2:0:0:0:
420,19,19396,1,0,2:0:0:0:
340,16,19497,2,0,P|300:49|238:63,1,100.395002374455,0|0,1:2|2:0,2:0:0:0:
38,0,19698,1,8,2:0:0:0:
101,48,19798,1,0,2:0:0:0:
101,128,19899,2,0,P|86:182|75:239,1,100.395002374455,0|0,1:2|1:2,2:0:0:0:
286,368,20100,2,0,P|344:339|399:326,1,100.395002374455,8|0,2:0|2:0,2:0:0:0:
182,142,20302,6,0,P|240:171|295:184,1,100.395002374455,0|0,1:2|1:2,2:0:0:0:
489,6,20503,1,12,2:0:0:0:
188,343,20704,2,0,L|159:246,1,100.395002374455,0|0,1:2|1:2,2:0:0:0:
15,14,20906,1,12,2:0:0:0:
316,351,21107,2,0,L|344:254,1,100.395002374455,0|0,1:2|1:2,2:0:0:0:
512,0,21308,1,12,2:0:0:0:
57,235,21510,1,8,2:0:0:0:
111,177,21610,1,8,2:0:0:0:
191,169,21711,1,8,2:0:0:0:
256,215,21812,1,8,2:0:0:0:
291,286,21912,6,0,P|336:322|403:343,1,100.395002374455,4|0,1:2|2:0,2:0:0:0:
449,51,22114,1,8,2:0:0:0:
369,61,22214,1,0,2:0:0:0:
321,126,22315,2,0,P|336:172|349:232,1,100.395002374455,0|0,1:2|1:2,2:0:0:0:
128,384,22516,1,8,2:0:0:0:
48,374,22616,1,0,2:0:0:0:
0,309,22717,2,0,P|15:263|28:203,1,100.395002374455,0|0,1:2|2:0,2:0:0:0:
193,51,22919,1,8,2:0:0:0:
273,61,23019,1,0,2:0:0:0:
321,126,23121,2,0,P|331:174|347:222,1,100.395002374455,0|0,1:2|1:2,2:0:0:0:
128,384,23322,2,0,P|143:338|156:278,1,100.395002374455,8|0,2:0|2:0,2:0:0:0:
403,101,23523,6,0,P|413:149|429:197,1,100.395002374455,0|0,1:2|2:0,2:0:0:0:
212,384,23725,2,0,P|227:336|238:287,1,100.395002374455,8|0,2:0|2:0,2:0:0:0:
102,46,23926,1,0,1:2:0:0:
58,113,24027,1,0,1:2:0:0:
78,190,24127,1,8,2:0:0:0:
149,228,24228,1,0,2:0:0:0:
210,175,24329,2,0,P|255:151|310:145,1,100.395002374455,0|0,1:2|2:0,2:0:0:0:
445,330,24530,2,0,P|395:323|351:300,1,100.395002374455,8|0,2:0|2:0,2:0:0:0:
403,48,24731,1,0,1:2:0:0:
442,117,24832,1,0,1:2:0:0:
417,193,24933,2,0,P|372:216|323:222,1,100.395002374455,8|0,2:0|2:0,2:0:0:0:
102,46,25134,6,0,P|151:52|195:75,1,100.395002374455,4|0,1:2|2:0,2:0:0:0:
224,330,25335,1,8,2:0:0:0:
298,299,25436,1,0,2:0:0:0:
323,222,25537,2,0,P|341:166|350:94,1,100.395002374455,0|0,1:2|1:2,2:0:0:0:
145,296,25738,1,8,2:0:0:0:
71,265,25839,1,0,2:0:0:0:
46,188,25940,2,0,P|28:132|19:60,1,100.395002374455,0|0,1:2|2:0,2:0:0:0:
278,27,26141,1,8,2:0:0:0:
238,96,26241,1,0,2:0:0:0:
157,105,26342,2,0,P|114:87|45:70,1,100.395002374455,0|0,1:2|1:2,2:0:0:0:
185,314,26543,2,0,P|228:296|297:279,1,100.395002374455,8|0,2:0|2:0,2:0:0:0:
479,23,26745,6,0,P|462:71|447:134,1,100.395002374455,0|0,1:2|1:2,2:0:0:0:
244,384,26946,1,12,2:0:0:0:
9,23,27147,2,0,P|26:71|41:134,1,100.395002374455,0|0,1:2|1:2,2:0:0:0:
244,364,27349,1,12,2:0:0:0:
457,3,27550,2,0,P|440:51|425:114,1,100.395002374455,0|0,1:2|1:2,2:0:0:0:
244,345,27751,1,12,2:0:0:0:
33,5,27953,2,0,P|50:53|65:116,1,100.395002374455,0|0,1:2|1:2,2:0:0:0:
245,325,28155,1,12,2:0:0:0:
249,0,28355,6,0,L|249:143,1,100.395002374455,8|0,2:0|1:2,2:0:0:0:
148,369,28557,5,8,2:0:0:0:
93,310,28657,1,0,1:2:0:0:
118,222,28758,5,8,2:0:0:0:
188,183,28859,1,0,1:2:0:0:
266,226,28959,5,8,2:0:0:0:
344,244,29060,1,0,1:2:0:0:
418,192,29161,6,0,P|435:129|465:57,1,100.395002374455,8|0,2:0|1:2,2:0:0:0:
66,67,29362,1,8,2:0:0:0:
150,101,29463,1,0,1:2:0:0:
188,183,29563,2,0,P|212:240|222:298,2,66.9300015829697,8|0|0,2:0|1:2|1:2,2:0:0:0:
346,104,29765,2,0,P|333:132|323:170,2,66.9300015829697,0|0|0,1:0|1:0|1:0,2:0:0:0:
226,50,29966,5,12,2:0:0:0:
134,14,31577,5,8,2:0:0:0:
151,45,31678,2,0,P|189:65|238:74,1,90.0450007556877,0|0,2:0|1:2,2:0:0:0:
463,70,31879,1,8,2:0:0:0:
437,44,31980,1,0,2:0:0:0:
404,28,32080,2,0,P|359:36|320:56,1,90.0450007556877,0|8,1:2|2:0,2:0:0:0:
284,246,32282,1,0,2:0:0:0:
284,246,32584,5,8,2:0:0:0:
274,268,32684,2,0,L|180:286,1,69.3449967198259,0|0,2:0|1:0,2:0:0:0:
57,321,32886,1,0,2:0:0:0:
67,343,32986,2,0,L|148:358,2,46.2299978132173,0|0|0,1:0|2:0|2:0,2:0:0:0:
225,377,33188,5,8,2:0:0:0:
182,76,33389,1,8,2:0:0:0:
181,95,34597,5,8,2:0:0:0:
445,229,34798,1,8,2:0:0:0:
461,241,35604,6,0,L|450:301,2,32.4299995051575,0|0|0,3:0|3:0|3:0,2:0:0:0:
475,147,35805,1,0,3:0:0:0:
458,126,36006,5,0,3:0:0:0:
441,135,36107,1,0,3:0:0:0:
425,147,36208,2,0,L|335:130,1,48.6449992577362,0|0,3:0|3:0,2:0:0:0:
223,49,36409,6,0,P|270:100|261:171,1,117.989998559692,6|8,1:2|2:0,2:0:0:0:
139,222,36711,2,0,P|145:164|187:125,1,117.989998559692,2|0,1:2|1:2,2:0:0:0:
377,137,37013,1,10,2:0:0:0:
377,137,37214,6,0,P|393:201|412:281,1,117.989998559692,2|8,1:2|2:0,2:0:0:0:
250,365,37516,2,0,P|266:300|285:221,1,117.989998559692,2|0,1:2|1:2,2:0:0:0:
262,92,37818,1,10,2:0:0:0:
262,92,38020,6,0,P|229:145|145:155,1,117.989998559692,2|8,1:2|2:0,2:0:0:0:
58,76,38322,1,0,1:2:0:0:
70,80,38423,2,0,P|86:104|97:150,1,58.9949992798462,0|0,2:0|1:2,2:0:0:0:
88,263,38624,2,0,P|97:235|113:210,1,58.9949992798462,8|0,2:0|2:0,2:0:0:0:
265,116,38825,6,0,B|336:135|292:165|383:179,1,117.989998559692,0|8,1:2|2:0,2:0:0:0:
489,76,39228,1,0,2:0:0:0:
476,89,39329,1,0,1:2:0:0:
463,101,39429,2,0,P|447:135|441:188,1,58.9949992798462,8|0,2:0|2:0,2:0:0:0:
512,297,39631,6,0,P|458:249|364:226,1,117.989998559692,6|10,1:2|2:0,2:0:0:0:
296,314,39933,1,0,1:2:0:0:
286,328,40033,2,0,P|254:348|213:352,1,58.9949992798462,2|2,2:0|1:2,2:0:0:0:
131,261,40235,5,10,2:0:0:0:
146,253,40335,1,0,2:0:0:0:
163,247,40436,2,0,P|191:254|215:271,1,58.9949992798462,2|2,1:2|2:0,2:0:0:0:
324,351,40637,6,0,P|352:343|376:326,1,58.9949992798462,8|2,2:0|1:2,2:0:0:0:
429,212,40839,2,0,P|404:195|376:187,1,58.9949992798462,2|0,2:0|2:0,2:0:0:0:
326,318,41040,2,0,P|354:310|378:293,1,58.9949992798462,10|0,2:0|2:0,2:0:0:0:
261,150,41241,1,2,1:2:0:0:
262,119,41443,5,10,2:0:0:0:
250,105,41543,1,2,1:2:0:0:
238,91,41644,2,0,P|205:80|152:80,1,58.9949992798462,2|0,2:0|1:2,2:0:0:0:
136,226,41845,1,10,2:0:0:0:
128,243,41945,1,2,2:0:0:0:
120,259,42046,2,0,P|90:276|39:290,1,58.9949992798462,0|2,1:2|2:0,2:0:0:0:
181,156,42248,2,0,P|148:145|95:145,1,58.9949992798462,8|2,2:0|1:2,2:0:0:0:
293,232,42449,2,0,P|263:249|212:263,1,58.9949992798462,2|0,2:0|1:2,2:0:0:0:
319,131,42651,2,0,P|286:120|233:120,1,58.9949992798462,10|0,2:0|2:0,2:0:0:0:
423,252,42852,6,0,P|443:178|467:101,2,117.989998559692,6|8|0,1:2|2:0|2:0,2:0:0:0:
317,323,43355,1,0,1:2:0:0:
318,305,43456,2,0,P|309:269|298:233,1,58.9949992798462,8|0,2:0|2:0,2:0:0:0:
136,150,43657,2,0,P|186:204|246:197,1,117.989998559692,2|8,1:2|2:0,2:0:0:0:
405,21,44060,2,0,P|393:55|385:99,1,58.9949992798462,0|0,2:0|1:2,2:0:0:0:
295,166,44261,2,0,P|288:137|278:109,1,58.9949992798462,10|0,2:0|2:0,2:0:0:0:
140,24,44463,6,0,B|79:55|124:80|39:115,1,117.989998559692,2|8,1:2|2:0,2:0:0:0:
106,216,44765,2,0,P|138:226|173:242,2,58.9949992798462,0|0|0,1:2|2:0|1:2,2:0:0:0:
186,111,45067,2,0,P|213:99|241:90,1,58.9949992798462,8|0,2:0|2:0,2:0:0:0:
420,106,45268,1,0,1:2:0:0:
404,124,45369,1,0,2:0:0:0:
393,145,45470,1,8,2:0:0:0:
384,166,45570,1,0,1:2:0:0:
380,189,45671,2,0,P|391:222|396:255,2,39.3299995198975,0|0|0,1:0|1:0|1:0,2:0:0:0:
283,265,45872,2,0,P|294:231|299:199,2,39.3299995198975,0|0|0,1:0|1:0|1:0,2:0:0:0:
264,107,46074,6,0,B|197:136|240:166|161:196,2,138.689993439652,2|12|0,1:2|2:0|1:2,2:0:0:0:
427,227,46577,1,0,1:2:0:0:
395,245,46678,2,0,P|353:240|327:225,1,69.3449967198259,10|0,2:0|2:0,2:0:0:0:
348,32,46879,2,0,P|362:66|365:103,2,69.3449967198259,14|0|0,2:0|2:0|1:2,2:0:0:0:
144,115,47181,2,0,P|147:80|161:48,2,69.3449967198259,14|0|0,2:0|2:0|1:2,2:0:0:0:
240,276,47483,1,14,2:0:0:0:
212,296,47584,1,0,2:0:0:0:
184,317,47684,2,0,P|146:308|87:298,1,69.3449967198259,2|0,1:2|2:0,2:0:0:0:
330,188,47886,2,0,P|405:173|506:160,1,138.689993439652,12|0,2:0|1:2,2:0:0:0:
428,358,48188,1,0,1:2:0:0:
405,331,48288,2,0,P|394:292|387:250,1,69.3449967198259,10|0,2:0|2:0,2:0:0:0:
253,110,48490,6,0,P|235:182|207:274,1,138.689993439652,14|0,2:0|1:2,2:0:0:0:
23,357,48792,2,0,P|17:322|10:288,2,69.3449967198259,14|0|0,2:0|2:0|1:2,2:0:0:0:
212,128,49094,2,0,P|203:161|193:194,1,69.3449967198259,14|0,2:0|2:0,2:0:0:0:
428,358,49295,2,0,P|408:291|391:224,2,138.689993439652,2|12|0,1:2|2:0|1:2,2:0:0:0:
473,153,49798,1,0,1:2:0:0:
448,128,49899,2,0,P|409:114|372:117,1,69.3449967198259,10|0,2:0|2:0,2:0:0:0:
278,298,50100,6,0,P|241:322|201:323,1,69.3449967198259,14|0,2:0|2:0,2:0:0:0:
65,174,50302,1,0,1:2:0:0:
93,194,50402,1,14,2:0:0:0:
117,224,50503,2,0,P|125:264|124:307,1,69.3449967198259,0|0,2:0|1:2,2:0:0:0:
290,129,50704,2,0,P|281:169|282:212,1,69.3449967198259,14|0,2:0|2:0,2:0:0:0:
123,62,50906,1,2,1:2:0:0:
123,62,51107,6,0,P|200:40|280:28,1,138.689993439652,12|0,2:0|1:2,2:0:0:0:
461,121,51409,1,0,1:2:0:0:
435,96,51510,1,10,2:0:0:0:
400,92,51610,1,2,2:0:0:0:
364,103,51711,2,0,P|324:123|275:128,1,79.6949984191361,14|0,2:0|2:0,2:0:0:0:
62,151,51912,1,0,1:2:0:0:
114,213,52013,2,0,P|154:193|203:188,1,79.6949984191361,14|0,2:0|2:0,2:0:0:0:
389,268,52214,1,0,1:2:0:0:
337,330,52315,2,0,P|297:310|248:305,1,79.6949984191361,14|0,2:0|2:0,2:0:0:0:
49,355,52516,6,0,P|89:296|114:206,1,159.389996838272,6|8,1:2|2:0,2:0:0:0:
320,48,52818,2,0,P|330:90|349:136,1,79.6949984191361,2|0,2:0|1:2,2:0:0:0:
205,233,53020,1,0,1:2:0:0:
235,207,53121,2,0,P|249:169|258:130,1,79.6949984191361,10|0,2:0|2:0,2:0:0:0:
80,19,53322,2,0,P|94:57|103:96,1,79.6949984191361,2|0,1:2|2:0,2:0:0:0:
266,209,53523,2,0,P|280:171|289:132,1,79.6949984191361,8|2,2:0|1:2,2:0:0:0:
104,17,53725,2,0,P|118:55|127:94,1,79.6949984191361,0|0,2:0|1:2,2:0:0:0:
28,287,53926,5,10,2:0:0:0:
46,253,54027,1,0,2:0:0:0:
77,228,54127,2,0,B|162:256|105:298|208:320,2,159.389996838272,6|8|0,1:2|2:0|1:2,2:0:0:0:
228,220,54631,1,0,1:2:0:0:
281,288,54731,2,0,P|328:281|371:262,1,79.6949984191361,10|0,2:0|2:0,2:0:0:0:
471,50,54933,2,0,P|453:92|441:144,1,90.0450007556877,6|0,1:2|2:0,2:0:0:0:
510,323,55134,1,8,2:0:0:0:
488,238,55235,2,0,P|435:210|395:204,1,90.0450007556877,6|0,1:2|2:0,2:0:0:0:
170,292,55436,2,0,P|213:281|252:258,1,90.0450007556877,0|14,1:2|2:0,2:0:0:0:
264,19,55738,6,0,P|237:64|220:125,1,100.395002374455,14|0,2:0|1:2,2:0:0:0:
472,300,55939,1,8,2:0:0:0:
429,231,56040,1,0,1:2:0:0:
348,231,56141,1,10,2:0:0:0:
294,289,56241,2,0,P|248:320|186:325,1,100.395002374455,0|8,1:2|2:0,2:0:0:0:
0,92,56443,5,0,1:2:0:0:
60,39,56543,2,0,P|108:48|149:77,1,100.395002374455,10|0,2:0|1:2,2:0:0:0:
92,316,56745,1,8,2:0:0:0:
31,263,56845,2,0,P|21:208|42:149,1,100.395002374455,2|8,1:2|2:0,2:0:0:0:
329,3,57047,1,0,1:2:0:0:
390,56,57147,2,0,P|399:104|388:153,1,100.395002374455,10|0,2:0|1:2,2:0:0:0:
105,149,57349,5,14,2:0:0:0:
229,281,57449,2,0,P|271:257|331:244,1,100.395002374455,8|0,2:0|2:0,2:0:0:0:
95,176,57651,1,12,2:0:0:0:
213,85,57751,2,0,P|255:109|315:122,1,100.395002374455,8|0,2:0|2:0,2:0:0:0:
88,202,57953,5,12,2:0:0:0:
229,321,58053,2,0,P|271:297|331:284,1,100.395002374455,8|0,2:0|2:0,2:0:0:0:
84,227,58255,1,12,2:0:0:0:
228,59,58355,2,0,P|270:83|330:96,1,100.395002374455,8|0,2:0|2:0,2:0:0:0:
436,349,58557,1,12,2:0:0:0:
394,262,58657,1,8,2:0:0:0:
419,169,58758,1,8,2:0:0:0:
481,98,58859,1,8,2:0:0:0:
430,6,58959,6,0,P|380:34|309:49,1,110.744996620331,6|0,1:2|2:0,2:0:0:0:
0,119,59161,2,0,P|53:131|102:158,1,110.744996620331,10|0,2:0|2:0,2:0:0:0:
324,300,59362,2,0,P|277:326|211:340,1,110.744996620331,2|0,1:2|1:2,2:0:0:0:
153,86,59563,1,10,2:0:0:0:
187,156,59664,1,2,1:2:0:0:
153,226,59765,2,0,P|126:277|111:335,1,110.744996620331,0|0,2:0|1:2,2:0:0:0:
420,170,59966,2,0,P|405:116|379:68,1,110.744996620331,10|0,2:0|2:0,2:0:0:0:
128,236,60167,2,0,P|101:287|86:345,1,110.744996620331,2|0,1:2|1:2,2:0:0:0:
395,180,60369,2,0,P|380:126|354:78,1,110.744996620331,10|0,2:0|2:0,2:0:0:0:
201,351,60570,6,0,P|270:314|421:274,1,221.489993240662,2|8,1:2|2:0,2:0:0:0:
92,133,60872,2,0,P|158:153|239:162,1,110.744996620331,2|0,1:2|2:0,2:0:0:0:
415,20,61074,1,0,1:2:0:0:
340,0,61174,2,0,P|285:9|232:26,1,110.744996620331,10|0,2:0|2:0,2:0:0:0:
103,231,61376,2,0,P|71:128|19:5,1,221.489993240662,2|12,1:2|2:0,2:0:0:0:
351,81,61678,1,0,2:0:0:0:
292,132,61778,2,0,P|273:184|260:244,1,110.744996620331,0|0,1:2|1:2,2:0:0:0:
33,355,61980,2,0,P|20:301|1:249,1,110.744996620331,12|0,2:0|2:0,2:0:0:0:
244,58,62181,6,0,P|218:107|190:198,1,110.744996620331,4|0,1:2|2:0,2:0:0:0:
296,370,62382,2,0,P|356:364|405:331,1,110.744996620331,10|0,2:0|2:0,2:0:0:0:
476,82,62584,2,0,P|421:86|373:113,1,110.744996620331,2|2,1:2|1:2,2:0:0:0:
203,358,62785,1,10,2:0:0:0:
164,290,62886,1,2,1:2:0:0:
130,220,62986,2,0,P|155:165|173:99,1,110.744996620331,0|0,2:0|1:2,2:0:0:0:
432,1,63188,2,0,P|448:53|471:104,1,110.744996620331,10|0,2:0|2:0,2:0:0:0:
152,219,63389,2,0,P|177:164|195:98,1,110.744996620331,2|0,1:2|1:2,2:0:0:0:
454,0,63591,2,0,P|470:52|493:103,1,110.744996620331,10|0,2:0|2:0,2:0:0:0:
442,368,63792,6,0,B|328:338|417:270|275:241,1,221.489993240662,2|8,1:2|2:0,2:0:0:0:
40,344,64094,2,0,P|110:331|166:290,1,110.744996620331,2|0,1:2|2:0,2:0:0:0:
259,47,64295,1,0,1:2:0:0:
190,84,64396,2,0,P|203:154|244:210,1,110.744996620331,10|0,2:0|2:0,2:0:0:0:
474,275,64597,2,0,L|509:125,1,110.744996620331,6|0,1:2|2:0,2:0:0:0:
265,373,64798,1,0,1:2:0:0:
247,295,64899,2,0,L|212:145,1,110.744996620331,12|2,2:0|2:0,2:0:0:0:
387,13,65100,1,0,1:2:0:0:
377,90,65201,1,12,2:0:0:0:
367,167,65302,1,0,2:0:0:0:
358,243,65402,6,0,P|260:171|162:178,2,221.489993240662,6|8|0,1:2|2:0|1:2,2:0:0:0:
100,356,65906,1,0,1:2:0:0:
41,306,66006,2,0,P|16:246|17:186,1,110.744996620331,10|2,2:0|2:0,2:0:0:0:
249,37,66208,2,0,P|245:91|222:142,1,110.744996620331,2|0,1:2|2:0,2:0:0:0:
122,377,66409,1,8,2:0:0:0:
169,315,66510,2,0,P|219:284|291:272,1,110.744996620331,2|0,1:2|2:0,2:0:0:0:
512,340,66711,1,0,1:2:0:0:
444,377,66812,2,0,P|390:363|343:334,1,110.744996620331,10|0,2:0|2:0,2:0:0:0:
413,74,67013,6,0,P|439:210|441:300,2,221.489993240662,2|8|2,1:2|2:0|1:2,2:0:0:0:
269,272,67516,1,0,1:2:0:0:
214,326,67617,2,0,P|154:351|83:352,1,110.744996620331,8|0,2:0|2:0,2:0:0:0:
1,90,67818,2,0,P|55:96|106:118,1,110.744996620331,2|0,1:2|2:0,2:0:0:0:
291,289,68020,1,8,2:0:0:0:
341,229,68121,1,0,1:2:0:0:
348,152,68221,2,0,P|216:148|150:233,1,221.489993240662,2|8,2:0|2:0,2:0:0:0:
159,207,68624,6,0,P|184:258|195:322,1,100.395002374455,2|0,1:2|2:0,2:0:0:0:
455,198,68825,2,0,P|466:149|489:104,1,100.395002374455,8|0,2:0|2:0,2:0:0:0:
271,337,69027,1,0,1:2:0:0:
205,383,69127,1,0,1:2:0:0:
126,365,69228,2,0,P|80:338|16:317,1,100.395002374455,8|0,2:0|1:2,2:0:0:0:
359,348,69429,2,0,P|405:330|449:304,1,100.395002374455,0|0,2:0|1:2,2:0:0:0:
207,77,69631,1,8,2:0:0:0:
166,145,69731,1,0,2:0:0:0:
194,220,69832,2,0,P|238:241|312:252,1,100.395002374455,0|0,1:2|1:2,2:0:0:0:
373,0,70033,2,0,P|323:10|278:31,1,100.395002374455,8|0,2:0|2:0,2:0:0:0:
123,304,70235,5,10,2:0:0:0:
56,260,70335,1,0,1:2:0:0:
40,180,70436,1,8,2:0:0:0:
59,101,70537,1,0,1:2:0:0:
113,43,70637,2,0,P|161:67|214:77,1,100.395002374455,10|0,2:0|1:2,2:0:0:0:
504,128,70839,1,8,2:0:0:0:
478,52,70939,1,0,1:2:0:0:
408,11,71040,2,0,P|359:21|314:44,1,100.395002374455,10|0,2:0|1:2,2:0:0:0:
236,352,71241,1,8,2:0:0:0:
284,287,71342,1,0,1:2:0:0:
291,197,71443,1,10,2:0:0:0:
241,116,71543,1,8,2:0:0:0:
139,82,71644,1,8,2:0:0:0:
52,136,71745,1,8,2:0:0:0:
55,238,71845,6,0,B|116:224|166:252,1,110.744996620331,6|0,1:2|2:0,2:0:0:0:
344,370,72047,2,0,B|405:384|451:357,1,110.744996620331,10|0,2:0|2:0,2:0:0:0:
490,113,72248,2,0,B|429:99|382:125,1,110.744996620331,2|2,1:2|1:2,2:0:0:0:
260,337,72449,1,10,2:0:0:0:
231,264,72550,1,2,1:2:0:0:
259,191,72651,2,0,P|282:132|292:69,1,110.744996620331,0|0,2:0|1:2,2:0:0:0:
0,18,72852,2,0,P|10:72|31:123,1,110.744996620331,10|0,2:0|2:0,2:0:0:0:
281,193,73053,2,0,P|304:134|314:71,1,110.744996620331,2|0,1:2|1:2,2:0:0:0:
22,20,73254,2,0,P|32:74|53:125,1,110.744996620331,10|0,2:0|2:0,2:0:0:0:
249,304,73456,6,0,P|337:283|368:145,1,221.489993240662,2|8,1:2|2:0,2:0:0:0:
135,41,73758,2,0,P|157:89|176:152,1,110.744996620331,2|0,1:2|2:0,2:0:0:0:
8,348,73959,1,0,1:2:0:0:
82,324,74060,2,0,P|104:276|123:213,1,110.744996620331,10|0,2:0|2:0,2:0:0:0:
348,9,74261,1,2,1:2:0:0:
398,67,74362,1,0,1:2:0:0:
412,143,74463,2,0,P|387:188|360:278,1,110.744996620331,12|0,2:0|2:0,2:0:0:0:
164,7,74664,1,0,1:2:0:0:
114,65,74765,1,0,1:2:0:0:
100,141,74866,2,0,P|125:186|152:276,1,110.744996620331,12|0,2:0|2:0,2:0:0:0:
372,376,75067,6,0,P|438:356|473:317,1,110.744996620331,4|0,1:2|2:0,2:0:0:0:
208,112,75268,2,0,P|166:76|113:64,1,110.744996620331,10|0,2:0|2:0,2:0:0:0:
458,248,75470,2,0,P|489:186|484:133,1,110.744996620331,2|0,1:2|1:2,2:0:0:0:
153,187,75671,2,0,P|98:192|53:223,1,110.744996620331,10|2,2:0|1:2,2:0:0:0:
419,91,75872,2,0,P|395:26|353:-6,1,110.744996620331,0|0,2:0|1:2,2:0:0:0:
166,272,76073,2,0,P|132:315|124:369,1,110.744996620331,10|0,2:0|2:0,2:0:0:0:
274,32,76275,2,0,L|128:13,1,110.744996620331,2|0,1:2|1:2,2:0:0:0:
372,376,76476,2,0,L|518:357,1,110.744996620331,10|0,2:0|2:0,2:0:0:0:
142,123,76678,6,0,L|168:257,1,110.744996620331,6|0,1:2|2:0,2:0:0:0:
426,58,76879,1,8,2:0:0:0:
409,134,76980,2,0,L|383:268,1,110.744996620331,6|0,1:2|2:0,2:0:0:0:
147,37,77181,1,0,1:2:0:0:
171,145,77282,2,0,L|197:279,1,110.744996620331,14|0,2:0|2:0,2:0:0:0:
512,33,77483,2,0,L|486:167,1,110.744996620331,6|0,1:2|2:0,2:0:0:0:
115,25,77684,1,0,1:2:0:0:
140,146,77785,2,0,L|166:280,1,110.744996620331,12|0,2:0|2:0,2:0:0:0:
483,26,77986,1,0,1:2:0:0:
447,209,78087,2,0,L|421:343,1,110.744996620331,12|0,2:0|2:0,2:0:0:0:
278,46,78288,6,0,P|174:65|144:175,1,200.790004748909,6|8,1:2|2:0,2:0:0:0:
223,357,78590,1,2,2:0:0:0:
294,319,78691,2,0,P|318:263|331:189,1,100.395002374455,0|0,1:2|1:2,2:0:0:0:
48,123,78892,2,0,P|60:171|81:217,1,100.395002374455,10|0,2:0|2:0,2:0:0:0:
395,126,79094,2,0,P|320:114|235:197,1,200.790004748909,2|8,1:2|2:0,2:0:0:0:
22,335,79396,2,0,P|51:265|66:198,1,100.395002374455,0|0,1:2|2:0,2:0:0:0:
228,26,79597,1,0,1:2:0:0:
199,101,79698,2,0,P|213:148|234:194,1,100.395002374455,8|0,2:0|2:0,2:0:0:0:
492,296,79899,6,0,P|438:223|316:221,1,200.790004748909,6|8,1:2|2:0,2:0:0:0:
106,374,80201,1,2,2:0:0:0:
165,319,80302,2,0,P|191:262|203:202,1,100.395002374455,0|0,1:2|1:2,2:0:0:0:
0,32,80503,2,0,P|13:80|34:125,1,100.395002374455,10|0,2:0|2:0,2:0:0:0:
304,239,80704,2,0,P|409:201|514:186,1,200.790004748909,2|8,1:2|2:0,2:0:0:0:
162,50,81006,1,0,1:2:0:0:
219,105,81107,2,0,P|274:122|334:120,1,100.395002374455,2|0,2:0|1:2,2:0:0:0:
487,329,81308,2,0,P|437:334|390:353,1,100.395002374455,8|0,2:0|2:0,2:0:0:0:
152,176,81510,5,6,1:2:0:0:
152,176,82114,1,10,2:0:0:0:
229,159,82214,1,2,2:0:0:0:
282,219,82315,2,0,P|336:241|413:229,1,100.395002374455,2|0,1:2|2:0,2:0:0:0:
509,25,82516,1,8,2:0:0:0:
456,85,82617,2,0,P|401:107|324:95,1,100.395002374455,2|0,1:2|2:0,2:0:0:0:
41,2,82818,1,0,1:2:0:0:
94,62,82919,2,0,P|148:84|225:72,1,100.395002374455,10|0,2:0|2:0,2:0:0:0:
509,25,83121,6,0,P|488:71|471:152,1,100.395002374455,10|0,2:0|1:2,2:0:0:0:
361,380,83322,2,0,L|375:242,1,100.395002374455,8|0,2:0|1:2,2:0:0:0:
237,0,83523,2,0,P|258:46|275:127,1,100.395002374455,10|0,2:0|1:2,2:0:0:0:
247,371,83725,1,8,2:0:0:0:
228,293,83825,1,0,1:2:0:0:
174,232,83926,2,0,P|122:212|69:211,1,100.395002374455,10|0,2:0|1:2,2:0:0:0:
393,365,84127,2,0,P|442:361|489:342,1,100.395002374455,8|0,2:0|1:2,2:0:0:0:
145,315,84329,2,0,P|94:339|58:377,1,100.395002374455,10|8,2:0|2:0,2:0:0:0:
391,245,84530,2,0,P|422:206|440:159,1,100.395002374455,8|8,2:0|2:0,2:0:0:0:
80,0,84731,6,0,L|110:186,1,152.144992919277,14|0,2:0|2:0,2:0:0:0:
348,341,84933,2,0,L|372:190,1,152.144992919277,8|0,2:0|2:0,2:0:0:0:
3,44,85134,2,0,L|27:194,1,152.144992919277,8|8,2:0|2:0,2:0:0:0:
434,354,85335,1,8,2:0:0:0:
447,271,85436,2,0,L|471:120,1,152.144992919277,8|0,2:0|2:0,2:0:0:0:
39,26,85637,2,0,L|69:212,1,152.144992919277,8|0,2:0|2:0,2:0:0:0:
469,359,85839,1,8,2:0:0:0:
482,276,85940,2,0,L|506:125,1,152.144992919277,8|0,2:0|2:0,2:0:0:0:
74,13,86141,1,8,2:0:0:0:
74,13,86342,6,0,L|261:37,1,152.144992919277,12|0,2:0|2:0,2:0:0:0:
482,276,86543,2,0,L|295:300,1,152.144992919277,8|0,2:0|2:0,2:0:0:0:
14,88,86745,2,0,L|201:112,1,152.144992919277,8|8,2:0|2:0,2:0:0:0:
512,195,86946,1,8,2:0:0:0:
434,203,87047,2,0,L|247:227,1,152.144992919277,8|0,2:0|2:0,2:0:0:0:
24,6,87248,2,0,L|211:30,1,152.144992919277,8|0,2:0|2:0,2:0:0:0:
501,301,87449,1,8,2:0:0:0:
420,310,87550,2,0,L|98:363,1,300.150002518959,2|0,2:0|2:0,2:0:0:0:
364,151,87953,6,0,L|348:0,1,152.144992919277,14|0,2:0|2:0,2:0:0:0:
124,359,88154,2,0,L|140:207,1,152.144992919277,8|0,2:0|2:0,2:0:0:0:
431,0,88355,2,0,L|452:192,1,152.144992919277,8|8,2:0|2:0,2:0:0:0:
34,365,88557,1,8,2:0:0:0:
42,287,88657,2,0,L|58:135,1,152.144992919277,8|0,2:0|2:0,2:0:0:0:
463,0,88859,2,0,L|484:192,1,152.144992919277,8|0,2:0|2:0,2:0:0:0:
0,365,89060,1,8,2:0:0:0:
8,287,89160,2,0,L|24:135,1,152.144992919277,8|0,2:0|2:0,2:0:0:0:
496,0,89362,2,0,L|517:192,1,152.144992919277,8|0,2:0|2:0,2:0:0:0:
123,358,89563,6,0,P|164:293|179:215,1,131.444998997154,8|0,2:0|2:0,2:0:0:0:
414,154,89765,1,8,2:0:0:0:
402,323,89865,2,0,P|365:268|347:205,1,131.444998997154,8|0,2:0|2:0,2:0:0:0:
106,6,90067,1,8,2:0:0:0:
118,175,90167,2,0,P|154:120|172:57,1,131.444998997154,8|0,2:0|2:0,2:0:0:0:
269,342,90369,5,8,2:0:0:0:
269,342,90772,5,0,1:2:0:0:
288,258,90872,1,0,1:2:0:0:
308,175,90973,1,0,1:2:0:0:
327,92,91074,1,0,1:2:0:0:
347,8,91174,2,8,B|201:-7|128:96|64:224|157:280|157:280|238:200|128:96|91:47|91:47|-56:244|91:385|157:374|197:352,1,1126.08000687305,12|0,2:0|2:0,2:0:0:0:
