osu file format v14

[General]
AudioFilename: audio.mp3
AudioLeadIn: 0
PreviewTime: 58818
Countdown: 0
SampleSet: Soft
StackLeniency: 0.7
Mode: 0
LetterboxInBreaks: 0
WidescreenStoryboard: 1

[Editor]
DistanceSpacing: 1.1
BeatDivisor: 2
GridSize: 32
TimelineZoom: 2.799999

[Metadata]
Title:Shinteki Souzou
TitleUnicode:神的創造
Artist:Yousei Teikoku
ArtistUnicode:妖精帝國
Creator:-Keitaro
Version:Normal
Source:fortissimo FA//Akkord:nachsten Phase
Tags:フォルテシモフルアクセス アコルト:ネクステンファーゼ La'cryma Visual Novel Eroge opening op ver version short japanese ancul smokelind shurelia alphabet venax
BeatmapID:2061371
BeatmapSetID:985170

[Difficulty]
HPDrainRate:4
CircleSize:2.5
OverallDifficulty:4
ApproachRate:6
SliderMultiplier:0.799999999999999
SliderTickRate:1

[Events]
//Background and Video events
0,0,"bg for.jpg",0,0
Video,621,"Shinteki Souzou.avi"
//Break Periods
//Storyboard Layer 0 (Background)
//Storyboard Layer 1 (Fail)
//Storyboard Layer 2 (Pass)
//Storyboard Layer 3 (Foreground)
//Storyboard Layer 4 (Overlay)
//Storyboard Sound Samples

[TimingPoints]
1781,434.782608695652,4,2,1,100,1,0
11346,452.830188679245,4,2,1,100,1,0
12251,458.015267175573,4,2,1,100,1,0
14083,491.803278688525,4,2,1,100,1,0
15066,402.684563758389,4,2,1,100,1,0
15470,201.342281879195,4,2,1,80,1,0
29966,-100,4,2,1,60,0,0
31577,-100,4,2,1,70,0,0
36409,-100,4,2,1,75,0,0
43254,-100,4,2,1,80,0,0
43657,-100,4,2,1,75,0,0
46074,-100,4,2,1,70,0,0
52516,-100,4,2,1,75,0,0
58959,-100,4,2,1,85,0,1
71745,-100,4,2,1,85,0,0
71845,-100,4,2,1,85,0,1
84731,-100,4,2,1,90,0,0
91275,-100,4,2,1,80,0,0
97114,-100,4,2,0,80,0,0

[Colours]
Combo1 : 126,111,1
Combo2 : 254,217,5
Combo3 : 214,214,214
Combo4 : 255,255,40

[HitObjects]
51,78,15470,6,0,P|119:123|193:99,1,160,4|0,1:2|1:2,2:0:0:0:
252,39,16074,1,8,0:0:0:0:
252,39,16275,2,0,L|419:52,1,160,0|0,1:2|1:2,2:0:0:0:
454,222,17080,2,0,L|280:206,1,160,0|0,1:2|1:2,2:0:0:0:
213,241,17684,1,8,0:0:0:0:
213,241,17886,2,0,P|202:298|210:335,2,79.9999999999999,0|8|0,1:2|0:0|1:2,2:0:0:0:
87,116,18691,6,0,B|127:79|127:79|236:81,1,160,4|0,1:2|1:2,2:0:0:0:
288,149,19295,1,8,0:0:0:0:
288,149,19496,2,0,L|379:154,2,79.9999999999999,0|8|0,1:2|0:0|1:2,2:0:0:0:
213,196,20100,1,8,0:0:0:0:
213,196,20302,2,0,P|189:256|221:366,1,160,0|0,1:2|1:2,2:0:0:0:
383,345,21107,2,0,P|402:268|377:193,1,160,0|8,1:2|0:0,2:0:0:0:
301,149,21711,1,8,0:0:0:0:
301,149,21912,6,0,L|134:161,1,160,4|0,1:2|1:2,2:0:0:0:
53,168,22516,1,8,0:0:0:0:
53,168,22718,2,0,L|46:72,2,79.9999999999999,0|8|0,1:2|0:0|1:2,2:0:0:0:
73,342,23523,2,0,B|115:308|115:308|232:321,1,160,0|0,1:2|1:2,2:0:0:0:
306,339,24127,1,8,0:0:0:0:
306,339,24329,2,0,P|331:228|295:162,1,160,0|0,1:2|1:2,2:0:0:0:
170,89,25134,6,0,L|346:80,1,160,4|0,1:2|1:2,2:0:0:0:
400,133,25738,1,8,0:0:0:0:
400,133,25939,2,0,L|482:129,2,79.9999999999999,0|8|0,1:2|0:0|1:2,2:0:0:0:
295,274,26745,2,0,L|127:284,1,160,0|0,1:2|1:2,2:0:0:0:
47,293,27349,1,12,0:0:0:0:
47,293,27550,2,0,P|29:237|81:137,1,160,0|0,1:2|1:2,2:0:0:0:
223,66,28355,6,0,L|310:75,1,79.9999999999999,8|8,0:0|0:0,2:0:0:0:
366,135,28758,2,0,L|448:132,1,79.9999999999999,8|8,0:0|0:0,2:0:0:0:
503,65,29161,2,0,B|474:108|474:108|490:235,1,160,8|8,0:0|0:0,2:0:0:0:
396,366,29966,1,12,0:0:0:0:
65,275,31577,2,0,P|38:222|66:144,2,120,8|8|8,0:0|0:0|0:0,2:0:0:0:
132,331,32382,2,0,L|296:317,1,160,8|0,0:0|1:0,2:0:0:0:
467,303,33188,5,8,0:0:0:0:
467,303,33389,1,8,0:0:0:0:
253,23,34597,1,8,0:0:0:0:
253,23,34798,1,8,0:0:0:0:
77,328,35604,2,0,P|151:327|180:308,1,79.9999999999999,0|0,3:0|3:0,2:0:0:0:
219,265,36006,1,0,3:0:0:0:
381,250,36409,6,0,B|405:294|405:294|400:379,2,120,6|2|10,1:2|1:2|0:0,2:0:0:0:
315,191,37214,2,0,P|289:130|311:51,2,120,2|2|10,1:2|1:2|0:0,2:0:0:0:
381,250,38020,1,2,1:2:0:0:
260,378,38423,1,0,0:0:0:0:
108,288,38825,2,0,L|114:197,1,79.9999999999999,0|8,1:2|0:0,2:0:0:0:
188,162,39228,2,0,L|178:73,1,79.9999999999999,0|8,0:0|0:0,2:0:0:0:
126,11,39631,6,0,P|198:60|274:40,1,160,6|2,1:2|0:0,2:0:0:0:
345,9,40235,1,10,0:0:0:0:
345,9,40436,2,0,L|335:182,1,160,2|2,1:2|0:0,2:0:0:0:
325,344,41241,2,0,P|262:363|194:303,1,160,2|2,1:2|0:0,2:0:0:0:
178,220,41845,1,10,0:0:0:0:
178,220,42047,2,0,L|50:236,2,120,0|2|10,1:2|1:2|0:0,2:0:0:0:
242,160,42852,6,0,L|417:169,1,160,6|0,1:2|2:0,2:0:0:0:
371,341,43657,2,0,B|429:355|429:355|484:325,2,120,2|2|10,1:2|1:2|0:0,2:0:0:0:
299,288,44463,2,0,B|216:285|225:361|128:349,1,160,2|0,1:2|0:0,2:0:0:0:
12,248,45268,1,0,1:2:0:0:
168,168,45671,2,0,P|174:122|160:78,1,79.9999999999999,0|0,1:0|1:0,2:0:0:0:
102,28,46074,6,0,P|168:76|274:52,1,160,2|0,1:2|1:2,2:0:0:0:
322,33,46678,1,10,0:0:0:0:
322,33,46879,2,0,L|311:169,2,120,14|14|14,0:0|0:0|0:0,2:0:0:0:
408,17,47684,1,2,1:2:0:0:
495,169,48087,2,0,P|456:204|401:208,1,79.9999999999999,0|10,1:2|0:0,2:0:0:0:
367,272,48490,2,0,P|306:254|251:272,2,120,14|14|14,0:0|0:0|0:0,2:0:0:0:
438,322,49295,5,2,1:2:0:0:
419,146,49698,2,0,L|412:53,1,79.9999999999999,0|10,1:2|0:0,2:0:0:0:
335,24,50100,2,0,P|267:15|205:43,2,120,14|14|14,0:0|0:0|0:0,2:0:0:0:
412,66,50906,1,2,1:2:0:0:
281,184,51308,2,0,L|198:177,1,79.9999999999999,0|10,1:2|0:0,2:0:0:0:
125,131,51711,2,0,P|153:184|134:270,2,120,14|14|14,0:0|0:0|0:0,2:0:0:0:
46,90,52516,6,0,L|220:79,1,160,6|0,1:2|1:2,2:0:0:0:
291,55,53121,1,10,0:0:0:0:
291,55,53322,2,0,P|258:114|274:186,2,120,2|2|10,1:2|1:2|0:0,2:0:0:0:
376,33,54127,1,6,1:2:0:0:
461,187,54530,2,0,L|373:200,1,79.9999999999999,0|10,1:2|0:0,2:0:0:0:
314,255,54933,2,0,L|175:253,2,120,6|6|14,1:2|1:2|0:0,2:0:0:0:
358,330,55738,5,14,0:0:0:0:
461,187,56141,1,10,0:0:0:0:
320,81,56543,2,0,B|290:118|290:118|297:220,2,120,10|2|10,0:0|1:2|0:0,2:0:0:0:
368,6,57349,2,0,P|266:56|200:31,1,160,14|8,0:0|0:0,2:0:0:0:
100,4,58053,2,0,L|114:151,1,120,8|8,0:0|0:0,2:0:0:0:
68,200,58557,2,0,L|20:202,2,40,12|8|8,0:0|0:0|0:0,2:0:0:0:
123,268,58959,6,0,L|210:263,1,79.9999999999999,6|10,1:2|0:0,2:0:0:0:
271,318,59362,2,0,L|388:309,1,79.9999999999999,2|10,1:2|0:0,2:0:0:0:
394,304,59664,2,0,P|417:260|398:180,1,120,2|10,1:2|0:0,2:0:0:0:
345,129,60167,1,2,1:2:0:0:
261,157,60369,1,10,0:0:0:0:
185,112,60570,2,0,L|46:117,2,120,2|2|10,1:2|1:2|0:0,2:0:0:0:
261,157,61376,1,2,1:2:0:0:
368,18,61778,1,0,1:2:0:0:
494,140,62181,6,0,P|507:200|497:240,1,79.9999999999999,4|10,1:2|0:0,2:0:0:0:
456,291,62584,2,0,L|344:300,1,79.9999999999999,2|10,1:2|0:0,2:0:0:0:
332,302,62886,2,0,L|178:315,1,120,2|10,1:2|0:0,2:0:0:0:
124,314,63389,1,2,1:2:0:0:
74,241,63590,1,10,0:0:0:0:
100,156,63792,2,0,L|231:146,2,120,2|2|10,1:2|1:2|0:0,2:0:0:0:
29,103,64597,1,6,1:2:0:0:
132,20,64899,1,12,0:0:0:0:
258,56,65201,1,12,0:0:0:0:
258,56,65402,6,0,P|298:116|281:205,1,160,6|0,1:2|1:2,2:0:0:0:
216,255,66006,1,10,0:0:0:0:
216,255,66208,2,0,L|70:246,2,120,2|2|10,1:2|1:2|0:0,2:0:0:0:
298,284,67013,1,2,1:2:0:0:
473,297,67416,1,2,1:2:0:0:
484,121,67818,1,2,1:2:0:0:
309,108,68221,1,2,0:0:0:0:
133,98,68624,6,0,L|116:272,1,160,2|0,1:2|1:2,2:0:0:0:
145,341,69228,1,8,0:0:0:0:
145,341,69429,2,0,P|192:351|246:332,1,79.9999999999999,0|8,2:0|0:0,2:0:0:0:
289,286,69832,2,0,P|335:273|374:279,1,79.9999999999999,0|8,1:2|0:0,2:0:0:0:
432,334,70235,2,0,L|417:194,1,120,10|0,0:0|1:2,2:0:0:0:
411,171,70637,1,10,0:0:0:0:
291,42,71040,2,0,P|233:66|170:51,1,120,10|0,0:0|1:2,2:0:0:0:
142,30,71443,1,10,0:0:0:0:
56,52,71644,1,8,0:0:0:0:
21,132,71845,6,0,L|29:248,1,79.9999999999999,6|10,1:2|0:0,2:0:0:0:
40,299,72248,2,0,P|94:320|137:309,1,79.9999999999999,2|10,1:2|0:0,2:0:0:0:
157,306,72550,2,0,L|311:314,1,120,2|10,1:2|0:0,2:0:0:0:
364,320,73053,1,2,1:2:0:0:
423,254,73255,1,10,0:0:0:0:
382,175,73456,2,0,P|370:129|388:48,2,120,2|2|10,1:2|1:2|0:0,2:0:0:0:
423,254,74261,1,2,1:2:0:0:
255,199,74664,1,0,1:2:0:0:
145,336,75067,6,0,P|100:357|50:352,1,79.9999999999999,4|10,1:2|0:0,2:0:0:0:
11,291,75470,2,0,L|18:205,1,79.9999999999999,2|10,1:2|0:0,2:0:0:0:
43,175,75772,2,0,L|36:41,1,120,2|10,1:2|0:0,2:0:0:0:
110,7,76275,1,2,1:2:0:0:
183,54,76476,1,10,0:0:0:0:
266,26,76678,2,0,L|424:23,2,120,6|6|14,1:2|1:2|0:0,2:0:0:0:
183,54,77483,1,6,1:2:0:0:
247,169,77785,1,12,0:0:0:0:
171,277,78087,1,12,0:0:0:0:
171,277,78288,6,0,P|236:306|307:277,2,120,6|2|10,1:2|0:0|0:0,2:0:0:0:
107,215,79094,2,0,L|112:36,1,160,2|0,1:2|0:0,2:0:0:0:
285,27,79899,2,0,P|343:18|395:45,2,120,6|2|10,1:2|0:0|0:0,2:0:0:0:
239,102,80705,2,0,L|244:281,1,160,2|2,1:2|0:0,2:0:0:0:
387,363,81510,6,0,P|445:345|484:239,1,160,6|0,1:2|1:2,2:0:0:0:
438,187,82114,1,10,0:0:0:0:
438,187,82315,2,0,L|297:200,2,120,2|2|10,1:2|1:2|0:0,2:0:0:0:
491,116,83121,2,0,P|494:58|437:16,1,120,10|0,0:0|1:2,2:0:0:0:
407,13,83523,1,10,0:0:0:0:
231,26,83926,2,0,L|89:35,1,120,10|0,0:0|1:2,2:0:0:0:
67,40,84329,1,10,0:0:0:0:
12,207,84731,6,0,P|18:264|45:316,1,79.9999999999999,14|8,0:0|0:0,2:0:0:0:
87,347,85134,2,0,L|170:338,1,79.9999999999999,8|8,0:0|0:0,2:0:0:0:
241,291,85537,2,0,L|412:299,1,160,0|8,0:0|0:0,2:0:0:0:
457,131,86342,2,0,L|346:137,1,79.9999999999999,12|8,0:0|0:0,2:0:0:0:
305,187,86745,2,0,L|194:182,1,79.9999999999999,8|8,0:0|0:0,2:0:0:0:
167,116,87147,2,0,P|96:111|69:197,1,160,0|2,0:0|0:0,2:0:0:0:
36,357,87953,6,0,P|89:365|142:345,1,79.9999999999999,14|8,0:0|0:0,2:0:0:0:
178,299,88355,1,8,0:0:0:0:
178,299,88557,1,8,0:0:0:0:
248,350,88758,2,0,L|415:339,1,160,0|8,0:0|0:0,2:0:0:0:
480,178,89563,2,0,P|486:117|439:48,2,120,8|8|8,0:0|0:0|0:0,2:0:0:0:
421,244,90369,1,8,0:0:0:0:
276,143,90772,2,0,L|177:146,1,79.9999999999999,0|0,1:2|1:2,2:0:0:0:
108,146,91174,5,12,0:0:0:0:
256,192,91275,12,0,97416,0:0:0:0:
