osu file format v14

[General]
AudioFilename: audio.mp3
AudioLeadIn: 0
PreviewTime: 74974
Countdown: 0
SampleSet: Drum
StackLeniency: 0.3
Mode: 0
LetterboxInBreaks: 0
WidescreenStoryboard: 1

[Editor]
Bookmarks: 11655,21867,42293,58633,77016,85187,91314,95399,111740,128080,138293,148506,164846,181187,189357,205697,222038,230208,240421,250633,262889,279229
DistanceSpacing: 0.6
BeatDivisor: 4
GridSize: 32
TimelineZoom: 1.8

[Metadata]
Title:Shadow Corps
TitleUnicode:Shadow Corps
Artist:Yousei Teikoku
ArtistUnicode:妖精帝國
Creator:IsomirDiAngelo
Version:Undead Empress of the Fairy Empire
Source:
Tags:corps[e] corpse das feenreich fairy empire yui itsuki japanese rock j-rock metal j-metal heavy lmt atalanta talulah alphabet venax aistre
BeatmapID:2223963
BeatmapSetID:1029620

[Difficulty]
HPDrainRate:6
CircleSize:4.2
OverallDifficulty:9.4
ApproachRate:9.8
SliderMultiplier:2.35
SliderTickRate:1

[Events]
//Background and Video events
0,0,"58311349_p0_master1200.jpg",0,0
//Break Periods
2,189557,205218
//Storyboard Layer 0 (Background)
//Storyboard Layer 1 (Fail)
//Storyboard Layer 2 (Pass)
//Storyboard Layer 3 (Foreground)
//Storyboard Layer 4 (Overlay)
//Storyboard Sound Samples

[TimingPoints]
3485,255.31914893617,4,3,1,80,1,0
3485,-200,4,3,1,80,0,0
7059,-142.857142857143,4,3,1,80,0,0
7229,-142.857142857143,4,3,1,5,0,0
7314,-142.857142857143,4,3,1,80,0,0
7570,-200,4,3,1,80,0,0
10633,-166.666666666667,4,3,1,80,0,0
10825,-166.666666666667,4,3,1,5,0,0
10889,-200,4,3,1,80,0,0
11080,-166.666666666667,4,3,1,5,0,0
11144,-250,4,3,1,80,0,0
11336,-166.666666666667,4,3,1,5,0,0
11399,-333.333333333333,4,3,1,80,0,0
11591,-166.666666666667,4,3,1,5,0,0
11655,-200,4,3,1,80,0,0
11782,-200,4,3,1,80,0,0
11910,-200,4,3,1,80,0,0
12037,-200,4,3,1,80,0,0
12165,-200,4,3,1,80,0,0
12293,-200,4,3,1,80,0,0
12421,-200,4,3,1,80,0,0
13569,-200,4,3,1,80,0,0
13697,-200,4,3,1,80,0,0
15229,-142.857142857143,4,3,1,80,0,0
15399,-142.857142857143,4,3,1,5,0,0
15484,-142.857142857143,4,3,1,80,0,0
15740,-200,4,3,1,80,0,0
17654,-200,4,3,1,80,0,0
17782,-200,4,3,1,80,0,0
19059,-200,4,3,10,80,0,0
19314,-200,4,3,1,80,0,0
19825,-200,4,3,1,80,0,0
21421,-200,4,3,8,80,0,0
21484,-200,4,3,1,80,0,0
21612,-200,4,3,1,80,0,0
21867,-100,4,3,1,70,0,1
22889,-83.3333333333333,4,3,1,70,0,1
23910,-100,4,3,1,70,0,1
26974,-83.3333333333333,4,3,1,70,0,1
27995,-100,4,3,1,70,0,1
29782,-100,4,3,1,60,0,1
30038,-100,4,3,1,70,0,1
31059,-83.3333333333333,4,3,1,70,0,1
32080,-100,4,3,1,70,0,1
35144,-83.3333333333333,4,3,1,70,0,1
36165,-100,4,3,1,70,0,1
36676,-83.3333333333333,4,3,1,70,0,1
37187,-71.4285714285714,4,3,1,70,0,1
37697,-100,4,3,9,70,0,1
37761,-100,4,3,10,70,0,1
37953,-100,4,3,1,70,0,1
38208,-125,4,3,1,70,0,0
41357,-125,4,3,8,55,0,0
41527,-125,4,3,9,55,0,0
41782,-125,4,3,10,55,0,0
42038,-125,4,3,1,40,0,0
42293,-125,4,3,1,70,0,0
45740,-125,4,3,8,80,0,0
45867,-125,4,3,9,70,0,0
45995,-125,4,3,1,70,0,0
53399,-125,4,3,1,70,0,0
53527,-125,4,3,1,70,0,0
58633,-125,4,3,1,70,0,0
74974,-200,4,3,1,70,0,0
76378,-125,4,3,1,70,0,0
76761,-125,4,3,10,50,0,0
77016,-125,4,3,1,70,0,0
78421,-125,4,3,1,70,0,0
78676,-125,4,3,1,70,0,0
80463,-125,4,3,1,70,0,0
80718,-125,4,3,1,70,0,0
81102,-125,4,3,1,70,0,1
84421,-125,4,3,8,70,0,1
84548,-125,4,3,9,70,0,1
84676,-100,4,3,1,70,0,1
84931,-83.3333333333333,4,3,1,70,0,0
85187,-76.9230769230769,4,3,1,70,0,1
86910,-76.9230769230769,4,3,1,5,0,1
86974,-76.9230769230769,4,3,1,70,0,1
88761,-66.6666666666667,4,3,1,70,0,1
88952,-76.9230769230769,4,3,1,5,0,1
89016,-76.9230769230769,4,3,10,70,0,1
89272,-76.9230769230769,4,3,1,70,0,1
90995,-76.9230769230769,4,3,1,5,0,1
91059,-76.9230769230769,4,3,1,70,0,1
92336,-66.6666666666667,4,3,1,70,0,1
92846,-76.9230769230769,4,3,8,70,0,1
92974,-76.9230769230769,4,3,9,70,0,1
93102,-76.9230769230769,4,3,10,70,0,1
93357,-76.9230769230769,4,3,1,70,0,1
95144,-76.9230769230769,4,3,1,70,0,0
95336,-76.9230769230769,4,3,1,5,0,0
95399,-100,4,3,1,70,0,1
96421,-83.3333333333333,4,3,1,70,0,1
97442,-100,4,3,1,70,0,1
100506,-83.3333333333333,4,3,1,70,0,1
101527,-100,4,3,1,70,0,1
104591,-83.3333333333333,4,3,1,70,0,1
105612,-100,4,3,1,70,0,1
108676,-83.3333333333333,4,3,1,70,0,1
110719,-100,4,3,1,70,0,1
110974,-100,4,3,9,70,0,1
111038,-100,4,3,9,50,0,1
111229,-100,4,3,10,70,0,1
111292,-100,4,3,10,50,0,1
111740,-125,4,3,1,70,0,0
114676,-125,4,3,1,70,0,0
114804,-125,4,3,1,70,0,0
128080,-200,4,3,1,70,0,0
129357,-125,4,3,1,70,0,0
130250,-125,4,3,1,70,0,0
130378,-125,4,3,1,70,0,0
131527,-125,4,3,1,70,0,0
131782,-125,4,3,1,70,0,0
133570,-125,4,3,1,70,0,0
133825,-125,4,3,1,70,0,0
134208,-125,4,3,1,70,0,1
136761,-125,4,3,9,70,0,1
136889,-125,4,3,10,70,0,1
137272,-125,4,3,1,70,0,1
138038,-83.3333333333333,4,3,1,70,0,0
138229,-83.3333333333333,4,3,1,5,0,0
138293,-76.9230769230769,4,3,1,70,0,1
140016,-76.9230769230769,4,3,1,5,0,1
140080,-76.9230769230769,4,3,1,70,0,1
141867,-66.6666666666667,4,3,1,70,0,1
142058,-76.9230769230769,4,3,1,5,0,1
142123,-76.9230769230769,4,3,1,70,0,1
144101,-76.9230769230769,4,3,1,5,0,1
144165,-76.9230769230769,4,3,1,70,0,1
145442,-66.6666666666667,4,3,1,70,0,1
145825,-76.9230769230769,4,3,1,70,0,1
145953,-76.9230769230769,4,3,8,70,0,1
146080,-76.9230769230769,4,3,9,70,0,1
146208,-76.9230769230769,4,3,10,60,0,1
146591,-76.9230769230769,4,3,1,70,0,1
147995,-90.9090909090909,4,3,9,70,0,1
148250,-100,4,3,10,70,0,1
148506,-166.666666666667,4,3,1,70,0,0
156421,-166.666666666667,4,3,10,50,0,0
156676,-166.666666666667,4,3,1,70,0,0
164080,-166.666666666667,4,3,10,50,0,0
164591,-166.666666666667,4,3,1,70,0,0
164846,-125,4,3,1,70,0,0
173016,-100,4,3,1,70,0,1
177102,-83.3333333333333,4,3,1,70,0,1
178187,-83.3333333333333,4,3,8,70,0,1
178250,-83.3333333333333,4,3,1,70,0,1
178697,-83.3333333333333,4,3,8,70,0,1
178761,-83.3333333333333,4,3,1,70,0,1
179144,-83.3333333333333,4,3,1,70,0,0
181187,-200,4,3,1,70,0,0
181250,-200,4,3,1,70,0,0
181442,-200,4,3,1,50,0,0
183740,-200,4,3,1,50,0,0
184250,-200,4,3,1,70,0,0
184506,-200,4,3,8,50,0,0
184633,-200,4,3,1,70,0,0
184761,-200,4,3,9,60,0,0
185016,-200,4,3,1,70,0,0
189357,-200,4,3,1,60,0,0
205697,-100,4,3,1,70,0,0
211825,-125,4,3,1,70,0,0
213867,-100,4,3,1,70,0,0
219995,-125,4,3,1,70,0,0
222038,-100,4,3,1,70,0,0
224080,-100,4,3,1,70,0,0
225612,-100,4,3,9,70,0,0
225867,-100,4,3,1,70,0,0
226123,-83.3333333333333,4,3,1,70,0,0
229697,-83.3333333333333,4,3,9,60,0,0
229953,-83.3333333333333,4,3,10,60,0,0
230208,-71.4285714285714,4,3,1,70,0,1
232187,-71.4285714285714,4,3,1,5,0,1
232250,-71.4285714285714,4,3,1,70,0,1
238123,-71.4285714285714,4,3,9,70,0,1
238378,-200,4,3,1,70,0,0
239910,-125,4,3,1,70,0,0
241825,-125,4,3,1,70,0,0
242080,-125,4,3,1,70,0,0
243867,-125,4,3,1,70,0,0
244122,-125,4,3,1,70,0,0
244506,-100,4,3,1,70,0,1
247570,-100,4,3,10,60,0,1
247633,-100,4,3,9,60,0,1
248080,-100,4,3,10,60,0,1
248144,-100,4,3,9,60,0,1
248591,-125,4,3,1,70,0,0
249867,-125,4,3,9,70,0,0
250038,-125,4,3,1,70,0,0
250570,-125,4,3,1,5,0,0
250633,-76.9230769230769,4,3,1,70,0,1
252356,-76.9230769230769,4,3,1,5,0,1
252421,-76.9230769230769,4,3,1,70,0,1
254208,-66.6666666666667,4,3,1,70,0,1
254399,-76.9230769230769,4,3,1,5,0,1
254463,-76.9230769230769,4,3,1,70,0,1
256441,-76.9230769230769,4,3,1,5,0,1
256506,-76.9230769230769,4,3,1,70,0,1
257782,-66.6666666666667,4,3,1,70,0,1
258293,-100,4,3,9,70,0,1
258676,-100,4,3,10,60,0,1
258931,-100,4,3,1,70,0,1
260336,-76.9230769230769,4,3,1,70,0,0
260846,-142.857142857143,4,3,1,70,0,1
261867,-142.857142857143,4,3,1,50,0,0
262378,-142.857142857143,4,3,1,60,0,0
262889,-142.857142857143,4,3,1,70,0,0
266463,-100,4,3,1,70,0,0
266633,-100,4,3,1,5,0,0
266719,-100,4,3,1,70,0,0
266974,-142.857142857143,4,3,1,70,0,0
270038,-125,4,3,1,70,0,0
270208,-125,4,3,1,5,0,0
270293,-142.857142857143,4,3,1,70,0,0
270463,-142.857142857143,4,3,1,5,0,0
270548,-166.666666666667,4,3,1,70,0,0
270719,-166.666666666667,4,3,1,5,0,0
270804,-200,4,3,1,70,0,0
270974,-200,4,3,1,5,0,0
271059,-142.857142857143,4,3,1,70,0,0
274633,-100,4,3,1,70,0,0
274803,-100,4,3,1,5,0,0
274889,-100,4,3,1,70,0,0
275144,-142.857142857143,4,3,1,70,0,0
278463,-142.857142857143,4,3,8,60,0,0
278719,-142.857142857143,4,3,9,50,0,0
278974,-142.857142857143,4,3,10,40,0,0
279229,-200,4,3,1,70,0,0

[Colours]
Combo1 : 201,201,201
Combo2 : 240,27,15
Combo3 : 248,158,158
Combo4 : 243,158,44

[HitObjects]
44,33,3485,6,0,B|50:80|50:80|44:103|44:103|51:164,1,117.5,6|2,1:0|1:0,0:0:0:0:
54,236,3825,1,0,1:0:0:0:
54,236,3910,1,0,1:0:0:0:
54,236,3995,2,0,P|107:215|137:165,2,117.5,10|2|10,1:0|1:0|0:0,0:0:0:0:
42,378,4761,5,2,1:0:0:0:
130,312,5016,1,2,0:0:0:0:
145,312,5102,1,0,0:0:0:0:
160,312,5187,1,0,0:0:0:0:
175,312,5272,1,10,0:0:0:0:
374,358,5527,6,0,B|320:383|320:383|255:334,1,117.5,6|2,1:0|1:0,0:0:0:0:
263,260,5867,1,0,1:0:0:0:
263,260,5953,1,0,1:0:0:0:
263,260,6038,2,0,L|250:124,2,117.5,10|2|10,1:0|1:0|0:0,0:0:0:0:
214,363,6804,1,2,1:0:0:0:
448,289,7059,6,0,P|445:226|454:169,1,109.666663319906,14|0,0:0|0:0,0:0:0:0:
484,84,7314,5,2,1:0:0:0:
453,70,7399,1,0,1:0:0:0:
421,78,7484,1,0,1:0:0:0:
352,51,7570,6,0,L|219:44,1,117.5,14|2,0:0|1:0,0:0:0:0:
154,14,7910,1,0,1:0:0:0:
154,14,7995,1,0,1:0:0:0:
154,14,8080,2,0,P|205:40|209:113,2,117.5,10|2|10,1:0|1:0|0:0,0:0:0:0:
38,79,8846,5,2,1:0:0:0:
93,166,9102,1,2,1:0:0:0:
93,181,9187,1,0,1:0:0:0:
93,196,9272,1,0,1:0:0:0:
93,211,9357,1,10,0:0:0:0:
19,384,9612,6,0,B|-5:306|-5:306|10:262,1,117.5,6|2,1:0|1:0,0:0:0:0:
94,305,9953,1,0,1:0:0:0:
94,305,10038,1,0,1:0:0:0:
94,305,10123,2,0,L|243:287,1,117.5,10|2,1:0|1:0,0:0:0:0:
385,322,10633,6,0,L|376:197,1,105.749996772766,6|0,0:0|0:0,0:0:0:0:
392,301,10889,6,0,L|383:196,1,88.125,6|0,0:0|0:0,0:0:0:0:
397,282,11144,6,0,L|389:191,1,70.5,6|0,0:0|0:0,0:0:0:0:
402,264,11399,6,0,L|395:196,1,52.8749983863831,6|0,0:0|0:0,0:0:0:0:
364,187,11655,6,0,P|332:185|303:179,1,58.75,6|0,1:0|0:0,0:0:0:0:
190,260,11910,2,0,P|222:258|251:252,1,58.75,2|0,1:0|0:0,0:0:0:0:
185,108,12165,1,10,1:0:0:0:
101,63,12293,1,0,0:0:0:0:
102,165,12421,6,0,B|137:225|96:296|80:242|42:325|91:401,1,235,2|2,1:0|1:0,0:0:0:0:
24,214,13187,1,2,1:0:0:0:
24,214,13272,1,0,1:0:0:0:
24,214,13357,1,0,1:0:0:0:
24,214,13442,2,0,L|16:142,1,58.75,10|0,0:0|0:0,0:0:0:0:
0,36,13697,6,0,B|48:28|92:11|92:11|155:33|155:33|198:24|235:26,1,235,6|10,1:0|1:0,0:0:0:0:
227,25,14463,1,2,1:0:0:0:
421,78,14719,5,10,0:0:0:0:
421,78,14974,1,2,1:0:0:0:
459,324,15229,6,0,B|448:280|448:280|464:249|464:249|466:180,1,109.666663319906,14|0,0:0|0:0,0:0:0:0:
373,179,15484,5,2,1:0:0:0:
331,163,15570,1,0,1:0:0:0:
288,175,15655,1,0,1:0:0:0:
234,240,15740,6,0,L|230:380,2,117.5,14|2|10,0:0|1:0|1:0,0:0:0:0:
234,240,16506,1,2,1:0:0:0:
170,174,16761,5,10,0:0:0:0:
170,174,17016,1,2,1:0:0:0:
80,200,17272,1,2,1:0:0:0:
80,200,17357,1,0,1:0:0:0:
80,200,17442,1,0,1:0:0:0:
80,200,17527,2,0,L|88:279,1,58.75,10|0,0:0|0:0,0:0:0:0:
2,117,17782,6,0,L|11:-5,2,117.5,6|2|10,1:0|1:0|1:0,0:0:0:0:
2,117,18548,1,2,1:0:0:0:
176,84,18804,5,8,0:0:0:0:
221,72,18889,1,8,0:0:0:0:
266,84,18974,1,8,0:0:0:0:
327,119,19059,5,0,0:0:0:0:
295,129,19144,1,0,0:0:0:0:
265,121,19229,1,0,0:0:0:0:
255,129,19314,5,4,0:0:0:0:
247,240,19570,2,0,L|254:358,1,117.5,4|0,0:0|0:0,0:0:0:0:
256,192,19889,12,10,21612,0:0:0:0:
83,366,21867,5,0,0:0:0:0:
187,176,21995,2,0,L|165:342,1,117.5,8|0,0:0|0:0,0:0:0:0:
52,62,22250,2,0,L|68:179,1,117.5,8|0,0:0|0:0,0:0:0:0:
294,43,22506,2,0,B|283:122|283:122|212:155|212:155|200:236,1,235,8|8,0:0|0:0,0:0:0:0:
471,375,22889,6,0,B|395:399|330:332|330:332|340:316|340:316|285:270|320:180,1,281.999991394043,2|0,0:0|0:0,0:0:0:0:
491,12,23272,2,0,P|506:80|478:147,1,140.999995697022,10|0,0:0|0:0,0:0:0:0:
297,324,23527,2,0,P|271:259|286:191,1,140.999995697022,10|0,0:0|0:0,0:0:0:0:
411,70,23782,1,8,0:0:0:0:
182,60,23910,6,0,B|133:57|133:57|117:45|117:45|57:41,1,117.5,4|8,0:0|0:0,0:0:0:0:
292,154,24165,2,0,B|243:157|243:157|227:169|227:169|167:173,1,117.5,0|8,0:0|0:0,0:0:0:0:
34,379,24421,2,0,P|101:272|215:304,1,235
317,378,24804,1,8,0:0:0:0:
462,248,24931,5,2,0:0:0:0:
465,231,24995,1,0,0:0:0:0:
469,213,25059,1,8,0:0:0:0:
292,154,25187,1,0,0:0:0:0:
462,66,25314,1,8,0:0:0:0:
241,70,25442,5,2,0:0:0:0:
206,61,25506,1,0,0:0:0:0:
172,55,25570,1,8,0:0:0:0:
281,252,25697,1,0,0:0:0:0:
362,39,25825,1,8,0:0:0:0:
181,166,25953,5,0,0:0:0:0:
378,211,26080,2,0,P|393:264|341:334,1,117.5,8|0,0:0|0:0,0:0:0:0:
302,130,26336,1,8,0:0:0:0:
105,228,26463,2,0,P|85:177|130:102,1,117.5,0|8,0:0|0:0,0:0:0:0:
273,354,26719,1,0,0:0:0:0:
273,354,26846,1,8,0:0:0:0:
472,188,26974,6,0,B|484:147|461:87|397:67|329:79|309:145|309:145|279:159|250:146,1,281.999991394043,2|0,0:0|0:0,0:0:0:0:
19,111,27357,2,0,B|57:88|57:88|125:85|192:127,1,140.999995697022,10|0,0:0|0:0,0:0:0:0:
75,310,27612,1,10,0:0:0:0:
9,84,27740,2,0,B|47:61|47:61|115:58|182:100,1,140.999995697022,0|8,0:0|0:0,0:0:0:0:
297,216,27995,5,0,0:0:0:0:
403,238,28123,1,8,0:0:0:0:
468,143,28250,1,2,0:0:0:0:
360,118,28378,1,8,0:0:0:0:
329,314,28506,5,2,0:0:0:0:
158,270,28633,1,8,0:0:0:0:
161,88,28761,1,2,0:0:0:0:
331,130,28889,1,8,0:0:0:0:
219,361,29016,5,2,0:0:0:0:
273,62,29144,1,8,0:0:0:0:
136,178,29272,1,2,0:0:0:0:
348,226,29399,1,8,0:0:0:0:
284,141,29527,5,2,0:0:0:0:
205,281,29655,1,8,0:0:0:0:
56,224,29782,1,8,0:0:0:0:
47,177,29846,1,8,0:0:0:0:
40,130,29910,1,8,0:0:0:0:
32,83,29974,1,8,0:0:0:0:
25,36,30038,6,0,B|81:3|81:3|165:18,1,117.5,4|8,0:0|0:0,0:0:0:0:
372,57,30293,1,0,0:0:0:0:
330,245,30421,1,8,0:0:0:0:
378,38,30548,2,0,B|322:5|322:5|238:20,1,117.5,0|8,0:0|0:0,0:0:0:0:
324,261,30804,2,0,B|380:294|380:294|464:279,1,117.5,0|8,0:0|0:0,0:0:0:0:
116,365,31059,6,0,B|147:304|147:304|139:225|90:134|28:92,1,281.999991394043,2|0,0:0|0:0,0:0:0:0:
349,143,31442,2,0,P|305:198|275:262,1,140.999995697022,10|0,0:0|0:0,0:0:0:0:
162,3,31697,2,0,P|231:12|301:6,1,140.999995697022,10|0,0:0|0:0,0:0:0:0:
478,80,31953,1,8,0:0:0:0:
391,281,32080,6,0,L|233:254,1,117.5,4|8,0:0|0:0,0:0:0:0:
446,370,32336,1,0,0:0:0:0:
215,334,32463,2,0,P|183:285|186:227,1,117.5,8|0,0:0|0:0,0:0:0:0:
43,76,32719,2,0,P|45:133|14:182,1,117.5,8|0,0:0|0:0,0:0:0:0:
94,340,32974,1,8,0:0:0:0:
267,256,33102,5,2,0:0:0:0:
284,253,33165,1,0,0:0:0:0:
302,251,33229,1,8,0:0:0:0:
450,162,33357,1,0,0:0:0:0:
461,351,33484,1,8,0:0:0:0:
326,155,33612,5,2,0:0:0:0:
291,149,33676,1,0,0:0:0:0:
255,144,33740,1,8,0:0:0:0:
182,347,33867,1,0,0:0:0:0:
32,185,33995,1,8,0:0:0:0:
241,32,34123,5,4,0:0:0:0:
164,220,34250,2,0,B|138:294|138:294|148:347,1,117.5,8|0,0:0|0:0,0:0:0:0:
326,155,34506,2,0,B|352:81|352:81|342:28,1,117.5,8|0,0:0|0:0,0:0:0:0:
159,122,34761,1,8,0:0:0:0:
328,267,34889,1,0,0:0:0:0:
328,267,35016,1,8,0:0:0:0:
40,300,35144,6,0,B|12:276|-4:226|8:181|56:183|104:122|87:50|11:16,1,281.999991394043,2|0,0:0|0:0,0:0:0:0:
335,61,35527,2,0,P|412:58|521:42,1,140.999995697022,10|0,0:0|0:0,0:0:0:0:
241,250,35782,2,0,P|164:247|55:231,1,140.999995697022,10|0,0:0|0:0,0:0:0:0:
302,379,36038,1,8,0:0:0:0:
456,288,36165,5,4,0:0:0:0:
459,213,36293,1,8,0:0:0:0:
397,153,36421,1,0,0:0:0:0:
303,165,36548,1,8,0:0:0:0:
175,326,36676,5,0,0:0:0:0:
267,346,36804,1,8,0:0:0:0:
340,279,36931,1,0,0:0:0:0:
330,180,37059,1,8,0:0:0:0:
248,6,37187,5,0,0:0:0:0:
227,245,37314,1,8,0:0:0:0:
281,85,37442,1,0,0:0:0:0:
185,163,37570,1,8,0:0:0:0:
164,68,37697,5,0,0:0:0:0:
152,66,37761,1,0,0:0:0:0:
140,63,37825,1,0,0:0:0:0:
128,61,37889,1,0,0:0:0:0:
116,59,37953,5,8,0:0:0:0:
116,59,38208,6,0,B|52:61|7:122|7:122|43:125|69:152,1,188,4|0,1:0|1:0,0:0:0:0:
160,207,38548,1,0,1:0:0:0:
160,207,38633,1,0,1:0:0:0:
160,207,38719,2,0,P|204:279|131:356,1,188,8|0,1:0|1:0,0:0:0:0:
176,192,39229,5,8,0:0:0:0:
147,380,39484,1,0,1:0:0:0:
46,274,39740,2,0,L|58:207,3,47,0|0|0|8,0:0|0:0|0:0|0:0,0:0:0:0:
486,361,40250,5,8,0:0:0:0:
488,307,40336,1,0,0:0:0:0:
461,260,40421,1,0,0:0:0:0:
428,220,40506,5,8,0:0:0:0:
402,188,40591,1,0,0:0:0:0:
400,143,40676,1,0,0:0:0:0:
452,96,40761,5,8,0:0:0:0:
394,117,40846,1,0,0:0:0:0:
337,108,40931,1,0,0:0:0:0:
293,115,41016,5,8,0:0:0:0:
261,129,41102,1,0,0:0:0:0:
230,157,41187,1,0,0:0:0:0:
175,210,41272,5,10,0:0:0:0:
175,210,41357,1,0,0:0:0:0:
175,210,41442,1,0,0:0:0:0:
160,180,41527,5,0,0:0:0:0:
163,157,41612,1,0,0:0:0:0:
165,133,41697,1,0,0:0:0:0:
145,104,41782,5,0,0:0:0:0:
142,89,41867,1,0,0:0:0:0:
139,75,41953,1,0,0:0:0:0:
136,63,42038,6,0,L|145:16,3,47,2|2|2|2,0:0|0:0|0:0|0:0,0:0:0:0:
295,106,42293,6,0,P|348:108|415:111,1,94,4|0,0:0|0:0,0:0:0:0:
492,23,42548,2,0,L|478:161,1,94,8|0,0:0|0:0,0:0:0:0:
381,198,42804,1,0,0:0:0:0:
381,198,42931,2,0,B|419:253|419:253|406:395,1,188
220,354,43314,5,0,0:0:0:0:
211,263,43442,2,0,P|238:218|318:196,1,94,0|8,0:0|0:0,0:0:0:0:
241,356,43697,2,0,L|124:337,1,94
60,375,43953,1,0,0:0:0:0:
45,293,44080,1,8,0:0:0:0:
32,208,44208,1,0,0:0:0:0:
32,208,44336,5,0,0:0:0:0:
205,177,44591,1,8,0:0:0:0:
0,38,44846,1,0,0:0:0:0:
180,10,45102,1,8,0:0:0:0:
301,240,45357,5,4,1:0:0:0:
305,131,45484,1,0,1:0:0:0:
205,177,45612,1,0,1:0:0:0:
399,189,45740,5,0,0:0:0:0:
399,189,45867,1,0,0:0:0:0:
401,300,45995,5,0,1:0:0:0:
294,352,46123,1,0,1:0:0:0:
198,290,46250,1,0,1:0:0:0:
92,351,46378,6,0,L|81:257,1,94,4|2,0:0|0:0,0:0:0:0:
0,236,46633,2,0,P|84:206|101:100,1,188,8|0,0:0|0:0,0:0:0:0:
68,27,47016,1,0,0:0:0:0:
202,74,47144,1,8,0:0:0:0:
202,74,47272,1,0,0:0:0:0:
354,18,47399,6,0,L|351:143,1,94,2|0,0:0|0:0,0:0:0:0:
399,183,47655,1,8,0:0:0:0:
271,150,47782,2,0,L|273:243,1,94,2|0,0:0|0:0,0:0:0:0:
215,313,48038,1,0,0:0:0:0:
354,359,48165,2,0,L|356:265,1,94,10|0,0:0|0:0,0:0:0:0:
182,231,48421,5,4,0:0:0:0:
182,231,48548,1,0,0:0:0:0:
119,300,48676,2,0,L|125:104,1,188,8|2,0:0|0:0,0:0:0:0:
63,41,49059,1,0,0:0:0:0:
38,178,49187,1,8,0:0:0:0:
38,178,49314,1,0,0:0:0:0:
171,29,49442,5,8,0:0:0:0:
211,105,49570,1,0,1:0:0:0:
211,105,49697,1,0,1:0:0:0:
339,36,49825,5,0,1:0:0:0:
259,33,49953,1,0,1:0:0:0:
259,33,50080,1,0,1:0:0:0:
258,181,50208,5,0,1:0:0:0:
301,109,50336,1,0,1:0:0:0:
444,194,50463,6,0,P|390:189|344:179,1,94,4|0,0:0|0:0,0:0:0:0:
299,287,50719,1,8,0:0:0:0:
299,287,50847,2,0,L|399:277,1,94
465,313,51102,2,0,L|267:330,1,188
98,381,51484,5,0,0:0:0:0:
61,299,51612,2,0,P|46:256|72:187,1,94,0|8,0:0|0:0,0:0:0:0:
225,160,51867,2,0,P|234:205|219:249,1,94
24,193,52123,1,0,0:0:0:0:
14,98,52250,1,8,0:0:0:0:
9,7,52378,1,0,0:0:0:0:
9,7,52506,5,0,0:0:0:0:
209,79,52761,1,8,0:0:0:0:
396,25,53016,1,0,0:0:0:0:
209,85,53272,1,8,0:0:0:0:
309,89,53399,1,0,0:0:0:0:
316,314,53527,5,4,1:0:0:0:
320,183,53655,1,0,1:0:0:0:
187,180,53782,1,0,1:0:0:0:
251,356,53910,5,0,0:0:0:0:
251,356,54038,1,0,0:0:0:0:
150,248,54165,5,0,1:0:0:0:
257,149,54293,1,0,1:0:0:0:
361,249,54421,1,0,1:0:0:0:
484,138,54548,6,0,L|490:44,1,94,4|2,0:0|0:0,0:0:0:0:
473,230,54804,2,0,P|377:217|351:111,1,188,8|0,0:0|0:0,0:0:0:0:
403,43,55187,1,0,0:0:0:0:
306,139,55314,1,8,0:0:0:0:
306,139,55442,1,0,0:0:0:0:
230,26,55570,6,0,L|116:14,1,94,2|0,0:0|0:0,0:0:0:0:
57,88,55825,1,8,0:0:0:0:
218,114,55953,2,0,L|311:104,1,94,2|0,0:0|0:0,0:0:0:0:
365,189,56208,1,0,0:0:0:0:
195,206,56336,2,0,L|81:194,1,94,10|0,0:0|0:0,0:0:0:0:
41,349,56591,5,4,0:0:0:0:
41,349,56719,1,0,0:0:0:0:
129,297,56846,2,0,B|192:274|239:301|194:319|256:350|318:323,1,188,8|2,0:0|0:0,0:0:0:0:
385,357,57229,1,0,0:0:0:0:
280,250,57357,1,8,0:0:0:0:
280,250,57484,1,0,0:0:0:0:
486,358,57612,6,0,P|500:305|472:259,1,94,6|0,0:0|0:0,0:0:0:0:
195,209,57867,2,0,P|179:252|193:296,1,94,2|0,0:0|0:0,0:0:0:0:
484,185,58123,2,0,P|498:132|470:86,1,94,2|0,0:0|0:0,0:0:0:0:
482,98,58378,1,0,0:0:0:0:
208,73,58633,6,0,B|159:22|66:38|44:91|44:91|100:87|130:149|130:149|85:146|63:176,1,376,4|0,0:0|0:0,0:0:0:0:
301,284,59655,5,8,0:0:0:0:
350,291,59740,1,8,0:0:0:0:
399,298,59825,1,8,0:0:0:0:
449,304,59910,1,8,0:0:0:0:
289,300,60165,1,8,0:0:0:0:
240,293,60250,1,8,0:0:0:0:
191,286,60335,1,8,0:0:0:0:
141,280,60420,1,8,0:0:0:0:
451,319,60676,6,0,B|485:344|485:344|533:263|513:185|396:149,1,282,2|0,0:0|0:0,0:0:0:0:
326,63,61187,5,8,0:0:0:0:
274,66,61272,1,8,0:0:0:0:
229,90,61357,1,8,0:0:0:0:
213,138,61442,1,8,0:0:0:0:
350,44,61697,5,0,0:0:0:0:
181,137,61953,1,8,0:0:0:0:
391,172,62208,5,8,0:0:0:0:
375,220,62293,1,8,0:0:0:0:
330,244,62378,1,8,0:0:0:0:
278,247,62463,1,8,0:0:0:0:
74,368,62719,5,8,0:0:0:0:
72,314,62804,1,8,0:0:0:0:
69,262,62889,1,8,0:0:0:0:
68,210,62974,1,8,0:0:0:0:
178,164,63229,1,8,0:0:0:0:
183,112,63314,1,8,0:0:0:0:
186,60,63399,1,8,0:0:0:0:
190,6,63484,1,8,0:0:0:0:
287,372,63740,5,8,0:0:0:0:
291,318,63825,1,8,0:0:0:0:
294,266,63910,1,8,0:0:0:0:
295,214,63995,1,8,0:0:0:0:
409,168,64250,1,8,0:0:0:0:
408,116,64335,1,8,0:0:0:0:
405,64,64420,1,8,0:0:0:0:
401,10,64505,1,8,0:0:0:0:
503,353,64761,6,0,B|470:330|434:316|434:316|318:373|318:373|275:355|229:320,1,282,2|0,0:0|0:0,0:0:0:0:
120,351,65272,5,8,0:0:0:0:
85,314,65357,1,8,0:0:0:0:
72,266,65442,1,8,0:0:0:0:
84,217,65527,1,8,0:0:0:0:
319,17,65782,5,8,0:0:0:0:
377,38,65867,1,8,0:0:0:0:
386,100,65953,1,8,0:0:0:0:
341,143,66038,1,8,0:0:0:0:
279,148,66122,1,8,0:0:0:0:
240,198,66208,1,8,0:0:0:0:
247,260,66293,1,8,0:0:0:0:
7,27,66804,6,0,B|54:9|112:17|154:51|164:160|92:267,1,329,4|0,0:0|0:0,0:0:0:0:
90,330,67314,2,0,P|33:275|107:235,1,188,2|0,0:0|0:0,0:0:0:0:
218,319,67825,5,8,0:0:0:0:
266,332,67910,1,8,0:0:0:0:
315,318,67995,1,8,0:0:0:0:
351,283,68080,1,8,0:0:0:0:
495,71,68336,1,8,0:0:0:0:
447,87,68421,1,8,0:0:0:0:
415,127,68506,1,8,0:0:0:0:
406,176,68591,1,8,0:0:0:0:
108,94,68846,6,0,B|75:79|67:42|67:42|137:-16|216:15|238:96,1,282
166,194,69357,5,8,0:0:0:0:
158,243,69442,1,8,0:0:0:0:
151,293,69527,1,8,0:0:0:0:
144,343,69612,1,8,0:0:0:0:
155,163,69867,5,0,0:0:0:0:
124,362,70123,1,8,0:0:0:0:
9,193,70378,5,8,0:0:0:0:
17,242,70463,1,8,0:0:0:0:
24,292,70548,1,8,0:0:0:0:
31,342,70633,1,8,0:0:0:0:
336,325,70889,5,8,0:0:0:0:
376,353,70974,1,8,0:0:0:0:
427,356,71059,1,8,0:0:0:0:
474,337,71144,1,8,0:0:0:0:
489,169,71399,1,8,0:0:0:0:
448,140,71484,1,8,0:0:0:0:
397,137,71569,1,8,0:0:0:0:
351,157,71654,1,8,0:0:0:0:
49,294,71910,5,8,0:0:0:0:
89,322,71995,1,8,0:0:0:0:
140,325,72080,1,8,0:0:0:0:
187,306,72165,1,8,0:0:0:0:
202,138,72420,1,8,0:0:0:0:
161,109,72505,1,8,0:0:0:0:
110,106,72590,1,8,0:0:0:0:
64,126,72675,1,8,0:0:0:0:
273,372,72931,6,0,B|291:278|291:278|250:199|250:199|276:92,1,282,2|0,0:0|0:0,0:0:0:0:
454,30,73442,5,8,0:0:0:0:
466,79,73527,1,8,0:0:0:0:
475,130,73612,1,8,0:0:0:0:
485,180,73697,1,8,0:0:0:0:
123,362,73953,5,8,0:0:0:0:
139,300,74038,1,8,0:0:0:0:
154,239,74123,1,8,0:0:0:0:
107,196,74208,1,8,0:0:0:0:
59,154,74293,1,8,0:0:0:0:
74,93,74378,1,8,0:0:0:0:
91,33,74463,1,8,0:0:0:0:
454,89,74974,6,0,B|488:113|501:160|491:208|466:215|427:218|361:276|372:347|482:397|548:338|567:256|476:216|461:206|354:206|354:206|404:190|401:140,1,587.5,4|0,0:0|0:0,0:0:0:0:
279,31,76378,2,0,L|274:85,1,47
202,246,76506,5,2,0:0:0:0:
202,246,76570,1,0,0:0:0:0:
202,246,76633,2,0,L|198:174,1,47
29,90,76761,5,0,0:0:0:0:
45,91,76825,1,0,0:0:0:0:
59,91,76889,1,0,0:0:0:0:
71,92,76953,1,0,0:0:0:0:
84,92,77016,6,0,L|196:96,1,94
282,275,77272,2,0,B|249:216|249:216|125:214,1,188,10|0,0:0|0:0,0:0:0:0:
55,362,77655,1,0,0:0:0:0:
256,372,77782,2,0,L|386:377,1,94,10|0,0:0|0:0,0:0:0:0:
472,228,78038,6,0,P|460:273|470:319,1,94,2|0,0:0|0:0,0:0:0:0:
275,282,78293,1,10,0:0:0:0:
209,188,78421,2,0,L|229:-13,1,188
422,16,78804,2,0,P|434:61|424:107,1,94,10|0,0:0|0:0,0:0:0:0:
266,292,79059,6,0,L|173:278,1,94,4|0,0:0|0:0,0:0:0:0:
84,98,79314,2,0,P|183:114|207:194,1,188,10|0,0:0|0:0,0:0:0:0:
100,329,79697,1,0,0:0:0:0:
0,148,79825,2,0,P|-8:102|2:56,1,94,10|0,0:0|0:0,0:0:0:0:
244,17,80080,6,0,L|229:136,1,94,2|0,0:0|0:0,0:0:0:0:
385,295,80336,1,10,0:0:0:0:
492,189,80463,2,0,B|446:152|384:176|414:191|359:215|285:169,1,188
109,50,80846,2,0,L|115:143,1,94,10|0,0:0|0:0,0:0:0:0:
36,342,81102,5,14,0:0:0:0:
101,285,81229,1,0,0:0:0:0:
201,333,81357,5,10,0:0:0:0:
274,283,81484,1,0,0:0:0:0:
423,339,81612,5,10,0:0:0:0:
478,262,81740,1,0,0:0:0:0:
259,191,81867,5,10,0:0:0:0:
259,191,81995,1,0,0:0:0:0:
495,135,82123,5,10,0:0:0:0:
478,262,82250,1,0,0:0:0:0:
371,38,82378,5,10,0:0:0:0:
377,184,82506,1,0,0:0:0:0:
227,9,82633,5,10,0:0:0:0:
259,191,82761,1,0,0:0:0:0:
74,35,82889,5,10,0:0:0:0:
74,35,83016,1,0,0:0:0:0:
14,259,83144,5,10,0:0:0:0:
139,194,83272,1,8,0:0:0:0:
178,192,83336,1,8,0:0:0:0:
218,191,83399,1,8,0:0:0:0:
338,136,83527,1,8,0:0:0:0:
52,142,83655,5,8,0:0:0:0:
305,308,83782,1,8,0:0:0:0:
202,39,83910,1,8,0:0:0:0:
118,320,84038,1,8,0:0:0:0:
209,144,84165,5,0,0:0:0:0:
209,144,84229,1,0,0:0:0:0:
209,144,84293,1,0,0:0:0:0:
209,144,84357,1,0,0:0:0:0:
209,144,84421,2,0,L|222:217,1,47
322,335,84548,2,0,L|334:251,1,47
382,130,84676,6,0,L|449:125,3,58.75
297,47,84931,6,0,B|323:0|323:0|423:42|365:187,1,211.499993545532,2|0,0:0|0:0,0:0:0:0:
320,194,85187,6,0,B|206:169|206:169|140:194|140:194|-4:162,1,305.49998601532,4|0,0:0|0:0,0:0:0:0:
0,295,85570,1,8,0:0:0:0:
15,65,85697,2,0,P|77:74|122:157,1,152.74999300766,4|8,0:0|0:0,0:0:0:0:
297,47,85953,2,0,P|330:100|295:188,1,152.74999300766,0|8,0:0|0:0,0:0:0:0:
79,370,86208,6,0,L|261:355,1,152.74999300766,4|8,0:0|0:0,0:0:0:0:
238,115,86463,1,0,0:0:0:0:
154,280,86591,1,8,0:0:0:0:
432,384,86719,2,0,B|468:329|430:286|422:282|413:279|385:238|415:167,1,229.12498951149,4|0,0:0|0:0,0:0:0:0:
414,168,86974,2,0,P|453:109|398:62,1,152.74999300766
204,15,87229,6,0,B|135:48|135:48|135:124,1,152.74999300766,4|8,0:0|0:0,0:0:0:0:
159,384,87484,2,0,B|227:350|227:350|227:274,1,152.74999300766,0|8,0:0|0:0,0:0:0:0:
33,157,87740,2,0,B|66:225|66:225|160:225,1,152.74999300766,0|8,0:0|0:0,0:0:0:0:
340,225,87995,2,0,B|306:156|306:156|230:156,1,152.74999300766,0|8,0:0|0:0,0:0:0:0:
419,357,88250,5,0,0:0:0:0:
470,160,88378,1,8,0:0:0:0:
238,69,88506,5,0,0:0:0:0:
503,141,88633,1,8,0:0:0:0:
153,280,88761,6,0,B|103:277|68:237|61:186|91:139|126:126|126:126|146:93|133:44,1,264.375010085106
61,33,89016,5,0,0:0:0:0:
105,40,89080,1,0,0:0:0:0:
150,49,89144,1,0,0:0:0:0:
194,60,89208,1,0,0:0:0:0:
238,69,89272,6,0,P|340:26|417:210,1,305.49998601532,4|0,0:0|0:0,0:0:0:0:
348,336,89655,1,8,0:0:0:0:
173,196,89782,2,0,L|-9:215,1,152.74999300766,4|8,0:0|0:0,0:0:0:0:
191,373,90038,2,0,L|9:354,1,152.74999300766,0|8,0:0|0:0,0:0:0:0:
110,89,90293,6,0,P|179:63|251:106,1,152.74999300766,4|8,0:0|0:0,0:0:0:0:
478,127,90548,1,0,0:0:0:0:
315,28,90676,1,8,0:0:0:0:
351,325,90804,2,0,P|449:244|337:188,1,229.12498951149,4|0,0:0|0:0,0:0:0:0:
404,184,91059,2,0,P|335:158|263:201,1,152.74999300766,0|8,0:0|0:0,0:0:0:0:
0,197,91314,5,6,0:0:0:0:
62,333,91442,1,8,0:0:0:0:
206,350,91570,1,2,0:0:0:0:
280,277,91697,1,8,0:0:0:0:
135,107,91825,6,0,B|114:168|114:168|131:263,1,152.74999300766,2|8,0:0|0:0,0:0:0:0:
268,192,92080,2,0,B|289:131|289:131|272:36,1,152.74999300766,2|8,0:0|0:0,0:0:0:0:
181,17,92336,5,0,0:0:0:0:
475,115,92463,1,12,0:0:0:0:
416,26,92591,1,0,0:0:0:0:
231,107,92719,1,8,0:0:0:0:
394,266,92846,5,0,0:0:0:0:
332,108,92974,1,0,0:0:0:0:
497,143,93102,1,0,0:0:0:0:
396,182,93229,1,0,0:0:0:0:
396,182,93357,1,0,0:0:0:0:
270,14,93484,5,0,0:0:0:0:
308,227,93611,1,8,0:0:0:0:
97,267,93740,1,8,0:0:0:0:
59,51,93867,1,4,0:0:0:0:
59,51,94123,1,0,1:0:0:0:
59,51,94378,1,0,1:0:0:0:
14,222,94506,6,0,L|165:199,1,152.74999300766,8|8,0:0|0:0,0:0:0:0:
268,301,94760,1,0,0:0:0:0:
255,55,94889,5,0,0:0:0:0:
255,55,94953,1,0,0:0:0:0:
255,55,95016,1,0,0:0:0:0:
255,55,95080,1,0,0:0:0:0:
255,55,95144,6,0,B|251:25|224:0|224:0|160:53|179:116|242:139,1,229.12498951149,8|0,0:0|0:0,0:0:0:0:
255,171,95399,5,4,0:0:0:0:
143,331,95527,2,0,B|81:334|81:334|15:293,1,117.5,8|0,0:0|0:0,0:0:0:0:
338,227,95782,2,0,B|399:223|399:223|465:264,1,117.5,8|0,0:0|0:0,0:0:0:0:
106,233,96038,2,0,L|138:-21,1,235,8|8,0:0|0:0,0:0:0:0:
440,49,96421,6,0,B|500:33|539:114|472:164|383:150|304:45,1,281.999991394043,2|0,0:0|0:0,0:0:0:0:
106,233,96804,2,0,P|174:228|225:181,1,140.999995697022,10|0,0:0|0:0,0:0:0:0:
512,242,97059,2,0,P|443:246|392:293,1,140.999995697022,10|0,0:0|0:0,0:0:0:0:
172,342,97314,1,8,0:0:0:0:
134,133,97442,6,0,B|143:79|143:79|139:59|139:59|146:5,1,117.5,4|8,0:0|0:0,0:0:0:0:
329,74,97697,2,0,B|334:116|334:116|330:136|330:136|339:190,1,117.5,0|8,0:0|0:0,0:0:0:0:
172,342,97953,2,0,P|60:341|11:214,1,235
30,87,98336,1,8,0:0:0:0:
236,237,98463,5,2,0:0:0:0:
240,253,98527,1,0,0:0:0:0:
244,270,98591,1,8,0:0:0:0:
294,155,98719,1,0,0:0:0:0:
333,338,98846,1,8,0:0:0:0:
484,144,98974,5,2,0:0:0:0:
494,110,99038,1,0,0:0:0:0:
504,76,99102,1,8,0:0:0:0:
465,247,99229,1,0,0:0:0:0:
423,10,99357,1,8,0:0:0:0:
187,147,99484,5,4,0:0:0:0:
394,184,99612,2,0,L|509:158,1,117.5,8|0,0:0|0:0,0:0:0:0:
329,289,99867,1,8,0:0:0:0:
267,73,99996,2,0,P|220:38|135:51,1,117.5,0|8,0:0|0:0,0:0:0:0:
60,209,100250,2,0,P|106:174|191:187,1,117.5,0|8,0:0|0:0,0:0:0:0:
431,343,100506,6,0,B|357:294|277:350|308:350|236:398|163:338,1,281.999991394043,2|0,0:0|0:0,0:0:0:0:
284,45,100889,2,0,P|326:96|299:210,1,140.999995697022,10|0,0:0|0:0,0:0:0:0:
133,263,101144,1,10,0:0:0:0:
292,27,101272,2,0,P|336:80|331:189,1,140.999995697022,0|8,0:0|0:0,0:0:0:0:
55,205,101527,5,4,0:0:0:0:
17,117,101655,1,8,0:0:0:0:
107,78,101782,1,2,0:0:0:0:
146,171,101910,1,8,0:0:0:0:
403,86,102038,5,2,0:0:0:0:
221,12,102166,1,8,0:0:0:0:
147,191,102293,1,2,0:0:0:0:
325,269,102421,1,8,0:0:0:0:
339,0,102548,5,2,0:0:0:0:
216,282,102676,1,8,0:0:0:0:
239,36,102804,1,2,0:0:0:0:
313,237,102931,1,8,0:0:0:0:
215,126,103059,5,2,0:0:0:0:
355,157,103187,1,8,0:0:0:0:
200,123,103314,1,8,0:0:0:0:
153,131,103378,1,8,0:0:0:0:
117,163,103442,1,8,0:0:0:0:
108,210,103506,1,8,0:0:0:0:
113,257,103570,6,0,B|125:410,1,117.5,4|8,0:0|0:0,0:0:0:0:
12,144,103825,1,0,0:0:0:0:
212,236,103953,1,8,0:0:0:0:
186,22,104080,2,0,P|119:29|58:92,1,117.5,0|8,0:0|0:0,0:0:0:0:
210,250,104336,2,0,P|277:257|338:320,1,117.5,0|8,0:0|0:0,0:0:0:0:
512,30,104591,6,0,B|431:19|431:19|395:73|395:73|345:35|345:35|231:84,1,281.999991394043,2|0,0:0|0:0,0:0:0:0:
223,329,104974,2,0,B|357:285,1,140.999995697022,10|0,0:0|0:0,0:0:0:0:
167,50,105229,2,0,B|32:93,1,140.999995697022,10|0,0:0|0:0,0:0:0:0:
111,363,105484,1,8,0:0:0:0:
357,285,105612,6,0,L|363:136,1,117.5,4|8,0:0|0:0,0:0:0:0:
145,281,105867,1,0,0:0:0:0:
309,372,105995,2,0,P|376:381|428:343,1,117.5,8|0,0:0|0:0,0:0:0:0:
185,193,106250,2,0,P|117:183|65:221,1,117.5,8|0,0:0|0:0,0:0:0:0:
362,167,106506,1,8,0:0:0:0:
125,92,106633,5,2,0:0:0:0:
106,94,106697,1,0,0:0:0:0:
88,97,106761,1,8,0:0:0:0:
258,69,106889,1,0,0:0:0:0:
283,243,107016,1,8,0:0:0:0:
435,30,107144,5,2,0:0:0:0:
468,23,107208,1,0,0:0:0:0:
502,17,107272,1,8,0:0:0:0:
283,38,107399,1,0,0:0:0:0:
306,272,107527,1,8,0:0:0:0:
40,178,107655,5,4,0:0:0:0:
242,160,107782,2,0,P|290:151|342:92,1,117.5,8|0,0:0|0:0,0:0:0:0:
180,312,108038,2,0,P|131:303|79:244,1,117.5,8|0,0:0|0:0,0:0:0:0:
318,384,108293,1,8,0:0:0:0:
412,197,108421,2,0,P|469:209|508:252,1,117.5,0|8,0:0|0:0,0:0:0:0:
236,51,108676,6,0,B|219:22|192:11|192:11|115:3|36:61|14:170,1,281.999991394043,2|0,0:0|0:0,0:0:0:0:
327,263,109059,2,0,P|316:193|282:132,1,140.999995697022,10|0,0:0|0:0,0:0:0:0:
46,334,109314,2,0,P|111:359|181:360,1,140.999995697022,10|0,0:0|0:0,0:0:0:0:
345,245,109570,1,8,0:0:0:0:
93,99,109697,6,0,L|79:14,1,70.4999978485108,10|0,0:0|0:0,0:0:0:0:
233,32,109825,2,0,L|217:128,1,70.4999978485108,10|0,0:0|0:0,0:0:0:0:
32,179,109953,2,0,L|40:263,1,70.4999978485108,10|0,0:0|0:0,0:0:0:0:
253,262,110080,2,0,L|267:165,1,70.4999978485108,10|0,0:0|0:0,0:0:0:0:
359,38,110208,5,10,0:0:0:0:
407,46,110272,1,0,0:0:0:0:
447,74,110336,1,10,0:0:0:0:
471,116,110399,1,0,0:0:0:0:
477,165,110463,1,10,0:0:0:0:
466,213,110527,1,0,0:0:0:0:
452,260,110591,1,10,0:0:0:0:
441,308,110655,1,0,0:0:0:0:
420,352,110719,6,0,L|333:337,1,58.75,10|0,0:0|0:0,0:0:0:0:
148,224,110846,1,0,0:0:0:0:
165,222,110910,1,0,0:0:0:0:
182,220,110974,1,8,0:0:0:0:
199,217,111038,1,0,0:0:0:0:
216,214,111102,1,0,0:0:0:0:
233,213,111165,1,0,0:0:0:0:
250,210,111229,6,0,L|239:285,1,58.75,8|0,0:0|0:0,0:0:0:0:
168,128,111357,2,0,L|156:60,1,58.75
447,74,111484,5,0,0:0:0:0:
446,79,111548,1,0,0:0:0:0:
445,84,111612,1,0,0:0:0:0:
444,89,111676,1,0,0:0:0:0:
444,93,111740,6,0,L|318:76,1,94,4|0,0:0|0:0,0:0:0:0:
244,17,111995,1,8,0:0:0:0:
176,110,112123,1,0,0:0:0:0:
70,23,112250,1,0,0:0:0:0:
70,23,112378,2,0,L|91:231,1,188
57,363,112761,5,0,0:0:0:0:
121,288,112889,2,0,L|110:178,1,94,0|8,0:0|0:0,0:0:0:0:
263,364,113144,2,0,L|274:254,1,94
198,132,113399,1,0,0:0:0:0:
302,139,113527,1,8,0:0:0:0:
390,80,113655,1,0,0:0:0:0:
390,80,113782,5,0,0:0:0:0:
466,250,114038,1,8,0:0:0:0:
477,28,114293,1,0,0:0:0:0:
375,293,114548,1,8,0:0:0:0:
375,293,114676,1,0,0:0:0:0:
302,211,114804,5,4,1:0:0:0:
197,237,114931,1,0,1:0:0:0:
302,211,115059,1,0,1:0:0:0:
108,171,115187,5,0,0:0:0:0:
87,268,115314,1,0,0:0:0:0:
265,311,115442,5,0,1:0:0:0:
106,264,115570,1,0,1:0:0:0:
217,138,115697,1,0,1:0:0:0:
169,339,115825,6,0,P|123:362|54:349,1,94,4|2,0:0|0:0,0:0:0:0:
0,290,116080,2,0,L|27:72,1,188,8|0,0:0|0:0,0:0:0:0:
0,0,116463,1,0,0:0:0:0:
57,117,116591,1,8,0:0:0:0:
57,117,116719,1,0,0:0:0:0:
135,20,116846,6,0,P|183:11|240:15,1,94,2|0,0:0|0:0,0:0:0:0:
269,100,117102,1,8,0:0:0:0:
408,16,117229,2,0,P|391:62|359:109,1,94,2|0,0:0|0:0,0:0:0:0:
269,100,117484,1,0,0:0:0:0:
274,254,117612,2,0,P|242:216|217:165,1,94,10|0,0:0|0:0,0:0:0:0:
378,201,117867,5,4,0:0:0:0:
378,201,117995,1,0,0:0:0:0:
274,254,118123,2,0,L|56:225,1,188,8|2,0:0|0:0,0:0:0:0:
31,339,118506,1,0,0:0:0:0:
140,263,118633,1,8,0:0:0:0:
140,263,118761,1,0,0:0:0:0:
271,347,118889,5,8,0:0:0:0:
274,254,119016,1,0,1:0:0:0:
358,302,119144,1,0,1:0:0:0:
452,154,119272,5,0,1:0:0:0:
447,249,119400,1,0,1:0:0:0:
363,201,119527,1,0,1:0:0:0:
445,352,119655,5,0,1:0:0:0:
447,249,119782,1,0,1:0:0:0:
274,254,119910,6,0,P|284:197|286:142,1,94,4|0,0:0|0:0,0:0:0:0:
139,198,120165,1,8,0:0:0:0:
111,111,120293,1,0,0:0:0:0:
186,40,120421,1,0,0:0:0:0:
186,40,120548,2,0,L|394:22,1,188
476,116,120931,6,0,L|466:255,1,94
451,103,121187,1,8,0:0:0:0:
375,213,121314,2,0,L|391:332,1,94
220,346,121570,1,0,0:0:0:0:
191,251,121697,1,8,0:0:0:0:
278,182,121825,1,0,0:0:0:0:
278,182,121953,5,0,0:0:0:0:
79,211,122208,1,8,0:0:0:0:
255,11,122464,1,0,0:0:0:0:
50,45,122719,1,8,0:0:0:0:
326,92,122974,5,4,1:0:0:0:
312,189,123102,1,0,1:0:0:0:
297,287,123229,1,0,1:0:0:0:
403,142,123357,5,0,0:0:0:0:
477,211,123484,1,0,0:0:0:0:
297,287,123612,5,0,1:0:0:0:
231,124,123740,1,0,1:0:0:0:
112,246,123867,1,0,1:0:0:0:
150,68,123995,6,0,P|192:37|247:34,1,94,4|2,0:0|0:0,0:0:0:0:
341,3,124250,2,0,P|317:91|352:207,1,188,8|0,0:0|0:0,0:0:0:0:
407,296,124633,1,0,0:0:0:0:
478,177,124761,1,8,0:0:0:0:
478,177,124889,1,0,0:0:0:0:
337,183,125016,6,0,P|256:173|215:160,1,94,2|0,0:0|0:0,0:0:0:0:
157,233,125272,1,8,0:0:0:0:
209,86,125399,2,0,P|128:95|87:109,1,94,2|0,0:0|0:0,0:0:0:0:
30,41,125655,1,0,0:0:0:0:
55,188,125782,2,0,P|65:245|59:312,1,94,10|0,0:0|0:0,0:0:0:0:
212,357,126038,5,4,0:0:0:0:
212,357,126165,1,0,0:0:0:0:
186,260,126293,2,0,P|232:204|349:196,1,188,8|2,0:0|0:0,0:0:0:0:
401,270,126676,1,0,0:0:0:0:
487,157,126804,1,8,0:0:0:0:
487,157,126931,1,0,0:0:0:0:
279,95,127059,6,0,L|272:-19,1,94,6|0,0:0|0:0,0:0:0:0:
401,270,127314,2,0,L|503:320,1,94,2|0,0:0|0:0,0:0:0:0:
188,288,127570,2,0,L|92:351,1,94,2|0,0:0|0:0,0:0:0:0:
109,339,127825,1,0,0:0:0:0:
99,57,128080,6,0,B|163:14|216:42|197:50|257:74|321:28|321:28|281:178|281:178|291:223|291:223|249:388,1,587.5,6|0,0:0|0:0,0:0:0:0:
153,175,129484,2,0,L|168:107,1,47
310,27,129612,5,12,0:0:0:0:
332,62,129676,1,0,0:0:0:0:
331,98,129740,1,8,0:0:0:0:
321,131,129804,1,8,0:0:0:0:
306,153,129867,5,10,0:0:0:0:
40,320,130123,6,0,L|36:215,1,94,4|0,0:0|0:0,0:0:0:0:
235,89,130378,2,0,P|267:175|199:281,1,188,10|0,0:0|0:0,0:0:0:0:
65,242,130761,1,0,0:0:0:0:
249,71,130889,2,0,P|273:112|279:159,1,94,10|0,0:0|0:0,0:0:0:0:
331,290,131144,6,0,P|307:331|301:378,1,94,2|0,0:0|0:0,0:0:0:0:
502,193,131399,1,10,0:0:0:0:
421,112,131527,2,0,L|228:88,1,188
418,11,131910,2,0,L|553:-6,1,94,10|0,0:0|0:0,0:0:0:0:
399,213,132165,6,0,L|263:196,1,94,4|0,0:0|0:0,0:0:0:0:
92,134,132421,2,0,P|146:178|133:309,1,188,10|0,0:0|0:0,0:0:0:0:
19,360,132804,1,0,0:0:0:0:
114,124,132931,2,0,P|152:151|169:221,1,94,10|0,0:0|0:0,0:0:0:0:
270,384,133187,6,0,L|288:264,1,94,2|0,0:0|0:0,0:0:0:0:
227,88,133442,1,10,0:0:0:0:
327,16,133570,2,0,B|385:-2|429:44|401:49|444:97|511:68,1,188
355,212,133953,2,0,L|341:120,1,94,10|0,0:0|0:0,0:0:0:0:
477,277,134208,5,14,0:0:0:0:
455,169,134336,1,0,0:0:0:0:
271,316,134463,5,10,0:0:0:0:
375,351,134591,1,0,0:0:0:0:
340,119,134718,5,10,0:0:0:0:
257,191,134846,1,0,0:0:0:0:
93,38,134974,5,10,0:0:0:0:
93,38,135102,1,0,0:0:0:0:
170,263,135229,5,10,0:0:0:0:
43,136,135357,1,0,0:0:0:0:
269,217,135484,5,10,0:0:0:0:
70,233,135612,1,0,0:0:0:0:
268,106,135740,5,10,0:0:0:0:
170,263,135867,1,0,0:0:0:0:
211,29,135995,5,10,0:0:0:0:
211,29,136123,1,0,0:0:0:0:
264,326,136250,5,10,0:0:0:0:
459,273,136378,1,8,0:0:0:0:
469,231,136442,1,8,0:0:0:0:
478,189,136506,1,8,0:0:0:0:
342,49,136633,1,8,0:0:0:0:
246,227,136761,5,0,0:0:0:0:
270,125,136889,1,0,0:0:0:0:
369,151,137016,1,0,0:0:0:0:
343,252,137144,1,0,0:0:0:0:
165,160,137272,6,0,L|162:112,1,47,12|0,0:0|0:0,0:0:0:0:
250,243,137399,2,0,L|239:304,1,47
82,263,137527,5,8,0:0:0:0:
82,263,137591,1,8,0:0:0:0:
82,263,137655,2,0,L|161:254,1,47
270,125,137782,5,0,1:0:0:0:
269,114,137846,1,0,1:0:0:0:
268,104,137910,1,0,1:0:0:0:
267,94,137974,1,0,1:0:0:0:
266,87,138038,6,0,B|263:49|263:49|217:11|166:-2|90:21,1,211.499993545532,12|0,0:0|0:0,0:0:0:0:
25,98,138293,6,0,P|8:194|189:265,1,305.49998601532,4|0,0:0|0:0,0:0:0:0:
366,141,138676,1,8,0:0:0:0:
327,346,138804,1,4,0:0:0:0:
344,116,138931,1,8,0:0:0:0:
353,359,139059,2,0,P|285:388|216:358,1,152.74999300766,0|8,0:0|0:0,0:0:0:0:
276,52,139314,6,0,P|344:23|413:53,1,152.74999300766,4|8,0:0|0:0,0:0:0:0:
512,232,139570,1,0,0:0:0:0:
510,25,139697,1,8,0:0:0:0:
235,137,139825,2,0,B|141:120|141:120|93:134|93:134|-30:113,1,229.12498951149,4|0,0:0|0:0,0:0:0:0:
10,119,140080,2,0,P|-10:179|23:275,1,152.74999300766,0|8,0:0|0:0,0:0:0:0:
282,368,140336,5,4,0:0:0:0:
330,129,140463,1,8,0:0:0:0:
147,141,140591,1,0,0:0:0:0:
118,297,140719,1,8,0:0:0:0:
365,316,140846,6,0,B|464:329|464:329|508:298,1,152.74999300766,0|8,0:0|0:0,0:0:0:0:
353,222,141102,2,0,B|254:209|254:209|210:240,1,152.74999300766,0|8,0:0|0:0,0:0:0:0:
429,58,141357,5,0,0:0:0:0:
448,223,141484,1,8,0:0:0:0:
291,49,141612,5,0,0:0:0:0:
267,302,141740,1,8,0:0:0:0:
132,22,141867,6,0,B|73:96|128:153|149:123|193:185|138:266,1,264.375010085106,2|0,0:0|0:0,0:0:0:0:
104,335,142123,6,0,L|29:316,1,76.3749965038301
36,119,142250,2,0,L|110:99,1,76.3749965038301,8|8,0:0|0:0,0:0:0:0:
224,300,142378,6,0,B|290:332|290:332|294:220|397:184|466:234,1,305.49998601532,4|0,0:0|0:0,0:0:0:0:
512,384,142761,1,8,0:0:0:0:
503,118,142889,1,4,0:0:0:0:
503,118,143016,1,8,0:0:0:0:
309,206,143144,2,0,P|218:195|189:127,1,152.74999300766,0|8,0:0|0:0,0:0:0:0:
19,367,143399,6,0,P|109:356|138:288,1,152.74999300766,4|8,0:0|0:0,0:0:0:0:
114,57,143655,1,0,0:0:0:0:
383,258,143782,1,8,0:0:0:0:
383,258,143910,2,0,L|404:28,1,229.12498951149,4|0,0:0|0:0,0:0:0:0:
403,29,144165,2,0,P|311:36|280:103,1,152.74999300766,0|8,0:0|0:0,0:0:0:0:
42,273,144421,5,6,0:0:0:0:
181,363,144548,1,8,0:0:0:0:
309,344,144676,1,2,0:0:0:0:
383,258,144804,1,8,0:0:0:0:
267,0,144931,5,2,0:0:0:0:
198,85,145059,1,8,0:0:0:0:
217,182,145187,1,2,0:0:0:0:
284,230,145314,1,8,0:0:0:0:
487,57,145442,5,0,0:0:0:0:
402,353,145570,1,12,0:0:0:0:
471,276,145697,1,0,0:0:0:0:
405,121,145825,1,8,0:0:0:0:
499,365,145953,5,0,0:0:0:0:
499,365,146016,1,0,0:0:0:0:
499,365,146080,1,0,0:0:0:0:
381,260,146208,1,0,0:0:0:0:
510,176,146336,1,0,0:0:0:0:
485,270,146463,1,0,0:0:0:0:
212,169,146591,5,0,0:0:0:0:
246,350,146719,1,8,0:0:0:0:
346,67,146846,1,8,0:0:0:0:
52,110,146974,1,4,0:0:0:0:
52,110,147229,1,0,1:0:0:0:
52,110,147484,1,0,1:0:0:0:
251,3,147612,5,8,0:0:0:0:
226,266,147740,1,8,0:0:0:0:
156,108,147867,1,0,1:0:0:0:
103,347,147995,2,0,P|59:283|77:220,1,129.250003944397
373,162,148250,2,0,P|379:219|345:266,1,117.5
156,108,148506,6,0,L|316:95,1,140.999995697022,4|0,1:0|0:0,0:0:0:0:
345,22,148889,2,0,P|242:27|219:69,1,140.999995697022,0|0,1:0|0:0,0:0:0:0:
237,151,149272,1,0,1:0:0:0:
40,118,149527,5,12,0:0:0:0:
40,118,149655,2,0,L|30:270,1,140.999995697022
71,338,150038,2,0,L|64:256,1,70.4999978485108,0|0,1:0|0:0,0:0:0:0:
149,232,150293,1,0,1:0:0:0:
280,365,150548,6,0,P|351:354|438:348,1,140.999995697022,0|0,1:0|0:0,0:0:0:0:
499,282,150931,2,0,P|412:262|345:255,1,140.999995697022,0|0,1:0|0:0,0:0:0:0:
270,253,151314,2,0,L|261:166,1,70.4999978485108,0|0,1:0|1:0,0:0:0:0:
336,107,151570,6,0,L|485:101,1,140.999995697022,8|0,0:0|0:0,0:0:0:0:
320,83,151953,1,0,1:0:0:0:
259,269,152336,2,0,L|254:199,1,70.4999978485108,0|0,1:0|1:0,0:0:0:0:
219,100,152591,6,0,P|177:49|37:84,1,211.499993545532,4|0,1:0|0:0,0:0:0:0:
14,146,153102,2,0,L|29:300,1,140.999995697022,0|0,0:1|0:1,0:0:0:0:
209,350,153612,5,12,0:0:0:0:
209,350,153740,2,0,P|250:326|372:337,1,140.999995697022,0|0,1:0|0:0,0:0:0:0:
402,380,154123,1,0,1:0:0:0:
501,250,154378,1,0,1:0:0:0:
345,212,154633,6,0,L|360:60,1,140.999995697022,0|0,1:0|1:0,0:0:0:0:
452,10,155016,1,0,0:0:0:0:
452,10,155144,2,0,L|468:160,1,140.999995697022,0|0,1:0|1:0,0:0:0:0:
259,98,155655,5,8,0:0:0:0:
259,98,155782,2,0,P|215:98|161:77,1,70.4999978485108,0|2,0:0|0:0,0:0:0:0:
118,34,156038,1,0,0:0:0:0:
16,112,156165,5,8,0:0:0:0:
52,101,156250,1,8,0:0:0:0:
92,116,156336,1,8,0:0:0:0:
135,147,156421,5,0,0:0:0:0:
111,139,156506,1,0,0:0:0:0:
89,149,156591,1,0,0:0:0:0:
62,170,156676,6,0,L|74:395,2,211.499993545532,4|0|0,1:0|1:0|1:0,0:0:0:0:
158,344,157697,5,12,0:0:0:0:
158,344,157825,1,0,0:0:0:0:
230,306,157953,2,0,L|332:319,1,70.4999978485108,0|0,1:0|1:0,0:0:0:0:
394,338,158208,2,0,L|354:243,1,70.4999978485108,0|0,1:0|0:0,0:0:0:0:
334,179,158463,2,0,L|271:260,1,70.4999978485108,0|0,1:0|0:0,0:0:0:0:
417,204,158719,6,0,P|430:152|439:38,1,140.999995697022,0|0,1:0|0:0,0:0:0:0:
505,18,159102,2,0,P|414:28|338:28,1,140.999995697022,0|0,1:0|0:0,0:0:0:0:
286,2,159484,1,0,1:0:0:0:
79,95,159740,6,0,L|86:189,1,70.4999978485108,12|0,0:0|0:0,0:0:0:0:
148,231,159995,1,0,0:0:0:0:
147,259,160080,1,0,0:0:0:0:
145,287,160165,1,0,0:0:0:0:
163,315,160250,5,0,0:0:0:0:
181,161,160506,1,0,0:0:0:0:
251,343,160761,6,0,L|421:333,1,140.999995697022,4|0,1:0|1:0,0:0:0:0:
454,281,161144,1,0,1:0:0:0:
411,211,161272,2,0,L|249:195,1,140.999995697022,0|0,1:0|1:0,0:0:0:0:
428,10,161782,6,0,P|488:46|487:125,1,140.999995697022,8|0,0:0|0:0,0:0:0:0:
419,189,162165,1,0,0:0:0:0:
270,210,162293,1,8,0:0:0:0:
336,141,162421,1,8,0:0:0:0:
289,62,162548,2,0,L|199:44,1,70.4999978485108,8|2,0:0|0:0,0:0:0:0:
135,16,162804,6,0,L|142:178,1,140.999995697022,2|8,0:0|0:0,0:0:0:0:
57,200,163187,2,0,L|40:362,1,140.999995697022,2|8,0:0|0:0,0:0:0:0:
128,384,163570,1,2,0:0:0:0:
207,359,163697,1,0,0:0:0:0:
280,298,163825,5,8,0:0:0:0:
344,321,163953,1,0,0:0:0:0:
453,271,164080,5,0,0:0:0:0:
274,302,164208,1,0,0:0:0:0:
346,229,164336,1,0,0:0:0:0:
346,229,164399,1,0,0:0:0:0:
346,229,164463,1,0,0:0:0:0:
346,229,164527,1,0,0:0:0:0:
346,229,164591,1,0,0:0:0:0:
425,277,164719,1,0,0:0:0:0:
434,182,164846,6,0,L|446:75,1,94,4|0,0:0|0:0,0:0:0:0:
286,15,165102,2,0,L|298:113,1,94
346,229,165357,2,0,L|255:190,1,94,12|0,0:0|0:0,0:0:0:0:
129,173,165612,2,0,L|207:113,1,94
181,338,165867,5,0,0:0:0:0:
181,338,165931,1,0,0:0:0:0:
181,338,165995,1,0,0:0:0:0:
181,338,166059,1,0,0:0:0:0:
181,338,166123,1,0,0:0:0:0:
85,277,166250,1,0,0:0:0:0:
181,338,166378,2,0,L|295:320,1,94,12|0,0:0|0:0,0:0:0:0:
469,298,166633,2,0,L|369:279,1,94
285,224,166889,5,4,0:0:0:0:
387,182,167016,1,0,0:0:0:0:
285,224,167144,1,0,0:0:0:0:
195,166,167272,1,0,0:0:0:0:
228,72,167399,2,0,L|330:40,1,94,12|0,0:0|0:0,0:0:0:0:
76,21,167655,2,0,P|80:70|138:119,1,94
18,246,167910,5,0,0:0:0:0:
27,244,167974,1,0,0:0:0:0:
36,242,168038,1,0,0:0:0:0:
45,240,168102,1,0,0:0:0:0:
54,238,168165,1,0,0:0:0:0:
150,231,168293,1,0,0:0:0:0:
235,278,168421,1,12,0:0:0:0:
288,356,168548,1,0,0:0:0:0:
381,379,168676,1,0,0:0:0:0:
467,333,168804,1,0,0:0:0:0:
401,163,168931,6,0,L|386:371,1,188,6|0,0:0|0:0,0:0:0:0:
235,278,169314,1,0,0:0:0:0:
298,197,169442,2,0,P|295:148|259:96,1,94,12|0,0:0|0:0,0:0:0:0:
401,163,169697,2,0,P|403:114|439:62,1,94
279,62,169953,6,0,L|273:109,3,47
265,38,170208,2,0,P|215:20|166:19,1,94
95,135,170463,2,0,P|144:117|194:116,1,94,12|0,0:0|0:0,0:0:0:0:
298,197,170719,1,0,0:0:0:0:
298,197,170846,1,0,0:0:0:0:
139,326,170974,6,0,L|123:195,1,94
326,289,171229,2,0,L|314:402,1,94
126,308,171484,2,0,L|110:177,1,94,12|0,0:0|0:0,0:0:0:0:
345,283,171740,1,0,0:0:0:0:
213,234,171867,6,0,L|222:102,1,94
207,113,172059,1,0,0:0:0:0:
207,113,172123,2,0,L|203:49,1,47
72,21,172250,2,0,L|91:139,1,94
325,152,172506,5,8,0:0:0:0:
373,140,172591,1,0,0:0:0:0:
402,101,172676,1,0,0:0:0:0:
400,51,172761,1,0,0:0:0:0:
395,244,172889,1,0,0:0:0:0:
395,244,172953,1,0,0:0:0:0:
395,244,173016,6,0,B|528:231,1,117.5,12|0,0:0|0:0,0:0:0:0:
296,369,173272,2,0,B|163:356,1,117.5,8|0,0:0|0:0,0:0:0:0:
49,146,173527,5,10,0:0:0:0:
67,316,173655,1,0,0:0:0:0:
215,162,173782,2,0,L|232:37,1,117.5,10|0,0:0|0:0,0:0:0:0:
383,238,174038,6,0,L|396:370,1,117.5,10|0,0:0|0:0,0:0:0:0:
488,132,174293,1,10,0:0:0:0:
304,164,174421,2,0,L|288:298,1,117.5,0|10,0:0|0:0,0:0:0:0:
421,321,174676,1,0,0:0:0:0:
224,362,174804,2,0,P|191:296|202:244,1,117.5,10|0,0:0|0:0,0:0:0:0:
367,69,175059,5,14,0:0:0:0:
217,127,175187,1,0,0:0:0:0:
298,343,175314,5,10,0:0:0:0:
322,183,175442,1,0,0:0:0:0:
95,146,175569,5,10,0:0:0:0:
222,246,175697,1,0,0:0:0:0:
151,26,175825,5,10,0:0:0:0:
110,263,175953,2,0,L|92:390,1,117.5,0|10,0:0|0:0,0:0:0:0:
71,132,176208,1,0,0:0:0:0:
239,270,176336,2,0,L|259:145,1,117.5,10|0,0:0|0:0,0:0:0:0:
477,45,176591,5,10,0:0:0:0:
448,226,176719,1,0,0:0:0:0:
466,20,176846,5,10,0:0:0:0:
460,253,176974,1,0,0:0:0:0:
285,66,177102,6,0,B|216:51|216:51|114:137,1,140.999995697022,14|0,0:0|0:0,0:0:0:0:
354,327,177357,1,10,0:0:0:0:
383,114,177484,1,0,0:0:0:0:
254,368,177612,2,0,B|185:382|185:382|83:296,1,140.999995697022,10|0,0:0|0:0,0:0:0:0:
55,57,177867,6,0,L|74:184,1,70.4999978485108,10|0,0:0|0:0,0:0:0:0:
272,275,177995,2,0,L|290:191,1,70.4999978485108
383,114,178123,5,8,0:0:0:0:
338,107,178187,1,0,0:0:0:0:
293,100,178250,1,0,0:0:0:0:
247,93,178314,1,0,0:0:0:0:
197,88,178378,5,8,0:0:0:0:
131,336,178506,1,0,0:0:0:0:
468,213,178633,5,8,0:0:0:0:
494,166,178697,1,0,0:0:0:0:
496,109,178761,1,0,0:0:0:0:
476,58,178825,1,0,0:0:0:0:
436,18,178889,1,10,0:0:0:0:
503,380,179144,5,2,0:0:0:0:
16,17,179655,1,2,0:0:0:0:
502,240,180165,5,2,0:0:0:0:
31,141,180421,1,6,0:0:0:0:
512,88,180676,1,6,0:0:0:0:
0,295,180931,1,2,0:0:0:0:
256,192,181187,5,6,0:0:0:0:
256,192,181250,12,4,183740,0:0:0:0:
433,131,184250,5,8,0:0:0:0:
409,89,184314,1,8,0:0:0:0:
369,75,184378,1,0,0:0:0:0:
331,78,184442,1,0,0:0:0:0:
304,97,184506,1,0,0:0:0:0:
287,119,184570,1,0,0:0:0:0:
265,136,184633,1,0,0:0:0:0:
236,138,184697,1,0,0:0:0:0:
205,121,184761,5,0,0:0:0:0:
209,99,184825,1,0,0:0:0:0:
212,75,184889,1,0,0:0:0:0:
216,57,184953,1,0,0:0:0:0:
219,36,185016,1,0,0:0:0:0:
319,205,185144,1,0,0:0:0:0:
144,206,185272,6,0,B|84:208|84:208|52:154|73:93|142:55,1,235,4|2,0:0|0:0,0:0:0:0:
185,306,186293,5,0,0:0:0:0:
208,304,186378,1,0,0:0:0:0:
231,302,186463,1,0,0:0:0:0:
249,287,186548,1,8,0:0:0:0:
429,345,186804,5,0,0:0:0:0:
406,343,186889,1,0,0:0:0:0:
383,341,186974,1,0,0:0:0:0:
364,327,187059,2,0,L|355:254,1,58.75,8|2,0:0|0:0,0:0:0:0:
418,183,187314,6,0,L|463:188,4,29.375,2|2|2|2|2,0:0|0:0|0:0|0:0|0:0,0:0:0:0:
121,73,188336,5,8,0:0:0:0:
164,54,188421,1,8,0:0:0:0:
209,44,188506,1,8,0:0:0:0:
255,41,188591,1,8,0:0:0:0:
301,43,188676,1,8,0:0:0:0:
347,52,188761,1,8,0:0:0:0:
389,72,188846,1,8,0:0:0:0:
136,207,189357,5,4,0:0:0:0:
49,79,205697,5,4,0:0:0:0:
186,284,205825,1,0,0:0:0:0:
49,79,205953,2,0,B|107:5|190:22|239:102|227:236|75:149|79:265|98:315|98:315|107:297|89:240,1,470
483,359,206719,5,8,0:0:0:0:
483,359,206804,1,0,1:0:0:0:
483,359,206889,1,0,1:0:0:0:
483,359,206974,1,0,1:0:0:0:
319,336,207229,1,8,0:0:0:0:
319,336,207314,1,0,1:0:0:0:
319,336,207399,1,0,1:0:0:0:
319,336,207484,1,0,1:0:0:0:
451,48,207740,6,0,B|435:2|338:-21|262:16|256:122|256:122|288:97|338:110|351:143,1,352.5,2|0,0:0|0:0,0:0:0:0:
458,153,208250,1,8,0:0:0:0:
464,155,208336,1,0,1:0:0:0:
471,157,208421,1,0,1:0:0:0:
478,159,208506,1,0,1:0:0:0:
272,199,208761,5,10,0:0:0:0:
272,199,209016,1,0,0:0:0:0:
428,283,209272,1,8,0:0:0:0:
434,285,209357,1,0,0:0:0:0:
441,287,209442,1,0,0:0:0:0:
448,289,209528,1,0,0:0:0:0:
235,353,209782,5,8,0:0:0:0:
219,350,209867,1,0,0:0:0:0:
203,347,209953,1,0,0:0:0:0:
187,344,210038,1,0,0:0:0:0:
78,265,210293,1,8,0:0:0:0:
62,268,210378,1,0,0:0:0:0:
46,271,210464,1,0,0:0:0:0:
30,274,210549,1,0,0:0:0:0:
30,110,210804,5,8,0:0:0:0:
46,113,210889,1,0,0:0:0:0:
62,116,210975,1,0,0:0:0:0:
78,119,211060,1,0,0:0:0:0:
187,40,211315,1,8,0:0:0:0:
203,37,211400,1,0,0:0:0:0:
219,34,211484,1,0,0:0:0:0:
235,31,211571,1,0,0:0:0:0:
472,257,211825,6,0,B|493:209|493:209|450:86|300:111,1,282,2|0,0:0|0:0,0:0:0:0:
243,188,212336,1,8,0:0:0:0:
243,195,212421,1,0,0:0:0:0:
243,202,212506,1,0,0:0:0:0:
243,209,212591,1,0,0:0:0:0:
98,341,212846,5,8,0:0:0:0:
83,322,212931,1,0,0:0:0:0:
80,298,213016,1,0,0:0:0:0:
88,275,213102,1,0,0:0:0:0:
104,258,213187,1,0,0:0:0:0:
126,252,213272,1,0,0:0:0:0:
149,254,213357,1,2,0:0:0:0:
378,353,213867,5,4,0:0:0:0:
499,157,213995,1,0,0:0:0:0:
378,353,214123,2,0,B|323:324|314:259|341:198|341:198|393:239|420:298|532:270|568:166|463:128|417:186,1,470
84,44,214889,5,8,0:0:0:0:
84,44,214974,1,0,1:0:0:0:
84,44,215059,1,0,1:0:0:0:
84,44,215144,1,0,1:0:0:0:
247,42,215399,1,8,0:0:0:0:
247,42,215484,1,0,1:0:0:0:
247,42,215569,1,0,1:0:0:0:
247,42,215654,1,0,1:0:0:0:
499,157,215910,6,0,B|320:232|348:65|126:135,1,352.5,2|0,0:0|0:0,0:0:0:0:
44,219,216421,1,8,0:0:0:0:
45,226,216506,1,0,1:0:0:0:
45,233,216591,1,0,1:0:0:0:
46,240,216676,1,0,1:0:0:0:
45,106,216931,5,10,0:0:0:0:
45,106,217187,1,0,0:0:0:0:
142,268,217442,1,8,0:0:0:0:
143,275,217527,1,0,0:0:0:0:
143,282,217612,1,0,0:0:0:0:
144,289,217697,1,0,0:0:0:0:
391,271,217953,5,8,0:0:0:0:
376,265,218038,1,0,0:0:0:0:
360,263,218123,1,0,0:0:0:0:
344,266,218208,1,0,0:0:0:0:
433,190,218463,1,8,0:0:0:0:
448,184,218548,1,0,0:0:0:0:
464,182,218633,1,0,0:0:0:0:
480,185,218718,1,0,0:0:0:0:
306,131,218974,5,8,0:0:0:0:
291,125,219059,1,0,0:0:0:0:
275,123,219144,1,0,0:0:0:0:
259,126,219229,1,0,0:0:0:0:
348,50,219484,1,8,0:0:0:0:
363,44,219569,1,0,0:0:0:0:
379,42,219654,1,0,0:0:0:0:
395,45,219739,1,0,0:0:0:0:
139,17,219995,6,0,B|108:19|83:57|83:57|166:63|195:163|119:216,1,282,2|0,0:0|0:0,0:0:0:0:
43,294,220506,1,8,0:0:0:0:
32,309,220591,1,0,0:0:0:0:
29,327,220676,1,0,0:0:0:0:
30,345,220761,1,0,0:0:0:0:
353,361,221016,5,8,0:0:0:0:
395,327,221102,1,8,0:0:0:0:
414,279,221187,1,8,0:0:0:0:
408,228,221272,1,8,0:0:0:0:
377,187,221357,1,8,0:0:0:0:
330,168,221442,1,8,0:0:0:0:
280,173,221527,1,10,0:0:0:0:
48,319,222038,5,6,0:0:0:0:
82,338,222123,1,0,0:0:0:0:
120,335,222208,1,0,0:0:0:0:
145,306,222293,1,2,0:0:0:0:
148,275,222378,1,0,0:0:0:0:
141,245,222463,1,0,0:0:0:0:
122,220,222548,1,2,0:0:0:0:
103,206,222633,1,0,0:0:0:0:
80,200,222719,1,0,0:0:0:0:
56,204,222804,5,2,0:0:0:0:
38,153,222889,1,0,0:0:0:0:
54,101,222974,1,0,0:0:0:0:
116,58,223059,5,6,0:0:0:0:
161,70,223144,1,0,0:0:0:0:
187,109,223229,1,0,0:0:0:0:
209,151,223314,1,2,0:0:0:0:
239,176,223399,1,0,0:0:0:0:
278,178,223484,1,0,0:0:0:0:
315,166,223570,1,2,0:0:0:0:
331,140,223655,1,0,0:0:0:0:
331,109,223740,1,0,0:0:0:0:
318,81,223825,5,2,0:0:0:0:
365,55,223910,1,0,0:0:0:0:
417,70,223995,1,0,0:0:0:0:
476,119,224080,5,6,0:0:0:0:
473,174,224165,1,0,0:0:0:0:
432,211,224250,1,0,0:0:0:0:
376,211,224336,1,2,0:0:0:0:
333,231,224421,1,0,0:0:0:0:
317,276,224506,1,0,0:0:0:0:
312,324,224591,5,2,0:0:0:0:
249,329,224676,1,0,0:0:0:0:
198,292,224761,1,0,0:0:0:0:
174,243,224846,1,2,0:0:0:0:
125,219,224931,1,0,0:0:0:0:
71,231,225016,1,0,0:0:0:0:
33,309,225102,5,6,0:0:0:0:
101,297,225187,1,0,0:0:0:0:
139,238,225272,1,0,0:0:0:0:
153,169,225357,1,0,0:0:0:0:
136,101,225442,1,0,0:0:0:0:
96,44,225527,1,0,0:0:0:0:
23,77,225612,5,0,0:0:0:0:
23,77,225697,1,0,0:0:0:0:
23,77,225782,1,0,0:0:0:0:
23,77,225867,6,0,L|153:59,1,117.5,10|0,0:0|0:0,0:0:0:0:
302,257,226123,5,6,0:0:0:0:
316,78,226250,1,0,0:0:0:0:
302,265,226378,1,2,0:0:0:0:
315,71,226506,1,0,0:0:0:0:
190,259,226633,5,2,0:0:0:0:
308,156,226761,1,0,0:0:0:0:
411,275,226889,1,2,0:0:0:0:
291,376,227017,1,0,0:0:0:0:
208,114,227144,5,2,0:0:0:0:
421,116,227272,1,0,0:0:0:0:
209,107,227399,1,2,0:0:0:0:
421,124,227527,1,0,0:0:0:0:
291,384,227655,5,2,0:0:0:0:
149,255,227783,1,0,0:0:0:0:
307,148,227911,1,2,0:0:0:0:
453,277,228039,1,0,0:0:0:0:
311,45,228165,5,6,0:0:0:0:
295,226,228293,1,8,0:0:0:0:
299,267,228357,1,8,0:0:0:0:
303,308,228421,1,8,0:0:0:0:
93,317,228548,6,0,B|57:291|40:232|77:168|148:149|199:192|199:192|232:177|241:150,1,281.999991394043,4|0,0:0|0:0,0:0:0:0:
425,96,228931,2,0,P|350:92|307:13,1,140.999995697022,8|0,0:0|0:0,0:0:0:0:
210,372,229187,5,8,0:0:0:0:
210,372,229250,1,8,0:0:0:0:
210,372,229314,2,0,L|199:278,1,70.4999978485108
512,145,229442,1,8,0:0:0:0:
512,145,229505,1,8,0:0:0:0:
512,145,229569,2,0,L|501:239,1,70.4999978485108
330,369,229697,5,0,0:0:0:0:
362,228,229825,1,0,0:0:0:0:
286,165,229953,1,0,0:0:0:0:
319,16,230080,1,0,0:0:0:0:
402,303,230208,6,0,B|336:300|336:300|304:283|304:283|179:277,1,164.499994979859,6|8,0:0|0:0,0:0:0:0:
39,83,230463,1,2,0:0:0:0:
3,295,230591,1,8,0:0:0:0:
39,83,230719,6,0,B|105:80|105:80|137:63|137:63|262:57,1,164.499994979859,2|8,0:0|0:0,0:0:0:0:
360,342,230974,1,2,0:0:0:0:
400,117,231102,1,8,0:0:0:0:
85,249,231229,5,2,0:0:0:0:
388,219,231357,1,8,0:0:0:0:
124,63,231484,1,2,0:0:0:0:
243,345,231612,1,8,0:0:0:0:
322,32,231740,6,0,P|241:29|223:135,1,164.499994979859,2|8,0:0|0:0,0:0:0:0:
490,344,231995,2,0,L|505:58,1,246.749992469788,2|0,0:0|0:0,0:0:0:0:
447,17,232250,5,2,0:0:0:0:
325,312,232378,1,8,0:0:0:0:
124,63,232506,1,2,0:0:0:0:
443,219,232633,5,8,0:0:0:0:
178,241,232761,1,2,0:0:0:0:
288,1,232889,1,8,0:0:0:0:
330,314,233016,5,2,0:0:0:0:
250,99,233144,1,8,0:0:0:0:
487,156,233272,5,2,0:0:0:0:
261,195,233399,1,8,0:0:0:0:
460,289,233527,1,2,0:0:0:0:
361,95,233655,1,8,0:0:0:0:
327,328,233782,1,2,0:0:0:0:
363,79,233910,1,8,0:0:0:0:
103,84,234038,5,10,0:0:0:0:
52,111,234102,1,8,0:0:0:0:
23,159,234165,1,8,0:0:0:0:
20,216,234229,1,8,0:0:0:0:
46,267,234293,6,0,B|63:307|99:318|99:318|179:313|274:248|261:141,1,328.999989959717,2|2,0:0|0:0,0:0:0:0:
497,63,234676,1,8,0:0:0:0:
468,352,234804,2,0,P|389:373|316:263,1,164.499994979859,2|8,0:0|0:0,0:0:0:0:
197,63,235059,2,0,P|279:42|352:152,1,164.499994979859,2|8,0:0|0:0,0:0:0:0:
54,296,235314,6,0,P|4:231|13:117,1,164.499994979859,2|8,0:0|0:0,0:0:0:0:
278,4,235570,1,2,0:0:0:0:
221,302,235697,1,8,0:0:0:0:
512,208,235825,6,0,B|466:162|466:162|363:174,1,164.499994979859,2|8,0:0|0:0,0:0:0:0:
28,153,236080,2,0,B|74:199|74:199|177:187,1,164.499994979859,2|8,0:0|0:0,0:0:0:0:
393,296,236336,5,2,0:0:0:0:
395,279,236399,1,0,0:0:0:0:
397,262,236463,1,8,0:0:0:0:
398,245,236527,1,0,0:0:0:0:
372,224,236591,5,2,0:0:0:0:
370,207,236655,1,0,0:0:0:0:
368,190,236719,1,8,0:0:0:0:
367,173,236782,1,0,0:0:0:0:
401,151,236846,5,2,0:0:0:0:
449,159,236909,1,0,0:0:0:0:
484,124,236973,1,8,0:0:0:0:
491,75,237037,1,0,0:0:0:0:
467,30,237102,6,0,L|343:12,1,82.2499974899293,2|0,0:0|0:0,0:0:0:0:
151,159,237229,2,0,L|268:145,1,82.2499974899293,8|0,0:0|0:0,0:0:0:0:
480,336,237357,5,2,0:0:0:0:
428,376,237421,1,2,0:0:0:0:
364,378,237484,1,10,0:0:0:0:
313,337,237548,1,2,0:0:0:0:
297,274,237612,1,2,0:0:0:0:
247,232,237676,1,2,0:0:0:0:
183,247,237740,1,10,0:0:0:0:
149,303,237804,1,2,0:0:0:0:
156,367,237867,6,0,B|206:383|251:349|228:353|270:310|364:351,1,164.499994979859,2|8,0:0|0:0,0:0:0:0:
329,144,238123,1,0,0:0:0:0:
33,116,238250,1,0,0:0:0:0:
33,116,238314,1,0,0:0:0:0:
33,116,238378,6,0,B|93:184|180:194|273:68|133:15|51:57|21:196|54:258|54:258|106:208|182:240|192:286,1,587.5,4|0,0:0|0:0,0:0:0:0:
441,364,239910,1,2,0:0:0:0:
441,364,239974,1,0,0:0:0:0:
441,364,240038,1,0,0:0:0:0:
441,364,240102,1,0,0:0:0:0:
441,364,240165,5,10,0:0:0:0:
440,70,240421,6,0,P|444:109|443:170,1,94,4|0,0:0|0:0,0:0:0:0:
242,41,240676,2,0,L|444:56,1,188,10|0,0:0|0:0,0:0:0:0:
367,230,241059,1,0,0:0:0:0:
237,21,241187,2,0,L|342:30,1,94,10|0,0:0|0:0,0:0:0:0:
247,212,241442,6,0,P|209:176|216:103,1,94,2|0,0:0|0:0,0:0:0:0:
6,58,241697,1,10,0:0:0:0:
117,0,241825,2,0,P|110:69|96:206,1,188
169,381,242208,2,0,L|163:279,1,94,10|0,0:0|0:0,0:0:0:0:
292,35,242463,6,0,L|297:166,1,94,4|0,0:0|0:0,0:0:0:0:
446,268,242719,2,0,P|473:200|392:139,1,188,10|0,0:0|0:0,0:0:0:0:
273,237,243102,1,0,0:0:0:0:
429,363,243229,2,0,P|466:362|523:316,1,94,10|0,0:0|0:0,0:0:0:0:
306,149,243484,6,0,L|190:130,1,94,2|0,0:0|0:0,0:0:0:0:
115,345,243740,1,10,0:0:0:0:
29,245,243867,2,0,P|15:158|119:117,1,188
304,112,244250,2,0,L|433:104,1,94,10|0,0:0|0:0,0:0:0:0:
502,320,244506,5,14,0:0:0:0:
335,256,244633,1,0,0:0:0:0:
402,81,244761,5,10,0:0:0:0:
430,257,244888,1,0,0:0:0:0:
245,286,245017,5,10,0:0:0:0:
384,174,245144,1,0,0:0:0:0:
292,376,245272,5,10,0:0:0:0:
292,376,245399,1,0,0:0:0:0:
12,309,245527,5,10,0:0:0:0:
171,228,245654,1,0,0:0:0:0:
86,61,245782,5,10,0:0:0:0:
77,239,245909,1,0,0:0:0:0:
264,249,246038,5,10,0:0:0:0:
114,152,246165,1,0,0:0:0:0:
198,367,246293,5,10,0:0:0:0:
198,367,246421,1,0,0:0:0:0:
311,64,246548,6,0,B|258:38|258:38|190:59,1,117.5,14|0,0:0|0:0,0:0:0:0:
198,367,246804,2,0,B|253:385|253:385|306:359,1,117.5,10|0,0:0|0:0,0:0:0:0:
74,157,247059,6,0,B|48:210|48:210|69:278,1,117.5,10|0,0:0|0:0,0:0:0:0:
429,262,247315,2,0,B|446:207|446:207|420:154,1,117.5,10|0,0:0|0:0,0:0:0:0:
261,219,247570,5,0,0:0:0:0:
261,219,247633,1,0,0:0:0:0:
261,219,247697,1,0,0:0:0:0:
192,276,247825,1,0,0:0:0:0:
193,154,247953,1,0,0:0:0:0:
325,161,248080,1,0,0:0:0:0:
325,161,248144,1,0,0:0:0:0:
325,161,248208,1,0,0:0:0:0:
326,279,248336,1,0,0:0:0:0:
79,85,248591,5,8,0:0:0:0:
439,89,248974,1,8,0:0:0:0:
250,384,249357,1,8,0:0:0:0:
255,192,249612,5,8,0:0:0:0:
255,192,249697,1,0,0:0:0:0:
255,192,249782,1,0,0:0:0:0:
255,192,249867,1,0,0:0:0:0:
255,192,249953,1,0,0:0:0:0:
255,192,250038,1,0,0:0:0:0:
255,192,250123,1,8,0:0:0:0:
478,341,250378,6,0,L|294:323,1,141
257,384,250633,6,0,B|218:298|218:298|252:82,1,305.49998601532,4|0,0:0|0:0,0:0:0:0:
131,33,251016,1,8,0:0:0:0:
388,21,251144,1,4,0:0:0:0:
132,63,251272,1,8,0:0:0:0:
342,231,251399,2,0,L|503:215,1,152.74999300766,0|8,0:0|0:0,0:0:0:0:
172,309,251655,6,0,L|11:293,1,152.74999300766,4|8,0:0|0:0,0:0:0:0:
131,33,251910,1,0,0:0:0:0:
4,202,252038,1,8,0:0:0:0:
269,360,252165,2,0,B|304:303|251:232|244:260|198:220|235:132,1,229.12498951149,4|0,0:0|0:0,0:0:0:0:
229,149,252421,2,0,P|236:79|327:49,1,152.74999300766,0|8,0:0|0:0,0:0:0:0:
512,267,252676,5,4,0:0:0:0:
357,373,252804,1,8,0:0:0:0:
178,321,252931,1,0,0:0:0:0:
134,211,253059,1,8,0:0:0:0:
426,2,253187,5,0,0:0:0:0:
463,105,253314,1,8,0:0:0:0:
436,194,253442,1,0,0:0:0:0:
367,238,253570,1,8,0:0:0:0:
142,118,253697,5,0,0:0:0:0:
436,194,253825,1,8,0:0:0:0:
110,232,253953,5,0,0:0:0:0:
453,80,254080,1,8,0:0:0:0:
75,36,254208,6,0,B|37:62|37:62|46:131|154:168|255:84,1,264.375010085106,2|0,0:0|0:0,0:0:0:0:
308,85,254463,2,0,L|286:176,1,76.3749965038301
205,371,254591,2,0,L|187:296,1,76.3749965038301,8|0,0:0|0:0,0:0:0:0:
476,233,254719,6,0,B|371:203|371:203|315:250|315:250|186:213,1,305.49998601532,4|0,0:0|0:0,0:0:0:0:
0,110,255102,1,8,0:0:0:0:
101,293,255229,1,4,0:0:0:0:
207,111,255357,1,8,0:0:0:0:
75,36,255484,2,0,L|50:197,1,152.74999300766,0|8,0:0|0:0,0:0:0:0:
333,384,255740,6,0,L|308:223,1,152.74999300766,4|8,0:0|0:0,0:0:0:0:
511,47,255995,1,0,0:0:0:0:
435,269,256123,1,8,0:0:0:0:
214,11,256250,2,0,P|328:13|366:128,1,229.12498951149,4|0,0:0|0:0,0:0:0:0:
371,107,256506,2,0,L|346:268,1,152.74999300766,0|8,0:0|0:0,0:0:0:0:
89,358,256761,5,6,0:0:0:0:
63,206,256889,1,8,0:0:0:0:
193,139,257016,1,2,0:0:0:0:
214,11,257144,1,8,0:0:0:0:
441,329,257272,5,2,0:0:0:0:
317,350,257399,1,8,0:0:0:0:
266,275,257527,1,2,0:0:0:0:
180,258,257655,1,8,0:0:0:0:
299,0,257782,5,0,0:0:0:0:
371,289,257910,1,12,0:0:0:0:
467,205,258038,1,0,0:0:0:0:
221,106,258165,1,8,0:0:0:0:
481,50,258293,6,0,B|501:83|501:83|493:121,2,78.3333333333333
391,31,258548,1,0,0:0:0:0:
291,164,258676,1,0,0:0:0:0:
390,133,258804,1,0,0:0:0:0:
141,59,258931,5,8,0:0:0:0:
377,114,259059,1,8,0:0:0:0:
321,354,259187,1,0,0:0:0:0:
85,299,259315,1,4,0:0:0:0:
85,299,259570,1,0,1:1:0:0:
85,299,259825,1,0,0:0:0:0:
82,165,259953,5,8,0:0:0:0:
297,377,260080,1,8,0:0:0:0:
286,226,260208,1,8,0:0:0:0:
512,169,260336,5,4,0:0:0:0:
77,184,260591,1,0,1:0:0:0:
479,29,260846,6,0,B|414:-8|348:20|321:63|321:63|332:81|332:81|265:158|174:168|108:127|84:1|212:-13|251:7|251:66,1,575.749982429505,6|0,0:0|0:0,0:0:0:0:
413,131,261867,5,8,0:0:0:0:
410,163,261931,1,8,0:0:0:0:
407,195,261995,1,8,0:0:0:0:
311,285,262123,1,8,0:0:0:0:
184,234,262250,1,8,0:0:0:0:
325,375,262378,5,8,0:0:0:0:
291,159,262506,1,8,0:0:0:0:
326,384,262633,1,8,0:0:0:0:
290,153,262761,1,8,0:0:0:0:
77,353,262889,6,0,P|39:275|82:191,1,164.499994979859,6|2,1:0|1:0,0:0:0:0:
163,142,263229,1,0,1:0:0:0:
163,142,263314,1,0,1:0:0:0:
163,142,263399,2,0,L|-9:126,2,164.499994979859,10|2|10,1:0|1:0|0:0,0:0:0:0:
242,47,264165,5,2,1:0:0:0:
323,92,264421,1,2,0:0:0:0:
344,91,264506,1,0,0:0:0:0:
365,89,264591,1,0,0:0:0:0:
386,89,264676,1,10,0:0:0:0:
409,303,264931,6,0,P|447:225|404:141,1,164.499994979859,6|2,1:0|1:0,0:0:0:0:
323,92,265271,1,0,1:0:0:0:
323,92,265356,1,0,1:0:0:0:
323,92,265442,2,0,L|491:74,2,164.499994979859,10|2|10,1:0|1:0|0:0,0:0:0:0:
198,41,266208,5,2,1:0:0:0:
56,135,266463,2,0,B|48:193|48:193|80:221|80:221|86:291,1,156.666666666667,14|0,0:0|0:0,0:0:0:0:
47,357,266719,5,2,1:0:0:0:
92,367,266804,1,0,1:0:0:0:
135,350,266889,1,0,1:0:0:0:
208,309,266974,6,0,L|412:320,1,164.499994979859,14|2,0:0|1:0,0:0:0:0:
454,366,267313,1,0,1:0:0:0:
454,366,267399,1,0,1:0:0:0:
454,366,267484,2,0,P|385:328|385:216,2,164.499994979859,10|2|10,1:0|1:0|0:0,0:0:0:0:
482,258,268250,5,2,1:0:0:0:
426,153,268506,1,2,1:0:0:0:
408,140,268591,1,0,1:0:0:0:
386,135,268676,1,0,1:0:0:0:
364,138,268761,1,10,0:0:0:0:
254,187,269016,6,0,L|50:198,1,164.499994979859,6|2,1:0|1:0,0:0:0:0:
8,244,269357,1,0,1:0:0:0:
8,244,269441,1,0,1:0:0:0:
8,244,269526,2,0,P|77:206|77:94,1,164.499994979859,10|2,1:0|1:0,0:0:0:0:
212,36,270038,6,0,L|359:41,1,141,6|0,0:0|0:0,0:0:0:0:
345,56,270293,6,0,L|221:49,1,123.374996234894,6|0,0:0|0:0,0:0:0:0:
233,66,270548,6,0,L|351:72,1,105.749996772766,6|0,0:0|0:0,0:0:0:0:
330,83,270804,6,0,L|223:78,1,88.125,6|0,0:0|0:0,0:0:0:0:
186,154,271059,6,0,B|159:210|159:210|177:322,1,164.499994979859,6|2,1:0|1:0,0:0:0:0:
277,336,271399,1,0,1:0:0:0:
277,336,271484,1,0,1:0:0:0:
277,336,271570,2,0,L|485:344,2,164.499994979859,10|2|10,1:0|1:0|0:0,0:0:0:0:
287,210,272336,5,2,1:0:0:0:
428,229,272591,1,2,1:0:0:0:
425,207,272676,1,0,1:0:0:0:
421,185,272761,1,0,1:0:0:0:
418,163,272846,1,10,0:0:0:0:
287,210,273102,6,0,B|314:154|314:154|296:42,1,164.499994979859,6|2,1:0|1:0,0:0:0:0:
196,28,273442,1,0,1:0:0:0:
196,28,273527,1,0,1:0:0:0:
196,28,273613,2,0,L|-12:20,2,164.499994979859,10|2|10,1:0|1:0|0:0,0:0:0:0:
159,150,274378,5,2,1:0:0:0:
36,318,274633,2,0,B|75:327|75:327|107:305|107:305|140:320|140:320|201:293,1,156.666666666667,14|0,0:0|0:0,0:0:0:0:
248,227,274889,5,2,1:0:0:0:
272,266,274974,1,0,1:0:0:0:
274,312,275059,1,0,1:0:0:0:
341,369,275144,6,0,L|509:359,1,164.499994979859,14|2,0:0|1:0,0:0:0:0:
446,284,275484,1,0,1:0:0:0:
446,284,275570,1,0,1:0:0:0:
446,284,275655,2,0,P|379:233|394:158,2,164.499994979859,10|2|10,1:0|1:0|0:0,0:0:0:0:
272,266,276421,5,2,1:0:0:0:
242,167,276676,1,2,1:0:0:0:
242,145,276761,1,0,1:0:0:0:
242,123,276846,1,0,1:0:0:0:
242,101,276931,1,10,0:0:0:0:
165,24,277187,6,0,L|-3:34,1,164.499994979859,6|2,1:0|1:0,0:0:0:0:
43,121,277527,1,0,1:0:0:0:
43,121,277613,1,0,1:0:0:0:
43,121,277698,2,0,P|110:172|95:247,1,164.499994979859,10|2,1:0|1:0,0:0:0:0:
54,356,278208,5,8,0:0:0:0:
46,310,278293,1,8,0:0:0:0:
61,270,278378,1,8,0:0:0:0:
98,243,278463,5,0,0:0:0:0:
89,278,278548,1,0,0:0:0:0:
101,315,278633,1,0,0:0:0:0:
128,331,278719,5,0,0:0:0:0:
146,328,278804,1,0,0:0:0:0:
162,325,278889,1,0,0:0:0:0:
186,309,278974,5,0,0:0:0:0:
204,312,279059,1,0,0:0:0:0:
220,315,279144,1,0,0:0:0:0:
243,335,279229,6,0,B|329:386|475:384|608:249|524:122|484:82|346:80|305:177|313:248,1,646.25,6|0,0:0|0:0,0:0:0:0:
188,225,280761,5,2,1:0:0:0:
188,225,280889,1,0,1:0:0:0:
188,225,281016,1,0,1:0:0:0:
156,128,281144,1,0,1:0:0:0:
