osu file format v14

[General]
AudioFilename: audio.ogg
AudioLeadIn: 0
PreviewTime:54938
Countdown: 0
SampleSet: Soft
StackLeniency: 0.7
Mode: 0
LetterboxInBreaks: 0
WidescreenStoryboard: 1

[Editor]
DistanceSpacing: 1
BeatDivisor: 4
GridSize: 32
TimelineZoom: 1.500001

[Metadata]
Title:Senketsu no Chikai (TV Size)
TitleUnicode:鮮血の誓い (TV Size)
Artist:Yousei Teikoku
ArtistUnicode:妖精帝國
Creator:Kuki1537
Version:Normal
Source:錬金3級 まじかる?ぽか~ん
Tags:magipoka まじぽか renkin sankyu sankyuu 3-kyuu magical magical? pokan pokaan anime japanese metal yui itsuki female vocal vocalist pop j-pop jpop rock j-rock jrock Venix chaser01 PeterEU Peter MajK00 EnuHQ Krfawy San-kyuu opening op kyū pokān
BeatmapID:4138112
BeatmapSetID:1991635

[Difficulty]
HPDrainRate:3
CircleSize:3.8
OverallDifficulty:4
ApproachRate:6
SliderMultiplier:1.1
SliderTickRate:1

[Events]
//Background and Video events
0,0,"fgyjfgjfgjh.jpg",0,0
//Break Periods
//Storyboard Layer 0 (Background)
//Storyboard Layer 1 (Fail)
//Storyboard Layer 2 (Pass)
//Storyboard Layer 3 (Foreground)
//Storyboard Layer 4 (Overlay)
//Storyboard Sound Samples

[TimingPoints]
355,333.333333333333,4,2,27,50,1,0
11854,-100,4,2,27,75,0,0
23021,-111.111111111111,4,2,27,60,0,0
33688,-111.111111111111,4,2,27,70,0,0
44354,-111.111111111111,4,2,27,60,0,0
54354,-111.111111111111,4,2,27,70,0,0
55021,-100,4,2,27,80,0,0
87021,-100,4,2,27,70,0,0

[Colours]
Combo1 : 179,222,255
Combo2 : 242,255,151
Combo3 : 176,194,255
Combo4 : 255,203,164

[HitObjects]
55,46,11854,5,2,0:0:0:0:
55,46,12021,2,0,L|68:100,1,55,2|2,3:2|0:0,0:0:0:0:
107,138,12354,2,0,L|79:270,1,110,6|10,1:2|0:0,0:0:0:0:
44,282,12854,1,0,0:0:0:0:
44,282,13021,2,0,P|64:331|123:354,1,110,2|8,0:0|0:0,0:0:0:0:
223,350,13688,2,0,P|261:332|338:349,1,110,2|8,1:2|0:0,0:0:0:0:
371,374,14188,2,0,L|391:262,1,110,2|2,0:0|1:2,0:0:0:0:
425,223,14688,1,10,0:0:0:0:
458,118,15021,6,0,L|516:131,2,55,2|2|10,1:2|1:2|0:0,0:0:0:0:
432,75,15521,1,2,1:2:0:0:
432,75,15688,2,0,P|398:43|320:37,1,110,2|8,0:0|0:0,0:0:0:0:
236,75,16354,2,0,L|249:134,1,55,2|0,1:2|1:0,0:0:0:0:
296,165,16688,1,8,0:0:0:0:
296,165,16854,2,0,L|273:280,1,110,2|2,0:0|1:2,0:0:0:0:
262,326,17354,1,10,0:0:0:0:
155,355,17688,6,0,P|92:369|44:346,1,110,6|8,1:2|0:0,0:0:0:0:
12,321,18188,1,0,0:0:0:0:
12,321,18354,2,0,L|32:208,1,110,2|10,0:0|0:0,0:0:0:0:
121,149,19021,2,0,P|106:103|46:81,1,110,2|8,1:2|0:0,0:0:0:0:
17,37,19521,2,0,L|134:12,1,110,2|2,0:0|1:2,0:0:0:0:
178,0,20021,1,10,0:0:0:0:
261,71,20354,6,0,B|310:94|310:94|377:83,1,110,2|10,1:2|0:0,0:0:0:0:
412,56,20854,1,2,1:2:0:0:
412,56,21021,1,2,0:0:0:0:
486,136,21354,2,0,L|471:200,1,55,8|8,0:0|0:0,0:0:0:0:
497,239,21688,2,0,B|428:221|428:221|393:274|325:267,2,165,6|2|2,1:2|1:2|1:2,0:0:0:0:
462,331,23021,6,0,P|419:357|360:374,1,98.9999969787598,6|8,1:2|0:0,0:0:0:0:
274,362,23688,2,0,P|231:336|172:319,1,98.9999969787598,2|8,0:0|0:0,0:0:0:0:
248,245,24354,1,2,1:2:0:0:
232,151,24688,1,10,0:0:0:0:
232,151,24854,2,0,P|214:88|187:40,1,98.9999969787598,2|0,0:0|1:0,0:0:0:0:
171,16,25354,1,10,0:0:0:0:
71,20,25688,6,0,P|89:83|116:131,1,98.9999969787598,2|8,1:2|0:0,0:0:0:0:
41,189,26354,2,0,P|28:236|7:281,1,98.9999969787598,2|8,0:0|0:0,0:0:0:0:
64,363,27021,2,0,P|92:338|169:335,1,98.9999969787598,2|10,1:2|0:0,0:0:0:0:
196,308,27521,1,2,0:0:0:0:
278,371,27854,1,0,1:0:0:0:
278,371,28021,1,8,0:0:0:0:
366,326,28354,6,0,L|386:229,1,98.9999969787598,2|8,1:2|0:0,0:0:0:0:
476,184,29021,2,0,L|500:69,1,98.9999969787598,2|8,0:0|0:0,0:0:0:0:
429,13,29688,2,0,P|405:45|336:58,1,98.9999969787598,2|10,1:2|0:0,0:0:0:0:
304,79,30188,2,0,P|280:47|211:34,1,98.9999969787598,2|0,0:0|1:0,0:0:0:0:
181,55,30688,1,10,0:0:0:0:
125,136,31021,6,0,L|147:249,2,98.9999969787598,2|8|0,1:2|0:0|0:0,0:0:0:0:
38,87,32021,1,8,0:0:0:0:
103,12,32354,2,0,P|157:14|209:48,1,98.9999969787598,2|8,1:2|0:0,0:0:0:0:
282,82,33021,2,0,P|318:75|336:65,2,49.4999984893799,0|0|8,0:0|1:0|0:0,0:0:0:0:
198,135,33688,6,0,P|144:150|106:186,1,98.9999969787599,6|8,1:2|0:0,0:0:0:0:
174,254,34354,2,0,P|209:266|233:266,1,49.4999984893799,2|0,0:0|1:0,0:0:0:0:
270,257,34688,1,8,0:0:0:0:
352,204,35021,2,0,L|456:227,1,98.9999969787598,2|8,1:2|0:0,0:0:0:0:
479,264,35521,2,0,L|456:368,1,98.9999969787598,2|0,0:0|1:0,0:0:0:0:
410,377,36021,1,10,0:0:0:0:
311,377,36354,6,0,P|271:362|203:360,1,98.9999969787599,2|8,1:2|0:0,0:0:0:0:
116,356,37021,2,0,L|126:305,1,49.4999984893799,2|0,0:0|1:0,0:0:0:0:
160,272,37354,1,8,0:0:0:0:
196,181,37688,2,0,L|184:128,1,49.4999984893799,2|0,1:2|1:0,0:0:0:0:
211,90,38021,1,10,0:0:0:0:
211,90,38188,2,0,P|173:93|114:44,1,98.9999969787598,2|0,0:0|1:0,0:0:0:0:
94,20,38688,1,8,0:0:0:0:
3,60,39021,6,0,L|25:171,1,98.9999969787598,2|8,1:2|0:0,0:0:0:0:
100,218,39688,2,0,L|91:268,1,49.4999984893799,2|0,0:0|1:0,0:0:0:0:
61,306,40021,1,8,0:0:0:0:
125,382,40354,2,0,P|165:351|229:350,1,98.9999969787598,2|8,1:2|0:0,0:0:0:0:
246,382,40854,2,0,L|356:359,1,98.9999969787598,2|0,0:0|1:0,0:0:0:0:
389,345,41354,1,10,0:0:0:0:
432,255,41688,6,0,P|473:265|515:309,2,98.9999969787598,2|8|2,1:2|0:0|0:0,0:0:0:0:
396,229,42521,1,2,1:2:0:0:
396,229,42688,1,10,0:0:0:0:
320,164,43021,2,0,L|302:62,1,98.9999969787598,2|8,1:2|0:0,0:0:0:0:
302,16,43521,2,0,P|253:20|187:36,1,98.9999969787599,2|0,0:0|1:0,0:0:0:0:
166,63,44021,1,10,0:0:0:0:
80,14,44354,5,6,1:2:0:0:
6,81,44688,1,0,1:0:0:0:
57,165,45021,2,0,P|95:171|142:217,1,98.9999969787598,10|0,0:0|0:0,0:0:0:0:
183,242,45521,1,0,1:0:0:0:
183,242,45688,2,0,L|162:343,1,98.9999969787598,2|0,1:2|0:0,0:0:0:0:
258,364,46354,2,0,L|278:267,1,98.9999969787598,10|0,0:0|1:0,0:0:0:0:
297,169,47021,5,2,1:2:0:0:
221,104,47354,1,0,1:0:0:0:
294,37,47688,2,0,P|327:21|399:25,1,98.9999969787598,8|0,0:0|0:0,0:0:0:0:
482,63,48354,1,2,1:2:0:0:
482,63,48521,1,10,0:0:0:0:
416,137,48854,1,0,0:0:0:0:
416,137,49021,2,0,L|430:203,1,49.4999984893799,10|2,0:0|1:2,0:0:0:0:
471,207,49354,2,0,L|460:255,1,49.4999984893799,8|0,0:0|0:0,0:0:0:0:
486,298,49688,5,6,1:2:0:0:
302,364,50354,2,0,P|266:333|207:327,1,98.9999969787598,10|0,0:0|0:0,0:0:0:0:
170,334,50854,1,0,1:0:0:0:
170,334,51021,2,0,P|192:284|196:228,1,98.9999969787599,2|0,1:2|1:0,0:0:0:0:
222,148,51688,1,10,0:0:0:0:
222,148,51854,2,0,L|245:47,1,98.9999969787598,0|0,1:0|0:0,0:0:0:0:
213,12,52354,6,0,P|179:32|112:33,1,98.9999969787598,2|0,1:2|1:0,0:0:0:0:
23,53,53021,2,0,P|43:87|44:154,1,98.9999969787598,10|2,0:0|0:0,0:0:0:0:
17,186,53521,1,6,0:3:0:0:
17,186,53688,1,6,1:2:0:0:
77,264,54021,1,2,0:0:0:0:
170,231,54354,2,0,L|229:218,1,49.4999984893799,6|8,1:2|0:0,0:0:0:0:
254,186,54688,2,0,L|313:199,1,49.4999984893799,10|8,0:0|0:0,0:0:0:0:
344,161,55021,6,0,L|317:35,2,110,6|8|0,1:2|0:0|1:0,0:0:0:0:
396,178,55854,1,0,1:0:0:0:
396,178,56021,1,8,0:0:0:0:
472,256,56354,2,0,P|412:264|372:308,1,110,2|8,1:2|0:0,0:0:0:0:
347,343,56854,2,0,P|304:340|249:301,1,110,2|0,1:2|1:0,0:0:0:0:
227,252,57354,1,10,0:0:0:0:
265,148,57688,6,0,L|276:89,1,55,2|0,1:2|1:0,0:0:0:0:
298,44,58021,2,0,P|252:59|169:67,1,110,8|0,0:0|1:0,0:0:0:0:
140,61,58521,1,0,1:0:0:0:
140,61,58688,1,10,0:0:0:0:
32,88,59021,2,0,P|46:132|53:210,1,110,2|8,1:2|0:0,0:0:0:0:
23,241,59521,1,2,1:2:0:0:
63,348,59854,1,0,1:0:0:0:
63,348,60021,2,0,P|85:326|128:313,1,55,10|0,0:0|0:0,0:0:0:0:
151,284,60354,6,0,L|206:294,1,55,2|0,1:2|0:0,0:0:0:0:
237,338,60688,2,0,L|349:319,1,110,8|0,0:0|1:0,0:0:0:0:
399,309,61188,1,0,1:0:0:0:
459,218,61521,1,0,1:0:0:0:
459,218,61688,2,0,L|513:230,2,55,0|0|8,1:0|1:0|0:0,0:0:0:0:
388,133,62354,1,2,0:0:0:0:
287,179,62688,1,10,0:0:0:0:
181,147,63021,6,0,P|127:149|78:189,1,110,2|8,1:2|0:0,0:0:0:0:
37,160,63521,1,0,0:0:0:0:
37,160,63688,2,0,L|15:46,1,110,2|10,1:2|0:0,0:0:0:0:
118,12,64354,2,0,P|161:30|226:28,1,110,2|8,1:2|0:0,0:0:0:0:
258,71,64854,2,0,P|287:62|316:56,1,55,2|0,1:2|1:0,0:0:0:0:
355,23,65188,1,0,1:0:0:0:
355,23,65354,1,10,0:0:0:0:
456,65,65688,6,0,P|486:89|498:177,1,110,6|10,1:2|0:0,0:0:0:0:
474,204,66188,1,2,1:2:0:0:
474,204,66354,2,0,L|413:216,2,55,0|0|8,1:0|1:0|0:0,0:0:0:0:
511,307,67021,2,0,L|381:332,1,110,2|10,1:2|0:0,0:0:0:0:
361,363,67521,2,0,P|323:338|239:336,1,110,2|0,1:2|1:0,0:0:0:0:
207,314,68021,1,10,0:0:0:0:
264,220,68354,6,0,B|290:173|290:173|275:99,1,110,2|10,1:2|0:0,0:0:0:0:
294,64,68854,2,0,L|183:83,1,110,2|0,0:0|1:0,0:0:0:0:
143,47,69354,1,10,0:0:0:0:
38,12,69688,2,0,L|63:142,1,110,2|10,1:2|0:0,0:0:0:0:
18,157,70188,2,0,L|7:216,1,55,2|0,1:2|0:0,0:0:0:0:
44,259,70521,1,0,1:0:0:0:
44,259,70688,1,10,0:0:0:0:
1,360,71021,6,0,P|55:381|117:374,1,110,6|8,1:2|0:0,0:0:0:0:
153,347,71521,1,0,0:0:0:0:
153,347,71688,2,0,L|210:335,1,55,2|0,1:2|1:0,0:0:0:0:
260,324,72021,1,8,0:0:0:0:
344,253,72354,2,0,P|382:258|430:329,1,110,2|8,1:2|0:0,0:0:0:0:
476,345,72854,1,0,1:0:0:0:
476,345,73021,2,0,L|496:225,1,110,2|8,1:2|0:0,0:0:0:0:
443,138,73688,6,0,P|457:71|502:44,2,110,6|8|0,1:2|0:0|1:0,0:0:0:0:
405,178,74521,1,0,1:0:0:0:
405,178,74688,1,10,0:0:0:0:
306,227,75021,1,6,1:2:0:0:
206,193,75354,1,8,0:0:0:0:
206,193,75521,2,0,P|168:192|131:210,1,55,0|0,1:0|1:0,0:0:0:0:
102,212,75854,1,8,0:0:0:0:
102,212,76021,2,0,L|90:272,1,55,8|8,0:0|0:0,0:0:0:0:
44,294,76354,5,6,1:2:0:0:
124,377,76688,1,10,0:0:0:0:
124,377,76854,2,0,P|156:342|227:330,1,110,2|0,0:0|1:0,0:0:0:0:
270,332,77354,1,10,0:0:0:0:
250,223,77688,2,0,L|225:89,1,110,6|10,1:2|0:0,0:0:0:0:
218,60,78188,2,0,L|346:85,1,110,2|0,1:2|1:0,0:0:0:0:
372,51,78688,1,8,0:0:0:0:
475,88,79021,6,0,P|503:129|498:200,1,110,6|10,1:2|0:0,0:0:0:0:
459,222,79521,2,0,L|484:347,1,110,2|0,0:0|1:0,0:0:0:0:
450,375,80021,1,10,0:0:0:0:
354,321,80354,2,0,P|290:313|235:342,1,110,6|8,1:2|0:0,0:0:0:0:
204,362,80854,2,0,P|169:365|145:354,1,55,6|0,1:2|0:0,0:0:0:0:
113,325,81188,1,0,1:0:0:0:
113,325,81354,1,14,0:0:0:0:
123,216,81688,6,0,P|152:184|223:168,1,110,6|8,1:2|0:0,0:0:0:0:
258,201,82188,2,0,L|371:228,1,110,2|0,0:0|1:0,0:0:0:0:
419,239,82688,1,10,0:0:0:0:
489,154,83021,2,0,L|466:38,1,110,6|8,1:2|0:0,0:0:0:0:
420,16,83521,1,0,1:0:0:0:
420,16,83688,2,0,P|380:35|352:34,1,55,2|0,0:0|1:0,0:0:0:0:
316,29,84021,1,8,0:0:0:0:
241,109,84354,6,0,L|121:84,2,110,6|8|0,1:2|0:0|1:0,0:0:0:0:
285,142,85188,1,0,1:0:0:0:
285,142,85354,1,8,0:0:0:0:
358,224,85688,1,4,1:2:0:0:
289,309,86021,1,8,0:0:0:0:
289,309,86188,2,0,P|256:318|178:318,1,110,0|8,1:0|0:0,0:0:0:0:
132,342,86688,2,0,L|118:275,1,55,8|8,0:0|0:0,0:0:0:0:
89,243,87021,6,0,L|27:257,2,55,6|2|10,1:2|0:0|0:0,0:0:0:0:
182,182,87688,2,0,P|195:132|167:70,1,110,2|8,1:2|0:0,0:0:0:0:
193,31,88188,1,0,1:0:0:0:
193,31,88354,2,0,L|313:52,1,110,2|8,1:2|0:0,0:0:0:0:
347,81,88854,1,6,1:2:0:0:
446,43,89188,1,8,0:0:0:0:
446,43,89354,1,12,0:2:0:0:
