osu file format v14

[General]
AudioFilename: awdio.mp3
AudioLeadIn: 0
PreviewTime: 11406
Countdown: 0
SampleSet: Normal
StackLeniency: 0.7
Mode: 1
LetterboxInBreaks: 0
WidescreenStoryboard: 0

[Editor]
DistanceSpacing: 1
BeatDivisor: 4
GridSize: 32
TimelineZoom: 1

[Metadata]
Title:Psychomachia (TV Size)
TitleUnicode:Psychomachia (TV Size)
Artist:Yousei Teikoku
ArtistUnicode:妖精帝國
Creator:Surono
Version:Kantan
Source:七つの美徳
Tags:The Seven Heavenly Virtues Ecchi J-Rock Yui Itsuki Ending
BeatmapID:1793536
BeatmapSetID:858182

[Difficulty]
HPDrainRate:10
CircleSize:2
OverallDifficulty:3
ApproachRate:10
SliderMultiplier:1.4
SliderTickRate:1

[Events]
//Background and Video events
0,0,"omelete.jpg",0,33
//Break Periods
//Storyboard Layer 0 (Background)
//Storyboard Layer 1 (Fail)
//Storyboard Layer 2 (Pass)
//Storyboard Layer 3 (Foreground)
//Storyboard Sound Samples

[TimingPoints]
784,333.333333333333,4,1,0,90,1,0
14117,-100,4,1,0,90,0,1
24783,-100,4,1,0,90,0,0

[HitObjects]
256,192,784,5,0,0:0:0:0:
256,192,1450,1,8,0:0:0:0:
256,192,2117,1,0,0:0:0:0:
256,192,2783,1,4,0:0:0:0:
256,192,3117,1,4,0:0:0:0:
256,192,3450,1,0,0:0:0:0:
256,192,4117,1,8,0:0:0:0:
256,192,4783,1,0,0:0:0:0:
256,192,5450,1,4,0:0:0:0:
256,192,5783,1,4,0:0:0:0:
256,192,6117,1,12,0:0:0:0:
256,192,6783,1,8,0:0:0:0:
256,192,7117,1,0,0:0:0:0:
256,192,7783,1,0,0:0:0:0:
256,192,8117,1,8,0:0:0:0:
256,192,8450,1,0,0:0:0:0:
256,192,8783,1,4,0:0:0:0:
256,192,9783,1,8,0:0:0:0:
256,192,10117,1,0,0:0:0:0:
256,192,10450,1,8,0:0:0:0:
256,192,11117,1,8,0:0:0:0:
256,192,11450,12,0,13450,0:0:0:0:
256,192,14117,5,4,0:0:0:0:
256,192,15117,1,0,0:0:0:0:
256,192,15450,1,4,0:0:0:0:
256,192,16450,1,8,0:0:0:0:
256,192,16783,1,12,0:0:0:0:
256,192,17783,1,0,0:0:0:0:
256,192,18117,1,4,0:0:0:0:
256,192,18783,1,8,0:0:0:0:
256,192,19450,1,8,0:0:0:0:
256,192,20117,1,0,0:0:0:0:
256,192,20450,1,8,0:0:0:0:
256,192,20783,1,0,0:0:0:0:
256,192,22117,1,0,0:0:0:0:
256,192,22783,1,8,0:0:0:0:
256,192,23117,1,0,0:0:0:0:
256,192,23450,1,8,0:0:0:0:
256,192,24783,1,4,0:0:0:0:
256,192,25450,1,8,0:0:0:0:
256,192,25783,1,0,0:0:0:0:
256,192,26450,1,8,0:0:0:0:
256,192,26950,1,12,0:0:0:0:
256,192,27450,1,0,0:0:0:0:
256,192,27950,1,12,0:0:0:0:
256,192,28783,1,0,0:0:0:0:
256,192,29117,1,8,0:0:0:0:
256,192,29450,1,4,0:0:0:0:
256,192,30117,1,8,0:0:0:0:
256,192,30783,1,0,0:0:0:0:
256,192,31450,1,12,0:0:0:0:
