osu file format v14

[General]
AudioFilename: audio.mp3
AudioLeadIn: 0
PreviewTime: 68777
Countdown: 0
SampleSet: Drum
StackLeniency: 0.6
Mode: 0
LetterboxInBreaks: 0
WidescreenStoryboard: 1

[Editor]
Bookmarks: 3924,8335,20252,27310,34369,43189,60836,71755,87747,99659,106717,115431,131423,138482,152600,159659,178519,194511,206397
DistanceSpacing: 1
BeatDivisor: 2
GridSize: 8
TimelineZoom: 2

[Metadata]
Title:Naikan Uchuu Shisha no Yurikago
TitleUnicode:内観宇宙死者のゆりかご
Artist:Yousei Teikoku
ArtistUnicode:妖精帝國
Creator:IsomirDiAngelo
Version:Normal
Source:
Tags:osu osu! world cup owc finals hr3 atalanta talulah fairy empire das feenreich flamma idola yui itsuki japanese rock metal jrock gothic
BeatmapID:2917753
BeatmapSetID:1306595

[Difficulty]
HPDrainRate:4
CircleSize:3
OverallDifficulty:5
ApproachRate:6
SliderMultiplier:0.899999999999999
SliderTickRate:1

[Events]
//Background and Video events
0,0,"suigintou6b.jpg",0,0
//Break Periods
2,61036,67727
2,87947,98609
2,159859,166550
//Storyboard Layer 0 (Background)
//Storyboard Layer 1 (Fail)
//Storyboard Layer 2 (Pass)
//Storyboard Layer 3 (Foreground)
//Storyboard Layer 4 (Overlay)
//Storyboard Sound Samples

[TimingPoints]
408,219.78021978022,4,3,1,70,1,0
3924,220.588235294118,4,3,1,70,1,0
8335,220.588235294118,3,3,1,70,1,0
12967,212.765957446809,4,3,1,70,1,0
13392,272.727272727273,4,3,1,70,1,0
13664,208.333333333333,4,3,1,70,1,0
14080,215.827338129496,4,3,1,70,1,0
14297,220.588235294118,3,3,1,70,1,0
20252,220.588235294118,4,3,1,70,1,0
40766,206.896551724138,4,3,1,70,1,0
41179,230.769230769231,4,3,1,70,1,0
41294,220.588235294118,4,3,1,70,1,0
42286,225.563909774436,4,3,1,70,1,0
43189,220.588235294118,4,3,1,70,1,0
60836,-100,4,2,1,70,0,0
70100,-100,4,3,1,70,0,0
71865,220.588235294118,4,3,1,70,1,1
85872,-100,4,3,1,70,0,0
87747,220.588235294118,3,3,1,70,1,0
99659,220.588235294118,4,3,1,70,1,0
115431,-100,4,3,1,70,0,1
129548,-100,4,3,1,70,0,0
131423,-100,4,3,1,70,0,0
159659,-100,4,2,1,70,0,0
167600,-100,4,3,1,70,0,0
178629,220.588235294118,4,3,1,70,1,0
180283,-100,4,3,1,70,0,1
192636,-100,4,3,1,70,0,0
194511,220.588235294118,3,3,1,70,1,0
205981,208.333333333333,4,3,1,70,1,0
206397,220.588235294118,4,3,1,70,1,0

[Colours]
Combo1 : 194,48,22
Combo2 : 220,199,219
Combo3 : 233,226,103
Combo4 : 151,134,111

[HitObjects]
256,192,3924,12,8,7453,0:0:0:0:
426,95,8335,6,0,B|394:91|394:91|376:79|376:79|330:83,1,89.9999999999999,14|10,0:1|0:0,0:0:0:0:
306,111,8665,2,0,B|273:106|273:106|255:95|255:95|210:98,1,89.9999999999999
184,69,8996,2,0,L|194:216,2,135,10|0|10,0:0|0:0|0:0,0:0:0:0:
102,40,9879,5,10,0:0:0:0:
102,40,9989,2,0,P|60:60|58:152,1,135,0|10,0:0|0:0,0:0:0:0:
19,226,10540,1,12,0:1:0:0:
55,308,10761,1,12,0:1:0:0:
141,334,10982,6,0,B|170:319|170:319|231:330,1,89.9999999999999,10|10,0:0|0:0,0:0:0:0:
264,305,11312,2,0,B|293:319|293:319|354:308,1,89.9999999999999
379,275,11643,2,0,P|441:267|458:204,2,135,10|0|10,0:0|0:0|0:0,0:0:0:0:
330,205,12526,5,10,0:0:0:0:
330,205,12636,2,0,L|186:181,1,135.408,4|8,0:1|0:0,0:0:0:0:
174,95,13179,1,8,0:0:0:0:
91,121,13392,2,0,B|73:152|73:152|78:172|78:172|70:213,1,89.9999999999999,8|12,0:0|0:0,0:0:0:0:
146,256,13872,2,0,P|148:277|153:309,2,45,8|0|8,0:0|0:0|0:0,0:0:0:0:
216,202,14297,6,0,B|271:197|271:197|304:216,1,89.9999999999999,10|10,0:0|0:0,0:0:0:0:
343,197,14627,2,0,B|347:252|347:252|328:285,1,89.9999999999999
364,312,14958,2,0,L|503:297,2,135,10|0|10,0:0|0:0|0:0,0:0:0:0:
285,353,15841,5,10,0:0:0:0:
285,353,15951,2,0,L|143:338,1,135,0|10,0:0|0:0,0:0:0:0:
70,309,16502,1,12,0:1:0:0:
47,224,16723,1,12,0:1:0:0:
110,161,16944,6,0,B|133:147|139:102|120:74,1,89.9999999999999,10|10,0:0|0:0,0:0:0:0:
159,54,17274,2,0,B|179:69|224:63|241:35,1,89.9999999999999
277,61,17605,2,0,L|260:197,2,135,10|0|10,0:0|0:0|0:0,0:0:0:0:
367,45,18488,5,10,0:0:0:0:
367,45,18598,2,0,B|408:32|408:32|457:57,1,89.9999999999999,4|0,0:1|0:0,0:0:0:0:
468,91,18929,1,8,0:0:0:0:
457,171,19149,1,8,0:0:0:0:
438,256,19370,2,0,B|396:243|396:243|352:265,1,89.9999999999999,8|8,0:0|0:0,0:0:0:0:
297,204,19811,2,0,L|288:149,2,45,8|8|2,0:0|0:0|0:0,0:0:0:0:
227,259,20252,5,4,0:1:0:0:
256,192,20362,12,12,23781,0:1:0:0:
256,192,23891,12,4,26538,0:0:0:0:
293,264,27310,6,0,B|242:272|242:272|197:254,1,89.9999999999999,4|8,0:1|0:0,0:0:0:0:
174,286,27641,2,0,P|132:218|161:170,1,135,0|8,0:1|0:0,0:0:0:0:
113,97,28193,6,0,L|247:111,1,135
267,72,28634,2,0,P|314:85|359:56,1,89.9999999999999,0|8,0:0|0:0,0:0:0:0:
428,33,29075,6,0,B|403:68|403:68|416:127,1,89.9999999999999,0|8,0:0|0:0,0:0:0:0:
480,168,29516,2,0,B|455:203|455:203|468:262,1,89.9999999999999
405,312,29957,5,2,0:0:0:0:
314,306,30178,1,10,0:0:0:0:
223,300,30399,2,0,L|215:360,2,45,2|2|10,0:0|0:0|0:0,0:0:0:0:
159,235,30840,6,0,P|117:221|108:165,1,89.9999999999999,4|8,0:1|0:0,0:0:0:0:
62,161,31171,2,0,B|74:23,1,135,0|8,0:0|0:0,0:0:0:0:
153,67,31722,6,0,B|203:85|203:85|287:66,1,135
319,40,32163,2,0,L|310:132,1,89.9999999999999,0|8,0:0|0:0,0:0:0:0:
380,186,32604,6,0,L|469:180,1,89.9999999999999,0|8,0:0|0:0,0:0:0:0:
460,269,33046,2,0,B|434:301|434:301|444:352,1,89.9999999999999,0|8,0:0|0:0,0:0:0:0:
353,356,33487,5,2,0:0:0:0:
303,279,33707,1,10,0:0:0:0:
218,302,33928,2,0,L|157:309,1,45,2|2,0:0|0:0,0:0:0:0:
135,282,34149,2,0,L|87:286,1,45,10|8,0:0|0:0,0:0:0:0:
50,265,34369,6,0,P|25:223|27:169,1,89.9999999999999,4|0,0:1|0:0,0:0:0:0:
90,117,34810,2,0,P|145:115|182:137,1,89.9999999999999,2|0,0:0|0:0,0:0:0:0:
189,219,35252,2,0,P|168:265|122:283,1,89.9999999999999,2|0,0:0|0:0,0:0:0:0:
110,199,35693,1,2,0:0:0:0:
90,117,35913,1,0,0:0:0:0:
156,55,36134,6,0,B|213:53|213:53|229:74|229:74|295:79,1,135,4|8,0:1|0:0,0:0:0:0:
366,50,36685,2,0,B|384:79|384:79|367:152,1,89.9999999999999,8|8,0:0|0:0,0:0:0:0:
404,164,37016,6,0,L|457:173,2,45,2|10|2,0:0|0:0|0:0,0:0:0:0:
325,208,37457,2,0,L|271:218,2,45,2|10|2,0:0|0:0|0:0,0:0:0:0:
391,249,37899,6,0,P|397:295|404:347,1,89.9999999999999,4|0,0:1|0:0,0:0:0:0:
312,335,38340,2,0,P|306:291|296:228,1,89.9999999999999,2|0,0:0|0:0,0:0:0:0:
216,281,38781,2,0,P|222:327|229:379,1,89.9999999999999,2|0,0:0|0:0,0:0:0:0:
139,353,39222,1,2,0:0:0:0:
60,308,39443,1,0,0:0:0:0:
49,218,39663,6,0,P|64:167|144:147,1,135,4|8,0:1|0:0,0:0:0:0:
223,169,40215,2,0,L|236:72,1,89.9999999999999,8|8,0:0|0:0,0:0:0:0:
268,49,40546,6,0,B|313:66|313:66|361:54,1,89.9999999999999,8|0,0:0|0:0,0:0:0:0:
426,108,40972,2,0,L|413:198,1,90.4349999999999,8|8,0:0|0:0,0:0:0:0:
376,226,41294,1,4,0:1:0:0:
251,343,43189,6,0,L|99:320,1,135,4|2,0:1|0:0,0:0:0:0:
44,375,43740,1,2,0:0:0:0:
24,241,44071,6,0,L|46:75,1,135,4|2,0:1|0:0,0:0:0:0:
17,20,44622,1,2,0:0:0:0:
137,80,44953,6,0,B|172:63|172:63|251:84,1,89.9999999999999,4|0,0:1|0:0,0:0:0:0:
265,64,45284,2,0,L|255:169,1,89.9999999999999,2|2,0:0|0:0,0:0:0:0:
391,142,45836,6,0,B|435:152|435:152|517:124,1,89.9999999999999,4|0,0:1|0:0,0:0:0:0:
506,171,46166,2,0,L|493:275,1,89.9999999999999,2|2,0:0|0:0,0:0:0:0:
389,344,46718,6,0,L|220:320,1,135,4|2,0:1|0:0,0:0:0:0:
211,246,47269,1,2,0:0:0:0:
181,114,47600,6,0,L|9:95,1,135,4|2,0:1|0:0,0:0:0:0:
10,182,48152,1,2,0:0:0:0:
53,309,48483,6,0,L|209:292,1,135,4|2,0:1|0:0,0:0:0:0:
262,348,49034,1,2,0:0:0:0:
384,291,49365,6,0,B|399:213|399:213|343:162,1,135,4|2,0:1|0:0,0:0:0:0:
273,206,49916,2,0,L|151:195,1,89.9999999999999,2|0,0:0|0:0,0:0:0:0:
154,163,50247,6,0,P|140:120|151:77,1,89.9999999999999,4|0,0:1|0:0,0:0:0:0:
225,25,50689,2,0,P|267:11|310:22,1,89.9999999999999,8|0,0:0|0:0,0:0:0:0:
383,75,51130,2,0,P|396:117|385:160,1,89.9999999999999,4|0,0:1|0:0,0:0:0:0:
322,225,51571,2,0,P|279:238|236:227,1,89.9999999999999,12|2,0:1|0:0,0:0:0:0:
185,302,52012,6,0,B|129:290|129:290|99:307|99:307|27:306,1,135,4|2,0:1|0:0,0:0:0:0:
2,238,52564,1,2,0:0:0:0:
55,114,52894,6,0,B|99:116|99:116|132:103|132:103|207:124,1,135,4|2,0:1|0:0,0:0:0:0:
242,188,53446,1,2,0:0:0:0:
287,60,53777,6,0,B|332:50|332:50|401:68,1,89.9999999999999,4|0,0:1|0:0,0:0:0:0:
417,46,54108,2,0,L|425:147,1,89.9999999999999,2|2,0:0|0:0,0:0:0:0:
477,259,54659,6,0,L|347:268,1,89.9999999999999,4|0,0:1|0:0,0:0:0:0:
347,244,54990,2,0,B|329:292|329:292|354:364,1,89.9999999999999,2|2,0:0|0:0,0:0:0:0:
208,352,55541,6,0,P|143:324|141:238,1,135,4|2,0:1|0:0,0:0:0:0:
49,222,56093,1,2,0:0:0:0:
22,86,56424,6,0,B|66:52|66:52|183:73,1,135,4|2,0:1|0:0,0:0:0:0:
231,43,56975,1,2,0:0:0:0:
258,163,57306,6,0,B|314:193|314:193|424:159,1,135,4|2,0:1|0:0,0:0:0:0:
468,198,57858,1,2,0:0:0:0:
445,331,58189,6,0,B|391:327|391:327|366:310|366:310|284:319,1,135,4|2,0:1|0:0,0:0:0:0:
250,377,58740,1,2,0:0:0:0:
125,312,59071,6,0,P|130:238|212:204,1,135,4|0,0:1|0:0,0:0:0:0:
172,160,59512,2,0,P|105:191|35:137,1,135,12|0,0:0|0:0,0:0:0:0:
19,197,59953,2,0,P|79:238|67:326,1,135,4|0,0:0|0:0,0:0:0:0:
125,312,60394,6,0,L|201:322,1,45,12|8,0:1|0:0,0:0:0:0:
212,303,60615,2,0,L|290:309,1,45,4|4,0:0|0:0,0:0:0:0:
292,334,60836,1,4,3:1:0:0:
255,191,68777,5,4,0:1:0:0:
255,191,70100,6,0,P|199:185|134:173,2,89.9999999999999,8|8|12,0:0|0:0|0:0,0:0:0:0:
341,216,70762,1,12,0:0:0:0:
428,192,70983,1,8,0:0:0:0:
438,102,71203,2,0,P|379:18|283:35,1,180,8|8,0:0|0:0,0:0:0:0:
274,47,71755,6,0,B|223:55|223:55|193:45|193:45|127:53,1,135,4|8,0:1|0:0,0:0:0:0:
84,120,72306,2,0,L|71:223,1,89.9999999999999,0|8,0:0|0:0,0:0:0:0:
40,241,72637,2,0,P|101:289|88:351,1,135,2|8,0:0|0:0,0:0:0:0:
184,355,73188,1,0,0:0:0:0:
227,283,73409,1,8,0:0:0:0:
227,283,73519,6,0,B|278:265|278:265|311:284|311:284|384:288,1,135,2|8,0:0|0:0,0:0:0:0:
433,245,74070,2,0,L|421:133,1,89.9999999999999,0|8,0:0|0:0,0:0:0:0:
449,118,74401,5,2,0:0:0:0:
371,72,74622,1,2,0:0:0:0:
298,124,74842,1,2,0:0:0:0:
225,70,75063,2,0,L|163:57,1,45,0|8,0:0|0:0,0:0:0:0:
144,34,75284,6,0,P|96:53|79:137,1,135,4|8,0:1|0:0,0:0:0:0:
140,190,75835,2,0,B|189:204|189:204|239:175,1,89.9999999999999,0|8,0:0|0:0,0:0:0:0:
259,210,76166,2,0,P|311:231|313:320,1,135,2|8,0:0|0:0,0:0:0:0:
255,362,76717,1,0,0:0:0:0:
174,346,76938,1,8,0:0:0:0:
174,346,77048,6,0,B|118:336|118:336|91:315|91:315|24:321,1,135,2|8,0:0|0:0,0:0:0:0:
57,228,77600,2,0,P|87:184|68:131,1,89.9999999999999,0|8,0:0|0:0,0:0:0:0:
46,121,77931,1,2,0:0:0:0:
88,41,78151,6,0,L|148:48,1,45,0|8,0:0|0:0,0:0:0:0:
174,28,78372,1,2,0:0:0:0:
245,82,78592,2,0,L|305:75,1,45,8|8,0:0|0:0,0:0:0:0:
331,93,78813,2,0,P|390:102|448:31,1,135,4|8,0:1|0:0,0:0:0:0:
502,123,79365,6,0,B|521:166|521:166|491:223,1,89.9999999999999,0|8,0:0|0:0,0:0:0:0:
458,219,79695,2,0,L|299:195,1,135,2|8,0:0|0:0,0:0:0:0:
242,236,80247,2,0,B|225:280|225:280|252:334,1,89.9999999999999,0|8,0:0|0:0,0:0:0:0:
218,355,80578,2,0,L|41:332,1,135,2|8,0:0|0:0,0:0:0:0:
47,255,81129,6,0,P|88:217|71:161,1,89.9999999999999,0|8,0:0|0:0,0:0:0:0:
126,162,81460,2,0,P|52:103|66:58,1,135,2|8,0:0|0:0,0:0:0:0:
31,37,81901,1,0,0:0:0:0:
114,2,82122,2,0,L|182:16,1,45,0|8,0:0|0:0,0:0:0:0:
190,42,82342,2,0,B|253:17|253:17|329:43,1,135,4|8,0:1|0:0,0:0:0:0:
402,66,82894,6,0,B|422:95|422:95|413:172,1,89.9999999999999,0|8,0:0|0:0,0:0:0:0:
453,174,83225,2,0,B|420:213|420:213|410:316,1,135,2|8,0:0|0:0,0:0:0:0:
333,340,83776,2,0,L|206:327,1,89.9999999999999,0|8,0:0|0:0,0:0:0:0:
225,289,84107,2,0,L|58:272,1,135,2|8,0:0|0:0,0:0:0:0:
5,296,84659,5,0,0:0:0:0:
5,296,84769,1,0,0:0:0:0:
0,208,84990,1,4,0:1:0:0:
36,131,85210,1,0,0:0:0:0:
125,123,85431,2,0,B|178:108|178:108|203:127|203:127|288:143,1,135,2|8,0:0|0:0,0:0:0:0:
286,108,85872,1,2,0:0:0:0:
389,339,86865,6,0,L|263:320,1,89.9999999999999,8|8,0:0|0:0,0:0:0:0:
260,347,87195,1,2,0:0:0:0:
195,283,87416,2,0,B|228:243|228:243|214:174,1,89.9999999999999,2|2,0:0|0:0,0:0:0:0:
248,170,87747,1,10,0:0:0:0:
256,192,99659,5,4,0:1:0:0:
256,192,99769,12,4,101423,0:1:0:0:
256,192,101534,12,4,103188,0:1:0:0:
256,192,103298,12,4,104953,0:1:0:0:
191,124,106717,6,0,P|166:166|168:220,1,89.9999999999999,4|0,0:1|0:0,0:0:0:0:
231,272,107159,2,0,P|286:274|323:252,1,89.9999999999999,2|0,0:0|0:0,0:0:0:0:
330,170,107600,2,0,P|309:124|263:106,1,89.9999999999999,2|0,0:0|0:0,0:0:0:0:
251,190,108041,1,2,0:0:0:0:
231,272,108261,1,0,0:0:0:0:
142,289,108482,6,0,B|81:278|0:260,1,135,4|8,0:1|0:0,0:0:0:0:
0,173,109034,2,0,B|24:130|24:130|9:60,1,89.9999999999999,8|8,0:0|0:0,0:0:0:0:
55,70,109364,6,0,L|46:17,2,45,2|10|2,0:0|0:0|0:0,0:0:0:0:
142,48,109806,2,0,L|127:-11,2,45,2|10|2,0:0|0:0|0:0,0:0:0:0:
226,80,110247,6,0,P|276:90|311:44,1,89.9999999999999,4|0,0:1|0:0,0:0:0:0:
365,132,110688,2,0,P|371:176|377:221,1,89.9999999999999,2|0,0:0|0:0,0:0:0:0:
320,290,111129,2,0,P|326:336|333:388,1,89.9999999999999,2|0,0:0|0:0,0:0:0:0:
241,379,111570,1,2,0:0:0:0:
162,334,111791,1,0,0:0:0:0:
151,244,112011,6,0,P|166:193|246:173,1,135,4|8,0:1|0:0,0:0:0:0:
320,132,112563,2,0,L|333:35,1,89.9999999999999,8|8,0:0|0:0,0:0:0:0:
365,12,112894,6,0,B|410:29|410:29|458:17,1,89.9999999999999,2|2,0:0|0:0,0:0:0:0:
483,96,113335,2,0,L|470:186,1,89.9999999999999,2|2,0:0|0:0,0:0:0:0:
380,181,113776,6,0,B|301:135|301:135|220:165|220:165|143:116|143:116|34:137,1,360,8|8,0:0|0:0,0:0:0:0:
8,211,114879,2,0,P|88:239|78:329,1,180,8|2,0:0|0:0,0:0:0:0:
120,349,115431,6,0,B|171:341|171:341|201:351|201:351|267:343,1,135,4|8,0:1|0:0,0:0:0:0:
297,266,115982,2,0,L|284:163,1,89.9999999999999,0|8,0:0|0:0,0:0:0:0:
253,145,116313,2,0,P|314:97|301:35,1,135,2|8,0:0|0:0,0:0:0:0:
391,11,116864,1,0,0:0:0:0:
434,83,117085,1,8,0:0:0:0:
434,83,117195,6,0,B|475:114|475:114|456:207,1,135,2|8,0:0|0:0,0:0:0:0:
423,278,117747,2,0,L|311:266,1,89.9999999999999,0|8,0:0|0:0,0:0:0:0:
306,232,118078,5,2,0:0:0:0:
228,278,118298,1,2,0:0:0:0:
155,226,118519,1,2,0:0:0:0:
82,280,118739,2,0,L|20:293,1,45,0|8,0:0|0:0,0:0:0:0:
9,253,118960,6,0,P|57:234|74:150,1,135,4|8,0:1|0:0,0:0:0:0:
50,72,119511,2,0,B|99:86|99:86|149:57,1,89.9999999999999,0|8,0:0|0:0,0:0:0:0:
163,32,119842,2,0,P|215:53|217:142,1,135,2|8,0:0|0:0,0:0:0:0:
246,211,120394,1,0,0:0:0:0:
318,270,120614,1,8,0:0:0:0:
318,270,120725,6,0,B|374:260|374:260|401:239|401:239|468:245,1,135,2|8,0:0|0:0,0:0:0:0:
419,155,121276,2,0,P|389:111|408:58,1,89.9999999999999,0|8,0:0|0:0,0:0:0:0:
430,48,121607,1,2,0:0:0:0:
347,11,121828,6,0,L|287:18,1,45,0|8,0:0|0:0,0:0:0:0:
261,0,122048,1,2,0:0:0:0:
190,52,122269,2,0,L|130:45,1,45,8|8,0:0|0:0,0:0:0:0:
102,62,122489,2,0,B|84:119|84:119|101:135|101:135|92:200,1,135,4|8,0:1|0:0,0:0:0:0:
32,252,123041,6,0,B|13:295|13:295|43:352,1,89.9999999999999,0|8,0:0|0:0,0:0:0:0:
76,348,123372,2,0,L|235:324,1,135,2|8,0:0|0:0,0:0:0:0:
297,308,123923,2,0,B|280:264|280:264|307:210,1,89.9999999999999,0|8,0:0|0:0,0:0:0:0:
331,194,124254,2,0,L|508:217,1,135,2|8,0:0|0:0,0:0:0:0:
492,125,124806,6,0,P|486:81|451:56,1,89.9999999999999,0|8,0:0|0:0,0:0:0:0:
428,16,125136,2,0,B|366:46|366:46|299:8,1,135,2|8,0:0|0:0,0:0:0:0:
272,40,125578,1,0,0:0:0:0:
279,129,125798,2,0,L|265:197,1,45,0|8,0:0|0:0,0:0:0:0:
294,211,126019,2,0,B|356:241|356:241|423:203,1,135,4|8,0:1|0:0,0:0:0:0:
436,295,126570,6,0,P|453:335|422:384,1,89.9999999999999,0|8,0:0|0:0,0:0:0:0:
389,378,126901,2,0,L|236:363,1,135,2|8,0:0|0:0,0:0:0:0:
185,306,127453,2,0,L|58:293,1,89.9999999999999,0|8,0:0|0:0,0:0:0:0:
60,324,127784,2,0,P|-9:264|11:221,1,135,2|8,0:0|0:0,0:0:0:0:
0,148,128335,5,0,0:0:0:0:
0,148,128445,1,0,0:0:0:0:
89,158,128666,1,4,0:1:0:0:
177,174,128886,1,0,0:0:0:0:
265,189,129107,2,0,P|304:225|289:312,1,135,4|8,0:1|0:0,0:0:0:0:
262,329,129548,1,2,0:0:0:0:
422,60,130541,6,0,L|296:79,1,89.9999999999999,8|8,0:0|0:0,0:0:0:0:
293,52,130872,1,2,0:0:0:0:
228,116,131092,2,0,B|261:156|261:156|247:225,1,89.9999999999999,2|2,0:0|0:0,0:0:0:0:
281,229,131423,1,2,0:0:0:0:
370,210,134953,5,8,0:0:0:0:
266,123,135284,2,0,B|292:90|292:90|281:24,2,89.9999999999999,8|8|0,0:0|0:0|0:0,0:0:0:0:
230,149,135835,1,8,0:0:0:0:
358,103,136166,2,0,B|373:142|373:142|436:165,2,89.9999999999999,8|8|0,0:0|0:0|0:0,0:0:0:0:
353,59,136717,1,8,0:0:0:0:
329,193,137048,2,0,B|287:186|287:186|235:229,2,89.9999999999999,8|8|0,0:0|0:0|0:0,0:0:0:0:
370,211,137600,6,0,L|352:317,1,89.9999999999999,8|8,0:0|0:0,0:0:0:0:
378,338,137931,1,8,0:0:0:0:
289,355,138151,2,0,L|188:345,1,89.9999999999999,8|8,0:0|0:0,0:0:0:0:
158,364,138482,6,0,B|64:388|21:300|48:245|48:245|85:237|95:191,1,270,4|10,0:1|0:0,0:0:0:0:
68,115,139364,2,0,B|115:126|115:126|156:101,1,89.9999999999999,2|8,0:0|0:0,0:0:0:0:
205,31,139806,2,0,L|265:39,1,45,2|0,0:0|0:0,0:0:0:0:
292,22,140026,1,10,0:0:0:0:
339,98,140247,6,0,B|310:132|310:132|328:195,1,89.9999999999999,2|8,0:0|0:0,0:0:0:0:
364,193,140578,2,0,L|460:175,1,89.9999999999999,2|0,0:0|0:0,0:0:0:0:
483,208,140909,1,10,0:0:0:0:
484,297,141129,6,0,B|454:323|454:323|389:307,1,89.9999999999999,2|8,0:0|0:0,0:0:0:0:
333,365,141570,1,2,0:0:0:0:
251,327,141791,2,0,L|243:269,1,45,8|0,0:0|0:0,0:0:0:0:
267,243,142011,6,0,B|237:217|237:217|172:233,1,89.9999999999999,2|8,0:0|0:0,0:0:0:0:
161,192,142342,2,0,B|131:218|131:218|66:202,1,89.9999999999999,2|0,0:0|0:0,0:0:0:0:
44,230,142673,1,10,0:0:0:0:
22,142,142894,6,0,B|52:116|52:116|117:132,1,89.9999999999999,2|8,0:0|0:0,0:0:0:0:
128,91,143225,2,0,B|158:117|158:117|223:101,1,89.9999999999999,2|0,0:0|0:0,0:0:0:0:
245,129,143556,1,10,0:0:0:0:
311,68,143776,6,0,B|374:78|374:78|372:128|372:128|425:187,1,180,2|0,0:0|0:0,0:0:0:0:
492,225,144438,1,8,0:0:0:0:
466,311,144659,2,0,P|471:341|475:368,2,45,2|0|2,0:0|0:0|0:0,0:0:0:0:
377,329,145100,2,0,B|321:322|321:322|303:304|303:304|239:307,1,135,8|8,0:0|0:0,0:0:0:0:
212,332,145541,6,0,P|178:290|191:247,1,89.9999999999999,2|10,0:0|0:0,0:0:0:0:
97,231,145982,2,0,L|5:215,1,89.9999999999999,2|8,0:0|0:0,0:0:0:0:
18,125,146423,5,2,0:0:0:0:
72,53,146644,1,10,0:0:0:0:
160,39,146864,1,2,0:0:0:0:
241,76,147085,1,10,0:0:0:0:
288,152,147306,1,2,0:0:0:0:
363,200,147526,1,10,0:0:0:0:
446,166,147747,2,0,P|468:125|462:62,1,89.9999999999999,2|10,0:0|0:0,0:0:0:0:
390,37,148188,2,0,B|363:24|334:25|334:25|317:46|296:55|296:55|269:51|247:38|247:38|236:42|225:50,1,180,6|6,0:0|0:0,0:0:0:0:
61,114,149070,6,0,L|51:216,1,89.9999999999999,2|10,0:0|0:0,0:0:0:0:
109,273,149511,1,2,0:0:0:0:
174,334,149732,2,0,L|168:389,2,45,10|0|2,0:0|0:0|0:0,0:0:0:0:
247,281,150173,6,0,P|295:270|348:257,1,89.9999999999999,10|0,0:0|0:0,0:0:0:0:
349,217,150504,2,0,P|353:167|357:113,1,89.9999999999999,2|0,0:0|0:0,0:0:0:0:
319,100,150835,2,0,P|273:80|223:60,1,89.9999999999999,2|8,0:0|0:0,0:0:0:0:
198,92,151166,2,0,P|165:129|130:170,1,89.9999999999999,2|0,0:0|0:0,0:0:0:0:
150,204,151497,1,10,0:0:0:0:
202,276,151717,6,0,B|242:266|242:266|257:270|257:270|291:259,1,89.9999999999999,10|8,0:0|0:0,0:0:0:0:
375,284,152159,2,0,L|386:225,1,45,8|8,0:0|0:0,0:0:0:0:
361,200,152379,2,0,L|372:139,1,45,8|8,0:0|0:0,0:0:0:0:
400,123,152600,5,2,0:0:0:0:
47,193,153372,1,4,0:1:0:0:
441,281,154364,1,2,0:0:0:0:
257,25,155136,2,0,B|241:73|241:73|261:105|261:105|245:139|245:139|273:194|253:253,1,225,4|0,0:1|0:0,0:0:0:0:
130,363,156129,6,0,B|77:354|77:354|64:260,1,135,4|0,0:1|0:0,0:0:0:0:
36,238,156570,1,8,0:0:0:0:
161,187,156901,2,0,L|266:199,2,89.9999999999999,4|0|0,0:1|0:0|0:0,0:0:0:0:
129,154,157453,1,8,0:0:0:0:
2,25,157894,6,0,B|41:59|41:59|147:38,1,135,4|0,0:1|0:0,0:0:0:0:
148,5,158335,1,8,0:0:0:0:
250,92,158666,2,0,L|235:207,1,89.9999999999999,4|0,0:1|0:0,0:0:0:0:
266,217,158997,1,0,0:0:0:0:
304,298,159217,2,0,L|300:342,2,45,8|8|2,0:0|0:0|0:0,0:0:0:0:
387,263,159659,5,4,3:1:0:0:
438,293,167600,5,14,0:1:0:0:
350,311,167820,1,0,0:0:0:0:
269,270,168041,2,0,L|285:149,1,89.9999999999999,10|0,0:0|0:0,0:0:0:0:
228,107,168482,5,10,0:0:0:0:
150,61,168703,1,0,0:0:0:0:
62,79,168923,1,10,0:0:0:0:
12,154,169144,1,0,0:0:0:0:
26,242,169364,1,10,0:0:0:0:
100,292,169585,6,0,B|175:269|175:269|203:297|203:297|297:298,1,180,4|2,0:1|0:0,0:0:0:0:
345,257,170247,2,0,B|373:222|373:222|365:158,1,89.9999999999999,8|2,0:0|0:0,0:0:0:0:
281,151,170688,2,0,L|182:136,1,89.9999999999999,8|2,0:0|0:0,0:0:0:0:
120,192,171129,2,0,L|21:207,1,89.9999999999999,8|2,0:0|0:0,0:0:0:0:
52,293,171570,5,14,0:1:0:0:
140,311,171791,1,0,0:0:0:0:
221,270,172011,2,0,L|205:149,1,89.9999999999999,10|0,0:0|0:0,0:0:0:0:
261,107,172453,5,10,0:0:0:0:
340,61,172673,1,0,0:0:0:0:
428,79,172894,1,10,0:0:0:0:
478,154,173114,1,0,0:0:0:0:
464,242,173335,1,10,0:0:0:0:
395,301,173556,6,0,B|286:258|286:258|227:295,1,180,6|2,0:1|0:0,0:0:0:0:
163,234,174217,2,0,P|136:188|156:128,1,89.9999999999999,8|2,0:0|0:0,0:0:0:0:
81,83,174659,2,0,L|178:73,1,89.9999999999999,8|2,0:0|0:0,0:0:0:0:
246,25,175100,5,8,0:0:0:0:
333,43,175320,1,10,0:0:0:0:
272,110,175541,1,4,0:1:0:0:
353,264,176864,6,0,L|466:268,2,89.9999999999999,8|8|12,0:0|0:0|0:0,0:0:0:0:
278,315,177526,1,12,0:0:0:0:
220,245,177747,2,0,B|247:211|247:211|228:130,1,89.9999999999999,8|8,0:0|0:0,0:0:0:0:
275,143,178078,2,0,P|243:95|297:34,1,135,8|8,0:0|0:0,0:0:0:0:
295,0,178519,5,4,0:1:0:0:
493,299,179401,5,8,0:0:0:0:
473,210,179621,1,8,0:0:0:0:
397,259,179842,2,0,B|343:263|343:263|311:251|311:251|253:273,1,135,8|8,0:0|0:0,0:0:0:0:
225,250,180283,6,0,B|184:281|184:281|203:374,1,135,4|8,0:1|0:0,0:0:0:0:
112,380,180834,2,0,P|73:347|80:283,1,89.9999999999999,0|8,0:0|0:0,0:0:0:0:
28,288,181165,5,2,0:0:0:0:
71,209,181386,1,2,0:0:0:0:
23,133,181606,1,2,0:0:0:0:
68,55,181827,2,0,L|130:68,1,45,0|8,0:0|0:0,0:0:0:0:
148,37,182048,6,0,P|196:56|213:140,1,135,4|8,0:1|0:0,0:0:0:0:
240,218,182599,2,0,B|289:232|289:232|339:203,1,89.9999999999999,0|8,0:0|0:0,0:0:0:0:
360,187,182930,2,0,P|346:124|391:78,1,135,2|8,0:0|0:0,0:0:0:0:
466,131,183481,1,0,0:0:0:0:
474,222,183702,1,8,0:0:0:0:
474,222,183812,6,0,B|463:276|463:276|475:300|475:300|462:384,1,135,2|8,0:0|0:0,0:0:0:0:
376,354,184364,2,0,B|336:336|336:336|259:367,1,89.9999999999999,0|8,0:0|0:0,0:0:0:0:
267,315,184695,1,2,0:0:0:0:
186,276,184915,6,0,L|179:216,1,45,0|8,0:0|0:0,0:0:0:0:
197,190,185136,1,2,0:0:0:0:
145,119,185356,2,0,L|152:59,1,45,8|8,0:0|0:0,0:0:0:0:
180,40,185577,2,0,B|237:58|237:58|253:41|253:41|318:50,1,135,4|8,0:1|0:0,0:0:0:0:
369,111,186129,6,0,B|388:154|388:154|358:211,1,89.9999999999999,0|8,0:0|0:0,0:0:0:0:
325,207,186459,2,0,L|166:183,1,135,2|8,0:0|0:0,0:0:0:0:
129,252,187011,2,0,B|112:296|112:296|139:350,1,89.9999999999999,0|8,0:0|0:0,0:0:0:0:
163,366,187342,2,0,L|340:343,1,135,2|8,0:0|0:0,0:0:0:0:
313,259,187893,6,0,P|331:213|295:177,1,89.9999999999999,0|8,0:0|0:0,0:0:0:0:
327,141,188224,2,0,B|389:171|389:171|456:133,1,135,2|8,0:0|0:0,0:0:0:0:
490,149,188665,1,0,0:0:0:0:
512,65,188886,2,0,L|450:46,1,45,0|8,0:0|0:0,0:0:0:0:
434,22,189106,2,0,B|371:31|371:31|341:17|341:17|282:38,1,135,4|8,0:1|0:0,0:0:0:0:
216,13,189658,6,0,P|199:53|230:102,1,89.9999999999999,0|8,0:0|0:0,0:0:0:0:
184,124,189989,2,0,B|95:150|95:150|38:127,1,135,2|8,0:0|0:0,0:0:0:0:
23,218,190540,2,0,P|44:259|11:324,1,89.9999999999999,0|8,0:0|0:0,0:0:0:0:
77,314,190871,2,0,B|169:292|169:292|219:315,1,135,2|8,0:0|0:0,0:0:0:0:
285,362,191423,5,0,0:0:0:0:
285,362,191533,1,0,0:0:0:0:
296,272,191754,1,4,0:1:0:0:
306,182,191974,1,0,0:0:0:0:
317,92,192195,2,0,B|262:92|262:92|237:74|237:74|166:78,1,135,2|8,0:0|0:0,0:0:0:0:
155,108,192636,1,2,0:0:0:0:
90,324,193629,6,0,L|216:305,1,89.9999999999999,8|8,0:0|0:0,0:0:0:0:
219,332,193959,1,2,0:0:0:0:
284,268,194180,2,0,B|251:228|251:228|265:159,1,89.9999999999999,2|2,0:0|0:0,0:0:0:0:
285,153,194511,6,0,B|253:149|253:149|235:137|235:137|189:141,1,89.9999999999999,10|10,0:0|0:0,0:0:0:0:
165,169,194841,2,0,B|132:164|132:164|114:153|114:153|69:156,1,89.9999999999999
43,127,195172,2,0,L|53:274,2,135,10|0|10,0:0|0:0|0:0,0:0:0:0:
114,70,196055,5,10,0:0:0:0:
114,70,196165,2,0,P|134:28|226:26,1,135,0|10,0:0|0:0,0:0:0:0:
265,92,196716,1,12,0:1:0:0:
300,9,196937,1,12,0:1:0:0:
389,20,197158,6,0,B|403:50|403:50|390:110,1,89.9999999999999,10|10,0:0|0:0,0:0:0:0:
414,144,197488,2,0,B|399:172|399:172|408:234,1,89.9999999999999
440,260,197819,2,0,P|446:322|508:341,2,135,10|0|10,0:0|0:0|0:0,0:0:0:0:
358,292,198702,5,10,0:0:0:0:
358,292,198812,2,0,L|214:268,1,135,4|8,0:1|0:0,0:0:0:0:
167,335,199363,1,8,0:0:0:0:
107,271,199584,2,0,B|76:253|76:253|56:258|56:258|-2:247,1,89.9999999999999,8|0,0:0|0:0,0:0:0:0:
6,163,200025,2,0,P|8:142|13:110,2,45,8|0|12,0:0|0:0|0:1,0:0:0:0:
95,169,200466,6,0,B|126:151|126:151|146:156|146:156|204:145,1,89.9999999999999,10|10,0:0|0:0,0:0:0:0:
199,109,200797,2,0,B|230:91|230:91|250:96|250:96|308:85,1,89.9999999999999
319,120,201128,2,0,P|407:98|407:43,2,135,10|0|10,0:0|0:0|0:0,0:0:0:0:
372,200,202011,5,10,0:0:0:0:
372,200,202121,2,0,L|357:342,1,135,0|10,0:0|0:0,0:0:0:0:
269,351,202672,1,12,0:1:0:0:
184,374,202893,1,12,0:1:0:0:
121,311,203113,6,0,B|107:288|62:282|34:301,1,89.9999999999999,10|10,0:0|0:0,0:0:0:0:
25,257,203444,2,0,B|30:230|66:202|92:208,1,89.9999999999999
112,165,203775,2,0,L|95:29,2,135,10|0|10,0:0|0:0|0:0,0:0:0:0:
198,131,204658,5,10,0:0:0:0:
198,131,204768,2,0,B|239:118|239:118|288:143,1,89.9999999999999,4|0,0:1|0:0,0:0:0:0:
322,120,205099,1,8,0:0:0:0:
406,150,205319,1,8,0:0:0:0:
400,239,205540,2,0,B|358:226|358:226|314:248,1,89.9999999999999,4|0,0:0|0:0,0:0:0:0:
270,330,205981,2,0,L|261:385,2,45,8|8|8,0:0|0:0|0:0,0:0:0:0:
202,262,206397,5,4,0:1:0:0:
256,192,206507,12,0,208161,0:0:0:0:
