osu file format v14

[General]
AudioFilename: audio.mp3
AudioLeadIn: 0
PreviewTime: 68777
Countdown: 0
SampleSet: Drum
StackLeniency: 0.6
Mode: 0
LetterboxInBreaks: 0
WidescreenStoryboard: 1

[Editor]
Bookmarks: 3924,8335,20252,27310,34369,43189,60836,71755,87747,99659,106717,115431,131423,138482,152600,159659,178519,194511,206397
DistanceSpacing: 0.7
BeatDivisor: 4
GridSize: 8
TimelineZoom: 2

[Metadata]
Title:Naikan Uchuu Shisha no Yurikago
TitleUnicode:内観宇宙死者のゆりかご
Artist:Yousei Teikoku
ArtistUnicode:妖精帝國
Creator:IsomirDiAngelo
Version:Insane
Source:
Tags:osu osu! world cup owc finals hr3 atalanta talulah fairy empire das feenreich flamma idola yui itsuki japanese rock metal jrock gothic
BeatmapID:3508565
BeatmapSetID:1306595

[Difficulty]
HPDrainRate:4
CircleSize:3.6
OverallDifficulty:8
ApproachRate:9
SliderMultiplier:1.4
SliderTickRate:1

[Events]
//Background and Video events
0,0,"suigintou6b.jpg",0,0
//Break Periods
2,87947,93041
//Storyboard Layer 0 (Background)
//Storyboard Layer 1 (Fail)
//Storyboard Layer 2 (Pass)
//Storyboard Layer 3 (Foreground)
//Storyboard Layer 4 (Overlay)
//Storyboard Sound Samples

[TimingPoints]
408,219.78021978022,4,3,1,70,1,0
3924,220.588235294118,4,3,1,70,1,0
3924,-125,4,3,1,70,0,0
4254,-100,4,3,1,70,0,0
4806,-125,4,3,1,70,0,0
5137,-100,4,3,1,70,0,0
5688,-125,4,3,1,70,0,0
6019,-100,4,3,1,70,0,0
6571,-125,4,3,1,70,0,0
6901,-100,4,3,1,70,0,0
8335,220.588235294118,3,3,1,70,1,0
10540,-83.3333333333333,3,3,1,70,0,0
10982,-100,3,3,1,70,0,0
12967,212.765957446809,4,3,1,70,1,0
12967,-83.3333333333333,4,3,1,70,0,0
13392,272.727272727273,4,3,1,70,1,0
13664,208.333333333333,4,3,1,70,1,0
14080,215.827338129496,4,3,1,70,1,0
14297,220.588235294118,3,3,1,70,1,0
20252,220.588235294118,4,3,1,70,1,0
34369,-83.3333333333333,4,3,1,70,0,0
40766,206.896551724138,4,3,1,70,1,0
41179,230.769230769231,4,3,1,70,1,0
41294,220.588235294118,4,3,1,70,1,0
41294,-166.666666666667,4,3,1,70,0,0
42286,225.563909774436,4,3,1,70,1,0
43189,220.588235294118,4,3,1,70,1,0
60836,-125,4,2,1,70,0,0
70100,-100,4,3,1,70,0,0
71755,-83.3333333333333,4,3,1,70,0,1
71865,220.588235294118,4,3,1,70,1,1
71865,-83.3333333333333,4,3,1,70,0,1
84990,-76.9230769230769,4,3,1,70,0,1
85872,-100,4,3,1,70,0,0
87747,220.588235294118,3,3,1,70,1,0
95908,-83.3333333333333,3,3,1,70,0,0
96349,-100,3,3,1,70,0,0
99659,220.588235294118,4,3,1,70,1,0
106717,-83.3333333333333,4,3,1,70,0,0
115431,-83.3333333333333,4,3,1,70,0,1
128666,-76.9230769230769,4,3,1,70,0,1
129548,-100,4,3,1,70,0,0
131423,-100,4,3,1,70,0,0
134953,-125,4,3,1,70,0,0
138482,-90.9090909090909,4,3,1,70,0,0
152600,-142.857142857143,4,3,1,70,0,0
153372,-90.9090909090909,4,3,1,70,0,0
154364,-142.857142857143,4,3,1,70,0,0
155136,-90.9090909090909,4,3,1,70,0,0
156129,-111.111111111111,4,3,1,70,0,0
159659,-100,4,2,1,70,0,0
167600,-100,4,3,1,70,0,0
178629,220.588235294118,4,3,1,70,1,0
180283,-83.3333333333333,4,3,1,70,0,1
191754,-76.9230769230769,4,3,1,70,0,1
192636,-100,4,3,1,70,0,0
194511,220.588235294118,3,3,1,70,1,0
196716,-83.3333333333333,3,3,1,70,0,0
197158,-100,3,3,1,70,0,0
202672,-83.3333333333333,3,3,1,70,0,0
203113,-100,3,3,1,70,0,0
205981,208.333333333333,4,3,1,70,1,0
206397,220.588235294118,4,3,1,70,1,0

[Colours]
Combo1 : 194,48,22
Combo2 : 220,199,219
Combo3 : 233,226,103
Combo4 : 151,134,111

[HitObjects]
269,126,3924,6,0,B|323:118|323:118|335:122|335:122|394:113,1,112,8|0,0:0|0:0,0:0:0:0:
393,92,4254,1,8,0:0:0:0:
283,105,4475,1,8,0:0:0:0:
155,120,4696,5,0,0:0:0:0:
134,132,4806,2,0,B|124:185|124:185|127:191|127:191|114:254,1,112,8|0,0:0|0:0,0:0:0:0:
91,260,5137,1,8,0:0:0:0:
145,366,5357,1,8,0:0:0:0:
258,318,5578,5,0,0:0:0:0:
283,339,5688,2,0,B|331:330|331:330|353:348|353:348|411:352,1,112,8|0,0:0|0:0,0:0:0:0:
406,371,6019,1,8,0:0:0:0:
431,247,6240,1,8,0:0:0:0:
447,118,6460,5,0,0:0:0:0:
426,138,6571,2,0,B|389:125|389:125|361:139|361:139|301:130,1,112,8|0,0:0|0:0,0:0:0:0:
300,158,6901,1,8,0:0:0:0:
187,219,7122,1,8,0:0:0:0:
102,113,7343,5,0,0:0:0:0:
73,95,7453,2,0,L|72:44,10,35,8|8|4|4|4|4|0|4|4|4|0,0:0|0:0|0:0|0:0|0:0|0:0|0:0|0:0|0:0|0:0|0:0,0:0:0:0:
43,112,8115,2,0,B|37:147|37:147|39:152|39:152|30:207,1,70,4|0,0:0|0:0,0:0:0:0:
127,242,8335,6,0,B|164:227|164:227|204:250,1,70,14|0,0:1|0:0,0:0:0:0:
251,159,8555,1,10,0:0:0:0:
251,159,8665,2,0,B|245:198|245:198|204:221,2,70,0|10|0,0:0|0:0|0:0,0:0:0:0:
260,307,8996,2,0,B|228:281|228:281|228:235,1,70,10|0,0:0|0:0,0:0:0:0:
354,241,9217,1,10,0:0:0:0:
354,241,9327,2,0,B|391:226|391:226|431:249,1,70,0|10,0:0|0:0,0:0:0:0:
366,360,9548,5,0,0:0:0:0:
366,360,9658,2,0,B|197:347,1,140,10|10,0:0|0:0,0:0:0:0:
132,364,9989,1,0,0:0:0:0:
83,361,10099,1,10,0:0:0:0:
45,329,10210,1,0,0:0:0:0:
38,280,10320,2,0,L|49:194,1,70,10|0,0:0|0:0,0:0:0:0:
88,112,10540,6,0,B|49:104|49:104|38:115|38:115|-5:108,1,83.9999974365235,12|0,0:1|0:0,0:0:0:0:
159,163,10761,2,0,B|198:171|198:171|209:160|209:160|252:167,1,83.9999974365235,12|0,0:1|0:0,0:0:0:0:
311,95,10982,6,0,B|318:76|318:76|307:16,1,70,10|0,0:0|0:0,0:0:0:0:
381,166,11202,1,10,0:0:0:0:
381,166,11312,2,0,B|466:156,2,70,0|10|0,0:0|0:0|0:0,0:0:0:0:
306,219,11643,2,0,B|299:238|299:238|310:298,1,70,10|0,0:0|0:0,0:0:0:0:
377,373,11864,1,10,0:0:0:0:
328,369,11974,1,0,0:0:0:0:
278,365,12085,1,10,0:0:0:0:
229,360,12195,1,0,0:0:0:0:
180,356,12305,2,0,B|191:311|191:311|186:288,1,70,10|0,0:0|0:0,0:0:0:0:
146,173,12526,5,10,0:0:0:0:
74,201,12636,2,0,P|15:171|36:88,1,140,4|0,0:1|0:0,0:0:0:0:
114,16,12967,6,0,B|103:54|103:54|111:66|111:66|101:110,1,83.9999974365235,8|0,0:0|0:0,0:0:0:0:
223,94,13179,2,0,B|212:56|212:56|220:44|220:44|210:0,1,83.9999974365235,8|0,0:0|0:0,0:0:0:0:
346,78,13392,6,0,L|389:83,4,35,8|8|4|4|12,0:0|0:0|0:0|0:0|0:0,0:0:0:0:
312,164,13768,5,0,0:0:0:0:
312,164,13872,2,0,B|301:201|301:201|306:208|306:208|299:238,1,70,8|0,0:0|0:0,0:0:0:0:
378,362,14080,2,0,B|389:325|389:325|384:318|384:318|391:288,1,70,8|0,0:0|0:0,0:0:0:0:
241,323,14297,6,0,L|146:333,1,70,10|0,0:0|0:0,0:0:0:0:
87,272,14517,1,10,0:0:0:0:
87,272,14627,2,0,L|17:220,2,70,0|10|0,0:0|0:0|0:0,0:0:0:0:
67,151,14958,2,0,L|77:73,1,70,10|0,0:0|0:0,0:0:0:0:
185,62,15179,1,10,0:0:0:0:
185,62,15289,2,0,L|268:41,1,70,0|10,0:0|0:0,0:0:0:0:
339,105,15510,5,0,0:0:0:0:
339,105,15620,2,0,L|485:146,1,140,10|10,0:0|0:0,0:0:0:0:
451,245,15951,1,0,0:0:0:0:
432,290,16061,1,10,0:0:0:0:
436,339,16172,1,0,0:0:0:0:
425,384,16282,2,0,B|378:383|378:383|351:364,1,70,10|0,0:0|0:0,0:0:0:0:
267,269,16502,6,0,L|357:263,1,70,12|0,0:1|0:0,0:0:0:0:
116,237,16723,2,0,L|206:243,1,70,12|0,0:1|0:0,0:0:0:0:
34,289,16944,6,0,B|21:350|21:350|24:383,1,70,10|0,0:0|0:0,0:0:0:0:
26,159,17164,1,10,0:0:0:0:
26,159,17274,2,0,B|39:98|39:98|36:65,2,70,0|10|0,0:0|0:0|0:0,0:0:0:0:
141,158,17605,2,0,B|154:219|154:219|151:252,1,70,10|0,0:0|0:0,0:0:0:0:
226,357,17826,1,10,0:0:0:0:
274,361,17936,1,0,0:0:0:0:
307,324,18047,1,10,0:0:0:0:
308,275,18157,1,0,0:0:0:0:
291,229,18267,2,0,B|304:168|304:168|301:135,1,70,10|0,0:0|0:0,0:0:0:0:
386,34,18488,5,10,0:0:0:0:
457,62,18598,2,0,B|401:51|350:39|350:39|287:40,1,140,4|0,0:1|0:0,0:0:0:0:
193,12,18929,6,0,L|203:93,1,70,8|0,0:0|0:0,0:0:0:0:
164,167,19149,2,0,L|158:259,1,70,8|0,0:0|0:0,0:0:0:0:
251,344,19370,6,0,L|293:339,2,35,8|8|0,0:0|0:0|0:0,0:0:0:0:
316,300,19591,2,0,L|358:295,2,35,8|8|0,0:0|0:0|0:0,0:0:0:0:
390,335,19811,5,8,0:0:0:0:
469,333,19922,1,8,0:0:0:0:
494,261,20032,1,2,0:0:0:0:
404,77,20252,6,0,B|425:73|425:73|491:71,2,70,4|0|0,0:1|0:0|0:0,0:0:0:0:
311,30,20582,2,0,B|332:34|332:34|398:36,2,70,4|0|0,0:0|0:0|0:0,0:0:0:0:
232,76,20913,2,0,B|253:72|253:72|319:70,2,70,4|0|0,0:0|0:0|0:0,0:0:0:0:
135,35,21244,2,0,B|156:39|156:39|222:41,2,70,4|0|0,0:0|0:0|0:0,0:0:0:0:
47,62,21575,5,4,0:0:0:0:
26,102,21685,1,0,0:0:0:0:
60,132,21796,5,8,0:0:0:0:
81,172,21906,1,0,0:0:0:0:
23,250,22016,6,0,L|15:343,2,70,12|0|0,0:1|0:0|0:0,0:0:0:0:
74,372,22347,2,0,L|66:279,2,70,4|0|0,0:0|0:0|0:0,0:0:0:0:
124,233,22678,2,0,L|116:326,2,70,4|0|0,0:0|0:0|0:0,0:0:0:0:
176,372,23009,2,0,L|168:279,2,70,4|0|0,0:0|0:0|0:0,0:0:0:0:
260,317,23340,5,4,0:0:0:0:
306,332,23450,1,0,0:0:0:0:
305,257,23560,5,8,0:0:0:0:
259,272,23670,1,0,0:0:0:0:
200,198,23781,6,0,B|168:202|136:191|118:163,2,70,12|0|0,0:1|0:0|0:0,0:0:0:0:
152,91,24112,2,0,B|148:59|159:27|187:9,2,70,4|0|0,0:0|0:0|0:0,0:0:0:0:
254,59,24443,2,0,B|286:55|318:66|336:94,2,70,4|0|0,0:0|0:0|0:0,0:0:0:0:
295,162,24774,2,0,B|299:194|288:226|260:244,2,70,4|0|0,0:0|0:0|0:0,0:0:0:0:
390,144,25104,5,4,0:0:0:0:
435,134,25215,1,0,0:0:0:0:
461,171,25325,5,8,0:0:0:0:
471,216,25436,1,0,0:0:0:0:
403,276,25546,6,0,B|400:337|400:337|411:369,2,70,12|0|0,0:1|0:0|0:0,0:0:0:0:
273,309,25877,2,0,B|212:306|212:306|180:317,2,70,4|0|0,0:0|0:0|0:0,0:0:0:0:
205,179,26207,2,0,B|208:118|208:118|197:86,2,70,4|0|0,0:0|0:0|0:0,0:0:0:0:
344,119,26538,2,0,B|405:122|405:122|437:111,2,70,4|0|0,0:0|0:0|0:0,0:0:0:0:
310,218,26869,6,0,B|331:216|331:216|314:225,2,35,8|0|0,0:0|0:0|0:0,0:0:0:0:
269,316,27090,2,0,B|208:313|208:313|176:324,1,70,12|0,0:1|0:0,0:0:0:0:
101,257,27310,6,0,P|103:216|111:167,1,70,4|0,0:1|0:0,0:0:0:0:
40,112,27531,1,8,0:0:0:0:
40,112,27641,2,0,P|38:71|30:22,1,70,0|0,0:1|0:0,0:0:0:0:
130,38,27862,1,0,0:1:0:0:
154,20,27972,1,8,0:0:0:0:
175,43,28082,2,0,P|173:84|165:133,1,70,0|0,0:1|0:0,0:0:0:0:
237,188,28303,5,0,0:0:0:0:
276,211,28413,1,8,0:0:0:0:
324,215,28524,1,0,0:0:0:0:
361,185,28634,2,0,L|265:174,1,70
443,153,28854,2,0,L|455:312,1,140,8|0,0:0|0:0,0:0:0:0:
381,354,29185,6,0,B|353:324|353:324|362:283,1,70,0|8,0:0|0:0,0:0:0:0:
256,268,29406,2,0,L|266:350,1,70
151,233,29627,2,0,L|161:315,1,70
222,162,29847,2,0,L|232:244,1,70,0|2,0:0|0:0,0:0:0:0:
106,141,30068,2,0,L|116:223,1,70,2|10,0:0|0:0,0:0:0:0:
32,98,30288,5,2,0:0:0:0:
30,47,30399,1,2,0:0:0:0:
69,15,30509,1,2,0:0:0:0:
117,16,30619,2,0,L|27:3,1,70,10|2,0:0|0:0,0:0:0:0:
196,68,30840,6,0,B|302:67|302:67|350:52,1,140,4|8,0:1|0:0,0:0:0:0:
395,2,31171,2,0,B|396:108|396:108|411:156,1,140
353,223,31502,1,8,0:0:0:0:
353,223,31612,2,0,B|296:226|296:226|265:237,1,70
186,184,31832,5,0,0:0:0:0:
168,231,31943,1,8,0:0:0:0:
189,273,32053,1,0,0:0:0:0:
165,318,32163,2,0,B|167:362|167:362|184:392,1,70
63,323,32384,2,0,L|54:158,1,140,8|0,0:0|0:0,0:0:0:0:
21,65,32715,5,0,0:0:0:0:
21,65,32825,1,8,0:0:0:0:
21,65,32935,2,0,B|56:59|56:59|98:60,1,70
192,92,33156,5,0,0:0:0:0:
192,92,33266,1,8,0:0:0:0:
192,92,33376,2,0,B|157:98|157:98|115:97,1,70,0|2,0:0|0:0,0:0:0:0:
261,35,33597,5,2,0:0:0:0:
318,22,33707,1,10,0:0:0:0:
377,37,33818,1,2,0:0:0:0:
412,86,33928,1,2,0:0:0:0:
407,145,34038,1,2,0:0:0:0:
389,202,34149,2,0,L|399:248,2,35,10|8|8,0:0|0:0|0:0,0:0:0:0:
302,260,34369,6,0,B|259:248|259:248|253:249|253:249|210:236,1,83.9999974365235,4|8,0:1|0:0,0:0:0:0:
154,169,34590,2,0,B|111:157|111:157|105:158|105:158|62:145,1,83.9999974365235,0|8,0:0|0:0,0:0:0:0:
136,249,34810,6,0,B|124:291|124:291|125:297|125:297|112:341,1,83.9999974365235,2|8,0:0|0:0,0:0:0:0:
243,158,35031,2,0,B|254:115|254:115|253:109|253:109|267:66,1,83.9999974365235,0|8,0:0|0:0,0:0:0:0:
452,39,35252,6,0,B|442:71|442:71|442:76|442:76|431:119,1,83.9999974365235,2|8,0:0|0:0,0:0:0:0:
339,249,35473,2,0,B|348:216|348:216|348:211|348:211|359:168,1,83.9999974365235,0|8,0:0|0:0,0:0:0:0:
299,106,35693,6,0,B|331:115|331:115|336:115|336:115|379:126,1,83.9999974365235,2|8,0:0|0:0,0:0:0:0:
408,163,35914,2,0,B|440:172|440:172|445:172|445:172|488:183,1,83.9999974365235,0|8,0:0|0:0,0:0:0:0:
398,336,36134,5,4,0:1:0:0:
398,336,36244,1,8,0:0:0:0:
398,336,36354,2,0,P|351:341|291:353,1,83.9999974365235,0|8,0:0|0:0,0:0:0:0:
198,339,36575,1,0,0:0:0:0:
162,308,36685,1,8,0:0:0:0:
127,282,36796,2,0,P|90:252|39:218,1,83.9999974365235,0|8,0:0|0:0,0:0:0:0:
107,66,37016,5,2,0:0:0:0:
149,38,37127,1,10,0:0:0:0:
197,50,37237,1,2,0:0:0:0:
218,95,37347,1,10,0:0:0:0:
261,120,37457,1,2,0:0:0:0:
308,101,37568,1,10,0:0:0:0:
322,52,37678,1,2,0:0:0:0:
367,30,37788,1,10,0:0:0:0:
411,54,37899,6,0,P|413:102|419:173,1,83.9999974365235,4|8,0:1|0:0,0:0:0:0:
362,210,38119,2,0,P|360:258|354:329,1,83.9999974365235,0|8,0:0|0:0,0:0:0:0:
263,271,38340,6,0,P|261:223|255:152,1,83.9999974365235,2|8,0:0|0:0,0:0:0:0:
272,63,38560,2,0,P|270:111|264:182,1,83.9999974365235,0|8,0:0|0:0,0:0:0:0:
153,139,38781,6,0,P|150:97|149:56,1,83.9999974365235,2|8,0:0|0:0,0:0:0:0:
162,180,39001,2,0,P|159:222|158:264,1,83.9999974365235,0|8,0:0|0:0,0:0:0:0:
22,231,39222,6,0,P|19:189|17:147,1,83.9999974365235,2|8,0:0|0:0,0:0:0:0:
44,153,39442,2,0,P|46:111|48:69,1,83.9999974365235,0|8,0:0|0:0,0:0:0:0:
77,346,39663,5,4,0:1:0:0:
119,343,39774,1,8,0:0:0:0:
160,341,39884,1,0,0:0:0:0:
202,337,39994,2,0,P|203:296|206:239,1,83.9999974365235,8|0,0:0|0:0,0:0:0:0:
402,246,40215,5,8,0:0:0:0:
352,251,40325,1,0,0:0:0:0:
302,257,40435,1,8,0:0:0:0:
249,265,40546,2,0,P|248:232|245:186,4,41.9999987182618,8|0|0|0|0,0:0|0:0|0:0|0:0|0:0,0:0:0:0:
145,156,40869,5,4,0:0:0:0:
79,129,40972,2,0,P|46:92|48:45,1,70,8|8,0:0|0:0,0:0:0:0:
213,107,41179,5,8,0:0:0:0:
285,91,41294,2,0,P|374:139|350:386,1,377.999988464356,4|0,0:1|2:0,2:0:0:0:
373,94,43189,6,0,B|315:88|315:88|293:76,1,70,4|0,0:1|0:0,0:0:0:0:
267,12,43409,1,0,0:0:0:0:
267,12,43519,2,0,L|250:154,2,140,2|2|2,0:0|0:0|0:0,0:0:0:0:
144,100,44071,6,0,B|202:94|202:94|224:82,1,70,4|0,0:1|0:0,0:0:0:0:
268,160,44291,1,0,0:0:0:0:
268,160,44401,2,0,L|285:302,2,140,2|2|2,0:0|0:0|0:0,0:0:0:0:
132,351,44953,5,4,0:1:0:0:
105,345,45064,1,0,0:0:0:0:
75,337,45174,1,0,0:0:0:0:
46,329,45284,2,0,L|29:184,1,140,2|2,0:0|0:0,0:0:0:0:
158,332,45725,1,2,0:0:0:0:
115,357,45836,5,4,0:1:0:0:
88,351,45947,1,0,0:0:0:0:
58,343,46057,1,0,0:0:0:0:
29,335,46167,2,0,L|12:190,1,140,2|2,0:0|0:0,0:0:0:0:
178,276,46608,1,2,0:0:0:0:
203,305,46718,6,0,B|256:301|256:301|284:311,1,70,4|0,0:1|0:0,0:0:0:0:
323,229,46939,1,0,0:0:0:0:
323,229,47049,2,0,P|354:154|425:146,2,140,2|2|2,0:0|0:0|0:0,0:0:0:0:
227,186,47600,6,0,B|174:182|174:182|146:192,1,70,4|0,0:1|0:0,0:0:0:0:
107,110,47821,1,0,0:0:0:0:
107,110,47931,2,0,P|76:35|5:27,2,140,2|2|2,0:0|0:0|0:0,0:0:0:0:
8,234,48483,5,4,0:1:0:0:
28,238,48593,1,0,0:0:0:0:
48,242,48703,1,0,0:0:0:0:
68,247,48814,2,0,B|79:298|94:370|94:370|83:387,2,140,2|2|2,0:0|0:0|0:0,0:0:0:0:
193,150,49365,5,4,0:1:0:0:
173,154,49475,1,0,0:0:0:0:
153,158,49585,1,0,0:0:0:0:
133,163,49696,2,0,B|122:214|106:286|106:286|118:303,2,140,2|2|0,0:0|0:0|0:0,0:0:0:0:
88,38,50247,5,4,0:1:0:0:
96,50,50358,2,0,B|126:45|126:45|208:54|208:54|240:48,1,140
326,0,50689,5,8,0:0:0:0:
311,0,50800,2,0,B|300:28|300:28|251:94|251:94|240:125,1,140
240,226,51130,5,4,0:1:0:0:
247,213,51241,2,0,B|227:189|227:189|194:114|194:114|173:89,1,140
29,181,51571,5,12,0:1:0:0:
0,212,51681,1,2,0:0:0:0:
22,251,51791,1,2,0:0:0:0:
237,356,52012,6,0,P|277:351|322:346,1,70,4|0,0:1|0:0,0:0:0:0:
393,313,52233,1,0,0:0:0:0:
393,313,52343,2,0,B|363:292|363:292|355:250|344:167,2,140,2|2|2,0:0|0:0|0:0,0:0:0:0:
274,269,52894,6,0,P|234:264|189:259,1,70,4|0,0:1|0:0,0:0:0:0:
118,226,53115,1,0,0:0:0:0:
118,226,53225,2,0,B|148:205|148:205|156:163|167:80,2,140,2|2|2,0:0|0:0|0:0,0:0:0:0:
36,88,53777,5,4,0:1:0:0:
63,82,53887,1,0,0:0:0:0:
90,77,53997,1,0,0:0:0:0:
117,72,54108,2,0,B|240:107|240:107|282:109,1,140,2|2,0:0|0:0,0:0:0:0:
14,120,54549,1,2,0:0:0:0:
31,73,54659,5,4,0:1:0:0:
58,67,54769,1,0,0:0:0:0:
85,62,54879,1,0,0:0:0:0:
112,57,54990,2,0,B|235:92|235:92|277:94,1,140,2|2,0:0|0:0,0:0:0:0:
435,30,55431,1,2,0:0:0:0:
405,50,55541,6,0,B|404:106|404:106|415:131,1,70,4|0,0:1|0:0,0:0:0:0:
343,171,55762,1,0,0:0:0:0:
343,171,55872,2,0,L|506:191,2,140,2|2|2,0:0|0:0|0:0,0:0:0:0:
245,144,56424,6,0,B|246:200|246:200|235:225,1,70,4|0,0:1|0:0,0:0:0:0:
307,265,56645,1,0,0:0:0:0:
307,265,56755,2,0,L|144:285,2,140,2|2|2,0:0|0:0|0:0,0:0:0:0:
269,363,57306,5,4,0:1:0:0:
248,358,57416,1,0,0:0:0:0:
227,353,57527,1,0,0:0:0:0:
204,348,57637,2,0,B|208:319|208:319|193:184,2,140,2|2|2,0:0|0:0|0:0,0:0:0:0:
81,242,58189,5,4,0:1:0:0:
102,237,58299,1,0,0:0:0:0:
123,232,58410,1,0,0:0:0:0:
146,227,58520,2,0,B|142:198|142:198|157:63,2,140,2|2|2,0:0|0:0|0:0,0:0:0:0:
242,333,59071,6,0,B|293:337|293:337|316:319|316:319|352:325|392:303,1,140,4|0,0:1|0:0,0:0:0:0:
402,279,59402,1,0,0:0:0:0:
472,248,59512,6,0,B|449:201|449:201|422:190|422:190|410:156|371:133,1,140,12|0,0:0|0:0,0:0:0:0:
345,136,59843,1,0,0:0:0:0:
280,90,59953,6,0,B|251:132|251:132|255:161|255:161|231:189|230:234,1,140,4|0,0:0|0:0,0:0:0:0:
246,255,60284,1,0,0:0:0:0:
209,327,60394,5,12,0:1:0:0:
151,336,60505,1,8,0:0:0:0:
105,304,60615,1,4,0:0:0:0:
109,260,60725,1,4,0:0:0:0:
122,238,60836,6,0,P|122:273|111:369,1,112,4|0,3:1|0:0,0:0:0:0:
86,226,61166,1,0,3:0:0:0:
86,226,61277,2,0,P|85:190|89:157,1,56
28,109,61497,5,8,0:1:0:0:
140,8,61718,2,0,B|202:12|192:50|267:38,1,112,0|2,3:0|0:3,0:0:0:0:
397,112,62159,1,2,0:3:0:0:
355,0,62380,1,0,3:0:0:0:
277,144,62600,1,8,0:1:0:0:
382,331,62821,6,0,B|434:341|456:281|425:236,1,112,0|0,3:0|0:0,0:0:0:0:
456,161,63152,1,4,0:3:0:0:
456,161,63262,2,0,B|407:151|385:211|406:235,1,112,0|0,0:0|3:0,0:0:0:0:
244,261,63703,5,8,0:1:0:0:
183,194,63924,1,0,3:0:0:0:
352,137,64144,5,8,0:1:0:0:
345,222,64365,1,0,3:0:0:0:
213,91,64586,5,8,0:1:0:0:
300,66,64806,2,0,P|345:76|429:87,1,112,0|0,3:0|0:0,0:0:0:0:
285,25,65137,1,0,3:0:0:0:
285,25,65247,2,0,P|246:22|207:14,1,56
141,35,65468,5,8,0:1:0:0:
46,179,65689,2,0,P|95:168|168:154,1,112,0|2,3:0|0:3,0:0:0:0:
341,196,66130,1,2,0:3:0:0:
241,265,66350,1,0,3:0:0:0:
250,113,66571,1,8,3:1:0:0:
443,73,66791,6,0,L|455:198,1,112,0|0,3:0|0:0,0:0:0:0:
427,262,67122,1,12,0:3:0:0:
427,262,67233,2,0,L|439:137,1,112,0|0,0:0|3:0,0:0:0:0:
361,327,67674,5,8,0:1:0:0:
271,317,67894,1,0,3:3:0:0:
154,213,68115,5,8,0:1:0:0:
244,203,68335,1,0,3:0:0:0:
384,111,68556,5,8,0:1:0:0:
294,101,68776,1,4,0:1:0:0:
294,101,70100,6,0,L|290:43,5,46.6666666666667,8|0|0|8|0|0,0:0|0:0|0:0|0:0|0:0|0:0,0:0:0:0:
248,125,70541,2,0,L|244:183,5,46.6666666666667,12|4|4|12|4|4,0:0|0:0|0:0|0:0|0:0|0:0,0:0:0:0:
206,87,70983,6,0,B|132:68|136:120|55:119,1,140,8|8,0:0|0:0,0:0:0:0:
65,104,71314,1,2,0:0:0:0:
39,296,71534,5,8,0:0:0:0:
39,296,71644,1,8,0:0:0:0:
39,296,71755,2,0,B|73:276|73:276|101:283|101:283|152:245|222:261,1,167.999994873047,4|0,0:1|0:0,0:0:0:0:
275,287,72085,2,0,P|293:331|260:364,1,83.9999974365235,8|0,0:0|0:0,0:0:0:0:
357,242,72306,2,0,P|339:198|372:165,1,83.9999974365235
437,17,72526,1,8,0:0:0:0:
465,93,72637,6,0,B|373:119|351:34|351:34|366:1,1,167.999994873047,2|0,0:0|0:0,0:0:0:0:
261,10,72967,2,0,P|265:56|269:97,1,83.9999974365235,8|0,0:0|0:0,0:0:0:0:
148,167,73188,1,0,0:0:0:0:
104,191,73298,1,0,0:0:0:0:
60,164,73409,1,8,0:0:0:0:
103,105,73519,6,0,B|185:95|185:95|195:101|195:101|306:89,1,167.999994873047,2|0,0:0|0:0,0:0:0:0:
427,46,73850,1,8,0:0:0:0:
427,46,73960,1,0,0:0:0:0:
427,46,74070,1,0,0:0:0:0:
427,46,74181,1,0,0:0:0:0:
427,46,74291,1,8,0:0:0:0:
493,2,74401,6,0,L|485:95,1,83.9999974365235,2|0,0:0|0:0,0:0:0:0:
376,127,74622,2,0,L|368:220,1,83.9999974365235,2|8,0:0|0:0,0:0:0:0:
474,261,74842,2,0,L|466:354,1,83.9999974365235,2|0,0:0|0:0,0:0:0:0:
286,360,75063,5,0,0:0:0:0:
286,360,75173,1,8,0:0:0:0:
286,360,75284,2,0,B|264:340|264:340|258:265|282:188,1,167.999994873047,4|0,0:1|0:0,0:0:0:0:
200,166,75615,2,0,B|152:162|150:186|100:186,1,83.9999974365235,8|0,0:0|0:0,0:0:0:0:
111,271,75835,2,0,B|141:269|143:293|191:289,1,83.9999974365235
29,251,76056,1,8,0:0:0:0:
12,176,76166,6,0,P|15:139|31:0,1,167.999994873047,2|0,0:0|0:0,0:0:0:0:
110,58,76497,2,0,P|115:97|122:163,1,83.9999974365235,8|0,0:0|0:0,0:0:0:0:
270,127,76717,1,0,0:0:0:0:
299,86,76828,1,0,0:0:0:0:
264,46,76938,1,8,0:0:0:0:
198,94,77048,6,0,B|286:100|265:162|369:163,1,167.999994873047,2|0,0:0|0:0,0:0:0:0:
496,23,77379,1,8,0:0:0:0:
506,69,77490,1,0,0:0:0:0:
483,104,77600,2,0,B|445:77|445:77|387:94,1,83.9999974365235
443,270,77820,1,8,0:0:0:0:
430,227,77931,2,0,B|476:226|476:226|513:178,1,83.9999974365235,2|0,0:0|0:0,0:0:0:0:
343,317,78151,5,0,0:0:0:0:
262,344,78262,1,8,0:0:0:0:
202,285,78372,2,0,B|210:202|210:202|207:195|207:195|219:90,1,167.999994873047,2|8,0:0|0:0,0:0:0:0:
113,76,78703,5,8,0:0:0:0:
200,118,78813,2,0,B|208:194|208:194|205:201|205:201|213:284,1,167.999994873047,4|0,0:1|0:0,0:0:0:0:
154,187,79144,6,0,P|113:192|57:192,1,83.9999974365235,8|0,0:0|0:0,0:0:0:0:
259,213,79365,2,0,P|300:208|356:208,1,83.9999974365235
439,143,79585,5,8,0:0:0:0:
365,117,79695,2,0,B|378:260|378:260|394:306,1,167.999994873047,2|0,0:0|0:0,0:0:0:0:
197,316,80026,6,0,P|194:270|189:222,1,83.9999974365235,8|0,0:0|0:0,0:0:0:0:
213,159,80247,2,0,P|208:117|206:75,1,83.9999974365235
98,83,80467,5,8,0:0:0:0:
106,34,80577,2,0,B|247:26|247:26|295:5,1,167.999994873047,2|0,0:0|0:0,0:0:0:0:
467,171,80909,6,0,B|423:162|420:190|368:186,1,83.9999974365235,8|0,0:0|0:0,0:0:0:0:
213,159,81129,2,0,B|256:167|259:139|311:143,1,83.9999974365235
138,232,81350,5,8,0:0:0:0:
66,194,81460,2,0,B|34:120|102:82|102:82|128:91|144:87,1,167.999994873047,2|0,0:0|0:0,0:0:0:0:
213,159,81791,5,8,0:0:0:0:
281,115,81901,2,0,B|361:124|359:202|359:202|339:220|334:236,1,167.999994873047
235,266,82232,5,8,0:0:0:0:
239,347,82342,2,0,B|190:411|124:371|124:371|118:344|107:332,1,167.999994873047,4|0,0:1|0:0,0:0:0:0:
318,300,82673,6,0,B|388:296|388:296|425:283,1,83.9999974365235,8|0,0:0|0:0,0:0:0:0:
159,231,82894,2,0,B|89:235|89:235|52:248,1,83.9999974365235
160,60,83115,5,8,0:0:0:0:
242,71,83225,2,0,P|246:166|246:252,1,167.999994873047,2|0,0:0|0:0,0:0:0:0:
311,145,83556,6,0,B|381:148|381:148|419:139,1,83.9999974365235,8|0,0:0|0:0,0:0:0:0:
160,60,83777,2,0,B|89:56|89:56|51:65,1,83.9999974365235
204,246,83997,5,8,0:0:0:0:
251,231,84107,2,0,P|247:136|247:50,1,167.999994873047,2|0,0:0|0:0,0:0:0:0:
438,19,84438,5,8,0:0:0:0:
441,32,84548,1,0,0:0:0:0:
431,48,84659,1,0,0:0:0:0:
443,74,84769,1,0,0:0:0:0:
427,107,84879,1,8,0:0:0:0:
475,174,84990,6,0,B|439:154|439:154|411:162|411:162|366:138|274:150,1,181.999991668702,4|0,0:1|0:0,0:0:0:0:
233,219,85320,1,8,0:0:0:0:
297,294,85431,2,0,B|361:303|406:279|406:279|434:287|434:287|470:267,1,181.999991668702,2|0,0:0|0:0,0:0:0:0:
201,368,85762,5,8,0:0:0:0:
132,297,85872,1,2,0:0:0:0:
38,105,86865,5,8,0:0:0:0:
104,84,86975,1,8,0:0:0:0:
164,118,87085,1,8,0:0:0:0:
231,95,87195,1,2,0:0:0:0:
322,265,87416,1,2,0:0:0:0:
504,167,87637,1,2,0:0:0:0:
472,114,87747,1,10,0:0:0:0:
163,204,93702,6,0,B|178:167|178:167|223:155,1,70,10|0,0:0|0:0,0:0:0:0:
191,57,93922,1,10,0:0:0:0:
191,57,94032,2,0,B|214:88|214:88|201:134,2,70,0|10|0,0:0|0:0|0:0,0:0:0:0:
303,155,94363,2,0,B|261:159|261:159|229:126,1,70,10|0,0:0|0:0,0:0:0:0:
392,122,94584,1,10,0:0:0:0:
392,122,94694,2,0,B|429:107|429:107|469:130,1,70,0|10,0:0|0:0,0:0:0:0:
396,274,94915,5,0,0:0:0:0:
396,274,95025,2,0,B|321:259|321:259|227:261,1,140,10|10,0:0|0:0,0:0:0:0:
171,206,95356,1,0,0:0:0:0:
122,209,95466,1,10,0:0:0:0:
84,241,95577,1,0,0:0:0:0:
81,292,95687,2,0,B|69:357|69:357|75:377,1,70,10|0,0:0|0:0,0:0:0:0:
250,289,95908,6,0,B|211:281|211:281|200:292|200:292|157:285,1,83.9999974365235,12|0,0:1|0:0,0:0:0:0:
43,210,96129,2,0,B|82:202|82:202|93:213|93:213|136:206,1,83.9999974365235,12|0,0:1|0:0,0:0:0:0:
248,139,96349,6,0,B|229:132|229:132|169:143,1,70,10|0,0:0|0:0,0:0:0:0:
319,69,96569,1,10,0:0:0:0:
319,69,96679,2,0,B|309:-16,2,70,0|10|0,0:0|0:0|0:0,0:0:0:0:
402,114,97010,2,0,B|421:121|421:121|481:110,1,70,10|0,0:0|0:0,0:0:0:0:
334,183,97231,1,10,0:0:0:0:
338,232,97341,1,0,0:0:0:0:
342,282,97452,1,10,0:0:0:0:
347,331,97562,1,0,0:0:0:0:
353,384,97672,2,0,B|398:373|398:373|421:378,1,70,10|0,0:0|0:0,0:0:0:0:
244,342,97893,5,10,0:0:0:0:
168,317,98003,2,0,L|12:329,1,140,4|8,0:1|0:0,0:0:0:0:
6,144,98335,5,8,0:0:0:0:
69,107,98445,1,8,0:0:0:0:
128,153,98555,2,0,B|126:197|126:197|125:201|125:201|125:244,1,70,8|8,0:0|0:0,0:0:0:0:
228,92,98776,2,0,B|226:48|226:48|225:44|225:44|225:1,1,70,2|0,0:0|0:0,0:0:0:0:
337,147,98997,5,8,0:0:0:0:
384,207,99107,1,8,0:0:0:0:
452,186,99217,1,8,0:0:0:0:
451,113,99327,1,8,0:0:0:0:
383,88,99438,1,8,0:0:0:0:
281,260,99658,6,0,B|277:287|277:287|276:348,2,70,4|0|0,0:1|0:0|0:0,0:0:0:0:
241,184,99989,2,0,B|245:211|245:211|246:272,2,70,4|0|0,0:0|0:0|0:0,0:0:0:0:
286,107,100320,2,0,B|282:134|282:134|281:195,2,70,4|0|0,0:0|0:0|0:0,0:0:0:0:
239,35,100651,2,0,B|243:62|243:62|244:123,2,70,4|0|0,0:0|0:0|0:0,0:0:0:0:
122,24,100982,5,4,0:0:0:0:
64,54,101092,1,4,0:0:0:0:
72,121,101203,1,8,0:0:0:0:
34,297,101423,6,0,B|77:300|77:300|117:308,2,70,4|0|0,0:1|0:0|0:0,0:0:0:0:
128,274,101754,2,0,B|171:277|171:277|211:285,2,70,4|0|0,0:0|0:0|0:0,0:0:0:0:
209,322,102085,2,0,B|252:325|252:325|292:333,2,70,4|0|0,0:0|0:0|0:0,0:0:0:0:
306,296,102416,2,0,B|349:299|349:299|389:307,2,70,4|0|0,0:0|0:0|0:0,0:0:0:0:
406,337,102747,5,4,0:0:0:0:
456,287,102857,1,4,0:0:0:0:
422,226,102967,1,8,0:0:0:0:
355,21,103188,6,0,B|356:78|356:78|361:114,2,70,4|0|0,0:1|0:0|0:0,0:0:0:0:
309,169,103519,2,0,B|308:112|308:112|303:76,2,70,4|0|0,0:0|0:0|0:0,0:0:0:0:
249,21,103850,2,0,B|250:78|250:78|255:114,2,70,4|0|0,0:0|0:0|0:0,0:0:0:0:
191,169,104181,2,0,B|192:112|192:112|197:76,2,70,4|0|0,0:0|0:0|0:0,0:0:0:0:
66,132,104511,5,4,0:0:0:0:
21,79,104622,1,4,0:0:0:0:
70,29,104732,1,8,0:0:0:0:
24,232,104953,6,0,B|94:219|94:219|116:219,2,70,4|0|0,0:1|0:0|0:0,0:0:0:0:
191,169,105284,2,0,B|204:239|204:239|204:261,2,70,4|0|0,0:0|0:0|0:0,0:0:0:0:
264,331,105614,2,0,B|193:344|193:344|172:344,2,70,4|0|0,0:0|0:0|0:0,0:0:0:0:
388,371,105945,2,0,B|390:358|390:358|376:306|376:306|380:283,2,70,4|0|0,0:0|0:0|0:0,0:0:0:0:
441,198,106276,5,8,0:0:0:0:
367,208,106386,1,0,0:0:0:0:
292,217,106497,1,12,0:1:0:0:
140,11,106717,6,0,B|168:36|153:83|110:91,1,83.9999974365235,4|8,0:1|0:0,0:0:0:0:
115,197,106938,2,0,B|93:196|78:243|106:268,1,83.9999974365235,0|8,0:0|0:0,0:0:0:0:
69,133,107159,6,0,B|69:111|22:96|-2:124,1,83.9999974365235,2|8,0:0|0:0,0:0:0:0:
178,147,107379,2,0,B|177:168|224:183|249:155,1,83.9999974365235,0|8,0:0|0:0,0:0:0:0:
408,145,107600,6,0,B|436:170|421:217|378:225,1,83.9999974365235,2|8,0:0|0:0,0:0:0:0:
369,362,107821,2,0,B|343:339|358:292|380:292,1,83.9999974365235,0|8,0:0|0:0,0:0:0:0:
302,242,108042,6,0,B|324:216|371:231|371:253,1,83.9999974365235,2|8,0:0|0:0,0:0:0:0:
419,252,108262,2,0,B|418:273|465:288|490:260,1,83.9999974365235,0|8,0:0|0:0,0:0:0:0:
408,145,108482,5,4,0:1:0:0:
408,145,108592,1,8,0:0:0:0:
408,145,108703,2,0,P|411:94|414:48,1,83.9999974365235,0|8,0:0|0:0,0:0:0:0:
242,162,108923,1,0,0:0:0:0:
221,129,109034,1,8,0:0:0:0:
246,100,109144,2,0,P|243:49|240:3,1,83.9999974365235,0|8,0:0|0:0,0:0:0:0:
71,0,109364,5,2,0:0:0:0:
45,41,109475,1,10,0:0:0:0:
65,84,109585,1,2,0:0:0:0:
42,123,109695,1,10,0:0:0:0:
69,159,109806,1,2,0:0:0:0:
43,196,109916,1,10,0:0:0:0:
72,231,110026,1,2,0:0:0:0:
50,270,110136,1,10,0:0:0:0:
77,312,110247,6,0,B|117:323|144:299|144:299|163:259,1,83.9999974365235,4|8,0:1|0:0,0:0:0:0:
205,196,110467,2,0,B|210:184|210:184|237:160|277:171,1,83.9999974365235,0|8,0:0|0:0,0:0:0:0:
262,350,110688,6,0,B|250:344|250:344|226:317|237:277,1,83.9999974365235,2|8,0:0|0:0,0:0:0:0:
121,204,110909,2,0,B|132:164|108:137|108:137|96:131,1,83.9999974365235,0|8,0:0|0:0,0:0:0:0:
277,171,111129,6,0,B|272:183|272:183|245:207|205:196,1,83.9999974365235,2|8,0:0|0:0,0:0:0:0:
330,85,111349,2,0,B|335:73|335:73|362:49|402:60,1,83.9999974365235,0|8,0:0|0:0,0:0:0:0:
240,50,111570,6,0,B|251:55|251:55|275:82|264:122,1,83.9999974365235,2|8,0:0|0:0,0:0:0:0:
366,208,111791,2,0,B|354:202|354:202|330:175|341:135,1,83.9999974365235,0|8,0:0|0:0,0:0:0:0:
339,286,112011,5,4,0:1:0:0:
305,289,112122,1,8,0:0:0:0:
271,292,112232,1,0,0:0:0:0:
236,297,112342,2,0,B|216:339|216:339|227:392,1,83.9999974365235,8|0,0:0|0:0,0:0:0:0:
131,242,112563,2,0,L|306:260,1,167.999994873047,8|8,0:0|0:0,0:0:0:0:
469,231,112894,5,2,0:0:0:0:
491,176,113004,1,10,0:0:0:0:
477,118,113114,1,2,0:0:0:0:
428,83,113225,1,10,0:0:0:0:
369,76,113335,1,2,0:0:0:0:
322,112,113445,1,10,0:0:0:0:
262,111,113556,1,2,0:0:0:0:
226,64,113666,1,10,0:0:0:0:
239,6,113776,2,0,P|241:32|241:51,12,41.9999987182618,8|0|0|0|0|0|0|0|0|0|0|0|0,0:0|0:0|0:0|0:0|0:0|0:0|0:0|0:0|0:0|0:0|0:0|0:0|0:0,0:0:0:0:
0,108,114659,6,0,B|41:114|41:114|51:118|51:118|99:123,1,83.9999974365235,8|0,0:0|0:0,0:0:0:0:
136,62,114879,1,8,0:0:0:0:
136,62,114989,2,0,B|128:120|128:120|129:179|129:179|106:233|113:317,1,251.999992309571,0|2,0:0|0:0,0:0:0:0:
265,371,115431,6,0,P|275:288|202:251,1,167.999994873047,4|0,0:1|0:0,0:0:0:0:
256,160,115761,2,0,P|298:158|351:150,1,83.9999974365235,8|0,0:0|0:0,0:0:0:0:
219,69,115982,2,0,P|177:67|124:59,1,83.9999974365235
359,31,116203,5,8,0:0:0:0:
440,50,116313,2,0,B|418:87|418:87|433:140|440:244,1,167.999994873047,2|0,0:0|0:0,0:0:0:0:
374,299,116644,2,0,B|384:317|384:317|381:349|388:399,1,83.9999974365235,8|0,0:0|0:0,0:0:0:0:
275,236,116864,1,0,0:0:0:0:
223,243,116975,1,0,0:0:0:0:
173,254,117085,1,8,0:0:0:0:
119,192,117195,6,0,L|98:387,1,167.999994873047,2|0,0:0|0:0,0:0:0:0:
13,127,117526,1,8,0:0:0:0:
13,127,117636,1,0,0:0:0:0:
13,127,117747,1,0,0:0:0:0:
13,127,117857,1,0,0:0:0:0:
13,127,117967,1,8,0:0:0:0:
46,39,118078,6,0,B|64:62|64:62|69:108|50:143,1,83.9999974365235,2|0,0:0|0:0,0:0:0:0:
212,50,118298,2,0,B|183:54|183:54|140:35|119:1,1,83.9999974365235,2|8,0:0|0:0,0:0:0:0:
119,192,118519,2,0,B|129:164|129:164|167:137|207:136,1,83.9999974365235,2|0,0:0|0:0,0:0:0:0:
286,293,118739,5,0,0:0:0:0:
286,293,118850,1,8,0:0:0:0:
286,293,118960,2,0,B|278:231|278:231|281:196|281:196|263:153|271:109,1,167.999994873047,4|0,0:1|0:0,0:0:0:0:
345,53,119291,2,0,P|388:57|437:63,1,83.9999974365235,8|0,0:0|0:0,0:0:0:0:
429,164,119511,2,0,P|472:168|521:174,1,83.9999974365235
366,266,119732,5,8,0:0:0:0:
286,293,119842,2,0,B|256:273|256:273|224:284|224:284|179:246|123:255,1,167.999994873047,2|0,0:0|0:0,0:0:0:0:
53,299,120173,2,0,P|58:345|64:399,1,83.9999974365235,8|0,0:0|0:0,0:0:0:0:
133,253,120394,1,0,0:0:0:0:
157,208,120504,1,0,0:0:0:0:
130,164,120614,1,8,0:0:0:0:
49,134,120725,6,0,P|1:78|91:6,1,167.999994873047,2|0,0:0|0:0,0:0:0:0:
156,65,121056,1,8,0:0:0:0:
196,75,121166,1,0,0:0:0:0:
238,83,121276,2,0,L|247:181,1,83.9999974365235
384,90,121497,1,8,0:0:0:0:
343,109,121607,2,0,L|352:11,1,83.9999974365235,2|0,0:0|0:0,0:0:0:0:
480,120,121828,5,0,0:0:0:0:
491,196,121938,1,8,0:0:0:0:
501,273,122048,2,0,B|465:261|465:261|364:279|364:279|299:262,1,167.999994873047,2|8,0:0|0:0,0:0:0:0:
348,358,122379,5,8,0:0:0:0:
337,281,122489,2,0,B|363:287|363:287|464:269|464:269|500:281,1,167.999994873047,4|0,0:1|0:0,0:0:0:0:
242,279,122820,6,0,P|236:237|232:187,1,83.9999974365235,8|0,0:0|0:0,0:0:0:0:
294,52,123041,2,0,P|297:93|303:135,1,83.9999974365235
128,42,123261,5,8,0:0:0:0:
209,27,123372,2,0,B|345:5|345:5|381:18,1,167.999994873047,2|0,0:0|0:0,0:0:0:0:
181,108,123703,6,0,P|184:149|190:191,1,83.9999974365235,8|0,0:0|0:0,0:0:0:0:
105,228,123923,2,0,P|110:269|114:311,1,83.9999974365235
244,339,124144,1,8,0:0:0:0:
197,349,124254,2,0,B|61:371|61:371|25:358,1,167.999994873047,2|0,0:0|0:0,0:0:0:0:
237,236,124585,6,0,B|191:232|186:260|156:255,1,83.9999974365235,8|0,0:0|0:0,0:0:0:0:
338,312,124806,2,0,B|384:308|389:336|418:331,1,83.9999974365235
271,74,125026,5,8,0:0:0:0:
350,50,125136,2,0,B|335:136|335:136|339:149|339:149|323:236,1,167.999994873047,2|0,0:0|0:0,0:0:0:0:
468,152,125467,5,8,0:0:0:0:
449,232,125577,2,0,B|382:176|382:176|368:172|368:172|301:115,1,167.999994873047
301,283,125909,5,8,0:0:0:0:
242,227,126019,2,0,B|323:196|323:196|333:187|333:187|416:157,1,167.999994873047,4|0,0:1|0:0,0:0:0:0:
204,130,126350,6,0,B|135:123|135:123|100:128,1,83.9999974365235,8|0,0:0|0:0,0:0:0:0:
0,36,126570,2,0,B|69:43|69:43|104:38,1,83.9999974365235
16,205,126791,5,8,0:0:0:0:
97,212,126901,2,0,B|110:229|110:229|85:390,1,167.999994873047,2|0,0:0|0:0,0:0:0:0:
184,294,127232,6,0,B|198:291|198:291|267:298,1,83.9999974365235,8|0,0:0|0:0,0:0:0:0:
364,230,127452,2,0,B|433:237|433:237|468:232,1,83.9999974365235
347,382,127673,5,8,0:0:0:0:
298,380,127783,2,0,B|311:363|311:363|288:218,1,167.999994873047,2|0,0:0|0:0,0:0:0:0:
85,152,128114,5,8,0:0:0:0:
98,149,128224,1,0,0:0:0:0:
114,159,128335,1,0,0:0:0:0:
140,147,128445,1,0,0:0:0:0:
173,163,128555,1,8,0:0:0:0:
241,100,128666,6,0,B|241:37|158:34|140:83|140:83|148:104|133:134,1,181.999991668702,4|0,0:1|0:0,0:0:0:0:
318,149,128997,1,8,0:0:0:0:
392,195,129107,2,0,B|392:258|475:261|493:212|493:212|485:191|500:161,1,181.999991668702,4|0,0:1|0:0,0:0:0:0:
403,11,129438,5,8,0:0:0:0:
323,38,129548,1,2,0:0:0:0:
119,338,130541,5,8,0:0:0:0:
113,275,130651,1,8,0:0:0:0:
108,213,130761,1,8,0:0:0:0:
44,215,130872,1,2,0:0:0:0:
229,202,131092,1,2,0:0:0:0:
411,190,131313,1,2,0:0:0:0:
344,198,131423,1,2,0:0:0:0:
53,13,134953,6,0,B|60:62|60:62|59:69|59:69|67:135,1,112,8|0,0:0|0:0,0:0:0:0:
82,202,135284,2,0,B|52:210|52:210|21:195,1,56,8|0,0:0|0:0,0:0:0:0:
55,121,135504,2,0,B|62:67|62:67|60:60|60:60|68:11,1,112,8|0,0:0|0:0,0:0:0:0:
161,56,135835,6,0,B|209:68|209:68|226:66|226:66|254:85|303:72,1,112,8|0,0:0|0:0,0:0:0:0:
349,49,136166,2,0,B|360:80|360:80|338:126,1,56,8|0,0:0|0:0,0:0:0:0:
269,58,136386,2,0,B|222:69|222:69|205:67|205:67|177:86|162:79,1,112,8|0,0:0|0:0,0:0:0:0:
148,167,136717,5,8,0:0:0:0:
269,344,137048,1,8,0:0:0:0:
372,334,137269,1,8,0:0:0:0:
388,215,137489,1,0,0:0:0:0:
362,252,137600,5,8,0:0:0:0:
312,244,137710,1,8,0:0:0:0:
262,234,137820,1,8,0:0:0:0:
212,222,137931,2,0,P|216:256|218:303,1,56,8|0,0:0|0:0,0:0:0:0:
92,310,138151,2,0,P|89:326|87:339,2,28,8|0|0,0:0|0:0|0:0,0:0:0:0:
14,223,138372,5,8,0:0:0:0:
26,237,138482,2,0,B|53:219|80:230|80:230|121:198|139:148|117:113|90:89|90:89|50:86|41:2|110:21,1,308.000009399414,4|0,0:1|0:0,0:0:0:0:
345,127,139144,5,10,0:0:0:0:
345,127,139217,1,2,0:0:0:0:
345,127,139291,1,2,0:0:0:0:
345,127,139364,2,0,B|323:122|294:144|294:144|182:92|232:-25,1,231.000007049561,2|0,0:0|0:0,0:0:0:0:
327,36,139806,5,2,0:0:0:0:
384,33,139916,1,0,0:0:0:0:
426,70,140026,1,10,0:0:0:0:
439,125,140136,1,0,0:0:0:0:
409,174,140247,6,0,L|419:267,2,77.0000023498536,2|0|8,0:0|0:0|0:0,0:0:0:0:
390,345,140578,2,0,L|400:252,2,77.0000023498536,2|0|0,0:0|0:0|0:0,0:0:0:0:
266,245,140909,5,10,0:0:0:0:
266,245,141019,1,0,0:0:0:0:
266,245,141129,1,2,0:0:0:0:
222,276,141239,1,0,0:0:0:0:
170,258,141350,1,8,0:0:0:0:
148,208,141460,1,0,0:0:0:0:
106,173,141570,1,2,0:0:0:0:
52,165,141681,1,0,0:0:0:0:
11,199,141791,1,8,0:0:0:0:
30,249,141901,1,0,0:0:0:0:
83,255,142011,6,0,B|83:210|83:210|71:161|71:161|80:132|69:82,1,154.000004699707,2|8,0:0|0:0,0:0:0:0:
169,12,142342,2,0,B|169:57|169:57|181:106|181:106|172:135|183:185,1,154.000004699707,2|0,0:0|0:0,0:0:0:0:
264,300,142673,5,10,0:0:0:0:
264,300,142784,1,0,0:0:0:0:
264,300,142894,2,0,B|300:311|300:311|328:300|328:300|381:325|432:316,1,154.000004699707,2|8,0:0|0:0,0:0:0:0:
463,223,143225,2,0,B|427:212|427:212|399:223|399:223|346:198|295:207,1,154.000004699707,2|0,0:0|0:0,0:0:0:0:
292,89,143556,5,10,0:0:0:0:
292,89,143629,1,2,0:0:0:0:
292,89,143703,1,2,0:0:0:0:
292,89,143776,2,0,B|201:61|209:107|195:138|126:113|129:48|24:53|-13:147,1,308.000009399414,2|0,0:0|0:0,0:0:0:0:
4,265,144328,5,2,0:0:0:0:
32,307,144438,2,0,P|55:274|37:231,1,77.0000023498536,8|0,0:0|0:0,0:0:0:0:
171,236,144659,5,2,0:0:0:0:
186,235,144732,1,2,0:0:0:0:
201,233,144806,1,2,0:0:0:0:
216,232,144879,2,0,P|279:224|324:333,1,154.000004699707,2|8,0:0|0:0,0:0:0:0:
426,319,145210,5,8,0:0:0:0:
467,256,145320,1,8,0:0:0:0:
441,185,145431,1,8,0:0:0:0:
366,158,145541,6,0,B|371:113|371:113|369:108|369:108|372:69,1,77.0000023498536,2|0,0:0|0:0,0:0:0:0:
449,54,145761,2,0,B|411:41|411:41|376:45|376:45|329:31|272:31,1,154.000004699707,10|2,0:0|0:0,0:0:0:0:
211,80,146092,1,0,0:0:0:0:
211,80,146203,2,0,B|215:124|215:124|211:129|211:129|214:171,1,77.0000023498536,8|2,0:0|0:0,0:0:0:0:
132,222,146423,6,0,L|134:281,2,38.5000011749268,2|0|0,0:0|0:0|0:0,0:0:0:0:
181,281,146644,2,0,L|183:340,2,38.5000011749268,10|0|0,0:0|0:0|0:0,0:0:0:0:
235,231,146864,2,0,L|237:290,2,38.5000011749268,2|0|0,0:0|0:0|0:0,0:0:0:0:
288,283,147085,2,0,L|290:342,2,38.5000011749268,10|0|0,0:0|0:0|0:0,0:0:0:0:
373,231,147306,6,0,B|432:222|432:222|481:232,1,77.0000023498536,2|0,0:0|0:0,0:0:0:0:
256,140,147526,2,0,B|197:149|197:149|148:139,1,77.0000023498536,10|0,0:0|0:0,0:0:0:0:
415,122,147747,2,0,P|446:120|468:115,2,51.3333348999024,2|0|0,0:0|0:0|0:0,0:0:0:0:
380,90,147967,2,0,B|368:25|368:25|375:-3,1,77.0000023498536,10|0,0:0|0:0,0:0:0:0:
249,89,148188,6,0,L|257:150,2,51.3333348999024,6|4|4,0:0|0:0|0:0,0:0:0:0:
221,55,148409,1,14,0:0:0:0:
221,55,148482,1,4,0:0:0:0:
221,55,148556,1,4,0:0:0:0:
221,55,148629,2,0,B|162:46|162:46|135:70|135:70|67:43|-17:94,1,231.000007049561,6|0,0:0|0:0,0:0:0:0:
11,219,149070,5,2,0:0:0:0:
32,268,149181,1,0,0:0:0:0:
82,285,149291,1,10,0:0:0:0:
134,272,149401,1,0,0:0:0:0:
159,224,149511,1,2,0:0:0:0:
205,195,149622,1,0,0:0:0:0:
258,195,149732,1,10,0:0:0:0:
303,223,149842,1,0,0:0:0:0:
309,276,149953,6,0,B|239:270|239:270|218:285,1,77.0000023498536,2|0,0:0|0:0,0:0:0:0:
382,345,150173,2,0,B|401:324|401:324|389:172,1,154.000004699707,10|0,0:0|0:0,0:0:0:0:
492,131,150504,2,0,B|471:112|471:112|319:126,1,154.000004699707,2|0,0:0|0:0,0:0:0:0:
280,37,150835,2,0,B|261:58|261:58|272:208,1,154.000004699707,2|8,0:0|0:0,0:0:0:0:
171,248,151166,2,0,B|192:267|192:267|343:256,1,154.000004699707,2|0,0:0|0:0,0:0:0:0:
168,161,151497,2,0,B|104:155|104:155|80:169,1,77.0000023498536,10|0,0:0|0:0,0:0:0:0:
216,64,151717,5,10,0:0:0:0:
280,37,151828,1,8,0:0:0:0:
344,62,151938,1,8,0:0:0:0:
360,129,152048,1,8,0:0:0:0:
316,183,152159,1,8,0:0:0:0:
246,183,152269,1,8,0:0:0:0:
202,129,152379,1,8,0:0:0:0:
209,60,152489,1,8,0:0:0:0:
280,37,152600,6,0,B|294:62|294:62|276:88|276:88|300:117|300:117|271:149|271:149|312:197|312:197|268:227|264:272,1,293.999991027832,2|0,0:0|2:0,0:0:0:0:
351,344,153372,6,0,B|302:413|183:361|209:235|317:237|317:237|325:243|325:243|379:233|432:264|432:264|420:303|447:348,1,462.000014099122,4|2,0:1|2:2,0:0:0:0:
60,328,154364,6,0,B|59:286|59:286|48:260|48:260|52:234|52:234|42:207|42:207|50:179|50:179|40:152|40:152|44:122|44:122|34:101|34:101|45:75|45:75|38:39,1,293.999991027832,2|0,0:0|2:0,0:0:0:0:
170,156,155136,6,0,B|168:182|148:193|148:193|176:226|223:236|223:236|249:178|295:149|295:149|343:213|428:199,1,385.000011749268,4|0,0:1|0:0,0:0:0:0:
446,178,155798,1,0,0:0:0:0:
446,178,155909,1,0,0:0:0:0:
446,178,156019,1,0,0:0:0:0:
488,190,156129,6,0,B|477:131|477:131|481:103|481:103|474:84|472:61,1,125.999996154785,4|0,0:1|0:0,0:0:0:0:
438,51,156460,1,0,0:0:0:0:
357,64,156570,2,0,B|346:123|346:123|350:151|350:151|343:170|341:193,1,125.999996154785,8|0,0:0|0:0,0:0:0:0:
314,213,156901,1,4,0:1:0:0:
134,248,157122,1,0,0:0:0:0:
102,66,157342,1,0,0:0:0:0:
27,44,157453,1,8,0:0:0:0:
185,336,157784,5,0,0:0:0:0:
185,336,157894,2,0,B|214:340|214:340|235:328|235:328|275:342|331:323,1,125.999996154785,4|0,0:1|0:0,0:0:0:0:
333,295,158225,1,0,0:0:0:0:
262,232,158335,2,0,B|233:228|233:228|212:240|212:240|172:226|116:245,1,125.999996154785,8|0,0:0|0:0,0:0:0:0:
30,192,158666,6,0,P|24:100|111:70,1,188.999994232178,4|0,0:1|0:0,0:0:0:0:
269,11,159217,5,8,0:0:0:0:
317,36,159328,1,8,0:0:0:0:
315,91,159438,1,2,0:0:0:0:
451,289,159659,6,0,B|376:285|381:327|304:333,1,140,4|0,3:1|0:0,0:0:0:0:
245,272,159989,1,0,3:0:0:0:
245,272,160100,2,0,B|282:268|293:293|342:286,1,70
186,333,160320,5,8,0:1:0:0:
32,270,160541,2,0,L|45:119,1,140,0|2,3:0|0:3,0:0:0:0:
200,31,160982,1,2,0:3:0:0:
73,3,161203,1,0,3:0:0:0:
154,157,161423,1,8,0:1:0:0:
297,110,161644,6,0,P|372:119|441:120,1,140,0|0,3:0|0:0,0:0:0:0:
512,92,161975,1,12,3:0:0:0:
512,92,162085,2,0,P|437:101|368:102,1,140,0|0,3:0|3:0,0:0:0:0:
302,31,162526,5,8,0:1:0:0:
220,16,162747,1,0,3:0:0:0:
118,118,162967,5,8,0:1:0:0:
143,195,163188,1,0,3:0:0:0:
319,228,163409,5,8,0:1:0:0:
366,161,163629,2,0,L|357:321,1,140,4|0,3:1|0:0,0:0:0:0:
296,347,163960,1,0,3:0:0:0:
296,347,164070,2,0,L|217:332,1,70
124,368,164291,5,8,0:1:0:0:
31,213,164511,2,0,B|84:223|84:223|120:216|120:216|158:227|199:222,1,140,0|0,3:0|0:0,0:0:0:0:
196,197,164842,1,2,0:3:0:0:
196,197,164953,1,2,0:3:0:0:
156,103,165173,1,0,3:0:0:0:
284,26,165394,1,8,0:1:0:0:
335,160,165614,6,0,B|406:168|400:203|480:201,1,140,0|0,3:0|0:0,0:0:0:0:
467,252,165945,1,12,0:3:0:0:
467,252,166056,2,0,B|399:249|405:284|334:292,1,140,0|0,0:0|3:0,0:0:0:0:
225,352,166497,1,8,0:1:0:0:
52,265,166717,5,4,0:3:0:0:
52,265,166828,1,4,0:3:0:0:
52,265,166938,1,4,0:3:0:0:
144,239,167159,1,8,0:1:0:0:
258,89,167379,5,4,0:3:0:0:
258,89,167489,1,4,0:3:0:0:
258,89,167600,1,14,0:1:0:0:
286,69,167710,1,0,0:0:0:0:
318,82,167820,2,0,P|311:124|310:164,1,70
419,163,168041,5,10,0:0:0:0:
442,197,168151,1,0,0:0:0:0:
424,234,168261,2,0,P|381:227|342:226,1,70
350,329,168482,5,10,0:0:0:0:
307,352,168592,1,0,0:0:0:0:
266,327,168702,2,0,P|272:284|274:245,1,70
154,268,168923,5,10,0:0:0:0:
128,220,169033,1,0,0:0:0:0:
158,172,169143,2,0,P|200:178|240:180,1,70
72,87,169364,2,0,P|29:80|-10:78,1,70,10|0,0:0|0:0,0:0:0:0:
169,9,169585,6,0,P|174:45|179:99,3,70,4|0|8|0,0:1|0:0|0:0|0:0,0:0:0:0:
225,78,170026,2,0,P|230:114|235:168,3,70,2|0|8|0,0:0|0:0|0:0|0:0,0:0:0:0:
281,158,170467,6,0,P|286:200|289:240,1,70,2|0,0:0|0:0,0:0:0:0:
268,304,170688,2,0,P|309:312|348:321,1,70,8|0,0:0|0:0,0:0:0:0:
402,361,170909,2,0,P|422:324|443:289,1,70,2|0,0:0|0:0,0:0:0:0:
497,251,171129,2,0,P|468:219|442:189,1,70,8|0,0:0|0:0,0:0:0:0:
421,127,171350,2,0,P|382:144|345:159,1,70,2|0,0:0|0:0,0:0:0:0:
244,88,171570,5,14,0:1:0:0:
209,83,171681,1,0,0:0:0:0:
178,99,171791,1,0,0:0:0:0:
171,133,171901,1,0,0:0:0:0:
186,164,172011,5,10,0:0:0:0:
216,192,172122,1,0,0:0:0:0:
212,233,172232,1,0,0:0:0:0:
182,262,172342,1,0,0:0:0:0:
139,266,172453,6,0,L|58:258,1,70,10|0,0:0|0:0,0:0:0:0:
193,333,172673,2,0,L|274:325,1,70
398,337,172894,5,10,0:0:0:0:
434,295,173004,1,0,0:0:0:0:
434,239,173114,1,0,0:0:0:0:
392,200,173225,1,0,0:0:0:0:
336,197,173335,2,0,L|328:282,1,70,10|0,0:0|0:0,0:0:0:0:
268,132,173556,6,0,B|205:122|205:122|179:132,3,70,6|0|8|0,0:1|0:0|0:0|0:0,0:0:0:0:
333,76,173997,2,0,B|396:86|396:86|422:76,3,70,2|0|8|0,0:0|0:0|0:0|0:0,0:0:0:0:
259,19,174438,1,2,0:0:0:0:
245,16,174548,1,0,0:0:0:0:
231,14,174659,1,8,0:0:0:0:
217,12,174769,1,0,0:0:0:0:
203,10,174879,1,2,0:0:0:0:
189,8,174989,1,0,0:0:0:0:
159,22,175100,6,0,B|151:50|151:50|153:80|153:80|145:109,1,70,8|0,0:0|0:0,0:0:0:0:
53,145,175320,2,0,B|45:173|45:173|47:203|47:203|39:232,1,70,10|0,0:0|0:0,0:0:0:0:
119,297,175541,1,4,0:1:0:0:
119,297,176864,6,0,L|125:374,5,46.6666666666667,8|0|0|8|0|0,0:0|0:0|0:0|0:0|0:0|0:0,0:0:0:0:
166,268,177306,2,0,L|171:187,5,46.6666666666667,12|4|4|12|4|4,0:0|0:0|0:0|0:0|0:0|0:0,0:0:0:0:
208,302,177747,6,0,B|242:307|242:307|256:293|256:293|306:298|366:274,1,140,8|8,0:0|0:0,0:0:0:0:
425,296,178078,2,0,P|433:345|438:385,1,70,8|0,0:0|0:0,0:0:0:0:
508,194,178298,2,0,P|508:173|501:141,2,35,0|0|8,0:0|0:0|0:0,0:0:0:0:
420,108,178519,6,0,P|256:18|79:217,1,490,4|0,0:1|0:0,2:0:0:0:
33,296,179401,5,8,0:0:0:0:
216,318,179621,1,8,0:0:0:0:
388,331,179842,1,8,0:0:0:0:
460,232,180062,6,0,P|478:231|495:230,2,35,0|0|8,0:0|0:0|0:0,0:0:0:0:
374,190,180283,5,4,0:1:0:0:
374,190,180393,1,0,0:1:0:0:
374,190,180504,1,0,0:0:0:0:
374,190,180614,1,8,0:0:0:0:
374,190,180724,1,0,0:0:0:0:
374,190,180834,1,0,0:0:0:0:
374,190,180945,1,0,0:0:0:0:
374,190,181055,1,8,0:0:0:0:
414,163,181165,6,0,B|417:128|417:128|414:117|414:117|413:96|421:68,1,83.9999974365235,2|0,0:0|0:0,0:0:0:0:
264,85,181386,2,0,B|267:50|267:50|264:39|264:39|263:18|271:-10,1,83.9999974365235,2|8,0:0|0:0,0:0:0:0:
113,131,181606,2,0,B|116:96|116:96|113:85|113:85|112:64|120:36,1,83.9999974365235,2|0,0:0|0:0,0:0:0:0:
101,225,181827,5,0,0:0:0:0:
101,225,181937,1,8,0:0:0:0:
101,225,182048,2,0,B|137:230|137:230|161:211|161:211|216:230|278:195,1,167.999994873047,4|0,0:1|0:0,0:0:0:0:
281,287,182379,2,0,P|287:328|294:369,1,83.9999974365235,8|0,0:0|0:0,0:0:0:0:
398,307,182599,2,0,P|391:265|384:224,1,83.9999974365235
435,152,182820,1,8,0:0:0:0:
419,73,182930,6,0,B|341:44|312:121|312:121|326:144|322:165,1,167.999994873047,2|0,0:0|0:0,0:0:0:0:
242,192,183261,2,0,P|212:159|246:112,1,83.9999974365235,8|0,0:0|0:0,0:0:0:0:
171,47,183481,1,0,0:0:0:0:
120,39,183592,1,0,0:0:0:0:
70,29,183702,1,8,0:0:0:0:
6,67,183812,6,0,L|25:241,1,167.999994873047,2|0,0:0|0:0,0:0:0:0:
134,240,184143,1,8,0:0:0:0:
164,207,184254,1,0,0:0:0:0:
148,164,184364,2,0,B|85:153|85:153|54:170,1,83.9999974365235
209,276,184584,1,8,0:0:0:0:
225,317,184695,2,0,B|288:328|288:328|319:311,1,83.9999974365235,2|0,0:0|0:0,0:0:0:0:
433,260,184915,5,0,0:0:0:0:
462,187,185026,1,8,0:0:0:0:
419,121,185136,2,0,B|352:133|352:133|310:123|310:123|279:134|217:129,1,167.999994873047,2|8,0:0|0:0,0:0:0:0:
186,68,185467,5,8,0:0:0:0:
250,138,185577,2,0,B|275:141|306:130|306:130|348:140|348:140|415:128,1,167.999994873047,4|0,0:1|0:0,0:0:0:0:
305,227,185908,6,0,B|316:298|316:298|327:314,1,83.9999974365235,8|0,0:0|0:0,0:0:0:0:
170,236,186129,2,0,B|159:165|159:165|148:149,1,83.9999974365235
124,362,186349,5,8,0:0:0:0:
47,330,186459,2,0,B|19:179|19:179|-6:152,1,167.999994873047,2|0,0:0|0:0,0:0:0:0:
120,70,186790,6,0,B|49:81|49:81|33:92,1,83.9999974365235,8|0,0:0|0:0,0:0:0:0:
250,138,187011,2,0,B|321:127|321:127|337:116,1,83.9999974365235
135,222,187231,5,8,0:0:0:0:
173,223,187342,2,0,B|201:374|201:374|226:401,1,167.999994873047,2|0,0:0|0:0,0:0:0:0:
379,344,187673,6,0,B|308:355|308:355|292:366,1,83.9999974365235,8|0,0:0|0:0,0:0:0:0:
380,222,187894,2,0,B|451:211|451:211|467:200,1,83.9999974365235
361,110,188114,5,8,0:0:0:0:
331,34,188224,2,0,B|248:64|248:64|254:170,1,167.999994873047,2|0,0:0|0:0,0:0:0:0:
139,31,188555,5,8,0:0:0:0:
87,94,188665,2,0,B|154:150|154:150|243:92,1,167.999994873047
181,264,188996,5,8,0:0:0:0:
261,279,189106,2,0,B|276:192|276:192|181:144,1,167.999994873047,4|0,0:1|0:0,0:0:0:0:
353,292,189437,6,0,B|358:338|361:363|361:363|350:388,1,83.9999974365235,8|0,0:0|0:0,0:0:0:0:
480,219,189658,2,0,B|475:173|472:148|472:148|483:123,1,83.9999974365235
367,67,189879,5,8,0:0:0:0:
371,145,189989,2,0,B|309:152|309:152|262:147|262:147|225:159|176:155,1,167.999994873047,2|0,0:0|0:0,0:0:0:0:
141,89,190320,6,0,B|136:43|133:18|133:18|144:-7,1,83.9999974365235,8|0,0:0|0:0,0:0:0:0:
33,190,190541,2,0,B|38:236|41:261|41:261|30:286,1,83.9999974365235
204,204,190761,5,8,0:0:0:0:
206,166,190871,2,0,B|268:159|268:159|315:164|315:164|352:152|401:156,1,167.999994873047,2|0,0:0|0:0,0:0:0:0:
417,353,191202,5,8,0:0:0:0:
420,340,191312,1,0,0:0:0:0:
410,324,191423,1,0,0:0:0:0:
422,298,191533,1,0,0:0:0:0:
406,265,191643,1,8,0:0:0:0:
319,284,191754,6,0,B|260:264|209:297|209:297|203:346|150:352,1,181.999991668702,4|0,0:1|0:0,0:0:0:0:
141,229,192084,1,8,0:0:0:0:
175,121,192195,2,0,B|207:122|213:171|213:171|264:204|323:184,1,181.999991668702,2|0,0:0|0:0,0:0:0:0:
426,90,192526,5,8,0:0:0:0:
346,55,192636,1,2,0:0:0:0:
77,45,193629,5,8,0:0:0:0:
75,103,193739,1,8,0:0:0:0:
71,162,193849,1,8,0:0:0:0:
69,218,193959,1,2,0:0:0:0:
247,224,194180,1,2,0:0:0:0:
254,51,194401,1,2,0:0:0:0:
198,47,194511,6,0,L|209:135,1,70,10|0,0:0|0:0,0:0:0:0:
147,190,194731,1,10,0:0:0:0:
147,190,194841,2,0,B|73:193|73:193|56:191,2,70,0|10|0,0:0|0:0|0:0,0:0:0:0:
200,258,195172,2,0,L|189:346,1,70,10|0,0:0|0:0,0:0:0:0:
316,330,195393,1,10,0:0:0:0:
316,330,195503,2,0,L|307:260,1,70,0|10,0:0|0:0,0:0:0:0:
367,172,195724,5,0,0:0:0:0:
367,172,195834,2,0,B|417:171|417:171|447:161|447:161|524:156,1,140,10|10,0:0|0:0,0:0:0:0:
395,78,196165,1,0,0:0:0:0:
375,33,196275,1,10,0:0:0:0:
328,17,196386,1,0,0:0:0:0:
279,23,196496,2,0,L|274:110,1,70,10|0,0:0|0:0,0:0:0:0:
163,135,196716,6,0,B|121:129|121:129|116:132|116:132|55:123,1,83.9999974365235,12|0,0:1|0:0,0:0:0:0:
80,239,196937,2,0,B|115:233|115:233|120:236|120:236|162:230,1,83.9999974365235,12|0,0:1|0:0,0:0:0:0:
251,289,197158,6,0,B|261:308|261:308|255:374,1,70,10|0,0:0|0:0,0:0:0:0:
382,319,197378,1,10,0:0:0:0:
382,319,197488,2,0,B|393:300|393:300|453:273,2,70,0|10|0,0:0|0:0|0:0,0:0:0:0:
338,206,197819,2,0,B|316:205|316:205|262:166,1,70,10|0,0:0|0:0,0:0:0:0:
286,63,198040,1,10,0:0:0:0:
334,59,198150,1,0,0:0:0:0:
383,54,198261,1,10,0:0:0:0:
431,50,198371,1,0,0:0:0:0:
479,48,198481,2,0,B|488:72|488:72|480:122,1,70,10|0,0:0|0:0,0:0:0:0:
338,206,198702,5,10,0:0:0:0:
265,169,198812,2,0,B|273:122|273:122|268:84|268:84|278:53|277:9,1,140,4|0,0:1|0:0,0:0:0:0:
190,214,199143,5,8,0:0:0:0:
142,203,199253,1,0,0:0:0:0:
86,237,199363,5,8,0:0:0:0:
38,226,199473,1,0,0:0:0:0:
0,286,199584,6,0,L|6:339,6,35,8|8|0|0|0|0|4,0:0|0:0|0:0|0:0|0:0|0:0|0:0,0:0:0:0:
38,226,200025,6,0,B|39:204|39:204|31:192|31:192|27:138,1,70,8|0,0:0|0:0,0:0:0:0:
153,280,200246,2,0,B|154:302|154:302|146:314|146:314|142:368,1,70,12|0,0:1|0:0,0:0:0:0:
284,316,200466,6,0,L|364:306,1,70,10|0,0:0|0:0,0:0:0:0:
418,229,200687,1,10,0:0:0:0:
418,229,200797,2,0,L|501:227,2,70,0|10|0,0:0|0:0|0:0,0:0:0:0:
348,152,201128,2,0,L|278:143,1,70,10|0,0:0|0:0,0:0:0:0:
282,43,201349,1,10,0:0:0:0:
282,43,201459,2,0,L|362:33,1,70,0|10,0:0|0:0,0:0:0:0:
179,4,201680,5,0,0:0:0:0:
179,4,201790,2,0,B|159:26|159:26|130:21|130:21|94:42|33:21,1,140,10|10,0:0|0:0,0:0:0:0:
26,117,202121,1,0,0:0:0:0:
11,163,202231,1,10,0:0:0:0:
32,207,202341,1,0,0:0:0:0:
78,222,202452,2,0,L|167:212,1,70,10|0,0:0|0:0,0:0:0:0:
236,263,202672,6,0,B|233:304|233:304|236:310|236:310|232:360,1,83.9999974365235,12|0,0:1|0:0,0:0:0:0:
363,207,202893,2,0,B|366:166|366:166|363:160|363:160|367:110,1,83.9999974365235,12|0,0:1|0:0,0:0:0:0:
258,148,203113,6,0,B|197:136|197:136|174:143,1,70,10|0,0:0|0:0,0:0:0:0:
114,69,203334,1,10,0:0:0:0:
114,69,203444,2,0,B|53:57|53:57|30:64,2,70,0|10|0,0:0|0:0|0:0,0:0:0:0:
195,10,203775,2,0,B|202:12|202:12|263:0,1,70,10|0,0:0|0:0,0:0:0:0:
401,13,203996,1,10,0:0:0:0:
446,30,204106,1,0,0:0:0:0:
465,74,204216,1,10,0:0:0:0:
446,119,204327,1,0,0:0:0:0:
401,137,204437,2,0,B|340:125|340:125|317:132,1,70,10|0,0:0|0:0,0:0:0:0:
259,254,204658,5,10,0:0:0:0:
340,230,204768,2,0,B|363:227|363:227|490:244,1,140,4|0,0:1|0:0,0:0:0:0:
355,342,205099,6,0,L|358:388,3,35,8|0|0|0,0:0|0:0|0:0|0:0,0:0:0:0:
276,329,205319,2,0,L|280:268,2,46.6666666666667,8|0|0,0:0|0:0|0:0,0:0:0:0:
198,345,205540,2,0,B|154:338|154:338|109:337,1,70,4|0,0:0|0:0,0:0:0:0:
20,245,205761,2,0,B|64:252|64:252|109:253,1,70,0|4,0:0|0:0,0:0:0:0:
219,207,205981,5,8,0:0:0:0:
284,158,206085,1,8,0:0:0:0:
258,84,206189,1,8,0:0:0:0:
177,85,206293,1,8,0:0:0:0:
153,161,206397,1,4,0:1:0:0:
256,192,206452,12,0,208161,0:0:0:0:
