osu file format v14

[General]
AudioFilename: audio.mp3
AudioLeadIn: 0
PreviewTime: 68777
Countdown: 0
SampleSet: Drum
StackLeniency: 0.6
Mode: 0
LetterboxInBreaks: 0
WidescreenStoryboard: 1

[Editor]
Bookmarks: 3924,8335,20252,27310,34369,43189,60836,71755,87747,99659,106717,115431,131423,138482,152600,159659,178519,194511,206397
DistanceSpacing: 1
BeatDivisor: 4
GridSize: 8
TimelineZoom: 2

[Metadata]
Title:Naikan Uchuu Shisha no Yurikago
TitleUnicode:内観宇宙死者のゆりかご
Artist:Yousei Teikoku
ArtistUnicode:妖精帝國
Creator:IsomirDiAngelo
Version:Hard
Source:
Tags:osu osu! world cup owc finals hr3 atalanta talulah fairy empire das feenreich flamma idola yui itsuki japanese rock metal jrock gothic
BeatmapID:3356230
BeatmapSetID:1306595

[Difficulty]
HPDrainRate:4
CircleSize:3.5
OverallDifficulty:7
ApproachRate:8
SliderMultiplier:1
SliderTickRate:1

[Events]
//Background and Video events
0,0,"suigintou6b.jpg",0,0
//Break Periods
2,61036,68027
2,87947,98909
2,131623,134203
2,159859,166717
//Storyboard Layer 0 (Background)
//Storyboard Layer 1 (Fail)
//Storyboard Layer 2 (Pass)
//Storyboard Layer 3 (Foreground)
//Storyboard Layer 4 (Overlay)
//Storyboard Sound Samples

[TimingPoints]
408,219.78021978022,4,3,1,70,1,0
3924,220.588235294118,4,3,1,70,1,0
8335,220.588235294118,3,3,1,70,1,0
12967,212.765957446809,4,3,1,70,1,0
13392,272.727272727273,4,3,1,70,1,0
13664,208.333333333333,4,3,1,70,1,0
14080,215.827338129496,4,3,1,70,1,0
14297,220.588235294118,3,3,1,70,1,0
20252,220.588235294118,4,3,1,70,1,0
40766,206.896551724138,4,3,1,70,1,0
41179,230.769230769231,4,3,1,70,1,0
41294,220.588235294118,4,3,1,70,1,0
42286,225.563909774436,4,3,1,70,1,0
43189,220.588235294118,4,3,1,70,1,0
60836,-100,4,2,1,70,0,0
70100,-100,4,3,1,70,0,0
71865,220.588235294118,4,3,1,70,1,1
85872,-100,4,3,1,70,0,0
87747,220.588235294118,3,3,1,70,1,0
99659,220.588235294118,4,3,1,70,1,0
115431,-100,4,3,1,70,0,1
129548,-100,4,3,1,70,0,0
131423,-100,4,3,1,70,0,0
159659,-100,4,2,1,70,0,0
167600,-100,4,3,1,70,0,0
178629,220.588235294118,4,3,1,70,1,0
180283,-100,4,3,1,70,0,1
192636,-100,4,3,1,70,0,0
194511,220.588235294118,3,3,1,70,1,0
205981,208.333333333333,4,3,1,70,1,0
206397,220.588235294118,4,3,1,70,1,0

[Colours]
Combo1 : 194,48,22
Combo2 : 220,199,219
Combo3 : 233,226,103
Combo4 : 151,134,111

[HitObjects]
74,43,3924,6,0,L|91:198,1,150,8|8,0:0|0:0,0:0:0:0:
53,285,4475,2,0,B|87:302|87:302|148:284,1,100,8|0,0:0|0:0,0:0:0:0:
189,309,4806,6,0,P|246:277|221:188,1,150,8|8,0:0|0:0,0:0:0:0:
310,132,5357,2,0,B|325:98|325:98|300:15,1,100,8|0,0:0|0:0,0:0:0:0:
356,33,5688,6,0,B|431:13|431:13|500:77,1,150,8|8,0:0|0:0,0:0:0:0:
440,152,6240,2,0,L|450:262,1,100,8|0,0:0|0:0,0:0:0:0:
410,283,6571,6,0,B|353:271|353:271|314:301|314:301|253:310,1,150,8|8,0:0|0:0,0:0:0:0:
200,377,7122,1,8,0:0:0:0:
102,353,7343,1,0,0:0:0:0:
102,353,7453,2,0,B|61:326|44:279|44:279|53:273|53:273|26:232|28:190|28:190|39:187|39:187|31:145|60:108|60:108|76:102|76:102|107:49|166:22,1,400,8|14,0:0|0:1,0:0:0:0:
241,89,8555,5,10,0:0:0:0:
241,89,8665,2,0,B|274:98|274:98|356:83,1,100
343,36,8996,2,0,B|376:45|376:45|458:30,1,100,10|10,0:0|0:0,0:0:0:0:
483,59,9327,2,0,L|474:125,1,50,0|10,0:0|0:0,0:0:0:0:
507,156,9548,5,0,0:0:0:0:
507,156,9658,2,0,B|491:212|491:212|503:241|503:241|481:322,1,150,10|0,0:0|0:0,0:0:0:0:
447,330,10099,2,0,P|412:335|368:331,1,50,10|0,0:0|0:0,0:0:0:0:
356,305,10320,1,10,0:0:0:0:
286,236,10540,5,12,0:1:0:0:
248,329,10761,1,12,0:1:0:0:
148,341,10982,2,0,P|88:332|61:275,1,100,10|10,0:0|0:0,0:0:0:0:
15,303,11312,2,0,B|-1:253|-1:253|46:193,1,100
14,167,11643,2,0,B|64:151|64:151|124:198,1,100,10|10,0:0|0:0,0:0:0:0:
147,157,11974,2,0,L|207:184,1,50,0|10,0:0|0:0,0:0:0:0:
211,230,12195,5,0,0:0:0:0:
211,230,12305,2,0,L|194:349,1,100,10|10,0:0|0:0,0:0:0:0:
233,363,12636,1,4,0:1:0:0:
323,317,12857,5,0,0:0:0:0:
323,317,12967,2,0,L|399:330,1,50,8|0,0:0|0:0,0:0:0:0:
410,293,13179,2,0,L|494:283,1,50,8|0,0:0|0:0,0:0:0:0:
499,320,13392,2,0,B|510:282|510:282|475:186,1,100,8|12,0:0|0:0,0:0:0:0:
446,199,13768,1,0,0:0:0:0:
401,177,13872,2,0,L|340:186,2,50,8|0|8,0:0|0:0|0:0,0:0:0:0:
474,111,14297,6,0,B|446:77|408:71|359:94,1,100,10|10,0:0|0:0,0:0:0:0:
358,41,14627,2,0,B|314:36|283:59|264:110,1,100
231,62,14958,2,0,B|197:90|191:128|213:177,1,100,10|10,0:0|0:0,0:0:0:0:
155,161,15289,2,0,L|151:229,1,50,0|10,0:0|0:0,0:0:0:0:
172,264,15510,5,0,0:0:0:0:
172,264,15620,2,0,B|117:267|117:267|93:233|93:233|15:212,1,150,10|0,0:0|0:0,0:0:0:0:
9,257,16061,2,0,L|15:321,1,50,10|0,0:0|0:0,0:0:0:0:
0,355,16282,1,10,0:0:0:0:
99,357,16502,5,12,0:1:0:0:
199,353,16723,1,12,0:1:0:0:
299,347,16944,2,0,B|311:309|311:309|299:230,1,100,10|10,0:0|0:0,0:0:0:0:
254,232,17274,2,0,B|244:172|244:172|256:134,1,100
224,95,17605,2,0,L|347:81,1,100,10|10,0:0|0:0,0:0:0:0:
347,39,17936,2,0,L|409:35,1,50,0|10,0:0|0:0,0:0:0:0:
443,66,18157,5,0,0:0:0:0:
443,66,18267,2,0,B|472:96|472:96|448:177,1,100,10|10,0:0|0:0,0:0:0:0:
487,190,18598,1,4,0:1:0:0:
455,285,18819,5,0,0:0:0:0:
455,285,18929,2,0,L|386:296,1,50,8|0,0:0|0:0,0:0:0:0:
363,266,19149,2,0,L|294:255,1,50,8|0,0:0|0:0,0:0:0:0:
274,289,19370,2,0,L|205:300,1,50,8|0,0:0|0:0,0:0:0:0:
183,268,19591,1,8,0:0:0:0:
95,315,19811,2,0,L|91:383,2,50,8|8|2,0:0|0:0|0:0,0:0:0:0:
28,240,20252,5,4,0:1:0:0:
256,192,20362,12,12,22016,0:1:0:0:
256,192,22127,12,12,23781,0:1:0:0:
256,192,23891,12,12,25546,0:1:0:0:
256,192,25656,12,8,26869,0:0:0:0:
272,281,27310,6,0,B|206:294|206:294|163:271,1,100,4|8,0:1|0:0,0:0:0:0:
135,306,27641,1,0,0:1:0:0:
53,247,27862,2,0,L|58:129,1,100,0|0,0:1|0:1,0:0:0:0:
85,105,28193,2,0,B|171:97|155:174|254:172,1,150
260,145,28634,1,0,0:0:0:0:
343,90,28854,2,0,P|395:108|411:160,1,100,8|0,0:0|0:0,0:0:0:0:
448,181,29185,2,0,P|475:176|526:171,2,50,0|8|0,0:0|0:0|0:0,0:0:0:0:
381,256,29627,5,0,0:0:0:0:
284,232,29847,1,0,0:0:0:0:
193,275,30068,1,2,0:0:0:0:
96,248,30288,1,2,0:0:0:0:
96,248,30399,2,0,P|100:287|100:324,2,50,2|2|10,0:0|0:0|0:0,0:0:0:0:
25,177,30840,6,0,B|20:121|20:121|69:64,1,100,4|8,0:1|0:0,0:0:0:0:
35,39,31171,1,0,0:0:0:0:
133,52,31391,2,0,B|181:45|181:45|192:49|192:49|266:35,1,100
276,18,31722,2,0,L|269:170,1,150
307,197,32163,2,0,L|312:264,1,50
276,283,32384,2,0,B|326:288|326:288|332:293|332:293|408:304,1,100,8|0,0:0|0:0,0:0:0:0:
446,230,32825,2,0,B|471:190|471:190|443:107,1,100,8|0,0:0|0:0,0:0:0:0:
461,90,33156,2,0,L|527:79,2,50,0|8|0,0:0|0:0|0:0,0:0:0:0:
422,58,33487,6,0,L|349:46,1,50,2|2,0:0|0:0,0:0:0:0:
347,92,33707,2,0,L|274:104,1,50,10|2,0:0|0:0,0:0:0:0:
263,63,33928,2,0,L|190:51,1,50,2|2,0:0|0:0,0:0:0:0:
177,89,34149,1,10,0:0:0:0:
81,60,34369,6,0,B|53:106|53:106|64:171,1,100,4|0,0:1|0:0,0:0:0:0:
31,192,34700,1,8,0:0:0:0:
59,232,34810,2,0,L|76:343,1,100,2|0,0:0|0:0,0:0:0:0:
174,334,35252,6,0,P|201:337|243:314,1,50,2|8,0:0|0:0,0:0:0:0:
252,290,35472,2,0,P|246:259|243:228,1,50,0|8,0:0|0:0,0:0:0:0:
203,210,35693,2,0,L|188:93,1,100,2|0,0:0|0:0,0:0:0:0:
268,48,36134,6,0,B|295:36|295:36|341:44,1,50,4|8,0:1|0:0,0:0:0:0:
362,23,36354,2,0,L|346:142,1,100
386,154,36685,1,8,0:0:0:0:
386,154,36796,1,0,0:0:0:0:
419,248,37016,6,0,P|421:280|424:308,1,50,2|10,0:0|0:0,0:0:0:0:
388,334,37237,2,0,P|354:324|314:319,1,50,2|10,0:0|0:0,0:0:0:0:
289,320,37457,2,0,P|259:331|231:338,1,50,2|10,0:0|0:0,0:0:0:0:
207,298,37678,2,0,P|211:274|215:240,1,50,2|10,0:0|0:0,0:0:0:0:
178,213,37899,6,0,B|128:214|128:214|120:220|120:220|41:232,1,100,4|0,0:1|0:0,0:0:0:0:
39,197,38229,1,8,0:0:0:0:
30,147,38340,2,0,P|22:117|87:55,1,100,2|0,0:0|0:0,0:0:0:0:
152,33,38781,6,0,P|185:30|226:22,1,50,2|8,0:0|0:0,0:0:0:0:
240,58,39002,2,0,P|272:51|316:47,1,50,0|8,0:0|0:0,0:0:0:0:
330,75,39222,2,0,L|452:93,1,100,2|0,0:0|0:0,0:0:0:0:
479,176,39663,6,0,B|500:196|500:196|470:220,2,50,4|8|0,0:1|0:0|0:0,0:0:0:0:
432,196,39994,2,0,L|316:219,1,100,8|8,0:0|0:0,0:0:0:0:
296,181,40325,2,0,B|262:187|262:187|237:165,1,50,0|8,0:0|0:0,0:0:0:0:
216,214,40546,2,0,B|200:243|200:243|215:312,1,100,8|0,0:0|0:0,0:0:0:0:
123,348,40972,2,0,B|90:352|90:352|82:371,1,50,8|8,0:0|0:0,0:0:0:0:
41,350,41179,1,8,0:0:0:0:
17,303,41294,6,0,B|-54:224|-22:82|80:23|247:52|256:153,1,450,4|0,0:1|2:0,2:0:0:0:
311,151,43189,6,0,B|302:202|302:202|307:210|307:210|298:273,1,100,4|0,0:1|0:0,0:0:0:0:
331,288,43519,1,2,0:0:0:0:
236,321,43740,2,0,L|98:303,1,100,2|2,0:0|0:0,0:0:0:0:
91,330,44071,6,0,B|82:279|82:279|88:271|88:271|80:226,1,100,4|0,0:1|0:0,0:0:0:0:
37,207,44402,1,2,0:0:0:0:
95,125,44622,2,0,B|147:108|147:108|203:132,1,100,2|2,0:0|0:0,0:0:0:0:
216,84,44953,6,0,L|331:75,1,100,4|0,0:1|0:0,0:0:0:0:
346,36,45284,2,0,B|387:53|387:53|439:36,1,100,2|2,0:0|0:0,0:0:0:0:
509,108,45725,1,2,0:0:0:0:
509,108,45836,2,0,B|483:159|483:159|490:229,1,100,4|0,0:1|0:0,0:0:0:0:
444,226,46166,2,0,L|335:204,1,100,2|2,0:0|0:0,0:0:0:0:
260,256,46608,5,2,0:0:0:0:
260,256,46718,2,0,B|235:292|235:292|250:369,1,100,4|0,0:1|0:0,0:0:0:0:
204,375,47049,1,2,0:0:0:0:
109,342,47269,2,0,B|100:271|100:271|61:232,1,100,2|2,0:0|0:0,0:0:0:0:
47,212,47600,6,0,B|32:144|32:144|61:93,1,100,4|0,0:1|0:0,0:0:0:0:
21,73,47931,1,2,0:0:0:0:
107,23,48152,2,0,B|163:21|163:21|207:68,1,100,2|2,0:0|0:0,0:0:0:0:
242,45,48483,6,0,L|253:163,1,100,4|0,0:1|0:0,0:0:0:0:
218,182,48814,1,2,0:0:0:0:
295,244,49034,2,0,L|308:367,1,100,2|2,0:0|0:0,0:0:0:0:
354,353,49365,6,0,B|403:343|403:343|412:334|412:334|475:324,1,100,4|0,0:1|0:0,0:0:0:0:
471,284,49696,1,2,0:0:0:0:
466,184,49916,2,0,B|429:178|429:178|420:169|420:169|371:159,1,100,2|0,0:0|0:0,0:0:0:0:
343,117,50247,6,0,B|337:95|337:95|350:48,2,50,4|0|0,0:1|0:0|0:0,0:0:0:0:
246,87,50689,2,0,B|229:103|229:103|182:115,2,50,8|0|0,0:0|0:0|0:0,0:0:0:0:
261,186,51130,2,0,B|283:191|283:191|317:226,2,50,4|0|0,0:1|0:0|0:0,0:0:0:0:
161,198,51571,6,0,L|167:277,1,50,12|2,0:1|0:0,0:0:0:0:
132,286,51791,2,0,L|127:350,1,50,2|2,0:0|0:0,0:0:0:0:
172,359,52012,6,0,B|217:364|217:364|225:373|225:373|281:377,1,100,4|0,0:1|0:0,0:0:0:0:
310,349,52343,1,2,0:0:0:0:
410,344,52564,2,0,P|449:315|445:238,1,100,2|2,0:0|0:0,0:0:0:0:
424,230,52894,6,0,B|420:177|420:177|413:170|413:170|411:109,1,100,4|0,0:1|0:0,0:0:0:0:
441,92,53225,1,2,0:0:0:0:
353,43,53446,2,0,P|299:30|248:88,1,100,2|2,0:0|0:0,0:0:0:0:
213,60,53777,6,0,B|205:101|205:101|208:109|208:109|194:187,1,100,4|0,0:1|0:0,0:0:0:0:
148,159,54108,2,0,B|98:156|98:156|43:194,1,100,2|2,0:0|0:0,0:0:0:0:
60,288,54549,1,2,0:0:0:0:
60,288,54659,2,0,B|99:324|99:324|179:321,1,100,4|0,0:1|0:0,0:0:0:0:
181,358,54990,2,0,L|304:373,1,100,2|2,0:0|0:0,0:0:0:0:
367,319,55431,5,2,0:0:0:0:
367,319,55541,2,0,L|350:195,1,100,4|0,0:1|0:0,0:0:0:0:
394,191,55872,1,2,0:0:0:0:
424,95,56093,2,0,B|371:91|371:91|336:48,1,100,2|2,0:0|0:0,0:0:0:0:
291,50,56424,6,0,L|169:61,1,100,4|0,0:1|0:0,0:0:0:0:
146,35,56755,1,2,0:0:0:0:
89,117,56975,2,0,L|100:230,1,100,2|2,0:0|0:0,0:0:0:0:
80,263,57306,6,0,B|131:270|131:270|140:264|140:264|201:277,1,100,4|0,0:1|0:0,0:0:0:0:
199,317,57637,1,2,0:0:0:0:
246,229,57858,2,0,B|297:221|297:221|306:227|306:227|367:214,1,100,2|2,0:0|0:0,0:0:0:0:
372,261,58189,6,0,B|418:274|418:274|497:235,1,100,4|0,0:1|0:0,0:0:0:0:
486,205,58519,1,2,0:0:0:0:
427,123,58740,2,0,L|294:139,1,100,2|2,0:0|0:0,0:0:0:0:
293,97,59071,6,0,B|241:96|241:96|227:83|227:83|169:71,1,100,4|0,0:1|0:0,0:0:0:0:
149,66,59402,1,0,0:0:0:0:
148,115,59512,2,0,B|147:166|147:166|134:181|134:181|122:239,1,100,12|0,0:0|0:0,0:0:0:0:
122,259,59843,1,0,0:0:0:0:
171,260,59953,2,0,B|222:261|222:261|237:274|237:274|295:286,1,100,4|0,0:0|0:0,0:0:0:0:
314,288,60284,1,0,0:0:0:0:
314,239,60394,2,0,B|313:186|313:186|325:172|325:172|335:114,1,100,12|4,0:1|0:0,0:0:0:0:
290,51,60836,5,4,3:1:0:0:
290,51,68777,5,4,0:1:0:0:
290,51,70100,6,0,L|338:36,5,33.3333333333333,8|0|0|8|0|0,0:0|0:0|0:0|0:0|0:0|0:0,0:0:0:0:
259,86,70541,2,0,L|211:71,5,33.3333333333333,12|4|4|12|4|4,0:0|0:0|0:0|0:0|0:0|0:0,0:0:0:0:
274,132,70983,6,0,B|322:136|322:136|331:144|331:144|385:151,1,100,8|8,0:0|0:0,0:0:0:0:
412,121,71314,1,2,0:0:0:0:
476,196,71534,2,0,B|487:225|487:225|473:258,1,50,8|8,0:0|0:0,0:0:0:0:
449,282,71755,6,0,B|395:283|403:321|347:326,1,100,4|0,0:1|0:0,0:0:0:0:
333,365,72085,1,8,0:0:0:0:
241,324,72306,2,0,L|177:320,2,50,0|0|8,0:0|0:0|0:0,0:0:0:0:
256,276,72637,2,0,L|250:169,1,100,2|0,0:0|0:0,0:0:0:0:
278,135,72967,1,8,0:0:0:0:
225,49,73188,2,0,L|159:58,1,50
137,23,73409,5,8,0:0:0:0:
88,33,73519,2,0,B|66:74|66:74|82:146,1,100,2|0,0:0|0:0,0:0:0:0:
54,170,73850,2,0,L|48:226,1,50,8|0,0:0|0:0,0:0:0:0:
83,255,74070,2,0,B|105:296|105:296|89:368,1,100,0|8,0:0|0:0,0:0:0:0:
142,339,74401,5,2,0:0:0:0:
231,293,74622,2,0,B|254:275|254:275|279:281,1,50,2|8,0:0|0:0,0:0:0:0:
314,310,74842,1,2,0:0:0:0:
420,302,75063,1,0,0:0:0:0:
420,302,75173,1,8,0:0:0:0:
420,302,75284,6,0,B|430:253|430:253|425:237|425:237|433:188,1,100,4|0,0:1|0:0,0:0:0:0:
455,160,75615,1,8,0:0:0:0:
403,74,75835,2,0,L|408:17,2,50,0|0|8,0:0|0:0|0:0,0:0:0:0:
358,92,76166,6,0,B|313:107|313:107|259:76,1,100,2|0,0:0|0:0,0:0:0:0:
240,37,76497,1,8,0:0:0:0:
141,52,76717,2,0,B|138:80|138:80|140:86|140:86|138:110,1,50
94,125,76938,5,8,0:0:0:0:
49,146,77048,2,0,B|34:198|34:198|61:259,1,100,2|0,0:0|0:0,0:0:0:0:
94,268,77379,2,0,L|146:256,1,50,8|0,0:0|0:0,0:0:0:0:
180,290,77600,2,0,B|230:296|230:296|235:302|235:302|292:309,1,100,0|8,0:0|0:0,0:0:0:0:
313,341,77931,5,2,0:0:0:0:
400,293,78151,2,0,L|409:233,1,50,0|8,0:0|0:0,0:0:0:0:
375,204,78372,1,2,0:0:0:0:
455,144,78592,5,8,0:0:0:0:
487,105,78703,1,8,0:0:0:0:
480,55,78813,2,0,B|429:45|429:45|418:35|418:35|363:41,1,100,4|0,0:1|0:0,0:0:0:0:
347,72,79144,5,8,0:0:0:0:
248,54,79365,2,0,B|234:24|234:24|245:-5,2,50,0|0|8,0:0|0:0|0:0,0:0:0:0:
213,90,79695,2,0,B|207:138|207:138|211:143|211:143|205:206,1,100,2|0,0:0|0:0,0:0:0:0:
241,224,80026,1,8,0:0:0:0:
219,321,80247,2,0,B|191:340|191:340|154:334,1,50
131,362,80467,1,8,0:0:0:0:
81,350,80578,2,0,L|74:237,1,100,2|0,0:0|0:0,0:0:0:0:
37,216,80909,5,8,0:0:0:0:
101,139,81129,2,0,B|95:107|95:107|71:96,2,50,0|0|8,0:0|0:0|0:0,0:0:0:0:
137,174,81460,2,0,B|183:161|183:161|198:167|198:167|247:162,1,100,2|0,0:0|0:0,0:0:0:0:
265,123,81791,2,0,B|262:88|262:88|289:67,1,50,8|0,0:0|0:0,0:0:0:0:
372,61,82122,1,0,0:0:0:0:
372,61,82232,1,8,0:0:0:0:
372,61,82342,6,0,L|361:171,1,100,4|0,0:1|0:0,0:0:0:0:
401,191,82673,1,8,0:0:0:0:
393,290,82894,2,0,B|390:326|390:326|411:351,2,50,0|0|8,0:0|0:0|0:0,0:0:0:0:
343,280,83225,2,0,B|293:275|293:275|281:266|281:266|228:263,1,100,2|0,0:0|0:0,0:0:0:0:
206,294,83556,1,8,0:0:0:0:
118,246,83776,2,0,L|106:178,1,50
64,173,83997,1,8,0:0:0:0:
55,123,84107,2,0,P|74:85|145:69,1,100,2|0,0:0|0:0,0:0:0:0:
143,18,84438,5,8,0:0:0:0:
240,42,84659,1,0,0:0:0:0:
284,63,84769,1,0,0:0:0:0:
295,111,84879,1,8,0:0:0:0:
276,157,84990,2,0,B|326:179|326:179|378:155,1,100,4|0,0:1|0:0,0:0:0:0:
417,159,85320,1,8,0:0:0:0:
440,203,85431,2,0,B|430:254|430:254|462:310,1,100,2|0,0:0|0:0,0:0:0:0:
438,346,85762,1,8,0:0:0:0:
438,346,85872,1,2,0:0:0:0:
194,307,86865,6,0,L|128:314,2,50,8|8|8,0:0|0:0|0:0,0:0:0:0:
236,280,87195,1,2,0:0:0:0:
291,196,87416,1,2,0:0:0:0:
223,122,87637,1,2,0:0:0:0:
223,122,87747,1,10,0:0:0:0:
255,191,99659,5,4,0:1:0:0:
256,192,99769,12,4,101423,0:1:0:0:
256,192,101534,12,4,102747,0:0:0:0:
253,194,103188,5,4,0:1:0:0:
256,192,103298,12,4,104953,0:1:0:0:
256,192,105063,12,8,106276,0:0:0:0:
200,155,106717,6,0,B|246:127|246:127|311:138,1,100,4|0,0:1|0:0,0:0:0:0:
332,105,107048,1,8,0:0:0:0:
372,133,107158,2,0,L|483:150,1,100,2|0,0:0|0:0,0:0:0:0:
459,248,107600,6,0,P|462:275|439:317,1,50,2|8,0:0|0:0,0:0:0:0:
415,326,107820,2,0,P|384:320|353:317,1,50,0|8,0:0|0:0,0:0:0:0:
335,277,108041,2,0,L|218:262,1,100,2|0,0:0|0:0,0:0:0:0:
156,325,108482,6,0,B|129:337|129:337|83:329,1,50,4|8,0:1|0:0,0:0:0:0:
62,350,108702,2,0,L|78:231,1,100
38,219,109033,1,8,0:0:0:0:
38,219,109144,1,0,0:0:0:0:
93,136,109364,6,0,P|95:104|98:76,1,50,2|10,0:0|0:0,0:0:0:0:
135,54,109585,2,0,P|169:64|209:69,1,50,2|10,0:0|0:0,0:0:0:0:
216,103,109805,2,0,P|214:139|210:163,1,50,2|10,0:0|0:0,0:0:0:0:
204,202,110026,2,0,P|238:212|278:217,1,50,2|10,0:0|0:0,0:0:0:0:
280,256,110247,6,0,B|330:255|330:255|338:249|338:249|417:237,1,100,4|0,0:1|0:0,0:0:0:0:
426,234,110577,1,8,0:0:0:0:
435,184,110688,2,0,P|443:154|378:92,1,100,2|0,0:0|0:0,0:0:0:0:
309,82,111129,6,0,P|276:85|235:93,1,50,2|8,0:0|0:0,0:0:0:0:
221,57,111350,2,0,P|189:64|145:68,1,50,0|8,0:0|0:0,0:0:0:0:
131,40,111570,2,0,L|9:22,1,100,2|0,0:0|0:0,0:0:0:0:
17,124,112011,6,0,B|37:103|37:103|61:133,2,50,4|8|0,0:1|0:0|0:0,0:0:0:0:
37,171,112342,2,0,L|60:287,1,100,8|8,0:0|0:0,0:0:0:0:
105,282,112673,2,0,B|111:316|111:316|89:341,1,50,0|8,0:0|0:0,0:0:0:0:
138,362,112894,2,0,B|167:378|167:378|236:363,1,100,2|2,0:0|0:0,0:0:0:0:
280,377,113225,5,10,0:0:0:0:
280,377,113335,2,0,L|285:315,1,50,2|10,0:0|0:0,0:0:0:0:
255,285,113556,2,0,L|250:225,1,50,2|10,0:0|0:0,0:0:0:0:
279,194,113776,6,0,B|190:188|190:188|159:174|159:174|65:196,2,200,8|0|8,0:0|0:0|0:0,0:0:0:0:
343,117,114879,1,8,0:0:0:0:
496,283,115431,6,0,P|441:303|434:357,1,100,4|0,0:1|0:0,0:0:0:0:
394,374,115761,1,8,0:0:0:0:
308,321,115982,2,0,L|244:317,2,50,0|0|8,0:0|0:0|0:0,0:0:0:0:
323,273,116313,2,0,L|317:166,1,100,2|0,0:0|0:0,0:0:0:0:
352,137,116643,1,8,0:0:0:0:
254,159,116864,2,0,L|188:168,1,50
165,133,117085,5,8,0:0:0:0:
119,111,117195,2,0,B|97:70|97:70|113:-2,1,100,2|0,0:0|0:0,0:0:0:0:
58,13,117526,2,0,B|35:4|35:4|3:19,1,50,8|0,0:0|0:0,0:0:0:0:
1,63,117747,2,0,L|9:182,1,100,0|8,0:0|0:0,0:0:0:0:
48,191,118077,5,2,0:0:0:0:
114,266,118298,2,0,P|114:299|109:327,1,50,2|8,0:0|0:0,0:0:0:0:
134,360,118518,1,2,0:0:0:0:
221,307,118739,1,0,0:0:0:0:
221,307,118850,1,8,0:0:0:0:
221,307,118960,6,0,B|270:281|270:281|272:232,1,100,4|0,0:1|0:0,0:0:0:0:
233,206,119291,1,8,0:0:0:0:
279,117,119511,2,0,L|284:60,2,50,0|0|8,0:0|0:0|0:0,0:0:0:0:
326,132,119842,6,0,B|371:147|371:147|425:116,1,100,2|0,0:0|0:0,0:0:0:0:
414,70,120173,1,8,0:0:0:0:
506,108,120393,2,0,B|503:136|503:136|505:142|505:142|503:166,1,50
486,204,120614,5,8,0:0:0:0:
476,253,120725,2,0,B|431:268|431:268|377:237,1,100,2|0,0:0|0:0,0:0:0:0:
338,259,121055,2,0,L|332:324,1,50,8|0,0:0|0:0,0:0:0:0:
293,339,121276,2,0,B|243:333|243:333|238:327|238:327|181:320,1,100,0|8,0:0|0:0,0:0:0:0:
154,350,121607,5,2,0:0:0:0:
140,251,121827,2,0,L|149:191,1,50,0|8,0:0|0:0,0:0:0:0:
195,185,122048,1,2,0:0:0:0:
107,137,122269,1,8,0:0:0:0:
98,87,122379,1,8,0:0:0:0:
135,51,122489,6,0,B|167:47|167:47|184:60|184:60|229:67,1,100,4|0,0:1|0:0,0:0:0:0:
273,42,122820,1,8,0:0:0:0:
373,46,123041,2,0,B|387:16|387:16|376:-13,2,50,0|0|8,0:0|0:0|0:0,0:0:0:0:
414,73,123371,2,0,B|420:121|420:121|416:126|416:126|422:189,1,100,2|0,0:0|0:0,0:0:0:0:
384,206,123702,1,8,0:0:0:0:
440,288,123923,2,0,B|412:307|412:307|375:301,1,50
352,329,124143,1,8,0:0:0:0:
302,317,124254,2,0,L|295:204,1,100,2|0,0:0|0:0,0:0:0:0:
252,191,124585,5,8,0:0:0:0:
190,112,124805,2,0,B|196:80|196:80|220:69,2,50,0|0|8,0:0|0:0|0:0,0:0:0:0:
154,147,125136,2,0,B|108:134|108:134|93:140|93:140|44:135,1,100,2|0,0:0|0:0,0:0:0:0:
16,165,125467,2,0,B|2:192|2:192|23:217,1,50,8|0,0:0|0:0,0:0:0:0:
96,281,125798,5,0,0:0:0:0:
96,281,125909,1,8,0:0:0:0:
96,281,126018,2,0,L|206:292,1,100,4|0,0:1|0:0,0:0:0:0:
236,319,126349,1,8,0:0:0:0:
336,314,126570,2,0,B|339:350|339:350|318:375,2,50,0|0|8,0:0|0:0|0:0,0:0:0:0:
330,261,126901,2,0,B|325:211|325:211|316:199|316:199|313:146,1,100,2|0,0:0|0:0,0:0:0:0:
346,125,127232,1,8,0:0:0:0:
263,69,127452,2,0,L|195:57,1,50
190,15,127673,1,8,0:0:0:0:
140,7,127783,2,0,P|102:26|86:97,1,100,2|0,0:0|0:0,0:0:0:0:
36,97,128114,5,8,0:0:0:0:
8,193,128335,1,0,0:0:0:0:
16,242,128445,1,0,0:0:0:0:
58,268,128556,1,8,0:0:0:0:
106,258,128666,2,0,B|156:236|156:236|208:260,1,100,4|0,0:1|0:0,0:0:0:0:
246,250,128996,1,8,0:0:0:0:
276,209,129107,2,0,B|281:157|281:157|327:112,1,100,4|0,0:1|0:0,0:0:0:0:
368,134,129438,1,8,0:0:0:0:
368,134,129548,1,2,0:0:0:0:
141,36,130541,6,0,L|75:29,2,50,8|8|8,0:0|0:0|0:0,0:0:0:0:
183,63,130871,1,2,0:0:0:0:
238,147,131092,1,2,0:0:0:0:
170,221,131313,1,2,0:0:0:0:
170,221,131423,1,2,0:0:0:0:
256,192,134953,12,8,137600,0:0:0:0:
186,138,138482,6,0,B|222:123|222:123|248:150|248:150|326:96|432:129,1,250,4|0,0:1|0:0,0:0:0:0:
461,106,139144,2,0,B|473:132|473:132|444:153,1,50,10|0,0:0|0:0,0:0:0:0:
438,191,139364,2,0,B|443:240|443:240|440:246|440:246|448:313,1,100,2|8,0:0|0:0,0:0:0:0:
360,344,139806,5,2,0:0:0:0:
310,336,139916,1,0,0:0:0:0:
265,318,140026,2,0,B|240:321|240:321|235:320|235:320|200:325,1,50,10|0,0:0|0:0,0:0:0:0:
176,291,140247,2,0,P|119:294|104:346,1,100,2|8,0:0|0:0,0:0:0:0:
61,355,140578,1,2,0:0:0:0:
61,355,140688,2,0,L|-3:364,2,50,0|0|10,0:0|0:0|0:0,0:0:0:0:
32,258,141129,5,2,0:0:0:0:
32,258,141239,2,0,B|27:226|27:226|45:197,1,50,0|8,0:0|0:0,0:0:0:0:
76,181,141460,2,0,B|99:184|99:184|106:187|106:187|138:190,2,50,0|2|0,0:0|0:0|0:0,0:0:0:0:
50,137,141791,2,0,B|36:115|36:115|43:76,1,50,8|0,0:0|0:0,0:0:0:0:
73,54,142011,6,0,L|177:46,1,100,2|8,0:0|0:0,0:0:0:0:
210,13,142342,1,2,0:0:0:0:
303,49,142563,2,0,B|328:51|328:51|336:56|336:56|368:57,2,50,0|10|0,0:0|0:0|0:0,0:0:0:0:
267,84,142894,6,0,L|276:193,1,100,2|8,0:0|0:0,0:0:0:0:
235,214,143225,1,2,0:0:0:0:
315,272,143445,1,0,0:0:0:0:
315,272,143556,2,0,L|380:262,1,50,10|0,0:0|0:0,0:0:0:0:
404,294,143776,6,0,B|281:260|300:373|174:356,1,250,2|2,0:0|0:0,0:0:0:0:
124,343,144438,2,0,L|133:286,1,50,8|0,0:0|0:0,0:0:0:0:
102,252,144659,6,0,L|50:242,3,33.3333333333333,2|2|2|2,0:0|0:0|0:0|0:0,0:0:0:0:
156,196,145100,6,0,L|145:123,1,50,8|8,0:0|0:0,0:0:0:0:
111,112,145320,2,0,L|122:49,1,50,8|8,0:0|0:0,0:0:0:0:
159,31,145541,5,2,0:0:0:0:
206,14,145651,1,0,0:0:0:0:
249,38,145761,2,0,L|365:60,2,100,10|2|8,0:0|0:0|0:0,0:0:0:0:
269,136,146423,6,0,B|244:153|244:153|238:184,1,50,2|0,0:0|0:0,0:0:0:0:
203,206,146644,2,0,B|220:231|220:231|251:237,1,50,10|0,0:0|0:0,0:0:0:0:
272,272,146864,2,0,B|297:255|297:255|303:224,1,50,2|0,0:0|0:0,0:0:0:0:
338,202,147085,2,0,B|321:177|321:177|290:171,1,50,10|0,0:0|0:0,0:0:0:0:
334,135,147306,6,0,B|368:123|368:123|386:132|386:132|450:127,1,100,2|10,0:0|0:0,0:0:0:0:
505,193,147747,1,2,0:0:0:0:
505,242,147857,1,0,0:0:0:0:
506,291,147967,1,10,0:0:0:0:
411,324,148188,6,0,L|407:364,5,33.3333333333333,6|4|4|14|4|4,0:0|0:0|0:0|0:0|0:0|0:0,0:0:0:0:
381,303,148629,2,0,B|331:293|331:293|321:299|321:299|271:293,1,100,6|0,0:0|0:0,0:0:0:0:
191,333,149070,6,0,L|127:343,1,50,2|0,0:0|0:0,0:0:0:0:
99,312,149291,1,10,0:0:0:0:
77,266,149401,2,0,L|83:199,1,50,0|2,0:0|0:0,0:0:0:0:
43,182,149622,2,0,L|37:123,1,50,0|10,0:0|0:0,0:0:0:0:
69,93,149842,1,0,0:0:0:0:
112,68,149953,6,0,B|165:55|165:55|221:82,1,100,2|10,0:0|0:0,0:0:0:0:
246,166,150394,1,0,0:0:0:0:
291,185,150504,2,0,L|282:64,1,100,2|0,0:0|0:0,0:0:0:0:
318,49,150835,1,2,0:0:0:0:
418,50,151056,1,8,0:0:0:0:
465,65,151166,2,0,L|457:187,1,100,2|0,0:0|0:0,0:0:0:0:
494,199,151497,1,10,0:0:0:0:
461,293,151717,6,0,B|428:291|428:291|423:296|423:296|395:298,1,50,10|8,0:0|0:0,0:0:0:0:
375,330,151938,1,8,0:0:0:0:
325,326,152048,1,8,0:0:0:0:
274,323,152159,2,0,B|246:321|246:321|236:317|236:317|207:315,1,50,8|8,0:0|0:0,0:0:0:0:
181,291,152379,1,8,0:0:0:0:
131,291,152489,1,8,0:0:0:0:
80,294,152600,1,2,0:0:0:0:
256,192,152655,12,4,153372,0:1:0:0:
253,193,154364,5,2,0:0:0:0:
256,192,154420,12,4,155136,0:1:0:0:
331,136,156129,6,0,B|240:115|240:115|233:105|233:105|124:80,1,200,4|8,0:1|0:0,0:0:0:0:
105,47,156681,2,0,B|84:69|84:69|94:104,1,50
57,126,156901,2,0,B|34:152|34:152|54:224,2,100,4|0|0,0:1|0:0|0:0,0:0:0:0:
9,108,157453,1,8,0:0:0:0:
45,304,157894,6,0,B|96:281|96:281|139:295|139:295|186:270|245:279,1,200,4|8,0:1|0:0,0:0:0:0:
273,309,158445,2,0,L|261:373,1,50
313,367,158666,2,0,B|350:332|350:332|330:229,1,150,4|0,0:1|0:0,0:0:0:0:
392,155,159217,6,0,L|386:89,1,50,8|8,0:0|0:0,0:0:0:0:
340,86,159438,1,2,0:0:0:0:
245,53,159659,5,4,3:1:0:0:
45,82,167600,6,0,B|73:70|73:70|111:66,1,50,14|0,0:1|0:0,0:0:0:0:
133,96,167820,2,0,B|168:102|168:102|199:91,1,50
219,64,168041,2,0,L|209:174,1,100,10|0,0:0|0:0,0:0:0:0:
266,246,168482,6,0,L|263:309,1,50,10|0,0:0|0:0,0:0:0:0:
296,334,168703,2,0,L|299:385,1,50
340,358,168923,2,0,B|376:345|393:342|446:343,1,100,10|0,0:0|0:0,0:0:0:0:
496,261,169364,5,10,0:0:0:0:
437,179,169585,2,0,L|382:188,3,50,4|0|8|0,0:1|0:0|0:0|0:0,0:0:0:0:
458,132,170026,2,0,L|513:141,3,50,2|0|8|0,0:0|0:0|0:0|0:0,0:0:0:0:
426,93,170467,2,0,L|434:37,1,50,2|0,0:0|0:0,0:0:0:0:
396,8,170688,2,0,L|331:24,1,50,8|0,0:0|0:0,0:0:0:0:
297,20,170909,2,0,L|230:7,1,50,2|0,0:0|0:0,0:0:0:0:
205,40,171129,2,0,P|213:106|221:158,1,100,8|2,0:0|0:0,0:0:0:0:
142,204,171570,6,0,B|119:182|119:182|81:186,1,50,14|0,0:1|0:0,0:0:0:0:
51,193,171791,2,0,B|30:212|30:212|28:246,1,50
7,278,172011,2,0,B|56:286|56:286|62:299|62:299|111:307,1,100,10|0,0:0|0:0,0:0:0:0:
196,288,172453,6,0,B|219:310|219:310|257:306,1,50,10|0,0:0|0:0,0:0:0:0:
287,299,172674,2,0,B|308:280|308:280|310:246,1,50
331,214,172894,2,0,B|282:206|282:206|276:193|276:193|227:185,1,100,10|0,0:0|0:0,0:0:0:0:
206,93,173335,5,10,0:0:0:0:
288,36,173556,2,0,L|292:100,3,50,6|0|8|0,0:1|0:0|0:0|0:0,0:0:0:0:
336,51,173997,2,0,L|339:1,3,50,2|0|8|0,0:0|0:0|0:0|0:0,0:0:0:0:
380,29,174438,2,0,L|446:39,1,50,2|0,0:0|0:0,0:0:0:0:
466,70,174659,2,0,L|493:121,1,50,8|0,0:0|0:0,0:0:0:0:
482,163,174879,2,0,L|471:221,1,50,2|0,0:0|0:0,0:0:0:0:
437,247,175100,5,8,0:0:0:0:
337,242,175320,1,10,0:0:0:0:
237,233,175541,1,4,0:1:0:0:
290,51,176864,6,0,L|338:36,5,33.3333333333333,8|0|0|8|0|0,0:0|0:0|0:0|0:0|0:0|0:0,0:0:0:0:
259,86,177305,2,0,L|211:71,5,33.3333333333333,12|4|4|12|4|4,0:0|0:0|0:0|0:0|0:0|0:0,0:0:0:0:
274,132,177747,6,0,B|322:136|322:136|331:144|331:144|385:151,1,100,8|8,0:0|0:0,0:0:0:0:
416,128,178078,1,8,0:0:0:0:
462,145,178188,2,0,B|473:174|473:174|459:207,1,50
481,239,178409,1,8,0:0:0:0:
449,282,178519,6,0,P|302:326|230:155,1,350,4|0,0:1|0:0,2:0:0:0:
245,131,179401,5,8,0:0:0:0:
154,89,179621,1,8,0:0:0:0:
68,140,179842,1,8,0:0:0:0:
63,239,180062,2,0,B|56:268|56:268|75:285,1,50,0|8,0:0|0:0,0:0:0:0:
102,320,180283,6,0,B|207:308,1,100,4|0,0:1|0:0,0:0:0:0:
245,332,180614,2,0,B|268:341|268:341|300:326,1,50,8|0,0:0|0:0,0:0:0:0:
337,311,180835,2,0,L|454:336,1,100,0|8,0:0|0:0,0:0:0:0:
467,294,181165,5,2,0:0:0:0:
405,214,181386,2,0,P|405:181|400:153,1,50,2|8,0:0|0:0,0:0:0:0:
364,133,181606,1,2,0:0:0:0:
272,173,181827,1,0,0:0:0:0:
272,173,181937,1,8,0:0:0:0:
272,173,182048,6,0,B|252:202|252:202|175:204,1,100,4|0,0:1|0:0,0:0:0:0:
146,233,182379,1,8,0:0:0:0:
49,206,182599,2,0,L|-8:201,2,50,0|0|8,0:0|0:0|0:0,0:0:0:0:
80,166,182930,6,0,B|95:121|95:121|64:67,1,100,2|0,0:0|0:0,0:0:0:0:
83,27,183261,1,8,0:0:0:0:
179,53,183481,2,0,B|206:47|206:47|211:44|211:44|235:38,1,50
277,44,183702,5,8,0:0:0:0:
327,39,183813,2,0,B|354:77|354:77|340:138,1,100,2|0,0:0|0:0,0:0:0:0:
382,159,184143,2,0,L|394:223,1,50,8|0,0:0|0:0,0:0:0:0:
361,248,184364,2,0,B|311:256|311:256|304:251|304:251|248:260,1,100,0|8,0:0|0:0,0:0:0:0:
218,235,184695,5,2,0:0:0:0:
130,283,184915,2,0,L|139:343,1,50,0|8,0:0|0:0,0:0:0:0:
104,370,185136,1,2,0:0:0:0:
32,300,185356,5,8,0:0:0:0:
0,263,185467,1,8,0:0:0:0:
0,215,185577,2,0,B|17:187|17:187|12:166|12:166|25:123,1,100,4|0,0:1|0:0,0:0:0:0:
12,73,185908,1,8,0:0:0:0:
103,32,186129,2,0,B|81:17|81:17|44:29,2,50,0|0|8,0:0|0:0|0:0,0:0:0:0:
130,73,186459,2,0,B|178:79|178:79|183:75|183:75|246:81,1,100,2|0,0:0|0:0,0:0:0:0:
269,50,186790,1,8,0:0:0:0:
302,144,187011,2,0,B|330:163|330:163|367:157,1,50
390,185,187231,1,8,0:0:0:0:
439,173,187342,2,0,L|446:286,1,100,2|0,0:0|0:0,0:0:0:0:
406,304,187673,5,8,0:0:0:0:
314,344,187893,2,0,B|320:376|320:376|344:387,2,50,0|0|8,0:0|0:0|0:0,0:0:0:0:
278,309,188224,2,0,B|232:322|232:322|217:316|217:316|168:321,1,100,2|0,0:0|0:0,0:0:0:0:
183,269,188555,2,0,B|169:242|169:242|176:208,1,50,8|0,0:0|0:0,0:0:0:0:
73,241,188886,1,0,0:0:0:0:
73,241,188996,1,8,0:0:0:0:
73,241,189106,6,0,B|51:202|51:202|66:131,1,100,4|0,0:1|0:0,0:0:0:0:
14,132,189437,1,8,0:0:0:0:
73,49,189658,2,0,B|76:13|76:13|55:-12,2,50,0|0|8,0:0|0:0|0:0,0:0:0:0:
122,60,189989,2,0,B|172:65|172:65|184:74|184:74|237:77,1,100,2|0,0:0|0:0,0:0:0:0:
252,38,190320,1,8,0:0:0:0:
328,102,190540,2,0,L|396:114,1,50
401,156,190761,1,8,0:0:0:0:
450,147,190871,2,0,P|488:166|504:237,1,100,2|0,0:0|0:0,0:0:0:0:
476,256,191202,5,8,0:0:0:0:
433,346,191423,1,0,0:0:0:0:
383,351,191533,1,0,0:0:0:0:
343,320,191643,1,8,0:0:0:0:
329,271,191754,2,0,B|279:293|279:293|227:269,1,100,4|0,0:1|0:0,0:0:0:0:
206,235,192084,1,8,0:0:0:0:
236,194,192195,2,0,B|241:142|241:142|287:97,1,100,2|0,0:0|0:0,0:0:0:0:
328,119,192526,1,8,0:0:0:0:
328,119,192636,1,2,0:0:0:0:
194,307,193629,6,0,L|128:314,2,50,8|8|8,0:0|0:0|0:0,0:0:0:0:
236,280,193959,1,2,0:0:0:0:
291,196,194180,1,2,0:0:0:0:
223,122,194401,1,2,0:0:0:0:
223,122,194511,1,10,0:0:0:0:
131,34,194731,5,10,0:0:0:0:
131,34,194841,2,0,B|122:67|122:67|137:149,1,100
84,140,195172,2,0,B|75:173|75:173|90:255,1,100,10|10,0:0|0:0,0:0:0:0:
61,280,195503,1,0,0:0:0:0:
147,340,195724,5,0,0:0:0:0:
147,340,195834,2,0,B|203:356|203:356|232:344|232:344|313:366,1,150,10|0,0:0|0:0,0:0:0:0:
332,331,196275,2,0,P|327:296|331:252,1,50,10|0,0:0|0:0,0:0:0:0:
357,240,196496,1,10,0:0:0:0:
447,199,196716,5,12,0:1:0:0:
359,150,196937,1,12,0:1:0:0:
270,196,197158,2,0,P|210:187|183:130,1,100,10|10,0:0|0:0,0:0:0:0:
138,167,197488,2,0,B|122:117|122:117|169:57,1,100
122,38,197819,2,0,B|72:54|72:54|12:7,1,100,10|10,0:0|0:0,0:0:0:0:
2,63,198150,1,0,0:0:0:0:
20,165,198371,5,0,0:0:0:0:
20,165,198481,2,0,L|3:284,1,100,10|10,0:0|0:0,0:0:0:0:
31,307,198812,1,4,0:1:0:0:
119,364,199033,5,0,0:0:0:0:
119,364,199143,2,0,L|195:377,1,50,8|0,0:0|0:0,0:0:0:0:
206,340,199363,2,0,L|290:330,1,50,8|0,0:0|0:0,0:0:0:0:
295,367,199584,2,0,B|306:329|306:329|271:233,1,100,8|0,0:0|0:0,0:0:0:0:
242,246,199915,1,4,0:0:0:0:
197,224,200025,2,0,L|136:233,2,50,8|0|12,0:0|0:0|0:1,0:0:0:0:
193,123,200467,6,0,B|221:89|259:83|308:106,1,100,10|10,0:0|0:0,0:0:0:0:
309,53,200797,2,0,B|353:48|384:71|403:122,1,100
436,74,201128,2,0,B|470:102|476:140|454:189,1,100,10|10,0:0|0:0,0:0:0:0:
512,173,201459,1,0,0:0:0:0:
502,276,201680,5,0,0:0:0:0:
502,276,201790,2,0,B|447:279|447:279|423:245|423:245|345:224,1,150,10|0,0:0|0:0,0:0:0:0:
334,265,202231,2,0,L|340:329,1,50,10|0,0:0|0:0,0:0:0:0:
325,363,202452,1,10,0:0:0:0:
225,352,202672,5,12,0:1:0:0:
185,259,202893,1,12,0:1:0:0:
228,168,203114,2,0,B|240:130|240:130|228:51,1,100,10|10,0:0|0:0,0:0:0:0:
267,36,203444,2,0,B|327:46|327:46|365:34,1,100
395,73,203775,2,0,L|387:183,1,100,10|10,0:0|0:0,0:0:0:0:
429,200,204106,1,0,0:0:0:0:
491,280,204327,5,0,0:0:0:0:
491,280,204437,2,0,B|461:309|461:309|380:285,1,100,10|10,0:0|0:0,0:0:0:0:
367,324,204768,1,4,0:1:0:0:
291,266,204989,5,0,0:0:0:0:
291,266,205099,2,0,L|222:277,1,50,8|0,0:0|0:0,0:0:0:0:
199,247,205319,2,0,L|130:236,1,50,8|0,0:0|0:0,0:0:0:0:
110,270,205540,2,0,L|41:281,1,50,4|0,0:0|0:0,0:0:0:0:
19,249,205761,1,0,0:0:0:0:
11,143,205981,5,8,0:0:0:0:
8,93,206085,1,8,0:0:0:0:
51,68,206189,2,0,B|82:74|82:74|99:112,1,50,8|8,0:0|0:0,0:0:0:0:
134,77,206397,5,4,0:1:0:0:
256,192,206452,12,0,208161,0:0:0:0:
