osu file format v14

[General]
AudioFilename: audio.mp3
AudioLeadIn: 0
PreviewTime: 68777
Countdown: 0
SampleSet: Drum
StackLeniency: 0.6
Mode: 0
LetterboxInBreaks: 0
WidescreenStoryboard: 1

[Editor]
Bookmarks: 3924,8335,20252,27310,34347,43189,60836,71755,87747,99658,106717,115431,131423,138482,152600,159659,178519,194511,206397
DistanceSpacing: 0.1
BeatDivisor: 4
GridSize: 8
TimelineZoom: 2

[Metadata]
Title:Naikan Uchuu Shisha no Yurikago
TitleUnicode:内観宇宙死者のゆりかご
Artist:Yousei Teikoku
ArtistUnicode:妖精帝國
Creator:IsomirDiAngelo
Version:Extreme
Source:
Tags:osu osu! world cup owc finals hr3 atalanta talulah fairy empire das feenreich flamma idola yui itsuki japanese rock metal jrock gothic
BeatmapID:2709056
BeatmapSetID:1306595

[Difficulty]
HPDrainRate:5
CircleSize:3.7
OverallDifficulty:9
ApproachRate:9.6
SliderMultiplier:1.8
SliderTickRate:1

[Events]
//Background and Video events
0,0,"suigintou6b.jpg",0,0
//Break Periods
2,131623,134444
//Storyboard Layer 0 (Background)
//Storyboard Layer 1 (Fail)
//Storyboard Layer 2 (Pass)
//Storyboard Layer 3 (Foreground)
//Storyboard Layer 4 (Overlay)
//Storyboard Sound Samples

[TimingPoints]
408,219.78021978022,4,3,1,70,1,0
408,-166.666666666667,4,3,1,70,0,0
3924,220.588235294118,4,3,1,70,1,0
3924,-125,4,3,1,70,0,0
8335,220.588235294118,3,3,1,70,1,0
8335,-90.9090909090909,4,3,1,70,0,0
12636,-76.9230769230769,4,3,1,70,0,0
12967,212.765957446809,4,3,1,70,1,0
13392,272.727272727273,4,3,1,70,1,0
13664,208.333333333333,4,3,1,70,1,0
14080,215.827338129496,4,3,1,70,1,0
14297,220.588235294118,3,3,1,70,1,0
14297,-90.9090909090909,3,3,1,70,0,0
18598,-76.9230769230769,3,3,1,70,0,0
18819,-90.9090909090909,3,3,1,70,0,0
20252,220.588235294118,4,3,1,70,1,0
34347,-83.3333333333333,4,3,1,70,0,0
39663,-83.3333333333333,4,3,1,70,0,0
40766,206.896551724138,4,3,1,70,1,0
41179,230.769230769231,4,3,1,70,1,0
41294,220.588235294118,4,3,1,70,1,0
41294,-142.857142857143,4,3,1,70,0,0
42286,225.563909774436,4,3,1,70,1,0
43189,220.588235294118,4,3,1,70,1,0
43189,-125,4,3,1,70,0,0
60836,-166.666666666667,4,2,1,70,0,0
68777,-500.000000000003,4,2,1,70,0,0
70100,-500.000000000003,4,3,1,70,0,0
70983,-100,4,3,1,70,0,0
71755,-83.3333333333333,4,3,1,70,0,1
71865,220.588235294118,4,3,1,70,1,1
71865,-83.3333333333333,4,3,1,70,0,1
85872,-83.3333333333333,4,3,1,70,0,0
87747,220.588235294118,3,3,1,70,1,0
87747,-90.9090909090909,3,3,1,70,0,0
92048,-76.9230769230769,3,3,1,70,0,0
92379,-90.9090909090909,3,3,1,70,0,0
98004,-76.9230769230769,3,3,1,70,0,0
98224,-90.9090909090909,3,3,1,70,0,0
99659,220.588235294118,4,3,1,70,1,0
106717,-83.3333333333333,4,3,1,70,0,0
114989,-100,4,3,1,70,0,0
115431,-83.3333333333333,4,3,1,70,0,1
129548,-83.3333333333333,4,3,1,70,0,0
134953,-125,4,3,1,70,0,0
138482,-83.3333333333333,4,3,1,70,0,1
152600,-166.666666666667,4,3,1,70,0,1
153372,-83.3333333333333,4,3,1,70,0,1
154034,-100,4,3,1,70,0,1
154364,-166.666666666667,4,3,1,70,0,1
155136,-83.3333333333333,4,3,1,70,0,1
156129,-100,4,3,1,70,0,1
159328,-100,4,3,1,70,0,0
159659,-125,4,2,1,70,0,0
167600,-125,4,3,1,70,0,1
175541,-500,4,3,1,70,0,0
176864,-125,4,3,1,70,0,0
177747,-83.3333333333333,4,3,1,70,0,0
178519,-125,4,3,1,70,0,0
178629,220.588235294118,4,3,1,70,1,0
180283,-83.3333333333333,4,3,1,70,0,1
192636,-83.3333333333333,4,3,1,70,0,0
194511,220.588235294118,3,3,1,70,1,0
194511,-90.9090909090909,4,3,1,70,0,0
198812,-76.9230769230769,4,3,1,70,0,0
199033,-90.9090909090909,4,3,1,70,0,0
204768,-76.9230769230769,4,3,1,70,0,0
204988,-90.9090909090909,4,3,1,70,0,0
205981,208.333333333333,4,3,1,70,1,0
205981,-90.9090909090909,4,3,1,70,0,0
206397,220.588235294118,4,3,1,70,1,0

[Colours]
Combo1 : 194,48,22
Combo2 : 220,199,219
Combo3 : 233,226,103
Combo4 : 151,134,111

[HitObjects]
134,224,3924,6,0,B|91:199|91:199|61:212|61:212|-17:202,1,144,8|0,0:0|0:0,0:0:0:0:
48,123,4254,1,8,0:0:0:0:
73,298,4475,1,8,0:0:0:0:
221,174,4696,1,0,0:0:0:0:
308,224,4806,6,0,B|351:199|351:199|381:212|381:212|459:202,1,144,8|0,0:0|0:0,0:0:0:0:
394,123,5137,1,8,0:0:0:0:
361,303,5357,1,8,0:0:0:0:
221,174,5578,1,0,0:0:0:0:
271,94,5688,6,0,B|235:64|181:73|181:73|159:98|125:104,1,144,8|0,0:0|0:0,0:0:0:0:
45,190,6019,1,8,0:0:0:0:
99,21,6240,1,8,0:0:0:0:
221,174,6460,1,0,0:0:0:0:
319,174,6571,6,0,B|355:144|409:153|409:153|431:178|448:179,1,144,8|0,0:0|0:0,0:0:0:0:
510,312,6901,1,8,0:0:0:0:
326,260,7122,1,8,0:0:0:0:
487,104,7343,1,0,0:0:0:0:
411,74,7453,6,0,P|415:50|421:31,3,36,8|8|4|4,0:0|0:0|0:0|0:0,0:0:0:0:
380,152,7674,2,0,P|384:175|390:195,3,36,4|4|0|4,0:0|0:0|0:0|0:0,0:0:0:0:
277,74,7894,2,0,P|281:50|287:31,3,36,4|4|0|0,0:0|0:0|0:0|0:0,0:0:0:0:
221,173,8115,2,0,P|225:196|231:216,3,36,4|4|0|0,0:0|0:0|0:0|0:0,0:0:0:0:
147,134,8335,6,0,B|121:134|88:111|88:111|50:120|20:147,1,99.0000030212403,14|0,0:1|0:0,0:0:0:0:
163,299,8554,1,10,0:0:0:0:
250,325,8665,2,0,B|263:302|299:285|299:285|310:247|302:208,1,99.0000030212403,0|10,0:0|0:0,0:0:0:0:
89,231,8886,1,0,0:0:0:0:
22,293,8996,2,0,B|34:315|31:355|31:355|58:384|96:396,2,99.0000030212403,10|0|10,0:0|0:0|0:0,0:0:0:0:
147,134,9327,5,0,0:0:0:0:
89,231,9437,1,10,0:0:0:0:
57,146,9548,1,0,0:0:0:0:
176,214,9658,2,0,B|201:223|237:216|266:170,1,99.0000030212403,10|0,0:0|0:0,0:0:0:0:
241,2,9879,2,0,B|220:19|208:53|234:101,1,99.0000030212403,10|0,0:0|0:0,0:0:0:0:
393,164,10099,2,0,B|388:137|364:110|309:108,1,99.0000030212403,10|0,0:0|0:0,0:0:0:0:
425,255,10320,2,0,B|450:264|486:257|515:211,1,99.0000030212403,10|0,0:0|0:0,0:0:0:0:
253,348,10540,5,12,0:1:0:0:
326,240,10651,1,0,0:0:0:0:
189,289,10761,5,12,0:1:0:0:
210,162,10871,1,0,0:0:0:0:
97,303,10982,6,0,B|75:299|67:274|67:274|33:260|-11:270,1,99.0000030212403,10|0,0:0|0:0,0:0:0:0:
77,123,11202,1,10,0:0:0:0:
126,198,11312,2,0,B|148:194|156:169|156:169|190:155|234:165,1,99.0000030212403,0|10,0:0|0:0,0:0:0:0:
182,3,11533,1,0,0:0:0:0:
99,36,11643,2,0,B|77:32|69:7|69:7|35:-7|-9:3,2,99.0000030212403,10|0|10,0:0|0:0|0:0,0:0:0:0:
236,76,11974,5,0,0:0:0:0:
209,161,12085,1,10,0:0:0:0:
295,144,12195,1,0,0:0:0:0:
364,94,12305,5,10,0:0:0:0:
392,202,12415,1,0,0:0:0:0:
293,174,12526,1,10,0:0:0:0:
476,151,12636,6,0,B|473:185|486:221|486:221|443:266|436:305|436:305|450:342|459:390,1,233.999989288331,4|0,0:1|0:0,0:0:0:0:
268,384,12967,5,8,0:0:0:0:
192,309,13073,1,0,0:0:0:0:
209,209,13179,1,8,0:0:0:0:
293,174,13286,1,0,0:0:0:0:
365,108,13392,6,0,P|385:116|413:123,3,45,8|8|4|4,0:0|0:0|0:0|0:0,0:0:0:0:
358,16,13664,1,12,0:0:0:0:
312,9,13733,1,4,0:0:0:0:
268,25,13802,1,4,0:0:0:0:
242,60,13872,1,8,0:0:0:0:
215,82,13941,1,4,0:0:0:0:
176,83,14011,1,4,0:0:0:0:
143,63,14080,1,8,0:0:0:0:
85,0,14187,1,0,0:0:0:0:
102,131,14297,6,0,B|140:131|140:131|151:116|151:116|216:100,1,99.0000030212403,10|0,0:0|0:0,0:0:0:0:
47,323,14517,1,10,0:0:0:0:
91,247,14627,2,0,B|72:214|72:214|53:212|53:212|7:163,1,99.0000030212403,0|10,0:0|0:0,0:0:0:0:
274,240,14848,1,0,0:0:0:0:
197,199,14958,2,0,B|178:231|178:231|185:248|185:248|166:313,2,99.0000030212403,10|0|10,0:0|0:0|0:0,0:0:0:0:
297,108,15289,5,0,0:0:0:0:
357,184,15399,1,10,0:0:0:0:
449,158,15510,1,0,0:0:0:0:
391,82,15620,2,0,B|348:69|348:69|339:74|339:74|296:61,1,99.0000030212403,10|0,0:0|0:0,0:0:0:0:
262,204,15841,2,0,B|304:191|304:191|313:196|313:196|356:183,1,99.0000030212403,10|0,0:0|0:0,0:0:0:0:
509,311,16061,5,10,0:0:0:0:
431,273,16172,1,0,0:0:0:0:
367,333,16282,2,0,B|324:320|324:320|315:325|315:325|272:312,1,99.0000030212403,10|0,0:0|0:0,0:0:0:0:
177,196,16502,5,12,0:1:0:0:
179,330,16613,1,0,0:0:0:0:
97,167,16723,5,12,0:1:0:0:
47,282,16833,1,0,0:0:0:0:
30,108,16944,6,0,B|54:81|54:81|101:67|127:87,1,99.0000030212403,10|0,0:0|0:0,0:0:0:0:
229,21,17164,1,10,0:0:0:0:
289,77,17274,2,0,B|264:103|264:103|217:117|191:97,1,99.0000030212403,0|10,0:0|0:0,0:0:0:0:
177,196,17495,1,0,0:0:0:0:
236,264,17605,2,0,B|260:290|260:290|307:304|333:284,2,99.0000030212403,10|0|10,0:0|0:0|0:0,0:0:0:0:
106,350,17936,5,0,0:0:0:0:
47,282,18047,1,10,0:0:0:0:
84,196,18157,1,0,0:0:0:0:
177,196,18267,5,10,0:0:0:0:
221,102,18377,1,0,0:0:0:0:
156,25,18488,1,10,0:0:0:0:
251,125,18598,6,0,B|293:129|323:155|323:155|362:138|362:138|442:166|492:140,1,233.999989288331,4|0,0:1|0:0,0:0:0:0:
413,15,18929,2,0,B|380:24|359:47|359:47|309:45,1,99.0000030212403,8|0,0:0|0:0,0:0:0:0:
177,196,19149,2,0,B|144:186|123:163|123:163|73:165,1,99.0000030212403,8|0,0:0|0:0,0:0:0:0:
209,277,19370,6,0,P|205:306|199:337,2,49.5000015106202,8|8|0,0:0|0:0|0:0,0:0:0:0:
345,214,19591,2,0,P|341:185|335:154,2,49.5000015106202,8|8|0,0:0|0:0|0:0,0:0:0:0:
381,286,19811,5,8,0:0:0:0:
512,328,19922,1,8,0:0:0:0:
492,200,20032,1,2,0:0:0:0:
428,356,20142,1,0,0:0:0:0:
345,214,20252,5,4,0:1:0:0:
303,197,20363,1,0,0:0:0:0:
258,203,20473,1,0,0:0:0:0:
191,257,20583,5,4,0:0:0:0:
149,274,20694,1,0,0:0:0:0:
106,259,20804,1,0,0:0:0:0:
23,201,20914,5,4,0:0:0:0:
27,187,21024,1,0,0:0:0:0:
30,174,21135,1,0,0:0:0:0:
95,110,21245,5,4,0:0:0:0:
91,96,21355,1,0,0:0:0:0:
88,83,21466,1,0,0:0:0:0:
46,10,21576,6,0,P|36:53|23:136,1,90,4|0,0:0|0:0,0:0:0:0:
141,185,21797,5,8,0:0:0:0:
233,198,21907,1,0,0:0:0:0:
201,107,22017,5,12,0:1:0:0:
188,54,22127,1,0,0:0:0:0:
222,12,22238,1,0,0:0:0:0:
314,0,22348,5,4,0:0:0:0:
361,25,22458,1,0,0:0:0:0:
373,77,22569,1,0,0:0:0:0:
313,160,22679,5,4,0:0:0:0:
296,156,22789,1,0,0:0:0:0:
278,151,22899,1,0,0:0:0:0:
352,235,23010,5,4,0:0:0:0:
369,231,23120,1,0,0:0:0:0:
385,227,23230,1,0,0:0:0:0:
477,185,23341,6,0,P|472:227|464:288,1,90,4|0,0:0|0:0,0:0:0:0:
319,356,23561,5,8,0:0:0:0:
261,266,23672,1,0,0:0:0:0:
164,310,23782,5,12,0:1:0:0:
118,311,23892,1,0,0:0:0:0:
76,287,24002,1,0,0:0:0:0:
1,240,24113,5,4,0:0:0:0:
17,197,24223,1,0,0:0:0:0:
56,175,24333,1,0,0:0:0:0:
138,223,24444,5,4,0:0:0:0:
143,237,24554,1,0,0:0:0:0:
147,252,24664,1,0,0:0:0:0:
211,165,24774,5,4,0:0:0:0:
215,150,24885,1,0,0:0:0:0:
220,136,24995,1,0,0:0:0:0:
133,66,25105,6,0,P|85:70|23:78,1,90,4|0,0:0|0:0,0:0:0:0:
261,14,25326,5,8,0:0:0:0:
313,96,25436,1,0,0:0:0:0:
414,66,25547,5,12,0:1:0:0:
471,92,25657,1,0,0:0:0:0:
486,153,25767,1,0,0:0:0:0:
446,239,25877,5,4,0:0:0:0:
392,272,25988,1,0,0:0:0:0:
334,246,26098,1,0,0:0:0:0:
252,185,26208,5,4,0:0:0:0:
264,179,26319,1,0,0:0:0:0:
275,173,26429,1,0,0:0:0:0:
199,111,26539,5,4,0:0:0:0:
187,105,26649,1,0,0:0:0:0:
176,99,26760,1,0,0:0:0:0:
87,169,26870,6,0,P|91:191|100:222,2,45,8|0|0,0:0|0:0|0:0,0:0:0:0:
2,243,27091,2,0,P|61:248|121:257,1,90,12|0,0:1|0:0,0:0:0:0:
290,361,27310,6,0,P|255:321|269:267,1,90,4|0,0:1|0:0,0:0:0:0:
321,199,27531,1,8,0:0:0:0:
321,199,27641,2,0,P|369:178|416:208,1,90,0|0,0:1|0:0,0:0:0:0:
207,194,27862,5,0,0:1:0:0:
131,166,27972,1,8,0:0:0:0:
53,134,28082,2,0,P|64:95|83:47,1,90,0|0,0:1|0:0,0:0:0:0:
0,202,28303,5,0,0:0:0:0:
51,265,28413,1,8,0:0:0:0:
0,332,28524,1,0,0:0:0:0:
57,381,28634,2,0,P|106:371|166:358,1,90
206,194,28854,2,0,P|157:204|97:217,1,90,8|0,0:0|0:0,0:0:0:0:
263,259,29075,1,0,0:0:0:0:
411,204,29185,5,0,0:0:0:0:
329,191,29296,1,8,0:0:0:0:
355,270,29406,2,0,P|404:260|464:247,1,90
290,343,29627,6,0,B|269:305|269:305|208:297,1,90
90,269,29847,2,0,B|132:270|132:270|170:221,1,90,0|2,0:0|0:0,0:0:0:0:
250,125,30068,2,0,B|227:160|227:160|251:217,1,90,2|10,0:0|0:0,0:0:0:0:
163,106,30288,5,2,0:0:0:0:
148,20,30399,1,2,0:0:0:0:
62,34,30509,1,2,0:0:0:0:
80,120,30619,1,10,0:0:0:0:
0,92,30729,5,2,0:0:0:0:
163,106,30840,2,0,P|213:111|369:121,1,180,4|8,0:1|0:0,0:0:0:0:
441,0,31171,6,0,B|399:35|423:106,1,90
484,224,31391,1,0,0:0:0:0:
446,293,31502,1,8,0:0:0:0:
364,284,31612,2,0,B|322:249|346:177,1,90
179,194,31832,5,0,0:0:0:0:
248,242,31943,1,8,0:0:0:0:
170,275,32053,1,0,0:0:0:0:
101,227,32163,5,0,0:0:0:0:
91,314,32274,1,0,0:0:0:0:
16,266,32384,2,0,P|6:210|114:132,1,180,8|0,0:0|0:0,0:0:0:0:
174,19,32715,5,0,0:0:0:0:
222,78,32825,2,0,L|350:85,1,90,8|0,0:0|0:0,0:0:0:0:
458,15,33046,1,0,0:0:0:0:
491,86,33156,1,0,0:0:0:0:
442,149,33266,2,0,L|352:153,1,90,8|0,0:0|0:0,0:0:0:0:
180,244,33487,5,2,0:0:0:0:
239,176,33597,1,2,0:0:0:0:
267,259,33707,1,10,0:0:0:0:
146,162,33818,5,2,0:0:0:0:
98,282,33928,1,2,0:0:0:0:
31,186,34038,1,2,0:0:0:0:
180,244,34149,2,0,L|232:237,2,45,10|8|8,0:0|0:0|0:0,0:0:0:0:
98,282,34369,6,0,B|89:327|89:327|96:341|96:341|91:403,1,107.999996704102,4|8,0:1|0:0,0:0:0:0:
317,312,34590,2,0,B|308:267|308:267|315:253|315:253|311:206,1,107.999996704102,0|8,0:0|0:0,0:0:0:0:
414,105,34810,6,0,B|405:150|405:150|412:164|412:164|407:226,1,107.999996704102,2|8,0:0|0:0,0:0:0:0:
220,114,35031,2,0,B|211:69|211:69|218:55|218:55|214:8,1,107.999996704102,0|8,0:0|0:0,0:0:0:0:
123,154,35252,5,2,0:0:0:0:
0,65,35362,2,0,B|62:44|62:44|99:64,1,107.999996704102,8|0,0:0|0:0,0:0:0:0:
99,241,35582,2,0,B|62:261|62:261|-22:234,1,107.999996704102,8|2,0:0|0:0,0:0:0:0:
202,365,35803,5,8,0:0:0:0:
268,301,35913,2,0,B|301:298|301:298|327:320,2,53.9999983520508,0|0|8,0:0|0:0|0:0,0:0:0:0:
220,114,36134,5,4,0:1:0:0:
262,49,36244,1,8,0:0:0:0:
338,46,36354,1,0,0:0:0:0:
399,88,36465,2,0,B|406:145|406:145|405:150|405:150|407:154|407:154|416:211,1,107.999996704102,8|0,0:0|0:0,0:0:0:0:
411,321,36685,5,8,0:0:0:0:
334,346,36796,1,0,0:0:0:0:
268,301,36906,2,0,B|261:244|261:244|262:239|262:239|260:235|260:235|251:178,1,107.999996704102,8|2,0:0|0:0,0:0:0:0:
61,160,37127,5,10,0:0:0:0:
13,219,37237,1,2,0:0:0:0:
40,292,37347,1,10,0:0:0:0:
141,330,37457,5,2,0:0:0:0:
193,255,37568,1,10,0:0:0:0:
141,183,37678,1,2,0:0:0:0:
209,113,37788,1,10,0:0:0:0:
165,28,37899,6,0,B|133:39|102:22|102:22|71:24|29:50,1,107.999996704102,4|8,0:1|0:0,0:0:0:0:
261,191,38119,2,0,B|293:202|324:185|324:185|355:187|397:213,1,107.999996704102,0|8,0:0|0:0,0:0:0:0:
193,255,38340,6,0,B|161:244|130:261|130:261|99:259|57:233,1,107.999996704102,2|8,0:0|0:0,0:0:0:0:
263,78,38560,2,0,B|295:67|326:84|326:84|357:82|399:56,1,107.999996704102,0|8,0:0|0:0,0:0:0:0:
445,139,38781,6,0,B|471:150|471:150|507:131,2,53.9999983520508,2|0|8,0:0|0:0|0:0,0:0:0:0:
365,196,39002,1,0,0:0:0:0:
473,275,39112,2,0,B|463:326|463:326|466:338|466:338|456:396,1,107.999996704102,8|2,0:0|0:0,0:0:0:0:
376,354,39332,1,8,0:0:0:0:
273,238,39443,2,0,B|247:227|247:227|211:246,2,53.9999983520508,0|0|8,0:0|0:0|0:0,0:0:0:0:
126,319,39663,5,4,0:1:0:0:
146,221,39774,1,8,0:0:0:0:
140,330,39884,1,0,0:0:0:0:
126,226,39994,1,8,0:0:0:0:
36,248,40104,5,0,0:0:0:0:
22,158,40215,1,8,0:0:0:0:
99,92,40325,1,0,0:0:0:0:
190,107,40435,1,8,0:0:0:0:
246,194,40546,2,0,P|251:228|258:256,4,53.9999983520508,8|0|0|0|0,0:0|0:0|0:0|0:0|0:0,0:0:0:0:
285,50,40869,5,4,0:0:0:0:
285,50,40921,1,4,0:0:0:0:
285,50,40972,2,0,B|320:31|320:31|381:43,1,90,8|8,0:0|0:0,0:0:0:0:
493,179,41179,5,8,0:0:0:0:
459,272,41294,2,0,P|392:325|138:54,1,566.999982696534,4|0,0:1|2:0,2:0:0:0:
97,63,43189,5,4,0:1:0:0:
166,38,43299,1,0,0:0:0:0:
220,91,43409,1,0,0:0:0:0:
193,163,43519,2,0,P|113:157|48:154,2,144,2|2|2,0:0|0:0|0:0,0:0:0:0:
343,217,44071,5,4,0:1:0:0:
274,192,44181,1,0,0:0:0:0:
220,245,44291,1,0,0:0:0:0:
247,317,44402,2,0,P|327:311|392:308,2,144,2|2|2,0:0|0:0|0:0,0:0:0:0:
98,364,44953,5,4,0:1:0:0:
107,285,45064,1,0,0:0:0:0:
41,242,45174,1,0,0:0:0:0:
37,162,45284,1,2,0:0:0:0:
31,152,45505,1,2,0:0:0:0:
26,141,45725,1,2,0:0:0:0:
96,85,45836,5,4,0:1:0:0:
170,105,45946,1,0,0:0:0:0:
241,72,46056,1,0,0:0:0:0:
313,102,46166,1,2,0:0:0:0:
320,114,46387,1,2,0:0:0:0:
326,125,46608,1,2,0:0:0:0:
395,82,46718,5,4,0:1:0:0:
458,118,46828,1,0,0:0:0:0:
460,194,46939,1,0,0:0:0:0:
418,256,47049,2,0,P|318:237|247:227,2,144,2|2|2,0:0|0:0|0:0,0:0:0:0:
259,157,47600,5,4,0:1:0:0:
187,170,47710,1,0,0:0:0:0:
159,241,47821,1,0,0:0:0:0:
177,313,47931,2,0,P|277:330|347:345,2,144,2|2|2,0:0|0:0|0:0,0:0:0:0:
32,349,48483,5,4,0:1:0:0:
63,283,48593,1,0,0:0:0:0:
24,221,48703,1,0,0:0:0:0:
62,160,48814,2,0,P|64:118|69:66,1,72,2|0,0:0|2:2,0:0:0:0:
159,241,49034,2,0,P|157:199|152:147,1,72,2|0,0:0|2:0,0:0:0:0:
237,129,49255,1,2,0:0:0:0:
325,97,49365,5,4,0:1:0:0:
356,163,49475,1,0,0:0:0:0:
317,225,49585,1,0,0:0:0:0:
355,286,49696,2,0,P|357:328|362:380,1,72,2|0,0:0|2:0,0:0:0:0:
452,205,49916,2,0,P|450:247|445:299,1,72,2|0,0:0|2:0,0:0:0:0:
325,97,50137,5,0,0:0:0:0:
324,93,50192,1,0,0:0:0:0:
323,89,50247,1,4,0:1:0:0:
263,17,50358,2,0,B|222:72|222:72|254:174,1,144
61,158,50689,5,8,0:0:0:0:
120,232,50799,2,0,B|161:177|161:177|129:75,1,144
283,253,51130,5,4,0:1:0:0:
230,326,51240,2,0,L|70:321,1,144
356,294,51571,5,12,0:1:0:0:
407,292,51681,1,2,0:0:0:0:
458,289,51791,1,2,0:0:0:0:
507,284,51902,1,2,0:0:0:0:
512,210,52012,5,4,0:1:0:0:
460,163,52122,1,0,0:0:0:0:
389,162,52233,1,0,0:0:0:0:
346,218,52343,2,0,P|342:164|344:55,2,144,2|2|2,0:0|0:0|0:0,0:0:0:0:
215,213,52894,5,4,0:1:0:0:
163,260,53004,1,0,0:0:0:0:
92,261,53115,1,0,0:0:0:0:
49,205,53225,2,0,P|45:258|47:368,2,144,2|2|2,0:0|0:0|0:0,0:0:0:0:
20,65,53777,5,4,0:1:0:0:
100,71,53887,1,0,0:0:0:0:
179,80,53997,1,0,0:0:0:0:
259,88,54108,1,2,0:0:0:0:
261,77,54328,1,2,0:0:0:0:
262,69,54549,1,2,0:0:0:0:
231,163,54659,5,4,0:1:0:0:
311,157,54769,1,0,0:0:0:0:
390,148,54879,1,0,0:0:0:0:
470,140,54990,1,2,0:0:0:0:
472,151,55210,1,2,0:0:0:0:
473,159,55431,1,2,0:0:0:0:
504,233,55541,5,4,0:1:0:0:
456,287,55652,1,0,0:0:0:0:
384,288,55762,1,0,0:0:0:0:
326,245,55872,2,0,P|301:262|292:382,2,144,2|2|2,0:0|0:0|0:0,0:0:0:0:
399,142,56424,5,4,0:1:0:0:
351,88,56535,1,0,0:0:0:0:
279,87,56645,1,0,0:0:0:0:
221,130,56755,2,0,P|196:112|187:-7,2,144,2|2|2,0:0|0:0|0:0,0:0:0:0:
197,276,57306,5,4,0:1:0:0:
132,313,57416,1,0,0:0:0:0:
56,291,57527,1,0,0:0:0:0:
54,216,57637,2,0,P|91:222|135:225,1,72,2|0,0:0|2:0,0:0:0:0:
200,355,57858,2,0,P|237:348|281:346,1,72,2|0,0:0|2:0,0:0:0:0:
279,266,58078,1,2,0:0:0:0:
353,195,58189,5,4,0:1:0:0:
418,232,58299,1,0,0:0:0:0:
494,210,58410,1,0,0:0:0:0:
496,135,58520,2,0,P|458:141|415:144,1,72,2|0,0:0|2:0,0:0:0:0:
350,274,58741,2,0,P|312:267|269:265,1,72,2|0,0:0|2:0,0:0:0:0:
271,185,58961,1,2,0:0:0:0:
182,111,59071,5,4,0:1:0:0:
151,122,59181,1,0,0:0:0:0:
164,152,59291,1,0,0:0:0:0:
194,143,59402,1,0,0:0:0:0:
282,151,59512,5,12,0:0:0:0:
313,162,59622,1,0,0:0:0:0:
302,194,59732,1,0,0:0:0:0:
271,185,59843,1,0,0:0:0:0:
140,234,59953,5,4,0:0:0:0:
144,252,60064,1,0,0:0:0:0:
148,268,60174,1,0,0:0:0:0:
154,287,60284,1,0,0:0:0:0:
121,380,60394,5,12,0:1:0:0:
221,384,60505,1,8,0:0:0:0:
297,332,60615,1,4,0:0:0:0:
304,254,60725,1,4,0:0:0:0:
320,255,60836,6,0,P|342:247|379:241,1,53.9999983520508,4|0,3:1|0:0,0:0:0:0:
387,164,61056,2,0,P|382:187|369:222,1,53.9999983520508,0|0,0:0|3:0,0:0:0:0:
434,271,61277,2,0,P|416:255|392:226,1,53.9999983520508
426,84,61497,2,0,P|444:68|468:39,1,53.9999983520508,8|0,0:1|0:0,0:0:0:0:
353,30,61718,6,0,P|348:67|345:104,1,53.9999983520508,0|0,3:0|0:0,0:0:0:0:
307,153,61939,1,2,0:3:0:0:
307,153,62012,1,2,0:3:0:0:
307,153,62086,1,2,0:3:0:0:
307,153,62159,2,0,P|302:115|299:78,1,53.9999983520508,2|0,0:3|0:0,0:0:0:0:
226,71,62380,2,0,P|232:33|235:-4,1,53.9999983520508,0|0,3:0|0:0,0:0:0:0:
224,215,62600,2,0,P|218:177|215:140,1,53.9999983520508,8|0,0:1|0:0,0:0:0:0:
152,263,62821,5,0,3:0:0:0:
301,373,63041,1,0,0:0:0:0:
341,361,63152,1,4,0:3:0:0:
352,321,63262,1,0,0:0:0:0:
444,245,63483,1,0,3:0:0:0:
238,106,63703,5,8,0:1:0:0:
333,64,63924,1,0,3:0:0:0:
41,21,64144,5,8,0:1:0:0:
147,42,64365,1,0,3:0:0:0:
33,336,64586,5,8,0:1:0:0:
171,291,64806,6,0,P|145:285|119:280,1,53.9999983520508,0|0,3:0|0:0,0:0:0:0:
242,325,65027,2,0,P|215:331|189:337,1,53.9999983520508,0|0,0:0|3:0,0:0:0:0:
316,293,65247,2,0,P|290:287|264:282,1,53.9999983520508
455,362,65468,2,0,P|481:355|507:350,1,53.9999983520508,8|0,0:1|0:0,0:0:0:0:
407,289,65689,6,0,P|401:253|400:221,1,53.9999983520508,0|0,3:0|0:0,0:0:0:0:
456,166,65909,1,2,0:3:0:0:
456,166,65983,1,2,0:3:0:0:
456,166,66056,1,2,0:3:0:0:
456,166,66130,2,0,P|449:202|448:234,1,53.9999983520508,2|0,0:3|0:0,0:0:0:0:
492,143,66350,2,0,P|485:106|484:74,1,53.9999983520508,0|0,3:0|0:0,0:0:0:0:
298,74,66571,2,0,P|305:37|306:5,1,53.9999983520508,8|0,3:1|0:0,0:0:0:0:
345,154,66791,5,0,3:0:0:0:
216,34,67012,1,0,0:0:0:0:
174,31,67122,1,12,0:3:0:0:
157,72,67233,1,0,0:0:0:0:
18,148,67453,1,0,3:0:0:0:
154,309,67674,5,8,0:1:0:0:
281,334,67894,1,0,3:3:0:0:
358,125,68115,5,8,0:1:0:0:
231,150,68335,1,0,3:0:0:0:
438,365,68556,5,8,0:1:0:0:
476,49,68777,6,0,P|353:37|297:29,1,180,4|0,0:1|0:0,0:0:0:0:
38,65,70100,5,8,0:0:0:0:
17,106,70174,1,0,0:0:0:0:
31,148,70247,1,0,0:0:0:0:
67,175,70321,1,8,0:0:0:0:
112,178,70394,1,0,0:0:0:0:
154,160,70468,1,0,0:0:0:0:
196,185,70541,5,12,0:0:0:0:
235,201,70615,1,4,0:0:0:0:
257,234,70689,1,4,0:0:0:0:
254,273,70762,1,12,0:0:0:0:
236,300,70836,1,4,0:0:0:0:
210,308,70909,1,4,0:0:0:0:
188,350,70983,6,0,P|192:305|197:251,1,90,8|0,0:0|0:0,0:0:0:0:
453,294,71203,1,8,0:0:0:0:
379,252,71314,2,0,P|375:207|370:153,1,90,2|0,0:0|0:0,0:0:0:0:
120,198,71534,5,8,0:0:0:0:
249,167,71644,1,8,0:0:0:0:
180,105,71755,6,0,P|158:59|6:69,1,215.999993408203,4|0,0:1|0:0,0:0:0:0:
76,282,72085,2,0,B|44:328|44:328|75:400,1,107.999996704102,8|0,0:0|0:0,0:0:0:0:
1,153,72306,2,0,B|33:107|33:107|2:35,1,107.999996704102
148,339,72526,5,8,0:0:0:0:
226,281,72637,2,0,P|303:273|457:262,1,215.999993408203,2|0,0:0|0:0,0:0:0:0:
287,119,72967,2,0,P|221:109|169:104,1,107.999996704102,8|0,0:0|0:0,0:0:0:0:
355,49,73188,1,0,0:0:0:0:
451,44,73298,1,0,0:0:0:0:
498,126,73409,1,8,0:0:0:0:
441,262,73519,6,0,L|460:395,1,107.999996704102,2|0,0:0|0:0,0:0:0:0:
251,206,73740,1,0,0:0:0:0:
159,219,73850,1,8,0:0:0:0:
142,302,73960,1,0,0:0:0:0:
197,365,74070,5,0,0:0:0:0:
58,331,74181,1,0,0:0:0:0:
159,219,74291,1,8,0:0:0:0:
57,236,74401,6,0,P|48:180|34:118,1,107.999996704102,2|0,0:0|0:0,0:0:0:0:
256,297,74622,2,0,P|265:241|279:179,1,107.999996704102,2|8,0:0|0:0,0:0:0:0:
495,242,74842,2,0,P|460:146|438:29,1,215.999993408203,2|0,0:0|0:0,0:0:0:0:
376,215,75173,1,8,0:0:0:0:
333,52,75284,6,0,B|245:19|224:133|108:96,1,215.999993408203,4|0,0:1|0:0,0:0:0:0:
256,297,75615,2,0,P|316:299|378:302,1,107.999996704102,8|0,0:0|0:0,0:0:0:0:
91,208,75835,2,0,P|144:205|198:203,1,107.999996704102
80,369,76056,5,8,0:0:0:0:
8,295,76166,2,0,P|52:180|139:184,1,215.999993408203,2|0,0:0|0:0,0:0:0:0:
12,8,76497,2,0,B|49:40|49:40|25:110,1,107.999996704102,8|0,0:0|0:0,0:0:0:0:
182,101,76717,1,0,0:0:0:0:
273,92,76828,1,0,0:0:0:0:
367,81,76938,1,8,0:0:0:0:
487,149,77048,6,0,P|474:237|466:389,1,215.999993408203,2|0,0:0|0:0,0:0:0:0:
275,370,77379,5,8,0:0:0:0:
210,301,77490,1,0,0:0:0:0:
265,225,77600,1,0,0:0:0:0:
204,152,77710,1,0,0:0:0:0:
342,166,77820,5,8,0:0:0:0:
145,224,77931,2,0,P|130:190|122:116,1,107.999996704102,2|0,0:0|0:0,0:0:0:0:
383,54,78151,1,0,0:0:0:0:
456,203,78262,1,8,0:0:0:0:
499,82,78372,2,0,B|439:22|365:114|280:42,1,215.999993408203,2|8,0:0|0:0,0:0:0:0:
42,184,78703,1,8,0:0:0:0:
145,224,78813,2,0,B|205:164|279:256|364:184,1,215.999993408203,4|0,0:1|0:0,0:0:0:0:
74,370,79144,6,0,P|30:320|66:255,1,107.999996704102,8|0,0:0|0:0,0:0:0:0:
5,98,79365,2,0,P|48:147|12:212,1,107.999996704102
84,25,79585,1,8,0:0:0:0:
238,112,79695,6,0,P|221:244|210:357,1,215.999993408203,2|0,0:0|0:0,0:0:0:0:
402,326,80026,2,0,B|342:331|342:331|290:276,1,107.999996704102,8|0,0:0|0:0,0:0:0:0:
161,163,80247,5,0,0:0:0:0:
238,112,80357,1,0,0:0:0:0:
322,151,80467,1,8,0:0:0:0:
416,44,80578,6,0,P|292:36|187:23,1,215.999993408203,2|0,0:0|0:0,0:0:0:0:
383,220,80909,2,0,P|435:185|428:114,1,107.999996704102,8|0,0:0|0:0,0:0:0:0:
288,374,81129,2,0,P|236:339|243:268,1,107.999996704102
322,151,81350,1,8,0:0:0:0:
188,206,81460,6,0,B|84:194|89:308|-32:293,1,215.999993408203,2|0,0:0|0:0,0:0:0:0:
10,54,81791,1,8,0:0:0:0:
90,113,81901,2,0,P|153:110|205:100,1,107.999996704102
281,8,82122,1,0,0:0:0:0:
322,151,82232,1,8,0:0:0:0:
398,97,82342,6,0,P|450:109|486:265,1,215.999993408203,4|0,0:1|0:0,0:0:0:0:
342,346,82673,2,0,B|314:299|314:299|345:237,1,107.999996704102,8|0,0:0|0:0,0:0:0:0:
317,56,82894,2,0,B|345:103|345:103|314:165,1,107.999996704102
235,204,83115,1,8,0:0:0:0:
69,187,83225,6,0,B|1:127|1:127|47:-10,1,215.999993408203,2|0,0:0|0:0,0:0:0:0:
115,312,83556,2,0,P|56:305|31:235,1,107.999996704102,8|0,0:0|0:0,0:0:0:0:
235,204,83776,1,0,0:0:0:0:
311,255,83887,1,0,0:0:0:0:
282,336,83997,1,8,0:0:0:0:
235,204,84107,6,0,P|256:95|301:-2,1,215.999993408203,2|0,0:0|0:0,0:0:0:0:
495,290,84438,5,8,0:0:0:0:
410,262,84548,1,0,0:0:0:0:
332,304,84659,1,0,0:0:0:0:
236,259,84769,1,0,0:0:0:0:
133,311,84879,1,8,0:0:0:0:
28,230,84990,2,0,P|86:227|159:212,1,107.999996704102,4|0,0:1|0:0,0:0:0:0:
432,57,85210,5,0,0:0:0:0:
486,127,85320,1,8,0:0:0:0:
400,169,85431,2,0,P|342:166|269:151,1,107.999996704102,2|0,0:0|0:0,0:0:0:0:
57,23,85651,5,0,0:0:0:0:
90,131,85762,1,8,0:0:0:0:
126,239,85872,1,2,0:0:0:0:
304,363,86865,5,8,0:0:0:0:
321,232,86975,1,8,0:0:0:0:
406,304,87085,1,8,0:0:0:0:
220,286,87195,5,2,0:0:0:0:
494,200,87416,1,2,0:0:0:0:
236,71,87637,1,2,0:0:0:0:
313,20,87747,6,0,B|341:32|351:61|318:125,1,99.0000030212403,10|0,0:0|0:0,0:0:0:0:
412,262,87967,1,10,0:0:0:0:
321,232,88077,2,0,B|317:201|337:178|409:174,1,99.0000030212403,0|10,0:0|0:0,0:0:0:0:
494,35,88298,1,0,0:0:0:0:
501,119,88408,2,0,B|476:137|446:131|407:70,1,99.0000030212403,10|0,0:0|0:0,0:0:0:0:
387,175,88629,1,10,0:0:0:0:
493,239,88739,5,0,0:0:0:0:
421,340,88849,1,10,0:0:0:0:
507,330,88960,1,0,0:0:0:0:
412,262,89070,2,0,B|373:259|373:259|347:233|297:227,1,99.0000030212403,10|0,0:0|0:0,0:0:0:0:
214,350,89291,2,0,B|253:347|253:347|279:321|329:315,1,99.0000030212403,10|0,0:0|0:0,0:0:0:0:
272,159,89511,2,0,B|233:156|233:156|207:130|157:124,1,99.0000030212403,10|0,0:0|0:0,0:0:0:0:
90,300,89732,2,0,B|129:297|129:297|155:271|205:265,1,99.0000030212403,10|0,0:0|0:0,0:0:0:0:
109,66,89952,5,12,0:1:0:0:
126,195,90063,1,0,0:0:0:0:
28,28,90173,5,12,0:1:0:0:
0,169,90283,1,0,0:0:0:0:
109,66,90394,6,0,B|138:43|164:40|164:40|188:52|211:48,1,99.0000030212403,10|0,0:0|0:0,0:0:0:0:
351,101,90614,1,10,0:0:0:0:
367,19,90724,2,0,B|338:-4|312:-7|312:-7|288:5|265:1,1,99.0000030212403,0|10,0:0|0:0,0:0:0:0:
272,159,90945,1,0,0:0:0:0:
305,236,91055,2,0,B|334:213|360:210|360:210|384:222|407:218,1,99.0000030212403,10|0,0:0|0:0,0:0:0:0:
255,312,91276,1,10,0:0:0:0:
188,208,91386,5,0,0:0:0:0:
116,248,91497,1,10,0:0:0:0:
75,174,91607,1,0,0:0:0:0:
142,137,91717,5,10,0:0:0:0:
88,250,91827,1,0,0:0:0:0:
0,152,91938,1,10,0:0:0:0:
62,80,92048,6,0,B|89:69|122:72|122:72|143:104|175:119|175:119|243:88|306:115,1,233.999989288331,4|0,0:1|0:0,0:0:0:0:
383,12,92379,5,8,0:0:0:0:
451,82,92489,1,0,0:0:0:0:
433,174,92599,1,8,0:0:0:0:
350,200,92710,1,0,0:0:0:0:
288,263,92820,6,0,P|264:264|240:269,2,49.5000015106202,8|8|0,0:0|0:0|0:0,0:0:0:0:
451,358,93041,2,0,P|475:357|499:352,2,49.5000015106202,4|4|0,0:0|0:0|0:0,0:0:0:0:
338,357,93261,5,8,0:0:0:0:
336,361,93316,1,8,0:0:0:0:
334,365,93372,1,0,0:0:0:0:
400,262,93482,2,0,P|387:205|381:144,1,99.0000030212403,12|0,0:1|0:0,0:0:0:0:
158,14,93702,6,0,B|194:24|194:24|231:8|274:24,1,99.0000030212403,10|0,0:0|0:0,0:0:0:0:
293,172,93923,1,10,0:0:0:0:
214,133,94033,2,0,B|186:159|186:159|182:199|146:228,1,99.0000030212403,0|10,0:0|0:0,0:0:0:0:
26,177,94254,1,0,0:0:0:0:
89,111,94364,2,0,B|79:74|79:74|47:50|39:4,1,99.0000030212403,10|0,0:0|0:0,0:0:0:0:
161,214,94585,1,10,0:0:0:0:
46,277,94695,5,0,0:0:0:0:
131,323,94805,1,10,0:0:0:0:
219,280,94916,1,0,0:0:0:0:
304,325,95026,2,0,B|329:338|355:333|355:333|377:304|422:298,1,99.0000030212403,10|0,0:0|0:0,0:0:0:0:
478,143,95247,2,0,B|453:130|427:135|427:135|405:164|360:170,1,99.0000030212403,10|0,0:0|0:0,0:0:0:0:
480,324,95467,2,0,B|493:299|488:273|488:273|459:251|453:206,1,99.0000030212403,10|0,0:0|0:0,0:0:0:0:
301,146,95688,2,0,B|288:171|293:197|293:197|322:219|328:264,1,99.0000030212403,10|0,0:0|0:0,0:0:0:0:
131,323,95908,5,12,0:1:0:0:
195,215,96019,1,0,0:0:0:0:
40,206,96129,5,12,0:1:0:0:
174,129,96239,1,0,0:0:0:0:
56,80,96349,6,0,B|36:101|32:126|32:126|50:150|46:197,1,99.0000030212403,10|0,0:0|0:0,0:0:0:0:
195,215,96570,1,10,0:0:0:0:
174,129,96680,2,0,B|154:107|150:83|150:83|168:59|164:12,1,99.0000030212403,0|10,0:0|0:0,0:0:0:0:
318,22,96901,1,0,0:0:0:0:
297,108,97011,2,0,B|277:129|273:154|273:154|291:178|287:225,1,99.0000030212403,10|0,0:0|0:0,0:0:0:0:
379,81,97232,1,10,0:0:0:0:
460,155,97342,5,0,0:0:0:0:
371,163,97452,1,10,0:0:0:0:
349,249,97563,1,0,0:0:0:0:
449,245,97673,5,10,0:0:0:0:
504,347,97783,1,0,0:0:0:0:
393,383,97894,1,10,0:0:0:0:
324,285,98004,6,0,B|280:284|242:256|242:256|177:275|177:275|135:246|89:244,1,233.999989288331,4|8,0:1|0:0,0:0:0:0:
100,89,98335,5,8,0:0:0:0:
13,133,98445,1,8,0:0:0:0:
77,204,98555,1,8,0:0:0:0:
161,158,98666,1,8,0:0:0:0:
207,239,98776,2,0,P|202:289|200:349,1,99.0000030212403,2|0,0:0|0:0,0:0:0:0:
418,185,98997,5,8,0:0:0:0:
361,320,99107,1,8,0:0:0:0:
334,178,99217,1,8,0:0:0:0:
444,271,99327,1,8,0:0:0:0:
296,255,99438,2,0,P|291:205|289:145,1,99.0000030212403,8|8,0:0|0:0,0:0:0:0:
412,25,99659,5,4,0:1:0:0:
376,30,99769,1,0,0:0:0:0:
340,34,99879,1,0,0:0:0:0:
262,69,99989,5,4,0:0:0:0:
226,64,100099,1,0,0:0:0:0:
190,60,100209,1,0,0:0:0:0:
106,21,100320,5,4,0:0:0:0:
110,32,100430,1,0,0:0:0:0:
112,41,100541,1,0,0:0:0:0:
63,111,100651,5,4,0:0:0:0:
59,122,100761,1,0,0:0:0:0:
57,131,100872,1,0,0:0:0:0:
79,213,100982,5,4,0:0:0:0:
138,256,101092,1,4,0:0:0:0:
208,239,101203,1,8,0:0:0:0:
236,170,101313,1,4,0:0:0:0:
328,113,101423,5,4,0:1:0:0:
345,110,101534,1,0,0:0:0:0:
362,107,101644,1,0,0:0:0:0:
423,178,101754,5,4,0:0:0:0:
440,181,101864,1,0,0:0:0:0:
457,184,101975,1,0,0:0:0:0:
362,247,102085,5,4,0:0:0:0:
360,255,102195,1,0,0:0:0:0:
359,264,102306,1,0,0:0:0:0:
282,308,102416,5,4,0:0:0:0:
284,316,102526,1,0,0:0:0:0:
285,325,102637,1,0,0:0:0:0:
198,272,102747,5,4,0:0:0:0:
120,267,102857,1,4,0:0:0:0:
44,259,102967,1,8,0:0:0:0:
155,38,103188,5,4,0:1:0:0:
189,27,103298,1,0,0:0:0:0:
224,35,103409,1,0,0:0:0:0:
285,96,103519,5,4,0:0:0:0:
319,107,103629,1,0,0:0:0:0:
354,99,103740,1,0,0:0:0:0:
420,45,103850,5,4,0:0:0:0:
418,32,103960,1,0,0:0:0:0:
415,17,104070,1,0,0:0:0:0:
502,80,104181,5,4,0:0:0:0:
500,93,104291,1,0,0:0:0:0:
497,108,104401,1,0,0:0:0:0:
424,158,104511,5,4,0:0:0:0:
371,210,104622,1,4,0:0:0:0:
377,285,104732,1,8,0:0:0:0:
442,333,104842,1,4,0:0:0:0:
456,226,104953,5,4,0:1:0:0:
416,200,105063,1,0,0:0:0:0:
371,210,105173,1,0,0:0:0:0:
303,253,105284,5,4,0:0:0:0:
263,279,105394,1,0,0:0:0:0:
218,269,105504,1,0,0:0:0:0:
140,214,105614,5,4,0:0:0:0:
123,210,105725,1,0,0:0:0:0:
106,207,105835,1,0,0:0:0:0:
205,145,105945,5,4,0:0:0:0:
222,141,106056,1,0,0:0:0:0:
239,138,106166,1,0,0:0:0:0:
147,70,106276,6,0,P|148:45|152:5,4,45,8|8|0|0|12,0:0|0:0|0:0|0:0|0:1,0:0:0:0:
147,342,106717,6,0,B|112:338|112:338|85:322|85:322|59:334|9:332,1,107.999996704102,4|8,0:1|0:0,0:0:0:0:
218,269,106938,2,0,B|253:265|253:265|280:249|280:249|306:261|356:259,1,107.999996704102,0|8,0:0|0:0,0:0:0:0:
469,337,107159,5,2,0:0:0:0:
489,271,107269,1,8,0:0:0:0:
447,214,107379,1,0,0:0:0:0:
380,201,107489,1,8,0:0:0:0:
313,144,107600,5,2,0:0:0:0:
384,101,107710,2,0,B|402:141|402:141|393:161|372:227,1,107.999996704102,8|0,0:0|0:0,0:0:0:0:
223,115,107931,1,8,0:0:0:0:
200,101,108041,2,0,B|182:61|182:61|191:41|212:-25,1,107.999996704102,2|8,0:0|0:0,0:0:0:0:
13,149,108261,2,0,L|130:159,1,107.999996704102,0|8,0:0|0:0,0:0:0:0:
338,293,108482,5,4,0:1:0:0:
273,331,108592,1,8,0:0:0:0:
209,290,108703,2,0,B|190:239|190:239|239:176,1,107.999996704102,0|8,0:0|0:0,0:0:0:0:
200,101,108923,1,0,0:0:0:0:
69,61,109034,5,8,0:0:0:0:
140,28,109144,2,0,B|159:79|159:79|110:142,1,107.999996704102,0|8,0:0|0:0,0:0:0:0:
307,213,109364,5,2,0:0:0:0:
384,228,109475,1,10,0:0:0:0:
444,177,109585,1,2,0:0:0:0:
434,100,109695,1,10,0:0:0:0:
366,1,109806,5,2,0:0:0:0:
312,68,109916,1,10,0:0:0:0:
365,142,110026,1,2,0:0:0:0:
307,213,110136,1,10,0:0:0:0:
357,295,110247,6,0,B|405:292|405:292|421:305|421:305|497:319,1,107.999996704102,4|8,0:1|0:0,0:0:0:0:
193,374,110467,2,0,B|241:377|241:377|257:364|257:364|333:350,1,107.999996704102,0|8,0:0|0:0,0:0:0:0:
68,274,110688,5,2,0:0:0:0:
85,201,110798,1,8,0:0:0:0:
149,157,110909,1,0,0:0:0:0:
220,183,111019,1,8,0:0:0:0:
163,258,111129,5,2,0:0:0:0:
85,201,111239,2,0,B|61:151|61:151|99:61,1,107.999996704102,8|0,0:0|0:0,0:0:0:0:
293,134,111460,1,8,0:0:0:0:
273,117,111570,2,0,B|297:67|297:67|259:-23,1,107.999996704102,2|8,0:0|0:0,0:0:0:0:
63,5,111791,2,0,L|178:21,1,107.999996704102,0|8,0:0|0:0,0:0:0:0:
398,32,112011,5,4,0:1:0:0:
389,118,112122,1,8,0:0:0:0:
385,26,112232,1,0,0:0:0:0:
407,127,112342,2,0,P|456:122|525:112,1,107.999996704102,8|0,0:0|0:0,0:0:0:0:
285,270,112563,5,8,0:0:0:0:
228,194,112673,1,0,0:0:0:0:
266,116,112784,1,8,0:0:0:0:
292,24,112894,5,2,0:0:0:0:
214,12,113004,1,10,0:0:0:0:
241,86,113114,1,2,0:0:0:0:
84,98,113225,5,10,0:0:0:0:
163,70,113335,1,2,0:0:0:0:
155,158,113445,1,10,0:0:0:0:
273,200,113556,6,0,P|322:210|396:220,1,107.999996704102,2|10,0:0|0:0,0:0:0:0:
110,359,113776,6,0,P|82:367|51:369,14,53.9999983520508,8|0|0|0|0|0|0|0|0|0|0|0|0|0|0,0:0|0:0|0:0|0:0|0:0|0:0|0:0|0:0|0:0|0:0|0:0|0:0|0:0|0:0|0:0,0:0:0:0:
134,269,114659,6,0,B|180:259|180:259|255:299,1,107.999996704102,8|0,0:0|0:0,0:0:0:0:
432,378,114879,1,8,0:0:0:0:
342,333,114989,2,0,P|352:280|356:222,1,90,0|2,0:0|0:0,0:0:0:0:
396,232,115155,1,2,0:0:0:0:
401,229,115210,2,0,P|391:173|388:112,1,90,2|2,0:0|0:0,0:0:0:0:
106,20,115431,6,0,B|201:4|205:122|330:90,1,215.999993408203,4|0,0:1|0:0,0:0:0:0:
134,269,115761,2,0,B|88:299|88:299|-9:286,1,107.999996704102,8|0,0:0|0:0,0:0:0:0:
19,133,115982,2,0,B|65:103|65:103|162:116,1,107.999996704102
200,17,116203,1,8,0:0:0:0:
300,95,116313,6,0,P|275:182|261:320,1,215.999993408203,2|0,0:0|0:0,0:0:0:0:
416,384,116644,2,0,P|406:331|394:254,1,107.999996704102,8|0,0:0|0:0,0:0:0:0:
462,84,116864,1,0,0:0:0:0:
379,47,116975,1,0,0:0:0:0:
300,95,117085,1,8,0:0:0:0:
199,16,117195,6,0,P|191:69|181:123,1,107.999996704102,2|0,0:0|0:0,0:0:0:0:
122,296,117416,5,0,0:0:0:0:
52,242,117526,1,8,0:0:0:0:
117,186,117636,1,0,0:0:0:0:
194,241,117747,5,0,0:0:0:0:
294,187,117857,1,0,0:0:0:0:
185,232,117967,1,8,0:0:0:0:
295,310,118078,6,0,B|334:283|368:299|403:272,1,107.999996704102,2|0,0:0|0:0,0:0:0:0:
188,170,118298,2,0,B|235:164|258:193|301:185,1,107.999996704102,2|8,0:0|0:0,0:0:0:0:
475,4,118519,2,0,B|378:70|356:-2|249:57,1,215.999993408203,2|0,0:0|0:0,0:0:0:0:
94,31,118850,1,8,0:0:0:0:
188,170,118960,6,0,P|120:184|91:313,1,215.999993408203,4|0,0:1|0:0,0:0:0:0:
9,153,119291,2,0,B|31:97|31:97|-16:27,1,107.999996704102,8|0,0:0|0:0,0:0:0:0:
232,259,119511,2,0,B|210:315|210:315|257:385,1,107.999996704102
293,186,119732,1,8,0:0:0:0:
452,247,119842,6,0,P|390:156|362:33,1,215.999993408203,2|0,0:0|0:0,0:0:0:0:
232,259,120173,2,0,P|186:243|129:187,1,107.999996704102,8|0,0:0|0:0,0:0:0:0:
149,46,120394,1,0,0:0:0:0:
208,110,120504,1,0,0:0:0:0:
168,195,120614,1,8,0:0:0:0:
18,209,120725,6,0,P|43:139|66:-17,1,215.999993408203,2|0,0:0|0:0,0:0:0:0:
71,329,121056,5,8,0:0:0:0:
149,283,121166,1,0,0:0:0:0:
234,325,121276,1,0,0:0:0:0:
306,271,121386,1,0,0:0:0:0:
304,384,121497,5,8,0:0:0:0:
367,214,121607,2,0,B|318:183|318:183|245:211,1,107.999996704102,2|0,0:0|0:0,0:0:0:0:
68,15,121828,1,0,0:0:0:0:
98,175,121938,1,8,0:0:0:0:
7,107,122048,2,0,B|64:67|64:67|132:85|132:85|242:59,1,215.999993408203,2|8,0:0|0:0,0:0:0:0:
460,100,122379,1,8,0:0:0:0:
470,240,122489,2,0,B|412:200|412:200|344:218|344:218|234:192,1,215.999993408203,4|0,0:1|0:0,0:0:0:0:
135,355,122820,6,0,P|201:351|238:293,1,107.999996704102,8|0,0:0|0:0,0:0:0:0:
100,138,123041,2,0,P|34:134|-3:76,1,107.999996704102
53,227,123261,1,8,0:0:0:0:
155,53,123372,6,0,P|241:74|396:91,1,215.999993408203,2|0,0:0|0:0,0:0:0:0:
158,205,123703,2,0,P|107:221|33:225,1,107.999996704102,8|0,0:0|0:0,0:0:0:0:
195,348,123923,1,0,0:0:0:0:
282,366,124034,1,0,0:0:0:0:
374,375,124144,1,8,0:0:0:0:
432,280,124254,6,0,P|340:272|307:152,1,215.999993408203,2|0,0:0|0:0,0:0:0:0:
458,2,124585,2,0,B|488:47|488:47|446:137,1,107.999996704102,8|0,0:0|0:0,0:0:0:0:
202,119,124806,2,0,B|172:74|172:74|214:-16,1,107.999996704102
285,63,125026,1,8,0:0:0:0:
213,217,125136,6,0,P|96:205|-7:185,1,215.999993408203,2|0,0:0|0:0,0:0:0:0:
165,365,125467,1,8,0:0:0:0:
241,309,125578,2,0,P|297:303|368:284,1,107.999996704102
481,134,125798,1,0,0:0:0:0:
504,253,125909,1,8,0:0:0:0:
372,179,126019,6,0,P|264:219|249:336,1,215.999993408203,4|0,0:1|0:0,0:0:0:0:
42,307,126350,2,0,B|102:321|102:321|166:277,1,107.999996704102,8|0,0:0|0:0,0:0:0:0:
98,60,126570,2,0,B|38:46|38:46|-26:90,1,107.999996704102
174,7,126791,1,8,0:0:0:0:
159,146,126901,6,0,P|264:170|394:178,1,215.999993408203,2|0,0:0|0:0,0:0:0:0:
410,7,127232,2,0,P|360:31|365:112,1,107.999996704102,8|0,0:0|0:0,0:0:0:0:
466,201,127453,1,0,0:0:0:0:
506,283,127563,1,0,0:0:0:0:
448,354,127673,1,8,0:0:0:0:
339,248,127784,6,0,B|254:217|211:308|118:281,1,215.999993408203,2|0,0:0|0:0,0:0:0:0:
114,13,128115,5,8,0:0:0:0:
69,81,128225,1,0,0:0:0:0:
127,142,128336,1,0,0:0:0:0:
49,217,128446,1,0,0:0:0:0:
132,285,128556,1,8,0:0:0:0:
52,383,128666,2,0,P|40:326|32:253,1,107.999996704102,4|0,0:1|0:0,0:0:0:0:
387,131,128886,5,0,0:0:0:0:
443,213,128997,1,8,0:0:0:0:
339,248,129107,2,0,P|351:191|359:118,1,107.999996704102,4|0,0:1|0:0,0:0:0:0:
38,68,129328,5,0,0:0:0:0:
151,55,129438,1,8,0:0:0:0:
266,39,129548,1,2,0:0:0:0:
384,346,130541,5,8,0:0:0:0:
430,240,130651,1,8,0:0:0:0:
319,213,130761,1,8,0:0:0:0:
277,315,130872,5,2,0:0:0:0:
77,155,131092,1,2,0:0:0:0:
319,53,131313,1,2,0:0:0:0:
404,127,131423,5,2,0:0:0:0:
375,99,134953,6,0,B|428:78|428:78|456:98|456:98|526:106,1,144,8|0,0:0|0:0,0:0:0:0:
341,10,135284,1,8,0:0:0:0:
329,174,135504,1,8,0:0:0:0:
318,344,135725,1,0,0:0:0:0:
231,298,135835,6,0,B|178:319|178:319|150:299|150:299|80:291,1,144,8|0,0:0|0:0,0:0:0:0:
318,344,136166,1,8,0:0:0:0:
329,174,136386,1,8,0:0:0:0:
341,10,136607,1,0,0:0:0:0:
249,43,136717,6,0,B|221:51|221:51|183:113|240:159,1,144,8|0,0:0|0:0,0:0:0:0:
393,244,137048,1,8,0:0:0:0:
223,230,137269,1,8,0:0:0:0:
53,216,137489,1,0,0:0:0:0:
132,170,137600,5,8,0:0:0:0:
95,48,137710,1,8,0:0:0:0:
27,134,137820,1,8,0:0:0:0:
192,83,137931,6,0,P|234:83|282:90,1,72,8|0,0:0|0:0,0:0:0:0:
300,291,138151,2,0,P|307:319|312:345,2,36,8|0|0,0:0|0:0|0:0,0:0:0:0:
223,230,138372,1,8,0:0:0:0:
320,151,138482,6,0,B|360:128|360:128|397:146|397:146|440:89|524:112,1,215.999993408203,4|8,0:1|0:0,0:0:0:0:
279,8,138813,1,0,0:0:0:0:
202,20,138923,1,0,0:0:0:0:
179,97,139034,1,0,0:0:0:0:
222,163,139144,5,10,0:0:0:0:
234,199,139217,1,2,0:0:0:0:
223,230,139291,1,2,0:0:0:0:
196,254,139364,2,0,B|159:275|159:275|86:248|90:183|90:183|121:158|112:107,1,215.999993408203,2|8,0:0|0:0,0:0:0:0:
34,111,139695,1,0,0:0:0:0:
13,228,139806,6,0,B|41:255|41:255|83:262|135:229,1,107.999996704102,2|0,0:0|0:0,0:0:0:0:
345,340,140026,2,0,B|317:313|317:313|275:306|223:339,1,107.999996704102,10|0,0:0|0:0,0:0:0:0:
222,163,140247,5,2,0:0:0:0:
203,76,140357,1,0,0:0:0:0:
313,14,140467,5,8,0:0:0:0:
354,88,140578,2,0,P|349:135|336:207,1,107.999996704102,2|0,0:0|0:0,0:0:0:0:
442,348,140798,5,0,0:0:0:0:
391,261,140909,1,10,0:0:0:0:
489,260,141019,5,0,0:0:0:0:
345,340,141129,1,2,0:0:0:0:
338,194,141239,1,0,0:0:0:0:
279,268,141350,5,8,0:0:0:0:
268,271,141460,1,0,0:0:0:0:
240,189,141570,5,2,0:0:0:0:
163,223,141681,1,0,0:0:0:0:
102,159,141791,1,8,0:0:0:0:
19,186,141901,1,0,0:0:0:0:
40,94,142011,6,0,B|79:82|117:122|98:170,1,107.999996704102,2|0,0:0|0:0,0:0:0:0:
174,311,142232,1,8,0:0:0:0:
96,337,142342,2,0,B|57:349|19:309|38:261,1,107.999996704102,2|0,0:0|0:0,0:0:0:0:
272,183,142563,5,0,0:0:0:0:
163,223,142673,1,10,0:0:0:0:
188,142,142784,1,0,0:0:0:0:
252,270,142894,6,0,B|291:258|329:298|310:346,1,107.999996704102,2|0,0:0|0:0,0:0:0:0:
506,179,143114,1,8,0:0:0:0:
423,215,143225,2,0,B|384:227|346:187|365:139,1,107.999996704102,2|0,0:0|0:0,0:0:0:0:
417,71,143445,1,0,0:0:0:0:
345,9,143556,5,10,0:0:0:0:
294,5,143629,1,2,0:0:0:0:
257,40,143703,1,2,0:0:0:0:
255,88,143776,2,0,B|210:127|147:114|147:114|137:49|65:6,2,215.999993408203,2|8|0,0:0|0:0|0:0,0:0:0:0:
418,231,144328,5,2,0:0:0:0:
389,357,144438,1,8,0:0:0:0:
268,334,144548,1,0,0:0:0:0:
194,254,144659,5,2,0:0:0:0:
160,241,144732,1,2,0:0:0:0:
124,247,144806,1,2,0:0:0:0:
101,274,144879,2,0,P|95:323|90:389,1,107.999996704102,2|0,0:0|0:0,0:0:0:0:
24,226,145100,5,8,0:0:0:0:
94,160,145210,1,8,0:0:0:0:
27,68,145320,1,8,0:0:0:0:
122,0,145431,1,8,0:0:0:0:
187,86,145541,5,2,0:0:0:0:
232,105,145614,1,2,0:0:0:0:
283,95,145688,1,2,0:0:0:0:
314,54,145761,2,0,B|373:50|373:50|395:71|395:71|477:82,1,161.999995056153,10|0,0:0|2:0,0:0:0:0:
426,164,145982,6,0,P|432:194|446:229,4,53.9999983520508,2|0|0|0|8,0:0|0:0|0:0|0:0|0:0,0:0:0:0:
370,275,146313,5,2,0:0:0:0:
276,270,146423,2,0,P|269:239|255:204,2,53.9999983520508,2|0|0,0:0|0:0|0:0,0:0:0:0:
319,138,146644,1,10,0:0:0:0:
315,141,146699,1,0,0:0:0:0:
311,144,146754,1,0,0:0:0:0:
178,108,146865,1,2,0:0:0:0:
181,112,146920,1,0,0:0:0:0:
184,116,146975,1,0,0:0:0:0:
158,229,147085,2,0,P|188:222|223:208,2,53.9999983520508,10|0|0,0:0|0:0|0:0,0:0:0:0:
14,323,147306,5,2,0:0:0:0:
47,350,147379,1,0,0:0:0:0:
90,356,147453,1,0,0:0:0:0:
124,331,147526,1,10,0:0:0:0:
164,315,147600,1,0,0:0:0:0:
204,328,147673,1,0,0:0:0:0:
242,354,147747,5,2,0:0:0:0:
229,364,147820,2,0,P|224:318|224:283,1,71.9999978027344
428,300,147967,5,10,0:0:0:0:
441,310,148040,2,0,P|446:264|446:229,1,71.9999978027344
332,23,148188,5,6,0:0:0:0:
346,75,148261,1,4,0:0:0:0:
335,122,148335,1,4,0:0:0:0:
343,166,148409,1,14,0:0:0:0:
334,206,148482,1,4,0:0:0:0:
342,243,148556,5,4,0:0:0:0:
330,256,148629,2,0,B|192:149|131:323|20:274,1,323.999990112305,6|0,0:0|0:0,0:0:0:0:
2,100,149070,5,2,0:0:0:0:
71,51,149181,1,0,0:0:0:0:
157,80,149291,1,10,0:0:0:0:
179,168,149401,1,0,0:0:0:0:
266,225,149511,5,2,0:0:0:0:
365,207,149622,1,0,0:0:0:0:
399,115,149732,1,10,0:0:0:0:
349,29,149842,1,0,0:0:0:0:
261,123,149953,6,0,P|305:122|415:127,1,107.999996704102,2|0,0:0|0:0,0:0:0:0:
198,270,150173,2,0,P|144:272|91:273,1,107.999996704102,10|0,0:0|0:0,0:0:0:0:
91,354,150394,5,0,0:0:0:0:
28,200,150504,2,0,B|-10:239|-10:239|20:332,1,107.999996704102,2|8,0:0|0:0,0:0:0:0:
205,193,150725,1,0,0:0:0:0:
262,336,150835,2,0,B|300:297|300:297|270:204,1,107.999996704102,2|0,0:0|0:0,0:0:0:0:
349,29,151056,5,8,0:0:0:0:
293,157,151166,2,0,B|255:118|255:118|285:25,1,107.999996704102,2|0,0:0|0:0,0:0:0:0:
376,110,151386,5,0,0:0:0:0:
432,238,151496,2,0,B|470:199|470:199|440:106,1,107.999996704102,10|0,0:0|0:0,0:0:0:0:
254,263,151717,5,10,0:0:0:0:
346,212,151828,1,8,0:0:0:0:
353,317,151938,1,8,0:0:0:0:
208,194,152048,5,8,0:0:0:0:
346,212,152159,1,8,0:0:0:0:
262,336,152269,1,8,0:0:0:0:
288,157,152379,5,8,0:0:0:0:
185,295,152489,1,8,0:0:0:0:
120,229,152600,6,0,B|146:238|146:238|159:218|159:218|184:229|184:229|205:215|205:215|223:239|223:239|243:222|243:222|270:226|270:226|289:203|289:203|315:216|315:216|341:203|341:203|365:228|365:228|393:207,1,323.999990112305,2|0,0:0|2:0,0:0:0:0:
469,104,153372,6,0,B|426:116|383:96|383:96|330:123|308:197|308:197|304:70|187:15|187:15|254:77|249:130,1,539.999983520508,4|0,0:1|2:0,0:0:0:0:
144,185,154034,6,0,B|158:265|117:283|117:283|110:294|110:294|92:308|96:367,1,180,2|0,2:2|2:2,2:2:0:0:
12,193,154364,6,0,B|13:217|22:230|7:251|7:251|24:258|33:280|55:286|55:286|75:262|82:275|105:273|105:273|103:245|123:227|123:227|126:207|109:211|109:190|109:190|89:192|77:181|77:181|59:164,1,323.999990112305,2|0,0:0|2:0,0:0:0:0:
68,373,155136,6,0,B|131:382|159:327|159:327|225:316|273:366|273:366|291:328|239:270|239:270|283:258|342:282|342:282|383:346|444:332,1,539.999983520508,4|0,0:1|0:0,0:0:0:0:
507,242,155798,5,0,0:0:0:0:
498,169,155909,1,0,0:0:0:0:
425,146,156019,1,0,0:0:0:0:
337,172,156129,6,0,P|269:153|269:47,1,180,4|0,0:1|0:0,0:0:0:0:
183,12,156460,1,0,0:0:0:0:
83,58,156570,5,8,0:0:0:0:
102,73,156681,2,0,L|119:175,1,90
172,271,156901,6,0,B|105:264|105:264|81:244|81:244|-31:250,2,180,4|0|0,0:1|0:0|0:0,0:0:0:0:
315,350,157453,1,8,0:0:0:0:
340,270,157563,2,0,B|407:263|407:263|431:243|431:243|543:249,1,180
299,182,157894,5,4,0:1:0:0:
233,139,158004,1,0,0:0:0:0:
166,181,158114,2,0,P|167:223|172:275,1,90
30,129,158335,1,8,0:0:0:0:
57,120,158445,2,0,P|58:78|63:26,1,90
243,38,158666,6,0,B|272:25|272:25|324:51|337:106|337:106|318:127|322:173,1,180,4|0,0:1|0:0,0:0:0:0:
403,163,158997,1,0,0:0:0:0:
196,368,159217,5,8,0:0:0:0:
142,312,159328,1,8,0:0:0:0:
172,240,159438,1,2,0:0:0:0:
129,36,159659,6,0,P|135:72|140:118,1,72,4|0,3:1|0:0,0:0:0:0:
91,172,159879,2,0,P|119:147|156:121,1,72,0|0,0:0|3:0,0:0:0:0:
232,138,160100,2,0,P|196:125|155:106,1,72
320,20,160320,2,0,P|284:32|243:51,1,72,8|0,0:1|0:0,0:0:0:0:
341,103,160541,6,0,B|339:126|346:153|399:170,1,72,0|0,3:0|0:0,0:0:0:0:
464,166,160761,1,2,0:3:0:0:
464,166,160835,1,2,0:3:0:0:
464,166,160909,1,2,0:3:0:0:
464,166,160982,2,0,B|441:164|414:171|397:224,1,72,2|0,0:3|0:0,0:0:0:0:
402,295,161203,2,0,B|409:269|402:237|366:206,1,72,0|0,3:0|0:0,0:0:0:0:
180,198,161423,5,8,0:1:0:0:
309,323,161644,1,0,3:0:0:0:
135,354,161864,1,0,0:0:0:0:
100,328,161975,1,12,3:0:0:0:
105,284,162085,1,0,3:0:0:0:
180,198,162306,1,0,3:0:0:0:
0,165,162526,5,8,0:1:0:0:
220,110,162747,1,0,3:0:0:0:
44,11,162967,5,8,0:1:0:0:
180,198,163188,1,0,3:0:0:0:
399,41,163409,5,8,0:1:0:0:
339,90,163629,6,0,P|348:133|353:188,1,72,4|0,3:1|0:0,0:0:0:0:
438,161,163850,2,0,P|428:204|424:259,1,72,0|0,0:0|3:0,0:0:0:0:
323,254,164070,2,0,P|344:249|420:246,1,72
188,353,164291,2,0,P|167:348|91:345,1,72,8|0,0:1|0:0,0:0:0:0:
177,262,164511,6,0,P|210:293|210:340,1,72,0|0,3:0|0:0,0:0:0:0:
253,204,164732,2,0,P|220:235|220:282,1,72,0|2,0:0|0:3,0:0:0:0:
123,159,164953,2,0,P|164:176|181:219,1,72,2|0,0:3|0:0,0:0:0:0:
287,94,165173,2,0,P|245:111|228:154,1,72,0|0,3:0|0:0,0:0:0:0:
53,10,165394,5,8,0:1:0:0:
97,239,165614,1,0,3:0:0:0:
210,63,165835,1,0,0:0:0:0:
176,36,165945,1,12,0:3:0:0:
133,43,166056,1,0,0:0:0:0:
77,138,166276,1,0,3:0:0:0:
265,261,166497,5,8,0:1:0:0:
300,64,166717,1,4,0:3:0:0:
378,53,166828,1,4,0:3:0:0:
442,97,166938,1,4,0:3:0:0:
313,352,167159,5,8,0:1:0:0:
281,179,167379,1,4,0:3:0:0:
205,160,167489,1,4,0:3:0:0:
152,213,167600,5,14,0:1:0:0:
149,238,167710,1,0,0:0:0:0:
148,263,167820,1,0,0:0:0:0:
146,288,167931,1,0,0:0:0:0:
56,209,168041,5,10,0:0:0:0:
54,179,168151,1,0,0:0:0:0:
51,149,168261,1,0,0:0:0:0:
49,117,168372,1,0,0:0:0:0:
148,51,168482,5,10,0:0:0:0:
194,28,168592,1,0,0:0:0:0:
245,34,168703,1,0,0:0:0:0:
281,70,168813,1,0,0:0:0:0:
316,184,168923,5,10,0:0:0:0:
375,225,169034,1,0,0:0:0:0:
444,207,169144,1,0,0:0:0:0:
468,138,169254,1,0,0:0:0:0:
403,46,169364,5,10,0:0:0:0:
382,38,169475,1,0,0:0:0:0:
308,82,169585,5,4,0:1:0:0:
288,91,169695,1,0,0:0:0:0:
266,85,169806,1,8,0:0:0:0:
247,96,169916,1,0,0:0:0:0:
226,90,170026,5,2,0:0:0:0:
207,101,170136,1,0,0:0:0:0:
185,97,170247,1,8,0:0:0:0:
166,107,170357,1,0,0:0:0:0:
150,91,170467,5,2,0:0:0:0:
115,102,170578,1,0,0:0:0:0:
100,135,170688,1,8,0:0:0:0:
116,166,170798,1,0,0:0:0:0:
130,198,170909,1,2,0:0:0:0:
112,229,171019,1,0,0:0:0:0:
106,264,171129,1,8,0:0:0:0:
127,292,171239,1,0,0:0:0:0:
161,302,171350,1,2,0:0:0:0:
194,288,171460,1,0,0:0:0:0:
294,299,171570,5,14,0:1:0:0:
305,323,171681,1,0,0:0:0:0:
282,334,171791,1,0,0:0:0:0:
270,312,171901,1,0,0:0:0:0:
360,189,172011,5,10,0:0:0:0:
375,221,172122,1,0,0:0:0:0:
345,235,172232,1,0,0:0:0:0:
329,206,172342,1,0,0:0:0:0:
432,63,172453,5,10,0:0:0:0:
451,104,172564,1,0,0:0:0:0:
412,122,172674,1,0,0:0:0:0:
391,85,172784,1,0,0:0:0:0:
253,50,172894,5,10,0:0:0:0:
189,87,173004,1,0,0:0:0:0:
230,153,173114,1,0,0:0:0:0:
293,115,173225,1,0,0:0:0:0:
345,235,173335,5,10,0:0:0:0:
355,252,173445,1,0,0:0:0:0:
309,316,173556,5,6,0:1:0:0:
289,328,173666,1,0,0:0:0:0:
263,319,173776,1,8,0:0:0:0:
238,324,173886,1,0,0:0:0:0:
214,302,173997,5,2,0:0:0:0:
186,316,174107,1,0,0:0:0:0:
162,311,174217,1,8,0:0:0:0:
131,298,174328,1,0,0:0:0:0:
92,306,174438,5,2,0:0:0:0:
117,275,174548,1,0,0:0:0:0:
125,235,174659,1,8,0:0:0:0:
104,202,174769,1,0,0:0:0:0:
77,171,174879,1,2,0:0:0:0:
76,129,174989,1,0,0:0:0:0:
162,70,175100,6,0,P|159:107|150:167,1,72,8|0,0:0|0:0,0:0:0:0:
370,21,175320,2,0,P|373:58|382:118,1,72,10|0,0:0|0:0,0:0:0:0:
434,161,175541,6,0,P|417:269|411:347,1,180,4|0,0:1|2:0,2:0:0:0:
231,375,176864,5,8,0:0:0:0:
187,358,176938,1,0,0:0:0:0:
170,318,177011,1,0,0:0:0:0:
178,273,177085,1,8,0:0:0:0:
210,241,177158,1,0,0:0:0:0:
253,226,177232,1,0,0:0:0:0:
285,192,177305,5,12,0:0:0:0:
310,158,177379,1,4,0:0:0:0:
312,118,177453,1,4,0:0:0:0:
289,86,177526,1,12,0:0:0:0:
260,72,177600,1,4,0:0:0:0:
233,79,177673,1,4,0:0:0:0:
186,107,177747,6,0,P|179:41|171:-12,1,107.999996704102,8|0,0:0|0:0,0:0:0:0:
90,215,177967,1,8,0:0:0:0:
5,172,178078,2,0,P|6:122|13:53,1,107.999996704102,8|0,0:0|0:0,0:0:0:0:
178,211,178298,5,0,0:0:0:0:
180,220,178353,1,0,0:0:0:0:
183,229,178409,1,8,0:0:0:0:
162,305,178519,6,0,P|321:309|314:29,1,504,4|0,0:1|0:0,2:0:0:0:
237,61,179401,5,8,0:0:0:0:
489,200,179621,1,8,0:0:0:0:
239,360,179842,2,0,B|209:324|209:324|228:248,1,90,8|0,0:0|0:0,0:0:0:0:
95,221,180062,2,0,P|76:221|49:219,2,45,0|0|8,0:0|0:0|0:0,0:0:0:0:
129,142,180283,6,0,P|180:133|241:122,1,107.999996704102,4|0,0:1|0:1,0:0:0:0:
393,71,180504,5,0,0:0:0:0:
423,149,180614,1,8,0:0:0:0:
370,211,180724,1,0,0:0:0:0:
291,197,180834,5,0,0:0:0:0:
423,149,180945,1,0,0:0:0:0:
419,287,181055,1,8,0:0:0:0:
328,288,181165,6,0,P|271:283|215:268,1,107.999996704102,2|0,0:0|0:0,0:0:0:0:
129,142,181386,2,0,P|69:147|16:162,1,107.999996704102,2|8,0:0|0:0,0:0:0:0:
297,13,181606,2,0,B|397:1|418:108|480:122|529:89,1,215.999993408203,2|0,0:0|0:0,0:0:0:0:
419,287,181937,5,8,0:0:0:0:
296,169,182048,2,0,P|283:281|279:406,1,215.999993408203,4|0,0:1|0:0,0:0:0:0:
88,340,182379,2,0,B|140:351|140:351|199:310,1,107.999996704102,8|0,0:0|0:0,0:0:0:0:
97,146,182599,2,0,B|45:135|45:135|-14:176,1,107.999996704102
95,59,182820,1,8,0:0:0:0:
197,188,182930,6,0,P|281:182|300:42,1,215.999993408203,2|0,0:0|0:0,0:0:0:0:
466,0,183261,2,0,P|451:51|440:125,1,107.999996704102,8|0,0:0|0:0,0:0:0:0:
488,256,183481,1,0,0:0:0:0:
471,353,183592,1,0,0:0:0:0:
383,369,183702,1,8,0:0:0:0:
288,284,183812,6,0,B|199:250|163:360|67:337,1,215.999993408203,2|0,0:0|0:0,0:0:0:0:
83,168,184143,5,8,0:0:0:0:
173,132,184254,1,0,0:0:0:0:
237,213,184364,1,0,0:0:0:0:
340,174,184474,1,0,0:0:0:0:
288,284,184584,5,8,0:0:0:0:
270,109,184695,2,0,P|261:38|256:-21,1,107.999996704102,2|0,0:0|0:0,0:0:0:0:
22,245,184915,1,0,0:0:0:0:
84,58,185026,1,8,0:0:0:0:
0,146,185136,2,0,B|47:135|90:165|90:165|132:153|132:153|174:195|247:183,1,215.999993408203,2|8,0:0|0:0,0:0:0:0:
447,113,185467,1,8,0:0:0:0:
488,244,185577,2,0,B|440:233|397:263|397:263|355:251|355:251|314:293|240:281,1,215.999993408203,4|0,0:1|0:0,0:0:0:0:
96,362,185908,6,0,B|133:321|133:321|116:255,1,107.999996704102,8|0,0:0|0:0,0:0:0:0:
224,92,186129,2,0,B|187:133|187:133|204:199,1,107.999996704102
136,57,186349,1,8,0:0:0:0:
293,163,186459,6,0,P|349:158|411:17,1,215.999993408203,2|0,0:0|0:0,0:0:0:0:
483,302,186790,2,0,P|433:293|348:270,1,107.999996704102,8|0,0:0|0:0,0:0:0:0:
231,374,187011,1,0,0:0:0:0:
208,287,187121,1,0,0:0:0:0:
185,207,187231,1,8,0:0:0:0:
224,92,187342,6,0,B|153:62|118:192|23:133,1,215.999993408203,2|0,0:0|0:0,0:0:0:0:
64,345,187673,2,0,B|95:300|95:300|70:227,1,107.999996704102,8|0,0:0|0:0,0:0:0:0:
320,240,187893,2,0,B|289:195|289:195|314:122,1,107.999996704102
310,44,188114,1,8,0:0:0:0:
442,108,188224,6,0,P|464:190|459:339,1,215.999993408203,2|0,0:0|0:0,0:0:0:0:
292,336,188555,1,8,0:0:0:0:
320,240,188665,2,0,P|390:235|439:219,1,107.999996704102
213,46,188886,1,0,0:0:0:0:
165,177,188996,1,8,0:0:0:0:
107,103,189106,2,0,P|152:117|322:129,1,215.999993408203,4|0,0:1|0:0,0:0:0:0:
198,369,189437,6,0,B|160:323|160:323|194:249,1,107.999996704102,8|0,0:0|0:0,0:0:0:0:
4,129,189658,2,0,B|42:175|42:175|8:249,1,107.999996704102
31,35,189879,1,8,0:0:0:0:
213,46,189989,6,0,P|300:73|300:218,1,215.999993408203,2|0,0:0|0:0,0:0:0:0:
198,369,190320,2,0,P|190:320|172:226,1,107.999996704102,8|0,0:0|0:0,0:0:0:0:
367,276,190540,1,0,0:0:0:0:
460,305,190651,1,0,0:0:0:0:
512,223,190761,1,8,0:0:0:0:
507,94,190871,6,0,B|426:57|391:181|299:152,1,215.999993408203,2|0,0:0|0:0,0:0:0:0:
30,279,191202,5,8,0:0:0:0:
106,327,191312,1,0,0:0:0:0:
169,262,191423,1,0,0:0:0:0:
275,327,191533,1,0,0:0:0:0:
382,239,191643,1,8,0:0:0:0:
485,337,191754,2,0,P|432:332|363:326,1,107.999996704102,4|0,0:1|0:0,0:0:0:0:
122,16,191974,5,0,0:0:0:0:
39,91,192084,1,8,0:0:0:0:
122,171,192195,2,0,P|180:166|257:159,1,107.999996704102,2|0,0:0|0:0,0:0:0:0:
444,12,192415,5,0,0:0:0:0:
414,127,192526,1,8,0:0:0:0:
382,239,192636,1,2,0:0:0:0:
127,0,193629,5,8,0:0:0:0:
225,48,193739,1,8,0:0:0:0:
170,141,193849,1,8,0:0:0:0:
74,90,193959,5,2,0:0:0:0:
352,62,194180,1,2,0:0:0:0:
219,319,194401,1,2,0:0:0:0:
141,263,194511,6,0,B|108:240|108:240|64:236|25:246,1,99.0000030212403,10|0,0:0|0:0,0:0:0:0:
269,75,194731,1,10,0:0:0:0:
255,166,194842,2,0,B|251:206|251:206|270:246|298:274,1,99.0000030212403,0|10,0:0|0:0,0:0:0:0:
38,138,195062,1,0,0:0:0:0:
118,94,195173,2,0,B|154:76|154:76|179:40|190:2,1,99.0000030212403,10|0,0:0|0:0,0:0:0:0:
255,166,195393,1,10,0:0:0:0:
354,116,195504,5,0,0:0:0:0:
436,197,195614,1,10,0:0:0:0:
344,205,195724,1,0,0:0:0:0:
448,111,195834,2,0,B|430:83|427:32|474:-1,1,99.0000030212403,10|0,0:0|0:0,0:0:0:0:
255,166,196055,2,0,B|273:138|276:87|229:54,1,99.0000030212403,10|0,0:0|0:0,0:0:0:0:
430,289,196276,2,0,B|412:261|409:210|456:177,1,99.0000030212403,10|0,0:0|0:0,0:0:0:0:
206,329,196496,2,0,B|224:301|227:250|180:217,1,99.0000030212403,10|0,0:0|0:0,0:0:0:0:
0,139,196717,5,12,0:1:0:0:
113,201,196827,1,0,0:0:0:0:
66,27,196937,5,12,0:1:0:0:
164,136,197048,1,0,0:0:0:0:
22,223,197158,6,0,B|16:275|58:277|46:348,1,99.0000030212403,10|0,0:0|0:0,0:0:0:0:
202,210,197379,1,10,0:0:0:0:
138,107,197489,2,0,B|144:159|102:161|114:232,1,99.0000030212403,0|10,0:0|0:0,0:0:0:0:
168,293,197709,1,0,0:0:0:0:
260,324,197819,2,0,B|254:272|296:270|284:199,1,99.0000030212403,10|0,0:0|0:0,0:0:0:0:
253,135,198040,1,10,0:0:0:0:
370,184,198151,5,0,0:0:0:0:
391,102,198261,1,10,0:0:0:0:
317,66,198371,1,0,0:0:0:0:
388,198,198481,5,10,0:0:0:0:
474,139,198592,1,0,0:0:0:0:
437,30,198702,1,10,0:0:0:0:
416,195,198812,6,0,B|392:216|358:216|358:216|341:181|307:156|307:156|264:180|206:178,1,233.999989288331,4|0,0:1|0:0,0:0:0:0:
149,13,199143,2,0,B|164:49|140:75|140:75|146:108|169:135,1,99.0000030212403,8|0,0:0|0:0,0:0:0:0:
276,266,199363,2,0,B|291:302|267:328|267:328|273:361|296:388,1,99.0000030212403,8|0,0:0|0:0,0:0:0:0:
58,313,199584,6,0,P|31:320|6:325,4,49.5000015106202,8|8|0|0|0,0:0|0:0|0:0|0:0|0:0,0:0:0:0:
161,359,199915,1,4,0:0:0:0:
161,359,199970,1,4,0:0:0:0:
161,359,200026,2,0,B|191:328|191:328|195:293|170:244,1,99.0000030212403,8|0,0:0|0:0,0:0:0:0:
45,158,200246,5,12,0:1:0:0:
149,105,200356,1,0,0:0:0:0:
249,181,200466,6,0,B|272:175|291:178|291:178|313:203|365:197,1,99.0000030212403,10|0,0:0|0:0,0:0:0:0:
476,170,200687,1,10,0:0:0:0:
445,91,200797,2,0,B|422:85|403:88|403:88|381:113|329:107,1,99.0000030212403,0|10,0:0|0:0,0:0:0:0:
342,198,201018,1,0,0:0:0:0:
373,277,201128,2,0,B|396:283|415:280|415:280|437:255|489:261,1,99.0000030212403,10|0,0:0|0:0,0:0:0:0:
322,348,201349,1,10,0:0:0:0:
255,280,201459,5,0,0:0:0:0:
187,316,201569,1,10,0:0:0:0:
122,267,201680,1,0,0:0:0:0:
51,304,201790,6,0,B|21:287|14:254|31:203,1,99.0000030212403,10|0,0:0|0:0,0:0:0:0:
4,70,202011,2,0,B|33:52|65:62|101:103,1,99.0000030212403,10|0,0:0|0:0,0:0:0:0:
237,126,202231,2,0,B|237:160|212:183|159:193,1,99.0000030212403,10|0,0:0|0:0,0:0:0:0:
277,11,202452,2,0,B|306:-6|338:3|374:44,1,99.0000030212403,10|0,0:0|0:0,0:0:0:0:
308,240,202672,5,12,0:1:0:0:
337,124,202783,1,0,0:0:0:0:
482,230,202893,5,12,0:1:0:0:
434,96,203003,1,0,0:0:0:0:
400,277,203113,6,0,B|414:307|414:307|411:345|381:385,1,99.0000030212403,10|0,0:0|0:0,0:0:0:0:
230,292,203334,1,10,0:0:0:0:
308,240,203444,2,0,B|294:210|294:210|297:172|327:132,1,99.0000030212403,0|10,0:0|0:0,0:0:0:0:
291,5,203665,1,0,0:0:0:0:
213,57,203775,2,0,B|227:87|227:87|224:125|194:165,1,99.0000030212403,10|0,0:0|0:0,0:0:0:0:
272,219,203996,1,10,0:0:0:0:
151,249,204106,5,0,0:0:0:0:
112,179,204216,1,10,0:0:0:0:
26,197,204327,1,0,0:0:0:0:
81,309,204437,5,10,0:0:0:0:
161,248,204547,1,0,0:0:0:0:
246,305,204658,1,10,0:0:0:0:
366,234,204768,6,0,B|357:192|387:143|387:143|367:119|356:91|356:91|388:51|396:-10,1,233.999989288331,4|0,0:1|0:0,0:0:0:0:
201,61,205099,6,0,L|191:3,2,49.5000015106202,8|0|0,0:0|0:0|0:0,0:0:0:0:
115,140,205319,1,8,0:0:0:0:
112,179,205393,1,0,0:0:0:0:
130,216,205466,1,0,0:0:0:0:
159,248,205540,2,0,L|140:325,4,49.5000015106202,4|0|0|0|0,0:0|0:0|0:0|0:0|0:0,0:0:0:0:
366,234,205871,5,4,0:0:0:0:
366,234,205926,1,4,0:0:0:0:
366,234,205981,2,0,B|386:279|386:279|374:358,1,99.0000030212403,8|8,0:0|0:0,0:0:0:0:
263,175,206189,5,8,0:0:0:0:
421,139,206293,1,8,0:0:0:0:
279,63,206397,1,4,0:1:0:0:
256,192,206452,12,0,208161,0:0:0:0:
