osu file format v14

[General]
AudioFilename: audio.mp3
AudioLeadIn: 0
PreviewTime: 68777
Countdown: 0
SampleSet: Drum
StackLeniency: 0.6
Mode: 0
LetterboxInBreaks: 0
WidescreenStoryboard: 1

[Editor]
Bookmarks: 3924,8335,20252,27310,34369,43189,60836,71755,87747,99658,106717,115431,131423,138482,152600,159659,178519,194511,206397
DistanceSpacing: 0.7
BeatDivisor: 4
GridSize: 32
TimelineZoom: 2

[Metadata]
Title:Naikan Uchuu Shisha no Yurikago
TitleUnicode:内観宇宙死者のゆりかご
Artist:Yousei Teikoku
ArtistUnicode:妖精帝國
Creator:IsomirDiAngelo
Version:Cradle of the Dead
Source:
Tags:osu osu! world cup owc finals hr3 atalanta talulah fairy empire das feenreich flamma idola yui itsuki japanese rock metal jrock gothic
BeatmapID:2715016
BeatmapSetID:1306595

[Difficulty]
HPDrainRate:5
CircleSize:4
OverallDifficulty:9.2
ApproachRate:10
SliderMultiplier:2
SliderTickRate:1

[Events]
//Background and Video events
0,0,"suigintou6b.jpg",0,0
//Break Periods
2,131623,134503
//Storyboard Layer 0 (Background)
//Storyboard Layer 1 (Fail)
//Storyboard Layer 2 (Pass)
//Storyboard Layer 3 (Foreground)
//Storyboard Layer 4 (Overlay)
//Storyboard Sound Samples

[TimingPoints]
408,219.78021978022,4,3,1,70,1,0
408,-166.666666666667,4,3,1,70,0,0
3924,220.588235294118,4,3,1,70,1,0
3924,-125,4,3,1,70,0,0
8335,220.588235294118,3,3,1,70,1,0
8335,-90.9090909090909,4,3,1,70,0,0
12636,-76.9230769230769,4,3,1,70,0,0
12967,212.765957446809,4,3,1,70,1,0
13392,272.727272727273,4,3,1,70,1,0
13664,208.333333333333,4,3,1,70,1,0
14080,215.827338129496,4,3,1,70,1,0
14297,220.588235294118,3,3,1,70,1,0
14297,-90.9090909090909,3,3,1,70,0,0
18598,-76.9230769230769,3,3,1,70,0,0
18819,-90.9090909090909,3,3,1,70,0,0
20252,220.588235294118,4,3,1,70,1,0
34369,-83.3333333333333,4,3,1,70,0,0
39663,-83.3333333333333,4,3,1,70,0,0
40766,206.896551724138,4,3,1,70,1,0
41179,230.769230769231,4,3,1,70,1,0
41294,220.588235294118,4,3,1,70,1,0
41294,-142.857142857143,4,3,1,70,0,0
42286,225.563909774436,4,3,1,70,1,0
43189,220.588235294118,4,3,1,70,1,0
43189,-125,4,3,1,70,0,0
60836,-166.666666666667,4,2,1,70,0,0
68777,-500.000000000003,4,2,1,70,0,0
70100,-100,4,3,1,70,0,0
70983,-100,4,3,1,70,0,0
71755,-83.3333333333333,4,3,1,70,0,1
71865,220.588235294118,4,3,1,70,1,1
71865,-83.3333333333333,4,3,1,70,0,1
85872,-83.3333333333333,4,3,1,70,0,0
87747,220.588235294118,3,3,1,70,1,0
87747,-90.9090909090909,3,3,1,70,0,0
92048,-76.9230769230769,3,3,1,70,0,0
92379,-90.9090909090909,3,3,1,70,0,0
98004,-76.9230769230769,3,3,1,70,0,0
98224,-90.9090909090909,3,3,1,70,0,0
99659,220.588235294118,4,3,1,70,1,0
106717,-83.3333333333333,4,3,1,70,0,0
114989,-100,4,3,1,70,0,0
115431,-83.3333333333333,4,3,1,70,0,1
129548,-83.3333333333333,4,3,1,70,0,0
134953,-125,4,3,1,70,0,0
138482,-83.3333333333333,4,3,1,70,0,1
152600,-166.666666666667,4,3,1,70,0,1
153372,-83.3333333333333,4,3,1,70,0,1
154034,-125,4,3,1,70,0,1
154364,-166.666666666667,4,3,1,70,0,1
155136,-83.3333333333333,4,3,1,70,0,1
156129,-100,4,3,1,70,0,1
159328,-100,4,3,1,70,0,0
159659,-125,4,2,1,70,0,0
167600,-125,4,3,1,70,0,1
175541,-500,4,3,1,70,0,0
176864,-100,4,3,1,70,0,0
177747,-83.3333333333333,4,3,1,70,0,0
178519,-125,4,3,1,70,0,0
178629,220.588235294118,4,3,1,70,1,0
180283,-83.3333333333333,4,3,1,70,0,1
192636,-83.3333333333333,4,3,1,70,0,0
194511,220.588235294118,3,3,1,70,1,0
194511,-90.9090909090909,4,3,1,70,0,0
198812,-76.9230769230769,4,3,1,70,0,0
199033,-90.9090909090909,4,3,1,70,0,0
204768,-76.9230769230769,4,3,1,70,0,0
204988,-90.9090909090909,4,3,1,70,0,0
205981,208.333333333333,4,3,1,70,1,0
205981,-83.3333333333333,4,3,1,70,0,0
206397,220.588235294118,4,3,1,70,1,0

[Colours]
Combo1 : 194,48,22
Combo2 : 220,199,219
Combo3 : 233,226,103
Combo4 : 151,134,111

[HitObjects]
325,194,3924,6,0,B|367:177|367:177|403:190|403:190|446:168|488:178,1,160,8|0,0:0|0:0,0:0:0:0:
255,135,4254,1,8,0:0:0:0:
251,119,4475,1,8,0:0:0:0:
247,103,4696,1,0,0:0:0:0:
151,223,4806,6,0,B|109:240|109:240|73:227|73:227|30:249|-12:239,1,160,8|0,0:0|0:0,0:0:0:0:
221,282,5136,1,8,0:0:0:0:
225,298,5357,1,8,0:0:0:0:
229,314,5578,1,0,0:0:0:0:
325,194,5688,6,0,B|364:246|429:229|429:229|430:205|446:186,1,160,8|0,0:0|0:0,0:0:0:0:
255,135,6019,1,8,0:0:0:0:
251,119,6240,1,8,0:0:0:0:
246,103,6461,1,0,0:0:0:0:
151,223,6571,6,0,B|112:171|47:188|47:188|46:212|32:227,1,160,8|0,0:0|0:0,0:0:0:0:
221,282,6901,1,8,0:0:0:0:
225,298,7122,1,8,0:0:0:0:
229,314,7343,1,0,0:0:0:0:
322,277,7453,6,0,P|345:281|372:283,3,40,8|8|4|4,0:0|0:0|0:0|0:0,0:0:0:0:
264,195,7674,2,0,P|241:199|214:201,3,40,4|4|0|4,0:0|0:0|0:0|0:0,0:0:0:0:
336,126,7894,1,4,0:0:0:0:
336,118,7949,1,4,0:0:0:0:
336,110,8004,1,0,0:0:0:0:
336,101,8060,1,0,0:0:0:0:
337,93,8115,1,4,0:0:0:0:
337,85,8170,1,4,0:0:0:0:
337,77,8225,1,0,0:0:0:0:
338,69,8280,1,0,0:0:0:0:
338,63,8335,6,0,B|292:61|292:61|279:49|279:49|227:37,1,110.000003356934,14|0,0:1|0:0,0:0:0:0:
37,55,8555,1,10,0:0:0:0:
74,148,8665,2,0,B|120:146|120:146|133:134|133:134|185:122,1,110.000003356934,0|10,0:0|0:0,0:0:0:0:
28,236,8886,1,0,0:0:0:0:
193,289,8996,5,10,0:0:0:0:
88,328,9107,1,0,0:0:0:0:
138,211,9217,1,10,0:0:0:0:
262,384,9327,5,0,0:0:0:0:
297,250,9438,1,10,0:0:0:0:
363,338,9548,1,0,0:0:0:0:
465,234,9658,6,0,B|411:218|371:230|371:230|342:206|342:206|296:219|226:192,1,220.000006713867,10|10,0:0|0:0,0:0:0:0:
76,159,9989,1,0,0:0:0:0:
185,108,10099,2,0,B|205:72|201:47|201:47|153:-13,1,110.000003356934,10|0,0:0|0:0,0:0:0:0:
151,261,10320,2,0,B|163:300|153:323|153:323|92:371,1,110.000003356934,10|0,0:0|0:0,0:0:0:0:
363,338,10540,5,12,0:1:0:0:
256,202,10651,1,0,0:0:0:0:
262,298,10761,5,12,0:1:0:0:
331,131,10871,1,0,0:0:0:0:
465,234,10982,6,0,B|398:249|398:249|352:211,1,110.000003356934,10|0,0:0|0:0,0:0:0:0:
309,33,11202,1,10,0:0:0:0:
231,93,11312,2,0,B|164:78|164:78|118:116,1,110.000003356934,0|10,0:0|0:0,0:0:0:0:
162,240,11533,1,0,0:0:0:0:
27,144,11643,2,0,B|-7:87|-7:87|6:19,1,110.000003356934,10|0,0:0|0:0,0:0:0:0:
16,322,11864,5,10,0:0:0:0:
162,240,11974,1,0,0:0:0:0:
124,347,12085,1,10,0:0:0:0:
50,227,12195,1,0,0:0:0:0:
241,323,12305,5,10,0:0:0:0:
257,179,12415,1,0,0:0:0:0:
257,333,12526,1,10,0:0:0:0:
366,220,12636,6,0,B|340:215|324:197|324:197|287:207|268:222|268:222|218:215|200:187|200:187|160:174|104:196,1,259.999988098145,4|0,0:1|0:0,0:0:0:0:
239,73,12967,5,8,0:0:0:0:
344,36,13073,1,0,0:0:0:0:
460,158,13179,5,8,0:0:0:0:
389,117,13286,1,0,0:0:0:0:
366,220,13392,5,8,0:0:0:0:
360,232,13460,1,8,0:0:0:0:
346,229,13528,1,4,0:0:0:0:
345,217,13596,1,4,0:0:0:0:
357,209,13664,5,12,0:0:0:0:
311,238,13733,1,4,0:0:0:0:
262,220,13802,1,4,0:0:0:0:
219,189,13872,1,8,0:0:0:0:
167,194,13941,1,4,0:0:0:0:
141,241,14011,1,4,0:0:0:0:
166,286,14080,1,8,0:0:0:0:
362,384,14187,1,0,0:0:0:0:
278,323,14297,6,0,B|288:284|279:264|279:264|256:247|263:201,1,110.000003356934,10|0,0:0|0:0,0:0:0:0:
500,157,14517,1,10,0:0:0:0:
411,99,14627,2,0,B|401:65|410:45|410:45|433:28|425:-24,1,110.000003356934,0|10,0:0|0:0,0:0:0:0:
342,173,14848,1,0,0:0:0:0:
307,49,14958,5,10,0:0:0:0:
238,121,15069,1,0,0:0:0:0:
171,43,15179,1,10,0:0:0:0:
192,220,15289,5,0,0:0:0:0:
123,148,15400,1,10,0:0:0:0:
56,226,15510,1,0,0:0:0:0:
221,308,15620,6,0,B|218:268|248:238|248:238|237:163|237:163|275:133|272:71,1,220.000006713867,10|10,0:0|0:0,0:0:0:0:
118,315,15951,2,0,B|67:320|67:320|47:338|47:338|-15:346,1,110.000003356934,0|10,0:0|0:0,0:0:0:0:
192,220,16172,1,0,0:0:0:0:
315,354,16282,2,0,B|366:359|366:359|386:377|386:377|448:385,1,110.000003356934,10|0,0:0|0:0,0:0:0:0:
362,129,16502,5,12,0:1:0:0:
440,296,16613,1,0,0:0:0:0:
304,245,16723,5,12,0:1:0:0:
501,158,16833,1,0,0:0:0:0:
352,26,16944,6,0,B|343:65|343:65|358:80|358:80|363:150,1,110.000003356934,10|0,0:0|0:0,0:0:0:0:
203,292,17164,1,10,0:0:0:0:
149,197,17274,2,0,B|187:185|187:185|192:164|192:164|250:125,1,110.000003356934,0|10,0:0|0:0,0:0:0:0:
361,128,17495,1,0,0:0:0:0:
397,288,17605,2,0,B|367:260|367:260|347:266|347:266|284:235,1,110.000003356934,10|0,0:0|0:0,0:0:0:0:
115,363,17826,5,10,0:0:0:0:
58,267,17936,2,0,B|29:255|29:255|-6:265,2,55.0000016784668,0|0|10,0:0|0:0|0:0,0:0:0:0:
149,197,18157,5,0,0:0:0:0:
60,45,18267,1,10,0:0:0:0:
183,76,18377,1,0,0:0:0:0:
29,158,18488,1,10,0:0:0:0:
253,156,18598,6,0,B|271:154|288:128|288:128|349:156|366:227|320:263|320:263|284:266|249:323,1,259.999988098145,4|0,0:1|0:0,0:0:0:0:
442,322,18929,5,8,0:0:0:0:
341,356,19039,1,0,0:0:0:0:
242,231,19149,5,8,0:0:0:0:
326,254,19260,1,0,0:0:0:0:
411,159,19370,5,8,0:0:0:0:
411,149,19425,1,8,0:0:0:0:
411,139,19480,1,0,0:0:0:0:
411,129,19535,1,0,0:0:0:0:
412,118,19591,2,0,B|445:105|445:105|480:126,3,55.0000016784668,8|8|0|0,0:0|0:0|0:0|0:0,0:0:0:0:
324,30,19811,5,8,0:0:0:0:
225,166,19922,1,8,0:0:0:0:
162,13,20032,1,2,0:0:0:0:
259,83,20142,1,0,0:0:0:0:
137,158,20252,5,4,0:1:0:0:
85,151,20362,1,0,0:0:0:0:
47,113,20472,1,0,0:0:0:0:
147,134,20582,5,4,0:0:0:0:
199,140,20692,1,0,0:0:0:0:
237,179,20802,1,0,0:0:0:0:
127,135,20913,5,4,0:0:0:0:
133,83,21023,1,0,0:0:0:0:
171,45,21133,1,0,0:0:0:0:
152,156,21244,5,4,0:0:0:0:
146,208,21354,1,0,0:0:0:0:
107,245,21464,1,0,0:0:0:0:
15,226,21575,6,0,B|42:194|42:194|28:116,1,100,4|0,0:0|0:0,0:0:0:0:
231,365,21796,2,0,B|204:333|204:333|218:255,1,100,8|0,0:0|0:0,0:0:0:0:
301,136,22016,5,12,0:1:0:0:
339,125,22127,1,0,0:0:0:0:
373,149,22237,1,0,0:0:0:0:
474,163,22347,5,4,0:0:0:0:
485,201,22458,1,0,0:0:0:0:
461,235,22568,1,0,0:0:0:0:
447,332,22678,5,4,0:0:0:0:
409,343,22789,1,0,0:0:0:0:
375,319,22899,1,0,0:0:0:0:
274,303,23009,5,4,0:0:0:0:
263,265,23120,1,0,0:0:0:0:
287,231,23230,1,0,0:0:0:0:
208,166,23340,6,0,L|216:280,1,100,4|0,0:0|0:0,0:0:0:0:
380,49,23560,2,0,L|372:163,1,100,8|0,0:0|0:0,0:0:0:0:
118,124,23781,5,12,0:1:0:0:
68,117,23891,1,0,0:0:0:0:
17,111,24002,1,0,0:0:0:0:
138,114,24112,5,4,0:0:0:0:
188,121,24222,1,0,0:0:0:0:
239,127,24333,1,0,0:0:0:0:
119,104,24443,5,4,0:0:0:0:
126,54,24553,1,0,0:0:0:0:
132,3,24664,1,0,0:0:0:0:
136,128,24774,5,4,0:0:0:0:
129,178,24884,1,0,0:0:0:0:
123,229,24995,1,0,0:0:0:0:
48,291,25104,6,0,B|-3:283|-8:225|40:192,1,100,4|0,0:0|0:0,0:0:0:0:
248,368,25325,2,0,B|299:360|304:302|256:269,1,100,8|0,0:0|0:0,0:0:0:0:
477,121,25546,5,12,0:1:0:0:
407,92,25656,1,0,0:0:0:0:
346,136,25766,1,0,0:0:0:0:
367,283,25877,5,4,0:0:0:0:
396,213,25987,1,0,0:0:0:0:
352,152,26097,1,0,0:0:0:0:
209,175,26207,5,4,0:0:0:0:
279,204,26317,1,0,0:0:0:0:
340,160,26427,1,0,0:0:0:0:
317,11,26538,5,4,0:0:0:0:
288,81,26648,1,0,0:0:0:0:
332,142,26758,1,0,0:0:0:0:
477,120,26869,6,0,B|498:102|498:102|496:65,2,50,8|0|0,0:0|0:0|0:0,0:0:0:0:
367,283,27090,2,0,L|382:422,1,100,12|0,0:1|0:0,0:0:0:0:
226,328,27310,5,4,0:1:0:0:
148,317,27421,1,0,0:0:0:0:
68,304,27531,1,8,0:0:0:0:
163,237,27641,6,0,P|190:189|140:126,1,100,0|0,0:1|0:0,0:0:0:0:
44,176,27862,1,0,0:1:0:0:
93,112,27972,1,8,0:0:0:0:
30,70,28082,2,0,P|3:118|53:181,1,100,0|0,0:1|0:0,0:0:0:0:
177,148,28303,5,0,0:0:0:0:
270,196,28413,1,8,0:0:0:0:
318,105,28524,1,0,0:0:0:0:
222,55,28634,2,0,P|164:61|111:65,1,100
316,11,28854,2,0,P|375:4|423:147,1,200,8|0,0:0|0:0,0:0:0:0:
270,196,29185,5,0,0:0:0:0:
277,184,29296,1,8,0:0:0:0:
347,249,29406,2,0,P|404:255|458:259,1,100
293,323,29627,2,0,B|205:302|200:395|84:374,1,200
136,212,29957,5,2,0:0:0:0:
143,297,30068,1,2,0:0:0:0:
128,201,30178,1,10,0:0:0:0:
149,314,30288,1,2,0:0:0:0:
46,223,30399,5,2,0:0:0:0:
197,249,30509,1,2,0:0:0:0:
146,122,30619,1,10,0:0:0:0:
128,201,30729,1,2,0:0:0:0:
90,46,30840,6,0,B|151:24|151:24|191:53|191:53|323:74,1,200,4|8,0:1|0:0,0:0:0:0:
358,17,31171,2,0,L|465:11,1,100
497,136,31391,1,0,0:0:0:0:
469,215,31502,1,8,0:0:0:0:
384,219,31612,2,0,B|323:197|323:197|283:226|283:226|151:247,1,200
47,68,31943,5,8,0:0:0:0:
146,61,32053,1,0,0:0:0:0:
182,148,32163,1,0,0:0:0:0:
110,216,32274,1,0,0:0:0:0:
35,167,32384,2,0,P|83:170|122:321,1,200,8|0,0:0|0:0,0:0:0:0:
349,361,32715,5,0,0:0:0:0:
327,285,32825,2,0,P|276:272|210:282,1,100,8|0,0:0|0:0,0:0:0:0:
486,235,33046,1,0,0:0:0:0:
449,158,33156,1,0,0:0:0:0:
368,157,33266,2,0,P|311:164|259:199,1,100,8|0,0:0|0:0,0:0:0:0:
115,142,33487,5,2,0:0:0:0:
166,73,33597,1,2,0:0:0:0:
171,217,33707,1,10,0:0:0:0:
34,182,33818,1,2,0:0:0:0:
211,141,33928,5,2,0:0:0:0:
87,247,34038,1,2,0:0:0:0:
30,93,34149,1,10,0:0:0:0:
40,74,34204,1,8,0:0:0:0:
33,63,34259,1,8,0:0:0:0:
42,55,34314,1,8,0:0:0:0:
42,55,34369,6,0,B|75:30|75:30|167:65,1,119.999996337891,4|8,0:1|0:0,0:0:0:0:
277,214,34590,2,0,B|244:189|244:189|152:224,1,119.999996337891,0|8,0:0|0:0,0:0:0:0:
232,345,34810,5,2,0:0:0:0:
327,380,34921,1,8,0:0:0:0:
420,349,35031,1,0,0:0:0:0:
450,252,35141,1,8,0:0:0:0:
407,159,35252,2,0,P|411:109|422:24,1,119.999996337891,2|8,0:0|0:0,0:0:0:0:
208,5,35472,1,0,0:0:0:0:
326,31,35582,1,8,0:0:0:0:
264,94,35693,6,0,P|269:157|280:237,1,119.999996337891,2|8,0:0|0:0,0:0:0:0:
21,139,35913,2,0,B|48:102|48:102|148:84,1,119.999996337891,0|8,0:0|0:0,0:0:0:0:
222,301,36134,5,4,0:1:0:0:
147,380,36244,1,8,0:0:0:0:
46,326,36354,1,0,0:0:0:0:
127,243,36465,2,0,P|122:306|111:386,1,119.999996337891,8|0,0:0|0:0,0:0:0:0:
377,371,36685,5,8,0:0:0:0:
475,315,36796,1,0,0:0:0:0:
313,276,36906,1,8,0:0:0:0:
464,173,37016,5,2,0:0:0:0:
370,210,37127,1,10,0:0:0:0:
298,140,37237,1,2,0:0:0:0:
205,180,37347,1,10,0:0:0:0:
196,60,37457,5,2,0:0:0:0:
301,119,37568,1,10,0:0:0:0:
381,28,37678,1,2,0:0:0:0:
488,85,37788,1,10,0:0:0:0:
370,210,37899,6,0,B|333:189|333:189|301:202|301:202|226:187,1,119.999996337891,4|8,0:1|0:0,0:0:0:0:
84,76,38119,2,0,B|121:55|121:55|153:68|153:68|228:53,1,119.999996337891,0|8,0:0|0:0,0:0:0:0:
89,374,38340,1,2,0:0:0:0:
21,302,38450,1,8,0:0:0:0:
32,202,38560,1,0,0:0:0:0:
122,157,38671,1,8,0:0:0:0:
162,265,38781,6,0,P|155:330|148:400,1,119.999996337891,2|8,0:0|0:0,0:0:0:0:
377,355,39002,1,0,0:0:0:0:
265,319,39112,1,8,0:0:0:0:
341,266,39222,2,0,P|334:201|327:131,1,119.999996337891,2|8,0:0|0:0,0:0:0:0:
480,27,39443,2,0,B|508:70|508:70|471:180,1,119.999996337891,0|8,0:0|0:0,0:0:0:0:
208,189,39663,5,4,0:1:0:0:
278,21,39774,1,8,0:0:0:0:
328,146,39884,5,0,0:0:0:0:
154,69,39994,1,8,0:0:0:0:
243,104,40104,1,0,0:0:0:0:
122,154,40215,5,8,0:0:0:0:
183,310,40325,1,0,0:0:0:0:
346,231,40435,1,8,0:0:0:0:
270,370,40546,6,0,P|265:340|265:310,3,59.9999981689454,8|0|0|0,0:0|0:0|0:0|0:0,0:0:0:0:
308,357,40766,1,0,0:0:0:0:
318,359,40817,1,0,0:0:0:0:
328,360,40869,1,4,0:0:0:0:
338,361,40921,1,4,0:0:0:0:
348,363,40972,5,8,0:0:0:0:
346,231,41076,1,8,0:0:0:0:
512,265,41179,5,8,0:0:0:0:
483,121,41294,2,0,P|208:86|144:378,1,629.999980773926,4|0,0:1|2:0,2:0:0:0:
44,139,43189,5,4,0:1:0:0:
62,68,43299,1,0,0:0:0:0:
136,50,43409,1,0,0:0:0:0:
190,102,43519,2,0,P|185:154|186:284,1,160,2|2,0:0|0:0,0:0:0:0:
184,261,43961,1,2,0:0:0:0:
292,234,44071,5,4,0:1:0:0:
308,309,44181,1,0,0:0:0:0:
383,328,44291,1,0,0:0:0:0:
438,277,44401,2,0,P|433:225|434:95,1,160,2|2,0:0|0:0,0:0:0:0:
432,117,44843,1,2,0:0:0:0:
333,60,44953,5,4,0:1:0:0:
191,98,45064,1,0,0:0:0:0:
281,150,45174,1,0,0:0:0:0:
242,12,45284,5,2,0:0:0:0:
254,257,45505,1,2,0:0:0:0:
9,231,45725,1,2,0:0:0:0:
45,331,45836,5,4,0:1:0:0:
118,202,45947,1,0,0:0:0:0:
157,306,46057,1,0,0:0:0:0:
9,231,46167,5,2,0:0:0:0:
254,257,46387,1,2,0:0:0:0:
242,12,46608,2,0,P|213:11|173:7,2,40,2|0|4,0:0|0:0|0:1,0:0:0:0:
309,43,46828,5,0,0:0:0:0:
309,119,46939,1,0,0:0:0:0:
243,153,47049,2,0,P|142:139|65:133,1,160,2|2,0:0|0:0,0:0:0:0:
84,134,47490,1,2,0:0:0:0:
128,216,47600,5,4,0:1:0:0:
64,255,47710,1,0,0:0:0:0:
76,327,47821,1,0,0:0:0:0:
141,359,47931,2,0,P|242:345|319:339,1,160,2|2,0:0|0:0,0:0:0:0:
299,340,48372,1,2,0:0:0:0:
409,339,48483,5,4,0:1:0:0:
363,264,48593,1,0,0:0:0:0:
402,184,48703,1,0,0:0:0:0:
454,254,48814,5,2,0:0:0:0:
314,191,49034,1,2,0:0:0:0:
176,124,49255,1,2,0:0:0:0:
129,206,49365,5,4,0:1:0:0:
74,123,49475,1,0,0:0:0:0:
124,41,49586,1,0,0:0:0:0:
176,124,49696,5,2,0:0:0:0:
321,75,49916,1,2,0:0:0:0:
466,26,50137,2,0,P|474:50|477:66,1,40
455,149,50247,5,4,0:1:0:0:
411,130,50358,1,0,0:0:0:0:
365,151,50468,1,0,0:0:0:0:
353,198,50578,1,0,0:0:0:0:
374,286,50689,5,8,0:0:0:0:
330,305,50800,1,0,0:0:0:0:
284,284,50910,1,0,0:0:0:0:
272,237,51020,1,0,0:0:0:0:
193,188,51130,5,4,0:1:0:0:
196,172,51240,1,0,0:0:0:0:
199,156,51350,1,0,0:0:0:0:
202,140,51461,1,0,0:0:0:0:
142,61,51571,5,12,0:1:0:0:
63,77,51681,1,2,0:0:0:0:
36,155,51791,2,0,P|42:209|50:253,1,80,2|2,0:0|0:0,0:0:0:0:
108,337,52012,5,4,0:1:0:0:
179,332,52122,1,0,0:0:0:0:
251,326,52233,1,0,0:0:0:0:
322,319,52343,2,0,P|322:262|327:147,1,160,2|2,0:0|0:0,0:0:0:0:
326,159,52784,1,2,0:0:0:0:
292,74,52894,5,4,0:1:0:0:
363,79,53004,1,0,0:0:0:0:
435,85,53115,1,0,0:0:0:0:
506,92,53225,2,0,P|506:149|511:264,1,160,2|2,0:0|0:0,0:0:0:0:
507,258,53666,2,0,P|474:256|453:258,1,40,2|0,0:0|0:0,0:0:0:0:
367,237,53777,5,4,0:1:0:0:
308,369,53887,1,0,0:0:0:0:
427,337,53997,1,0,0:0:0:0:
262,269,54108,5,2,0:0:0:0:
420,120,54328,1,2,0:0:0:0:
215,20,54549,1,2,0:0:0:0:
176,134,54659,5,4,0:1:0:0:
97,9,54769,1,0,0:0:0:0:
59,121,54880,1,0,0:0:0:0:
215,20,54990,5,2,0:0:0:0:
420,120,55211,1,2,0:0:0:0:
262,269,55431,2,0,L|275:321,2,40,2|0|4,0:0|0:0|0:1,0:0:0:0:
203,318,55652,5,0,0:0:0:0:
129,316,55762,1,0,0:0:0:0:
98,250,55872,2,0,P|115:174|198:142,1,160,2|2,0:0|0:0,0:0:0:0:
184,140,56314,1,2,0:0:0:0:
171,41,56424,5,4,0:1:0:0:
237,2,56534,1,0,0:0:0:0:
311,13,56644,1,0,0:0:0:0:
359,73,56755,2,0,P|428:106|445:182,1,160,2|2,0:0|0:0,0:0:0:0:
443,188,57196,2,0,L|380:204,1,40,2|0,0:0|0:0,0:0:0:0:
323,171,57306,5,4,0:1:0:0:
278,251,57416,1,0,0:0:0:0:
200,209,57527,1,0,0:0:0:0:
244,135,57637,5,2,0:0:0:0:
181,325,57858,1,2,0:0:0:0:
18,205,58078,1,2,0:0:0:0:
5,295,58189,5,4,0:1:0:0:
96,277,58299,1,0,0:0:0:0:
105,188,58409,1,0,0:0:0:0:
18,205,58519,5,2,0:0:0:0:
181,325,58740,1,2,0:0:0:0:
244,135,58961,2,0,P|246:155|248:184,1,40,2|0,0:0|0:0,0:0:0:0:
316,226,59071,5,4,0:1:0:0:
353,242,59181,1,0,0:0:0:0:
388,220,59291,1,0,0:0:0:0:
352,199,59402,1,0,0:0:0:0:
377,118,59512,5,12,0:0:0:0:
406,105,59622,1,0,0:0:0:0:
434,122,59732,1,0,0:0:0:0:
405,139,59843,1,0,0:0:0:0:
317,54,59953,5,4,0:0:0:0:
299,46,60063,1,0,0:0:0:0:
282,56,60173,1,0,0:0:0:0:
300,66,60284,1,0,0:0:0:0:
244,135,60394,5,12,0:1:0:0:
146,187,60505,5,8,0:0:0:0:
51,132,60615,5,4,0:0:0:0:
56,42,60725,5,4,0:0:0:0:
56,42,60836,6,0,B|89:40|101:56|129:59,1,59.9999981689454,4|0,3:1|0:0,0:0:0:0:
197,77,61056,2,0,B|164:75|152:91|124:94,1,59.9999981689454,0|0,0:0|3:0,0:0:0:0:
206,33,61277,2,0,B|239:31|251:47|279:50,1,59.9999981689454
257,193,61497,2,0,P|247:161|242:123,1,59.9999981689454,8|0,0:1|0:0,0:0:0:0:
217,286,61718,6,0,P|226:257|231:227,1,59.9999981689454,0|0,3:0|0:0,0:0:0:0:
323,269,61939,1,2,0:3:0:0:
323,269,62012,1,2,0:3:0:0:
323,269,62086,1,2,0:3:0:0:
323,269,62159,2,0,P|343:291|366:310,1,59.9999981689454,2|0,0:3|0:0,0:0:0:0:
287,358,62380,2,0,P|257:364|229:374,1,59.9999981689454,0|0,3:0|0:0,0:0:0:0:
349,173,62600,5,8,0:1:0:0:
242,134,62821,2,0,B|191:139|174:101|113:115,1,119.999996337891,0|0,3:0|0:0,0:0:0:0:
125,112,63152,1,4,0:3:0:0:
130,77,63262,2,0,B|181:82|198:44|259:58,1,119.999996337891,0|0,0:0|3:0,0:0:0:0:
56,20,63703,5,8,0:1:0:0:
0,173,63924,1,0,3:0:0:0:
134,279,64144,1,8,0:1:0:0:
271,169,64365,1,0,3:0:0:0:
217,13,64586,1,8,0:1:0:0:
371,101,64806,6,0,B|352:117|355:142|363:176,1,59.9999981689454,0|0,3:0|0:0,0:0:0:0:
311,57,65027,2,0,B|330:73|327:98|319:132,1,59.9999981689454,0|0,0:0|3:0,0:0:0:0:
436,30,65247,2,0,P|410:46|391:92,1,59.9999981689454
271,169,65468,2,0,P|297:185|316:231,1,59.9999981689454,8|0,0:1|0:0,0:0:0:0:
400,246,65689,6,0,B|376:248|367:228|331:227,1,59.9999981689454,0|0,3:0|0:0,0:0:0:0:
303,317,65909,1,2,0:3:0:0:
303,317,65983,1,2,0:3:0:0:
303,317,66056,1,2,0:3:0:0:
303,317,66130,2,0,B|279:315|270:335|234:336,1,59.9999981689454,2|0,0:3|0:0,0:0:0:0:
212,239,66350,2,0,B|188:241|179:221|143:220,1,59.9999981689454,0|0,3:0|0:0,0:0:0:0:
5,283,66571,5,8,3:1:0:0:
49,194,66791,2,0,P|80:128|76:68,1,119.999996337891,0|0,3:0|0:0,0:0:0:0:
79,82,67122,1,12,0:3:0:0:
116,68,67233,2,0,P|182:99|242:95,1,119.999996337891,0|0,0:0|3:0,0:0:0:0:
311,20,67674,5,8,0:1:0:0:
282,191,67894,1,0,3:3:0:0:
448,207,68115,1,8,0:1:0:0:
493,29,68336,1,0,3:0:0:0:
405,58,68556,1,8,0:1:0:0:
496,299,68777,5,4,0:1:0:0:
480,296,70100,5,8,0:0:0:0:
432,320,70174,1,0,0:0:0:0:
379,312,70247,1,0,0:0:0:0:
349,267,70321,1,8,0:0:0:0:
309,231,70394,1,0,0:0:0:0:
255,226,70468,1,0,0:0:0:0:
212,257,70541,5,12,0:0:0:0:
158,258,70615,1,4,0:0:0:0:
133,217,70689,1,4,0:0:0:0:
144,179,70762,1,12,0:0:0:0:
171,159,70836,1,4,0:0:0:0:
182,135,70909,1,4,0:0:0:0:
174,118,70983,6,0,B|109:102|109:102|75:142|75:142|-16:177,1,200,8|8,0:0|0:0,0:0:0:0:
0,171,71314,1,2,0:0:0:0:
263,376,71534,5,8,0:0:0:0:
229,215,71644,1,8,0:0:0:0:
288,291,71755,6,0,B|357:233|423:260|441:342|544:275,1,239.999992675781,4|0,0:1|0:0,0:0:0:0:
318,76,72085,2,0,B|271:36|271:36|186:49,1,119.999996337891,8|0,0:0|0:0,0:0:0:0:
288,291,72306,2,0,B|335:331|335:331|420:318,1,119.999996337891
418,187,72526,5,8,0:0:0:0:
418,187,72581,1,0,0:0:0:0:
418,187,72637,2,0,P|425:127|438:68,1,119.999996337891,2|0,0:0|0:0,0:0:0:0:
318,76,72857,1,0,0:0:0:0:
225,120,72967,2,0,P|218:61|205:2,1,119.999996337891,8|0,0:0|0:0,0:0:0:0:
81,71,73188,5,0,0:0:0:0:
0,176,73298,1,0,0:0:0:0:
96,287,73409,1,8,0:0:0:0:
96,287,73464,1,0,0:0:0:0:
96,287,73519,2,0,B|56:251|56:251|68:182,1,119.999996337891,2|0,0:0|0:0,0:0:0:0:
206,150,73740,5,0,0:0:0:0:
311,133,73850,1,8,0:0:0:0:
348,235,73960,1,0,0:0:0:0:
145,215,74070,5,0,0:0:0:0:
114,83,74181,1,0,0:0:0:0:
3,152,74291,1,8,0:0:0:0:
3,152,74346,1,0,0:0:0:0:
3,152,74401,2,0,B|54:137|72:200|134:184,1,119.999996337891,2|0,0:0|0:0,0:0:0:0:
367,265,74622,5,2,0:0:0:0:
461,158,74732,1,8,0:0:0:0:
336,85,74842,2,0,B|285:70|267:133|204:117,1,119.999996337891,2|0,0:0|0:0,0:0:0:0:
62,277,75063,5,0,0:0:0:0:
19,54,75173,1,8,0:0:0:0:
145,215,75284,6,0,B|203:201|313:271|223:396,1,239.999992675781,4|0,0:1|0:0,0:0:0:0:
472,356,75615,2,0,B|413:339|413:339|345:386,1,119.999996337891,8|0,0:0|0:0,0:0:0:0:
293,158,75835,2,0,B|352:175|352:175|420:128,1,119.999996337891
391,43,76056,1,8,0:0:0:0:
246,84,76166,6,0,P|259:143|265:205,1,119.999996337891,2|0,0:0|0:0,0:0:0:0:
145,215,76387,1,0,0:0:0:0:
75,144,76497,2,0,P|80:84|93:25,1,119.999996337891,8|0,0:0|0:0,0:0:0:0:
11,337,76717,5,0,0:0:0:0:
114,289,76828,1,0,0:0:0:0:
253,369,76938,1,8,0:0:0:0:
253,369,76993,1,0,0:0:0:0:
253,369,77048,2,0,P|269:247|124:213,1,239.999992675781,2|0,0:0|0:0,0:0:0:0:
258,8,77379,5,8,0:0:0:0:
382,117,77490,1,0,0:0:0:0:
257,122,77600,1,0,0:0:0:0:
376,1,77710,1,0,0:0:0:0:
484,147,77820,5,8,0:0:0:0:
484,147,77876,1,0,0:0:0:0:
484,147,77931,2,0,P|469:208|460:281,1,119.999996337891,2|0,0:0|0:0,0:0:0:0:
19,286,78151,1,0,0:0:0:0:
187,205,78262,1,8,0:0:0:0:
75,134,78372,2,0,P|90:195|99:268,1,119.999996337891,2|0,0:0|0:0,0:0:0:0:
500,339,78592,5,8,0:0:0:0:
267,277,78703,1,8,0:0:0:0:
400,231,78813,2,0,B|388:162|417:126|417:126|402:85|402:85|447:53|451:-35,1,239.999992675781,4|0,0:1|0:0,0:0:0:0:
145,51,79144,6,0,B|104:73|104:73|3:36,1,119.999996337891,8|0,0:0|0:0,0:0:0:0:
267,277,79365,2,0,B|308:255|308:255|376:280,1,119.999996337891
214,363,79585,1,8,0:0:0:0:
38,331,79695,6,0,P|60:258|79:89,1,239.999992675781,2|0,0:0|0:0,0:0:0:0:
236,11,80026,2,0,P|281:67|252:139,1,119.999996337891,8|0,0:0|0:0,0:0:0:0:
267,277,80247,1,0,0:0:0:0:
176,245,80357,1,0,0:0:0:0:
174,146,80467,1,8,0:0:0:0:
267,277,80578,6,0,B|339:322|404:273|380:185|518:178,1,239.999992675781,2|0,0:0|0:0,0:0:0:0:
236,11,80909,2,0,B|176:3|176:3|95:79,1,119.999996337891,8|0,0:0|0:0,0:0:0:0:
72,277,81129,2,0,B|132:285|132:285|213:209,1,119.999996337891
8,200,81350,1,8,0:0:0:0:
174,146,81460,6,0,B|230:194|230:194|200:400,1,239.999992675781,2|0,0:0|0:0,0:0:0:0:
456,297,81791,1,8,0:0:0:0:
366,268,81901,2,0,P|326:224|366:146,1,119.999996337891
512,42,82122,1,0,0:0:0:0:
429,155,82232,1,8,0:0:0:0:
365,23,82342,6,0,B|249:-6|237:104|114:73,1,239.999992675781,4|0,0:1|0:0,0:0:0:0:
219,265,82673,2,0,L|230:432,1,119.999996337891,8|0,0:0|0:0,0:0:0:0:
35,120,82894,2,0,L|46:-47,1,119.999996337891
10,224,83115,1,8,0:0:0:0:
195,171,83225,6,0,P|321:232|310:338,1,239.999992675781,2|0,0:0|0:0,0:0:0:0:
512,184,83556,2,0,B|444:208|444:208|373:164,1,119.999996337891,8|0,0:0|0:0,0:0:0:0:
356,29,83776,1,0,0:0:0:0:
256,50,83887,1,0,0:0:0:0:
163,72,83997,1,8,0:0:0:0:
28,21,84107,6,0,B|30:66|59:107|59:107|30:140|30:140|57:183|46:283,1,239.999992675781,2|0,0:0|0:0,0:0:0:0:
311,359,84438,5,8,0:0:0:0:
367,269,84548,1,0,0:0:0:0:
284,213,84659,1,0,0:0:0:0:
409,3,84769,5,0,0:0:0:0:
295,115,84879,1,8,0:0:0:0:
459,211,84990,2,0,B|499:172|499:172|489:82,1,119.999996337891,4|0,0:1|0:0,0:0:0:0:
34,81,85210,5,0,0:0:0:0:
203,179,85320,1,8,0:0:0:0:
46,333,85431,2,0,B|6:294|6:294|16:204,1,119.999996337891,2|0,0:0|0:0,0:0:0:0:
409,3,85651,5,0,0:0:0:0:
288,21,85762,1,8,0:0:0:0:
161,37,85872,1,2,0:0:0:0:
141,234,86865,5,8,0:0:0:0:
268,74,86975,1,8,0:0:0:0:
350,259,87085,1,8,0:0:0:0:
121,93,87195,5,2,0:0:0:0:
126,83,87416,1,2,0:0:0:0:
130,74,87637,1,2,0:0:0:0:
213,161,87747,6,0,B|258:165|258:165|270:148|270:148|358:121,1,110.000003356934,10|0,0:0|0:0,0:0:0:0:
496,196,87967,1,10,0:0:0:0:
449,284,88077,2,0,B|404:288|404:288|392:271|392:271|304:244,1,110.000003356934,0|10,0:0|0:0,0:0:0:0:
264,352,88298,1,0,0:0:0:0:
124,203,88408,5,10,0:0:0:0:
145,323,88519,1,0,0:0:0:0:
35,284,88629,1,10,0:0:0:0:
231,232,88739,5,0,0:0:0:0:
192,105,88849,1,10,0:0:0:0:
307,146,88960,1,0,0:0:0:0:
156,5,89070,6,0,B|116:63|116:63|142:107|142:107|117:154|125:253,1,220.000006713867,10|10,0:0|0:0,0:0:0:0:
24,306,89401,2,0,B|-9:263|-9:263|18:178,1,110.000003356934,0|10,0:0|0:0,0:0:0:0:
114,180,89622,1,0,0:0:0:0:
200,324,89732,2,0,B|239:286|239:286|225:198,1,110.000003356934,10|0,0:0|0:0,0:0:0:0:
308,64,89952,5,12,0:1:0:0:
512,149,90063,1,0,0:0:0:0:
307,191,90173,5,12,0:1:0:0:
435,39,90283,1,0,0:0:0:0:
413,257,90394,6,0,B|417:239|433:218|433:218|444:174|395:111,1,110.000003356934,10|0,0:0|0:0,0:0:0:0:
203,127,90614,1,10,0:0:0:0:
308,64,90724,2,0,B|304:82|288:103|288:103|277:147|326:210,1,110.000003356934,0|10,0:0|0:0,0:0:0:0:
223,235,90945,1,0,0:0:0:0:
98,105,91055,2,0,B|102:87|118:66|118:66|129:22|80:-41,1,110.000003356934,10|0,0:0|0:0,0:0:0:0:
6,237,91276,1,10,0:0:0:0:
223,235,91386,5,0,0:0:0:0:
130,328,91497,1,10,0:0:0:0:
86,203,91607,1,0,0:0:0:0:
219,322,91717,5,10,0:0:0:0:
164,163,91827,1,0,0:0:0:0:
51,285,91938,1,10,0:0:0:0:
223,235,92048,6,0,B|264:211|264:211|299:228|299:228|330:192|384:192|384:192|419:230|484:221,1,259.999988098145,4|0,0:1|0:0,0:0:0:0:
374,62,92379,5,8,0:0:0:0:
340,170,92489,1,0,0:0:0:0:
188,68,92599,5,8,0:0:0:0:
270,101,92710,1,0,0:0:0:0:
164,163,92820,5,8,0:0:0:0:
158,162,92875,1,8,0:0:0:0:
152,161,92930,1,0,0:0:0:0:
146,160,92985,1,0,0:0:0:0:
140,159,93041,2,0,P|147:191|152:218,3,55.0000016784668,4|4|0|0,0:0|0:0|0:0|0:0,0:0:0:0:
122,130,93261,5,8,0:0:0:0:
101,129,93316,1,8,0:0:0:0:
79,127,93372,1,0,0:0:0:0:
58,126,93427,1,0,0:0:0:0:
37,125,93482,1,12,0:1:0:0:
68,35,93592,1,0,0:0:0:0:
45,221,93702,6,0,B|86:205|86:205|119:219|181:208,1,110.000003356934,10|0,0:0|0:0,0:0:0:0:
305,270,93923,1,10,0:0:0:0:
269,367,94033,2,0,B|228:351|228:351|195:365|133:354,1,110.000003356934,0|10,0:0|0:0,0:0:0:0:
248,201,94254,1,0,0:0:0:0:
380,341,94364,5,10,0:0:0:0:
455,267,94474,1,0,0:0:0:0:
378,201,94585,1,10,0:0:0:0:
397,59,94695,5,0,0:0:0:0:
465,140,94805,1,10,0:0:0:0:
378,201,94916,1,0,0:0:0:0:
283,75,95026,6,0,B|198:59|198:59|151:22|151:22|107:38|48:35,1,220.000006713867,10|10,0:0|0:0,0:0:0:0:
214,194,95357,2,0,B|254:167|254:167|300:180|355:163,1,110.000003356934,0|10,0:0|0:0,0:0:0:0:
176,287,95577,1,0,0:0:0:0:
95,173,95688,2,0,B|68:132|68:132|20:127|-24:91,1,110.000003356934,10|0,0:0|0:0,0:0:0:0:
72,347,95908,5,12,0:1:0:0:
214,194,96019,1,0,0:0:0:0:
26,251,96129,5,12,0:1:0:0:
195,382,96239,1,0,0:0:0:0:
214,194,96349,6,0,B|201:158|219:118|219:118|191:92|159:100,1,110.000003356934,10|0,0:0|0:0,0:0:0:0:
371,19,96570,1,10,0:0:0:0:
396,122,96680,2,0,B|433:128|459:164|459:164|495:153|504:121,1,110.000003356934,0|10,0:0|0:0,0:0:0:0:
512,258,96901,1,0,0:0:0:0:
365,310,97011,2,0,B|340:339|296:343|296:343|288:380|311:404,1,110.000003356934,10|0,0:0|0:0,0:0:0:0:
283,108,97232,5,10,0:0:0:0:
325,211,97342,1,0,0:0:0:0:
293,92,97452,1,10,0:0:0:0:
309,223,97563,1,0,0:0:0:0:
149,216,97673,5,10,0:0:0:0:
267,150,97784,1,0,0:0:0:0:
195,25,97894,1,10,0:0:0:0:
116,130,98004,6,0,B|77:165|77:165|101:207|101:207|48:243|32:321|75:395,1,259.999988098145,4|8,0:1|0:0,0:0:0:0:
377,346,98335,5,8,0:0:0:0:
215,264,98445,1,8,0:0:0:0:
384,229,98555,1,8,0:0:0:0:
259,362,98666,1,8,0:0:0:0:
290,184,98776,1,2,0:0:0:0:
308,277,98886,5,0,0:0:0:0:
370,113,98997,1,8,0:0:0:0:
186,138,99107,1,8,0:0:0:0:
384,229,99217,5,8,0:0:0:0:
272,62,99327,1,8,0:0:0:0:
174,248,99438,2,0,P|187:311|201:393,1,110.000003356934,8|8,0:0|0:0,0:0:0:0:
24,68,99658,5,4,0:1:0:0:
54,42,99769,1,0,0:0:0:0:
93,45,99879,1,0,0:0:0:0:
156,112,99989,5,4,0:0:0:0:
186,138,100100,1,0,0:0:0:0:
225,135,100210,1,0,0:0:0:0:
272,62,100320,5,4,0:0:0:0:
302,36,100431,1,0,0:0:0:0:
341,39,100541,1,0,0:0:0:0:
398,113,100651,5,4,0:0:0:0:
428,139,100762,1,0,0:0:0:0:
467,136,100872,1,0,0:0:0:0:
445,234,100982,5,4,0:0:0:0:
370,231,101092,1,4,0:0:0:0:
294,253,101203,1,8,0:0:0:0:
215,252,101313,1,4,0:0:0:0:
138,286,101423,5,4,0:1:0:0:
135,305,101534,1,0,0:0:0:0:
133,324,101644,1,0,0:0:0:0:
46,254,101754,5,4,0:0:0:0:
44,235,101864,1,0,0:0:0:0:
41,216,101975,1,0,0:0:0:0:
131,166,102085,5,4,0:0:0:0:
133,147,102195,1,0,0:0:0:0:
136,128,102306,1,0,0:0:0:0:
38,106,102416,5,4,0:0:0:0:
36,87,102526,1,0,0:0:0:0:
33,68,102637,1,0,0:0:0:0:
121,24,102747,5,4,0:0:0:0:
196,6,102857,1,4,0:0:0:0:
266,37,102967,1,8,0:0:0:0:
286,112,103078,1,0,0:0:0:0:
264,209,103188,5,4,0:1:0:0:
307,233,103298,1,0,0:0:0:0:
352,213,103409,1,0,0:0:0:0:
394,127,103519,5,4,0:0:0:0:
437,103,103629,1,0,0:0:0:0:
482,123,103740,1,0,0:0:0:0:
489,204,103850,5,4,0:0:0:0:
446,228,103960,1,0,0:0:0:0:
401,208,104071,1,0,0:0:0:0:
346,129,104181,5,4,0:0:0:0:
303,105,104291,1,0,0:0:0:0:
258,125,104402,1,0,0:0:0:0:
174,144,104511,5,4,0:0:0:0:
186,217,104622,1,4,0:0:0:0:
197,290,104732,1,8,0:0:0:0:
206,362,104842,1,4,0:0:0:0:
295,379,104953,5,4,0:1:0:0:
335,334,105063,1,0,0:0:0:0:
325,274,105173,1,0,0:0:0:0:
234,236,105284,5,4,0:0:0:0:
194,191,105394,1,0,0:0:0:0:
204,131,105504,1,0,0:0:0:0:
257,50,105614,5,4,0:0:0:0:
317,45,105725,1,0,0:0:0:0:
376,37,105835,1,0,0:0:0:0:
453,91,105945,5,4,0:0:0:0:
478,145,106056,1,0,0:0:0:0:
505,198,106166,1,0,0:0:0:0:
451,277,106276,6,0,L|446:343,3,50,8|8|0|0,0:0|0:0|0:0|0:0,0:0:0:0:
418,263,106497,1,12,0:1:0:0:
90,355,106717,5,4,0:1:0:0:
21,287,106828,1,8,0:0:0:0:
54,197,106938,2,0,B|93:177|93:177|188:210,1,119.999996337891,0|8,0:0|0:0,0:0:0:0:
336,115,107159,5,2,0:0:0:0:
363,29,107269,1,8,0:0:0:0:
358,123,107379,1,0,0:0:0:0:
341,22,107489,1,8,0:0:0:0:
255,73,107600,2,0,P|262:149|272:227,1,119.999996337891,2|8,0:0|0:0,0:0:0:0:
501,359,107820,5,0,0:0:0:0:
351,334,107931,1,8,0:0:0:0:
460,286,108041,2,0,P|466:226|472:166,1,119.999996337891,2|8,0:0|0:0,0:0:0:0:
255,73,108261,2,0,B|293:99|293:99|404:68,1,119.999996337891,0|8,0:0|0:0,0:0:0:0:
189,343,108482,5,4,0:1:0:0:
80,223,108592,1,8,0:0:0:0:
223,196,108703,1,0,0:0:0:0:
153,266,108813,2,0,P|86:254|19:251,1,119.999996337891,8|0,0:0|0:0,0:0:0:0:
47,9,109034,5,8,0:0:0:0:
112,131,109144,1,0,0:0:0:0:
188,10,109254,1,8,0:0:0:0:
194,95,109364,5,2,0:0:0:0:
297,66,109475,1,10,0:0:0:0:
327,167,109585,1,2,0:0:0:0:
223,196,109695,1,10,0:0:0:0:
348,133,109805,5,2,0:0:0:0:
442,203,109916,1,10,0:0:0:0:
367,297,110026,1,2,0:0:0:0:
278,226,110136,1,10,0:0:0:0:
191,342,110247,6,0,P|121:332|57:321,1,119.999996337891,4|8,0:1|0:0,0:0:0:0:
229,151,110467,2,0,P|299:141|363:130,1,119.999996337891,0|8,0:0|0:0,0:0:0:0:
90,36,110688,5,2,0:0:0:0:
39,130,110798,1,8,0:0:0:0:
16,56,110909,1,0,0:0:0:0:
117,107,111019,1,8,0:0:0:0:
25,211,111129,6,0,B|24:262|24:262|11:285|11:285|5:353,1,119.999996337891,2|8,0:0|0:0,0:0:0:0:
304,232,111350,1,0,0:0:0:0:
155,201,111460,1,8,0:0:0:0:
229,151,111570,2,0,B|230:100|230:100|243:77|243:77|249:9,1,119.999996337891,2|8,0:0|0:0,0:0:0:0:
396,196,111791,2,0,B|397:247|397:247|410:270|410:270|416:338,1,119.999996337891,0|8,0:0|0:0,0:0:0:0:
145,373,112011,5,4,0:1:0:0:
83,245,112122,1,8,0:0:0:0:
14,343,112232,1,0,0:0:0:0:
237,238,112342,5,8,0:0:0:0:
160,204,112453,1,0,0:0:0:0:
328,223,112563,5,8,0:0:0:0:
229,348,112673,1,0,0:0:0:0:
160,204,112784,1,8,0:0:0:0:
333,320,112894,5,2,0:0:0:0:
420,252,113004,1,10,0:0:0:0:
387,148,113114,1,2,0:0:0:0:
296,303,113225,5,10,0:0:0:0:
439,274,113335,1,2,0:0:0:0:
419,123,113445,1,10,0:0:0:0:
380,323,113556,5,2,0:0:0:0:
310,131,113666,1,10,0:0:0:0:
229,171,113776,6,0,P|224:209|221:244,3,59.9999981689454,8|0|0|0,0:0|0:0|0:0|0:0,0:0:0:0:
201,139,113997,1,0,0:0:0:0:
200,133,114052,1,0,0:0:0:0:
199,127,114107,1,0,0:0:0:0:
198,121,114162,1,0,0:0:0:0:
197,115,114217,1,0,0:0:0:0:
195,109,114272,1,0,0:0:0:0:
194,102,114328,1,0,0:0:0:0:
193,96,114383,1,0,0:0:0:0:
192,90,114438,1,0,0:0:0:0:
191,84,114493,1,0,0:0:0:0:
190,78,114548,1,0,0:0:0:0:
189,72,114603,1,0,0:0:0:0:
188,65,114659,5,8,0:0:0:0:
0,329,114879,2,0,P|48:336|101:173,1,239.999992675781,8|2,0:0|0:0,0:0:0:0:
127,174,115155,1,2,0:0:0:0:
127,174,115210,2,0,B|74:183|74:183|18:145,1,100,2|2,0:0|0:0,0:0:0:0:
234,304,115431,6,0,B|314:260|375:328|385:383|478:347,1,239.999992675781,4|0,0:1|0:0,0:0:0:0:
504,153,115761,1,8,0:0:0:0:
409,198,115872,1,0,0:0:0:0:
338,126,115982,2,0,P|340:63|353:4,1,119.999996337891
167,211,116203,5,8,0:0:0:0:
167,211,116258,1,0,0:0:0:0:
167,211,116313,2,0,P|103:203|5:199,1,119.999996337891,2|0,0:0|0:0,0:0:0:0:
58,101,116534,1,0,0:0:0:0:
117,13,116644,2,0,P|181:5|279:1,1,119.999996337891,8|0,0:0|0:0,0:0:0:0:
252,258,116864,5,0,0:0:0:0:
171,124,116975,1,0,0:0:0:0:
123,306,117085,1,8,0:0:0:0:
123,306,117140,1,0,0:0:0:0:
123,306,117195,2,0,P|179:314|273:326,1,119.999996337891,2|0,0:0|0:0,0:0:0:0:
448,305,117416,5,0,0:0:0:0:
469,187,117526,1,8,0:0:0:0:
333,188,117636,1,0,0:0:0:0:
454,90,117747,5,0,0:0:0:0:
400,218,117857,1,0,0:0:0:0:
432,69,117967,1,8,0:0:0:0:
432,69,118022,1,0,0:0:0:0:
432,69,118078,2,0,P|392:32|321:36,1,119.999996337891,2|0,0:0|0:0,0:0:0:0:
94,54,118298,5,2,0:0:0:0:
152,214,118409,1,8,0:0:0:0:
9,185,118519,2,0,P|49:148|120:152,1,119.999996337891,2|0,0:0|0:0,0:0:0:0:
389,150,118739,5,0,0:0:0:0:
330,373,118850,1,8,0:0:0:0:
462,244,118960,6,0,B|343:210|333:312|231:284,1,239.999992675781,4|0,0:1|0:0,0:0:0:0:
56,260,119291,2,0,B|93:304|93:304|66:394,1,119.999996337891,8|0,0:0|0:0,0:0:0:0:
155,103,119511,2,0,B|118:59|118:59|145:-31,1,119.999996337891
220,31,119732,1,8,0:0:0:0:
312,114,119842,6,0,P|306:175|296:240,1,119.999996337891,2|0,0:0|0:0,0:0:0:0:
147,196,120063,1,0,0:0:0:0:
41,140,120173,2,0,P|47:201|57:266,1,119.999996337891,8|0,0:0|0:0,0:0:0:0:
210,318,120394,5,0,0:0:0:0:
297,233,120504,1,0,0:0:0:0:
436,317,120614,1,8,0:0:0:0:
436,317,120670,1,0,0:0:0:0:
436,317,120725,2,0,P|476:257|361:157,1,239.999992675781,2|0,0:0|0:0,0:0:0:0:
149,21,121056,5,8,0:0:0:0:
165,164,121166,1,0,0:0:0:0:
305,71,121276,1,0,0:0:0:0:
212,84,121386,1,0,0:0:0:0:
297,233,121497,5,8,0:0:0:0:
147,282,121607,2,0,P|154:220|173:127,1,119.999996337891,2|0,0:0|0:0,0:0:0:0:
491,125,121828,1,0,0:0:0:0:
305,71,121938,1,8,0:0:0:0:
401,2,122048,2,0,P|408:64|427:157,1,119.999996337891,2|0,0:0|0:0,0:0:0:0:
28,298,122269,5,8,0:0:0:0:
257,242,122379,1,8,0:0:0:0:
164,163,122489,2,0,B|142:217|149:278|149:278|113:310|113:310|122:359|111:434,1,239.999992675781,4|0,0:1|0:0,0:0:0:0:
113,56,122820,6,0,P|167:15|246:69,1,119.999996337891,8|0,0:0|0:0,0:0:0:0:
101,245,123041,2,0,P|47:204|-32:258,1,119.999996337891
116,384,123261,1,8,0:0:0:0:
275,358,123372,6,0,P|262:277|242:108,1,239.999992675781,2|0,0:0|0:0,0:0:0:0:
378,35,123703,2,0,B|429:21|429:21|514:61,1,119.999996337891,8|0,0:0|0:0,0:0:0:0:
339,139,123923,1,0,0:0:0:0:
243,120,124034,1,0,0:0:0:0:
145,99,124144,1,8,0:0:0:0:
49,192,124254,6,0,P|146:146|97:25,1,239.999992675781,2|0,0:0|0:0,0:0:0:0:
193,258,124585,2,0,B|212:314|212:314|179:380,1,119.999996337891,8|0,0:0|0:0,0:0:0:0:
339,139,124806,2,0,B|320:83|320:83|353:17,1,119.999996337891
429,83,125026,1,8,0:0:0:0:
510,195,125136,6,0,B|418:159|384:284|272:238,1,239.999992675781,2|0,0:0|0:0,0:0:0:0:
29,213,125467,1,8,0:0:0:0:
122,130,125578,2,0,P|141:177|138:288,1,119.999996337891
312,343,125798,5,0,0:0:0:0:
146,245,125909,1,8,0:0:0:0:
284,242,126019,6,0,P|299:151|371:11,1,239.999992675781,4|0,0:1|0:0,0:0:0:0:
503,210,126350,2,0,B|438:223|438:223|372:161,1,119.999996337891,8|0,0:0|0:0,0:0:0:0:
180,43,126570,2,0,B|245:30|245:30|311:92,1,119.999996337891
216,172,126791,1,8,0:0:0:0:
97,87,126901,6,0,P|37:100|35:271,1,239.999992675781,2|0,0:0|0:0,0:0:0:0:
168,378,127232,2,0,L|152:251,1,119.999996337891,8|0,0:0|0:0,0:0:0:0:
358,86,127453,1,0,0:0:0:0:
462,98,127563,1,0,0:0:0:0:
479,198,127673,1,8,0:0:0:0:
371,272,127784,6,0,B|287:234|287:234|248:268|248:268|150:258,1,239.999992675781,2|0,0:0|0:0,0:0:0:0:
29,72,128114,5,8,0:0:0:0:
131,113,128225,1,0,0:0:0:0:
181,14,128335,1,0,0:0:0:0:
443,191,128445,5,0,0:0:0:0:
293,76,128556,1,8,0:0:0:0:
497,0,128666,2,0,P|505:64|515:156,1,119.999996337891,4|0,0:1|0:0,0:0:0:0:
88,295,128886,5,0,0:0:0:0:
269,174,128997,1,8,0:0:0:0:
29,72,129107,2,0,P|21:136|11:228,1,119.999996337891,4|0,0:1|0:0,0:0:0:0:
488,295,129328,5,0,0:0:0:0:
356,317,129438,1,8,0:0:0:0:
226,335,129548,1,2,0:0:0:0:
475,106,130541,5,8,0:0:0:0:
328,275,130651,1,8,0:0:0:0:
254,68,130761,1,8,0:0:0:0:
97,179,130872,5,2,0:0:0:0:
81,176,131092,1,2,0:0:0:0:
67,175,131313,1,2,0:0:0:0:
107,42,131423,5,2,0:0:0:0:
382,33,134953,5,8,0:0:0:0:
349,341,135284,1,8,0:0:0:0:
349,341,135504,1,8,0:0:0:0:
349,341,135725,1,0,0:0:0:0:
174,344,135835,5,8,0:0:0:0:
121,34,136166,1,8,0:0:0:0:
121,34,136386,1,8,0:0:0:0:
121,34,136607,1,0,0:0:0:0:
45,130,136717,5,8,0:0:0:0:
433,255,137048,1,8,0:0:0:0:
433,255,137269,1,8,0:0:0:0:
433,255,137489,1,0,0:0:0:0:
405,127,137600,5,8,0:0:0:0:
303,242,137710,1,8,0:0:0:0:
246,100,137820,1,8,0:0:0:0:
369,50,137931,6,0,B|389:101|389:101|372:133|372:133|389:163|392:228,1,160,8|8,0:0|0:0,0:0:0:0:
410,219,138206,1,0,0:0:0:0:
433,230,138261,1,0,0:0:0:0:
493,163,138372,1,8,0:0:0:0:
452,349,138482,6,0,B|406:325|406:325|368:345|368:345|311:291|197:316,1,239.999992675781,4|8,0:1|0:0,0:0:0:0:
44,359,138813,2,0,B|97:336|97:336|128:235,1,119.999996337891
36,191,139034,1,0,0:0:0:0:
106,57,139144,1,10,0:0:0:0:
153,61,139217,1,2,0:0:0:0:
185,96,139291,1,2,0:0:0:0:
180,143,139364,6,0,B|166:164|135:165|135:165|64:113|109:53|109:53|149:35|144:-16,1,239.999992675781,2|8,0:0|0:0,0:0:0:0:
238,28,139695,1,0,0:0:0:0:
363,177,139806,5,2,0:0:0:0:
385,13,139916,1,0,0:0:0:0:
291,83,140026,1,10,0:0:0:0:
453,106,140136,1,0,0:0:0:0:
301,234,140247,5,2,0:0:0:0:
279,162,140357,1,0,0:0:0:0:
246,301,140467,5,8,0:0:0:0:
279,162,140578,1,2,0:0:0:0:
136,197,140688,5,0,0:0:0:0:
194,144,140798,1,0,0:0:0:0:
163,278,140909,5,10,0:0:0:0:
194,144,141019,1,0,0:0:0:0:
39,191,141129,5,2,0:0:0:0:
163,278,141239,1,0,0:0:0:0:
43,329,141350,1,8,0:0:0:0:
136,197,141460,5,0,0:0:0:0:
272,271,141570,1,2,0:0:0:0:
160,362,141681,1,0,0:0:0:0:
257,190,141791,5,8,0:0:0:0:
389,268,141901,1,0,0:0:0:0:
281,355,142012,1,2,0:0:0:0:
194,307,142122,5,0,0:0:0:0:
272,271,142232,1,8,0:0:0:0:
161,168,142342,5,2,0:0:0:0:
136,242,142453,1,0,0:0:0:0:
79,178,142563,1,0,0:0:0:0:
294,193,142673,5,10,0:0:0:0:
234,146,142784,1,0,0:0:0:0:
377,91,142894,5,2,0:0:0:0:
370,167,143004,1,0,0:0:0:0:
441,135,143114,1,8,0:0:0:0:
322,34,143225,5,2,0:0:0:0:
245,71,143335,1,0,0:0:0:0:
256,0,143445,1,0,0:0:0:0:
165,100,143556,5,10,0:0:0:0:
141,101,143629,1,2,0:0:0:0:
116,103,143703,1,2,0:0:0:0:
89,80,143776,6,0,B|45:45|45:45|-18:109|10:185|10:185|84:240|61:363,1,359.999989013672,2|0,0:0|0:0,0:0:0:0:
176,348,144217,1,0,0:0:0:0:
283,195,144328,5,2,0:0:0:0:
168,232,144438,1,8,0:0:0:0:
286,376,144548,5,0,0:0:0:0:
364,288,144659,1,2,0:0:0:0:
398,268,144732,1,2,0:0:0:0:
436,278,144806,1,2,0:0:0:0:
457,311,144879,2,0,B|414:295|414:295|393:308|393:308|314:301,1,119.999996337891,2|0,0:0|0:0,0:0:0:0:
168,232,145100,5,8,0:0:0:0:
115,91,145210,1,8,0:0:0:0:
283,195,145320,5,8,0:0:0:0:
294,16,145431,1,8,0:0:0:0:
443,125,145541,5,2,0:0:0:0:
393,155,145614,1,2,0:0:0:0:
337,136,145688,1,2,0:0:0:0:
308,89,145761,2,0,P|311:32|400:17,1,119.999996337891,10|0,0:0|0:0,0:0:0:0:
283,195,145982,5,2,0:0:0:0:
284,200,146037,1,0,0:0:0:0:
284,205,146092,1,0,0:0:0:0:
285,210,146147,1,0,0:0:0:0:
286,215,146203,2,0,P|283:255|280:300,3,59.9999981689454,8|0|2|0,0:0|0:0|0:0|0:0,0:0:0:0:
214,162,146423,5,2,0:0:0:0:
202,159,146478,1,0,0:0:0:0:
190,156,146534,1,0,0:0:0:0:
178,155,146589,1,0,0:0:0:0:
171,166,146644,5,10,0:0:0:0:
160,167,146699,1,0,0:0:0:0:
151,166,146754,1,0,0:0:0:0:
143,167,146809,1,0,0:0:0:0:
129,152,146864,5,2,0:0:0:0:
117,149,146919,1,0,0:0:0:0:
105,146,146975,1,0,0:0:0:0:
93,145,147030,1,0,0:0:0:0:
86,156,147085,5,10,0:0:0:0:
75,157,147140,1,0,0:0:0:0:
66,156,147195,1,0,0:0:0:0:
58,157,147250,1,0,0:0:0:0:
47,152,147306,6,0,P|53:196|63:255,2,79.9999975585938,2|0|0,0:0|0:0|0:0,0:0:0:0:
21,326,147526,2,0,P|27:282|37:223,2,79.9999975585938,10|0|0,0:0|0:0|0:0,0:0:0:0:
123,372,147747,5,2,0:0:0:0:
170,360,147820,1,0,0:0:0:0:
210,381,147894,1,0,0:0:0:0:
253,384,147967,1,10,0:0:0:0:
275,359,148041,1,0,0:0:0:0:
304,352,148114,1,0,0:0:0:0:
356,329,148188,5,6,0:0:0:0:
285,319,148261,1,4,0:0:0:0:
239,262,148335,1,4,0:0:0:0:
243,189,148409,1,14,0:0:0:0:
287,133,148482,1,4,0:0:0:0:
358,121,148556,1,4,0:0:0:0:
425,145,148629,2,0,B|501:78|434:-26|334:6|334:6|314:84|220:82,1,359.999989013672,6|0,0:0|0:0,0:0:0:0:
133,320,149070,5,2,0:0:0:0:
38,272,149181,1,0,0:0:0:0:
71,172,149291,1,10,0:0:0:0:
239,285,149401,5,0,0:0:0:0:
353,245,149511,1,2,0:0:0:0:
309,124,149622,1,0,0:0:0:0:
161,219,149732,5,10,0:0:0:0:
41,133,149842,1,0,0:0:0:0:
120,15,149953,2,0,B|174:31|174:31|199:140,1,119.999996337891,2|0,0:0|0:0,0:0:0:0:
456,235,150173,2,0,P|396:228|317:216,1,119.999996337891,10|0,0:0|0:0,0:0:0:0:
125,378,150394,5,0,0:0:0:0:
34,247,150504,2,0,P|93:240|173:228,1,119.999996337891,2|8,0:0|0:0,0:0:0:0:
333,0,150725,5,0,0:0:0:0:
405,131,150835,2,0,P|345:138|266:150,1,119.999996337891,2|0,0:0|0:0,0:0:0:0:
25,234,151056,5,8,0:0:0:0:
54,70,151166,2,0,P|162:97|146:227,1,239.999992675781,2|0,0:0|0:0,0:0:0:0:
263,363,151497,2,0,P|257:302|246:208,1,119.999996337891,10|0,0:0|0:0,0:0:0:0:
409,64,151717,5,10,0:0:0:0:
346,227,151828,1,8,0:0:0:0:
285,95,151938,1,8,0:0:0:0:
120,167,152048,5,8,0:0:0:0:
183,54,152159,1,8,0:0:0:0:
250,242,152269,1,8,0:0:0:0:
413,183,152379,5,8,0:0:0:0:
217,157,152489,1,8,0:0:0:0:
263,363,152600,6,0,B|282:348|308:360|308:360|316:367|336:381|336:381|345:361|376:359|376:359|392:330|392:330|410:336|410:336|432:330|460:342|460:342|481:314|474:293|474:293|485:273|475:244|475:244|485:228|513:224,1,359.999989013672,2|0,0:0|2:0,0:0:0:0:
145,310,153372,6,0,B|60:316|17:222|31:175|31:175|21:173|21:173|25:108|66:58|133:45|133:45|138:36|138:36|255:15|305:120,1,599.999981689454,4|0,0:1|2:0,0:0:0:0:
161,208,154034,6,0,B|130:196|130:196|98:202|98:202|68:173|68:173|39:180|7:178,1,160,2|0,2:2|2:2,2:2:0:0:
399,32,154364,6,0,B|420:38|420:38|432:68|432:68|460:82|451:105|451:105|429:138|429:138|425:148|394:140|385:153|391:156|413:184|413:184|376:209|376:209|358:228|390:262|390:262|411:284|411:284|435:295,1,359.999989013672,2|0,0:0|2:0,0:0:0:0:
124,365,155136,6,0,B|106:303|17:276|17:276|113:283|174:224|174:224|104:223|63:168|63:168|120:172|147:127|147:127|107:108|95:85,1,599.999981689454,4|0,0:1|0:0,0:0:0:0:
180,25,155798,5,0,0:0:0:0:
254,34,155909,1,0,0:0:0:0:
330,42,156019,1,0,0:0:0:0:
417,16,156129,6,0,B|355:39|357:123|357:123|390:194,1,200,4|0,0:1|0:0,0:0:0:0:
353,350,156460,1,0,0:0:0:0:
437,327,156570,2,0,B|499:304|497:220|497:220|464:149,1,200,8|0,0:0|0:0,0:0:0:0:
290,137,156901,5,4,0:1:0:0:
167,186,157122,1,0,0:0:0:0:
45,133,157342,1,0,0:0:0:0:
2,210,157453,5,8,0:0:0:0:
72,266,157563,2,0,B|156:216|195:315|292:242,1,200
372,354,157894,6,0,B|298:340|299:245|299:245|332:207|332:170,1,200,4|0,0:1|0:0,0:0:0:0:
422,185,158225,1,0,0:0:0:0:
305,111,158335,5,8,0:0:0:0:
379,87,158445,1,0,0:0:0:0:
323,34,158556,1,0,0:0:0:0:
222,131,158666,6,0,B|296:145|295:240|295:240|262:278|262:315,1,200,4|0,0:1|0:0,0:0:0:0:
177,335,158997,1,0,0:0:0:0:
25,98,159217,5,8,0:0:0:0:
108,68,159328,1,8,0:0:0:0:
95,154,159438,1,2,0:0:0:0:
440,349,159659,6,0,B|453:317|439:292|469:243,1,80,4|0,3:1|0:0,0:0:0:0:
323,237,159879,2,0,B|310:205|324:180|294:131,1,80,0|0,0:0|3:0,0:0:0:0:
259,317,160100,2,0,B|291:330|316:316|365:346,1,80
438,88,160320,2,0,B|425:120|439:145|409:194,1,80,8|0,0:1|0:0,0:0:0:0:
268,161,160541,6,0,P|208:162|167:157,1,80,0|0,3:0|0:0,0:0:0:0:
93,224,160761,1,2,0:3:0:0:
93,224,160835,1,2,0:3:0:0:
93,224,160909,1,2,0:3:0:0:
93,224,160982,2,0,P|26:233|-19:245,1,80,2|0,0:3|0:0,0:0:0:0:
108,76,161203,2,0,P|68:68|28:64,1,80,0|0,3:0|0:0,0:0:0:0:
268,161,161423,5,8,0:1:0:0:
335,59,161644,2,0,B|433:46|407:127|473:117,1,160,0|0,3:0|0:0,0:0:0:0:
474,118,161975,1,12,3:0:0:0:
477,198,162085,2,0,B|409:188|430:264|336:256,1,160,0|0,3:0|3:0,0:0:0:0:
37,150,162526,5,8,0:1:0:0:
329,156,162747,1,0,3:0:0:0:
83,312,162967,1,8,0:1:0:0:
190,32,163188,1,0,3:0:0:0:
257,329,163409,1,8,0:1:0:0:
177,239,163629,6,0,P|212:241|276:253,1,80,4|0,3:1|0:0,0:0:0:0:
329,156,163850,2,0,P|364:154|428:142,1,80,0|0,0:0|3:0,0:0:0:0:
314,316,164070,2,0,B|297:281|314:256|271:215,1,80
120,93,164291,2,0,B|137:58|120:33|163:-8,1,80,8|0,0:1|0:0,0:0:0:0:
189,151,164511,6,0,B|221:162|226:196|208:235,1,80,0|0,3:0|0:0,0:0:0:0:
69,264,164732,1,0,0:0:0:0:
69,264,164842,1,2,0:3:0:0:
32,242,164953,2,0,B|25:208|52:187|95:183,1,80,2|0,0:3|0:0,0:0:0:0:
200,344,165173,2,0,B|174:366|142:353|117:318,1,80,0|0,3:0|0:0,0:0:0:0:
391,288,165394,5,8,0:1:0:0:
313,175,165614,2,0,P|324:98|358:21,1,160,0|0,3:0|0:0,0:0:0:0:
357,23,165945,1,12,0:3:0:0:
406,87,166056,2,0,P|327:101|248:93,1,160,0|0,0:0|3:0,0:0:0:0:
32,46,166497,5,8,0:1:0:0:
115,215,166717,1,4,0:3:0:0:
83,240,166828,1,4,0:3:0:0:
77,200,166938,1,4,0:3:0:0:
248,93,167159,5,8,0:1:0:0:
312,307,167379,1,4,0:3:0:0:
255,346,167490,1,4,0:3:0:0:
248,277,167600,5,14,0:1:0:0:
276,263,167710,1,0,0:0:0:0:
307,266,167820,1,0,0:0:0:0:
332,285,167931,1,0,0:0:0:0:
214,198,168041,5,10,0:0:0:0:
177,181,168151,1,0,0:0:0:0:
137,179,168261,1,0,0:0:0:0:
108,206,168372,1,0,0:0:0:0:
260,131,168482,5,10,0:0:0:0:
302,109,168592,1,0,0:0:0:0:
349,112,168702,1,0,0:0:0:0:
384,144,168813,1,0,0:0:0:0:
218,58,168923,5,10,0:0:0:0:
167,32,169034,1,0,0:0:0:0:
111,34,169144,1,0,0:0:0:0:
73,75,169254,1,0,0:0:0:0:
291,30,169364,5,10,0:0:0:0:
292,14,169475,1,0,0:0:0:0:
348,84,169585,5,4,0:1:0:0:
349,112,169695,1,0,0:0:0:0:
350,144,169806,1,8,0:0:0:0:
352,175,169916,1,0,0:0:0:0:
376,195,170026,5,2,0:0:0:0:
391,200,170136,1,0,0:0:0:0:
406,205,170247,1,8,0:0:0:0:
420,210,170357,1,0,0:0:0:0:
433,202,170467,5,2,0:0:0:0:
409,180,170578,1,0,0:0:0:0:
369,179,170688,1,8,0:0:0:0:
337,214,170798,1,0,0:0:0:0:
293,235,170909,1,2,0:0:0:0:
237,226,171019,1,0,0:0:0:0:
201,182,171129,1,8,0:0:0:0:
195,118,171239,1,0,0:0:0:0:
150,71,171350,1,2,0:0:0:0:
86,62,171460,1,0,0:0:0:0:
30,162,171570,5,14,0:1:0:0:
47,189,171681,1,0,0:0:0:0:
74,173,171791,1,0,0:0:0:0:
56,146,171901,1,0,0:0:0:0:
118,240,172011,5,10,0:0:0:0:
150,272,172122,1,0,0:0:0:0:
182,241,172232,1,0,0:0:0:0:
148,208,172342,1,0,0:0:0:0:
229,306,172453,5,10,0:0:0:0:
283,349,172564,1,0,0:0:0:0:
320,287,172674,1,0,0:0:0:0:
263,246,172784,1,0,0:0:0:0:
397,330,172894,5,10,0:0:0:0:
465,273,173004,1,0,0:0:0:0:
383,234,173114,1,0,0:0:0:0:
446,172,173225,1,0,0:0:0:0:
369,69,173335,5,10,0:0:0:0:
354,64,173445,1,0,0:0:0:0:
290,115,173556,5,6,0:1:0:0:
258,121,173666,1,0,0:0:0:0:
226,117,173776,1,8,0:0:0:0:
203,94,173886,1,0,0:0:0:0:
173,82,173997,5,2,0:0:0:0:
174,66,174107,1,0,0:0:0:0:
176,50,174217,1,8,0:0:0:0:
178,34,174328,1,0,0:0:0:0:
160,22,174438,5,2,0:0:0:0:
132,38,174548,1,0,0:0:0:0:
116,75,174659,1,8,0:0:0:0:
130,120,174769,1,0,0:0:0:0:
169,147,174879,1,2,0:0:0:0:
191,198,174989,1,0,0:0:0:0:
147,265,175100,6,0,L|47:253,1,80,8|0,0:0|0:0,0:0:0:0:
341,33,175320,2,0,L|241:45,1,80,10|0,0:0|0:0,0:0:0:0:
432,127,175541,5,4,0:1:0:0:
417,141,176864,5,8,0:0:0:0:
433,199,176938,1,0,0:0:0:0:
406,252,177011,1,0,0:0:0:0:
345,258,177085,1,8,0:0:0:0:
288,235,177159,1,0,0:0:0:0:
230,250,177232,1,0,0:0:0:0:
201,303,177306,5,12,0:0:0:0:
142,290,177379,1,4,0:0:0:0:
117,234,177453,1,4,0:0:0:0:
140,186,177526,1,12,0:0:0:0:
180,162,177600,1,4,0:0:0:0:
197,126,177673,1,4,0:0:0:0:
188,86,177747,6,0,B|143:73|143:73|121:90|121:90|56:98,1,119.999996337891,8|0,0:0|0:0,0:0:0:0:
274,8,177967,1,8,0:0:0:0:
280,176,178078,1,8,0:0:0:0:
357,88,178188,1,0,0:0:0:0:
362,87,178243,1,0,0:0:0:0:
367,86,178298,1,0,0:0:0:0:
372,85,178353,1,0,0:0:0:0:
378,84,178409,1,8,0:0:0:0:
473,97,178519,6,0,P|256:59|234:335,1,560,4|0,0:1|0:0,2:0:0:0:
320,351,179401,5,8,0:0:0:0:
122,113,179621,1,8,0:0:0:0:
454,32,179842,2,0,B|454:82|454:82|442:116|442:116|454:153|427:205,1,150,8|0,0:0|0:0,0:0:0:0:
442,218,180062,2,0,P|467:226|495:235,2,50,0|0|8,0:0|0:0|0:0,0:0:0:0:
276,147,180283,5,4,0:1:0:0:
194,193,180393,1,0,0:1:0:0:
122,113,180504,5,0,0:0:0:0:
42,213,180614,1,8,0:0:0:0:
152,256,180724,1,0,0:0:0:0:
221,67,180834,5,0,0:0:0:0:
264,258,180945,1,0,0:0:0:0:
358,130,181055,1,8,0:0:0:0:
442,218,181165,2,0,P|373:209|322:198,1,119.999996337891,2|0,0:0|0:0,0:0:0:0:
109,384,181386,5,2,0:0:0:0:
163,178,181496,1,8,0:0:0:0:
33,275,181606,2,0,P|102:266|153:255,1,119.999996337891,2|0,0:0|0:0,0:0:0:0:
335,0,181827,5,0,0:0:0:0:
442,218,181937,1,8,0:0:0:0:
507,117,182048,6,0,B|440:68|359:105|356:203|266:183,1,239.999992675781,4|0,0:1|0:0,0:0:0:0:
98,60,182379,2,0,B|154:37|154:37|239:85,1,119.999996337891,8|0,0:0|0:0,0:0:0:0:
140,281,182599,2,0,B|84:304|84:304|-1:256,1,119.999996337891
201,350,182820,1,8,0:0:0:0:
312,303,182930,6,0,P|305:237|297:172,1,119.999996337891,2|0,0:0|0:0,0:0:0:0:
417,204,183151,1,0,0:0:0:0:
484,134,183261,2,0,P|491:68|499:3,1,119.999996337891,8|0,0:0|0:0,0:0:0:0:
337,102,183481,5,0,0:0:0:0:
229,12,183592,1,0,0:0:0:0:
108,123,183702,1,8,0:0:0:0:
108,123,183757,1,0,0:0:0:0:
108,123,183812,2,0,P|177:110|223:258,1,239.999992675781,2|0,0:0|0:0,0:0:0:0:
453,321,184143,5,8,0:0:0:0:
344,300,184254,1,0,0:0:0:0:
367,186,184364,1,0,0:0:0:0:
481,207,184474,1,0,0:0:0:0:
356,70,184584,5,8,0:0:0:0:
256,238,184695,2,0,P|265:298|273:381,1,119.999996337891,2|0,0:0|0:0,0:0:0:0:
7,133,184915,1,0,0:0:0:0:
216,79,185026,1,8,0:0:0:0:
110,20,185136,2,0,P|100:79|94:138,1,119.999996337891,2|0,0:0|0:0,0:0:0:0:
496,309,185356,5,8,0:0:0:0:
256,238,185467,1,8,0:0:0:0:
351,368,185577,2,0,B|379:338|379:338|367:302|367:302|413:272|416:223|416:223|377:185|397:127,1,239.999992675781,4|0,0:1|0:0,0:0:0:0:
499,42,185908,6,0,B|438:62|438:62|366:12,1,119.999996337891,8|0,0:0|0:0,0:0:0:0:
256,238,186129,2,0,B|317:218|317:218|389:268,1,119.999996337891
305,322,186349,1,8,0:0:0:0:
264,144,186459,6,0,B|172:109|133:230|20:199,1,239.999992675781,2|0,0:0|0:0,0:0:0:0:
12,13,186790,2,0,P|64:33|56:111,1,119.999996337891,8|0,0:0|0:0,0:0:0:0:
40,298,187011,1,0,0:0:0:0:
119,362,187121,1,0,0:0:0:0:
216,320,187231,1,8,0:0:0:0:
319,217,187342,6,0,P|411:277|353:395,1,239.999992675781,2|0,0:0|0:0,0:0:0:0:
392,134,187673,2,0,B|448:104|448:104|503:121,1,119.999996337891,8|0,0:0|0:0,0:0:0:0:
207,207,187893,2,0,B|151:237|151:237|96:220,1,119.999996337891
46,137,188114,1,8,0:0:0:0:
96,12,188224,6,0,P|200:25|346:73,1,239.999992675781,2|0,0:0|0:0,0:0:0:0:
304,340,188555,1,8,0:0:0:0:
191,305,188665,2,0,P|173:242|229:202,1,119.999996337891
328,65,188886,5,0,0:0:0:0:
497,97,188996,1,8,0:0:0:0:
386,214,189106,2,0,B|292:201|292:201|252:168|252:168|122:187,1,239.999992675781,4|0,0:1|0:0,0:0:0:0:
63,369,189437,2,0,B|90:326|90:326|57:232,1,119.999996337891,8|0,0:0|0:0,0:0:0:0:
201,121,189658,2,0,B|173:78|173:78|206:-15,1,119.999996337891
95,12,189879,1,8,0:0:0:0:
294,65,189989,6,0,P|356:29|459:166,1,239.999992675781,2|0,0:0|0:0,0:0:0:0:
404,360,190320,2,0,P|399:295|384:228,1,119.999996337891,8|0,0:0|0:0,0:0:0:0:
201,121,190540,1,0,0:0:0:0:
140,207,190651,1,0,0:0:0:0:
195,301,190761,1,8,0:0:0:0:
40,262,190871,6,0,P|58:183|65:-1,1,239.999992675781,2|0,0:0|0:0,0:0:0:0:
450,147,191202,5,8,0:0:0:0:
492,54,191312,1,0,0:0:0:0:
396,17,191423,1,0,0:0:0:0:
412,354,191533,5,0,0:0:0:0:
266,215,191643,1,8,0:0:0:0:
450,147,191754,2,0,B|489:181|489:181|476:298,1,119.999996337891,4|0,0:1|0:0,0:0:0:0:
100,293,191974,5,0,0:0:0:0:
260,127,192084,1,8,0:0:0:0:
31,20,192195,2,0,B|-8:54|-8:54|5:171,1,119.999996337891,2|0,0:0|0:0,0:0:0:0:
321,384,192415,5,0,0:0:0:0:
344,232,192526,1,8,0:0:0:0:
367,81,192636,1,2,0:0:0:0:
198,98,193629,5,8,0:0:0:0:
313,239,193739,1,8,0:0:0:0:
163,359,193849,1,8,0:0:0:0:
41,214,193959,5,2,0:0:0:0:
38,197,194180,1,2,0:0:0:0:
34,180,194401,1,2,0:0:0:0:
130,149,194511,6,0,B|153:183|153:183|150:225|118:276,1,110.000003356934,10|0,0:0|0:0,0:0:0:0:
345,281,194731,1,10,0:0:0:0:
264,344,194841,2,0,B|241:310|241:310|244:268|276:217,1,110.000003356934,0|10,0:0|0:0,0:0:0:0:
223,102,195062,1,0,0:0:0:0:
372,48,195172,5,10,0:0:0:0:
321,148,195283,1,0,0:0:0:0:
270,10,195394,1,10,0:0:0:0:
485,60,195503,5,0,0:0:0:0:
434,160,195614,1,10,0:0:0:0:
383,22,195725,1,0,0:0:0:0:
223,102,195834,6,0,B|172:97|141:108|141:108|107:74|107:74|46:89|-4:68,1,220.000006713867,10|10,0:0|0:0,0:0:0:0:
270,10,196165,2,0,B|322:6|322:6|375:59,1,110.000003356934,0|10,0:0|0:0,0:0:0:0:
132,144,196385,1,0,0:0:0:0:
241,202,196496,2,0,B|284:224|284:224|360:192,1,110.000003356934,10|0,0:0|0:0,0:0:0:0:
187,350,196716,5,12,0:1:0:0:
132,144,196827,1,0,0:0:0:0:
63,329,196937,5,12,0:1:0:0:
241,202,197047,1,0,0:0:0:0:
29,215,197158,6,0,B|18:177|18:177|28:144|28:144|15:66,1,110.000003356934,10|0,0:0|0:0,0:0:0:0:
231,95,197378,1,10,0:0:0:0:
241,202,197488,2,0,B|230:240|230:240|240:273|240:273|227:351,1,110.000003356934,0|10,0:0|0:0,0:0:0:0:
349,330,197709,1,0,0:0:0:0:
452,232,197819,2,0,B|463:194|463:194|453:161|453:161|466:83,1,110.000003356934,10|0,0:0|0:0,0:0:0:0:
340,149,198040,5,10,0:0:0:0:
403,19,198150,1,0,0:0:0:0:
284,34,198261,1,10,0:0:0:0:
458,125,198371,1,0,0:0:0:0:
241,202,198481,5,10,0:0:0:0:
284,34,198591,1,0,0:0:0:0:
114,68,198702,1,10,0:0:0:0:
163,254,198812,6,0,B|188:270|227:268|227:268|253:235|288:228|288:228|348:263|429:238,1,259.999988098145,4|0,0:1|0:0,0:0:0:0:
216,107,199143,5,8,0:0:0:0:
114,68,199253,1,0,0:0:0:0:
19,187,199363,5,8,0:0:0:0:
109,170,199474,1,0,0:0:0:0:
163,254,199584,5,8,0:0:0:0:
163,259,199639,1,8,0:0:0:0:
163,264,199694,1,0,0:0:0:0:
163,269,199749,1,0,0:0:0:0:
163,274,199805,2,0,L|158:371,1,55.0000016784668
256,227,199915,2,0,L|253:172,1,55.0000016784668,4|4,0:0|0:0,0:0:0:0:
346,362,200025,5,8,0:0:0:0:
375,376,200080,1,8,0:0:0:0:
410,371,200136,1,0,0:0:0:0:
435,350,200191,1,0,0:0:0:0:
443,318,200246,1,12,0:1:0:0:
371,230,200356,1,0,0:0:0:0:
498,123,200466,6,0,B|450:114|450:114|426:133|426:133|370:138,1,110.000003356934,10|0,0:0|0:0,0:0:0:0:
193,131,200687,1,10,0:0:0:0:
227,33,200797,2,0,B|275:24|275:24|299:43|299:43|355:48,1,110.000003356934,0|10,0:0|0:0,0:0:0:0:
118,3,201018,1,0,0:0:0:0:
65,114,201128,5,10,0:0:0:0:
193,131,201238,1,0,0:0:0:0:
116,234,201349,1,10,0:0:0:0:
47,121,201459,5,0,0:0:0:0:
192,106,201569,1,10,0:0:0:0:
138,241,201680,1,0,0:0:0:0:
330,225,201790,6,0,B|344:175|331:131|331:131|366:100|366:100|355:56|375:0,1,220.000006713867,10|10,0:0|0:0,0:0:0:0:
218,239,202121,2,0,B|167:244|167:244|147:262|147:262|85:270,1,110.000003356934,0|10,0:0|0:0,0:0:0:0:
289,137,202342,1,0,0:0:0:0:
409,302,202452,2,0,B|455:322|455:322|469:345|469:345|525:372,1,110.000003356934,10|0,0:0|0:0,0:0:0:0:
204,341,202672,5,12,0:1:0:0:
289,137,202783,1,0,0:0:0:0:
106,245,202893,5,12,0:1:0:0:
329,255,203003,1,0,0:0:0:0:
162,125,203113,6,0,B|120:122|97:154|97:154|68:164|33:153,1,110.000003356934,10|0,0:0|0:0,0:0:0:0:
390,107,203334,1,10,0:0:0:0:
289,137,203444,2,0,B|312:102|296:66|296:66|302:36|329:11,1,110.000003356934,0|10,0:0|0:0,0:0:0:0:
162,125,203665,1,0,0:0:0:0:
210,244,203775,2,0,B|228:281|267:285|267:285|290:305|298:341,1,110.000003356934,10|0,0:0|0:0,0:0:0:0:
50,357,203996,5,10,0:0:0:0:
106,245,204106,1,0,0:0:0:0:
19,160,204216,1,10,0:0:0:0:
83,47,204327,1,0,0:0:0:0:
269,142,204437,5,10,0:0:0:0:
121,141,204547,1,0,0:0:0:0:
199,17,204658,1,10,0:0:0:0:
200,214,204768,6,0,B|262:183|262:183|320:207|320:207|384:166|472:173,1,259.999988098145,4|0,0:1|0:0,0:0:0:0:
243,34,205099,5,8,0:0:0:0:
231,33,205154,1,0,0:0:0:0:
220,31,205209,1,0,0:0:0:0:
209,31,205264,1,0,0:0:0:0:
197,30,205319,2,0,P|202:75|213:127,2,73.3333355712891,8|0|0,0:0|0:0|0:0,0:0:0:0:
132,141,205540,5,4,0:0:0:0:
251,220,205650,1,0,0:0:0:0:
157,331,205761,1,0,0:0:0:0:
151,238,205871,5,4,0:0:0:0:
151,238,205926,1,4,0:0:0:0:
151,238,205981,1,8,0:0:0:0:
382,250,206085,1,8,0:0:0:0:
208,103,206189,1,8,0:0:0:0:
259,330,206293,1,8,0:0:0:0:
346,115,206397,1,4,0:1:0:0:
256,192,206452,12,0,208161,0:0:0:0:
