osu file format v14

[General]
AudioFilename: audio.mp3
AudioLeadIn: 0
PreviewTime: 68777
Countdown: 0
SampleSet: Drum
StackLeniency: 0.6
Mode: 0
LetterboxInBreaks: 0
WidescreenStoryboard: 1

[Editor]
Bookmarks: 3924,8335,20252,27310,34347,43189,60836,71755,87747,99658,106717,115431,131423,138482,152600,159659,178519,194511,206397
DistanceSpacing: 0.7
BeatDivisor: 6
GridSize: 8
TimelineZoom: 3

[Metadata]
Title:Naikan Uchuu Shisha no Yurikago
TitleUnicode:内観宇宙死者のゆりかご
Artist:Yousei Teikoku
ArtistUnicode:妖精帝國
Creator:IsomirDiAngelo
Version:Atalanta's Extra
Source:
Tags:osu osu! world cup owc finals hr3 atalanta talulah fairy empire das feenreich flamma idola yui itsuki japanese rock metal jrock gothic
BeatmapID:3356229
BeatmapSetID:1306595

[Difficulty]
HPDrainRate:5
CircleSize:3.6
OverallDifficulty:9
ApproachRate:9.4
SliderMultiplier:1.6
SliderTickRate:1

[Events]
//Background and Video events
0,0,"suigintou6b.jpg",0,0
//Break Periods
2,608,3384
2,131623,134413
//Storyboard Layer 0 (Background)
//Storyboard Layer 1 (Fail)
//Storyboard Layer 2 (Pass)
//Storyboard Layer 3 (Foreground)
//Storyboard Layer 4 (Overlay)
//Storyboard Sound Samples

[TimingPoints]
408,219.78021978022,4,3,1,70,1,0
3924,220.588235294118,4,3,1,70,1,0
8335,220.588235294118,3,3,1,70,1,0
8335,-83.3333333333333,3,3,1,70,0,0
12967,212.765957446809,4,3,1,70,1,0
12967,-83.3333333333333,4,3,1,70,0,0
13392,272.727272727273,4,3,1,70,1,0
13664,208.333333333333,4,3,1,70,1,0
14080,215.827338129496,4,3,1,70,1,0
14080,-83.3333333333333,4,3,1,70,0,0
14297,220.588235294118,3,3,1,70,1,0
14297,-83.3333333333333,3,3,1,70,0,0
20252,220.588235294118,4,3,1,70,1,0
20252,-125,4,3,1,70,0,0
26869,-100,4,3,1,70,0,0
40766,206.896551724138,4,3,1,70,1,0
41179,230.769230769231,4,3,1,70,1,0
41294,220.588235294118,4,3,1,70,1,0
41294,-250.000000000001,4,3,1,70,0,0
42286,225.563909774436,4,3,1,70,1,0
43189,220.588235294118,4,3,1,70,1,0
60836,-125,4,2,1,70,0,0
70100,-125,4,3,1,70,0,0
71755,-83.3333333333333,4,3,1,70,0,0
71865,220.588235294118,4,3,1,70,1,0
72085,-83.3333333333333,4,3,1,70,0,0
86865,-100,4,3,1,70,0,0
87747,220.588235294118,3,3,1,70,1,0
87747,-83.3333333333333,3,3,1,70,0,0
92820,-100,3,3,1,70,0,0
93702,-83.3333333333333,3,3,1,70,0,0
99659,220.588235294118,4,3,1,70,1,0
99659,-100,4,3,1,70,0,0
115431,-83.3333333333333,4,3,1,70,0,0
130761,-100,4,3,1,70,0,0
138482,-83.3333333333333,4,3,1,70,0,0
153372,-100,4,3,1,70,0,0
159659,-125,4,2,1,70,0,0
167600,-100,4,3,1,70,0,0
177747,-125,4,3,1,70,0,0
178519,-125,4,3,1,70,0,0
178629,220.588235294118,4,3,1,70,1,0
180283,-83.3333333333333,4,3,1,70,0,0
193629,-100,4,3,1,70,0,0
194511,220.588235294118,3,3,1,70,1,0
194511,-83.3333333333333,3,3,1,70,0,0
205981,208.333333333333,4,3,1,70,1,0
206397,220.588235294118,4,3,1,70,1,0

[Colours]
Combo1 : 194,48,22
Combo2 : 220,199,219
Combo3 : 233,226,103
Combo4 : 151,134,111

[HitObjects]
416,80,408,5,4,0:1:0:0:
40,224,3924,5,8,0:0:0:0:
288,304,4254,5,8,0:0:0:0:
128,352,4475,1,8,0:0:0:0:
280,312,4696,5,0,0:0:0:0:
200,296,4806,1,8,0:0:0:0:
288,304,5137,5,8,0:0:0:0:
128,352,5358,1,8,0:0:0:0:
280,312,5579,5,0,0:0:0:0:
200,296,5689,1,8,0:0:0:0:
152,360,6019,5,8,0:0:0:0:
280,288,6240,1,8,0:0:0:0:
160,336,6460,5,0,0:0:0:0:
240,360,6571,1,8,0:0:0:0:
152,360,6901,5,8,0:0:0:0:
280,288,7122,1,8,0:0:0:0:
160,336,7342,5,0,0:0:0:0:
240,360,7453,2,0,L|279:353,3,40,8|8|4|4,0:0|0:0|0:0|0:0,0:0:0:0:
296,280,7674,2,0,L|335:286,3,40,4|4|0|4,0:0|0:0|0:0|0:0,0:0:0:0:
408,328,7894,6,0,L|414:288,3,40,4|4|0|0,0:0|0:0|0:0|0:0,0:0:0:0:
496,288,8115,2,0,L|489:248,3,40,4|4|0|0,0:0|0:0|0:0|0:0,0:0:0:0:
368,176,8335,6,0,B|328:73|328:73|352:33|399:52,1,191.999994140625,14|10,0:1|0:0,0:0:0:0:
243,182,8665,2,0,P|196:188|150:201,1,95.9999970703126,0|10,0:0|0:0,0:0:0:0:
0,80,8886,1,0,0:0:0:0:
79,22,8996,6,0,B|97:64|97:64|81:111,1,95.9999970703126,10|0,0:0|0:0,0:0:0:0:
16,176,9217,1,10,0:0:0:0:
20,275,9327,2,0,P|67:281|113:294,1,95.9999970703126,0|10,0:0|0:0,0:0:0:0:
200,272,9548,1,0,0:0:0:0:
288,328,9658,5,10,0:0:0:0:
344,266,9768,1,0,0:0:0:0:
311,193,9879,1,10,0:0:0:0:
227,223,9989,5,0,0:0:0:0:
178,159,10099,1,10,0:0:0:0:
98,158,10210,1,0,0:0:0:0:
56,240,10320,5,10,0:0:0:0:
56,240,10430,1,0,0:0:0:0:
112,304,10540,2,0,P|159:311|203:329,1,95.9999970703126,12|0,0:1|0:0,0:0:0:0:
47,143,10761,2,0,P|36:76|89:31,1,143.999995605469,12|0,0:1|0:0,0:0:0:0:
152,80,10982,6,0,P|199:84|247:92,1,95.9999970703126,10|0,0:0|0:0,0:0:0:0:
312,48,11202,1,10,0:0:0:0:
376,136,11312,2,0,P|422:123|469:119,1,95.9999970703126,0|10,0:0|0:0,0:0:0:0:
512,200,11533,1,0,0:0:0:0:
440,288,11643,6,0,P|395:271|349:259,1,95.9999970703126,10|0,0:0|0:0,0:0:0:0:
280,320,11864,1,10,0:0:0:0:
200,368,11974,5,0,0:0:0:0:
127,337,12085,1,10,0:0:0:0:
135,259,12195,1,0,0:0:0:0:
208,200,12305,5,10,0:0:0:0:
296,232,12415,1,0,0:0:0:0:
376,184,12526,1,10,0:0:0:0:
288,136,12636,6,0,P|274:231|271:326,1,191.999994140625,4|0,0:1|0:0,0:0:0:0:
120,168,12967,2,0,P|116:120|104:73,1,95.9999970703126,8|0,0:0|0:0,0:0:0:0:
352,0,13179,2,0,P|355:47|367:94,1,95.9999970703126,8|0,0:0|0:0,0:0:0:0:
184,224,13392,6,0,L|176:264,3,40,8|8|4|4,0:0|0:0|0:0|0:0,0:0:0:0:
232,160,13664,5,12,0:0:0:0:
240,160,13733,1,4,0:0:0:0:
264,168,13802,1,4,0:0:0:0:
272,200,13872,1,8,0:0:0:0:
304,248,13941,1,4,0:0:0:0:
368,256,14011,1,4,0:0:0:0:
432,216,14080,2,0,P|441:168|453:122,1,95.9999970703126,8|0,0:0|0:0,0:0:0:0:
192,360,14297,6,0,B|90:383|122:287|23:295,1,191.999994140625,10|10,0:0|0:0,0:0:0:0:
223,73,14627,2,0,B|247:113|247:113|231:159,1,95.9999970703126,0|10,0:0|0:0,0:0:0:0:
8,200,14848,1,0,0:0:0:0:
32,112,14958,6,0,P|78:99|125:91,1,95.9999970703126,10|0,0:0|0:0,0:0:0:0:
160,8,15179,1,10,0:0:0:0:
232,88,15289,2,0,P|279:96|325:108,1,95.9999970703126,0|10,0:0|0:0,0:0:0:0:
384,184,15510,1,0,0:0:0:0:
472,192,15620,5,10,0:0:0:0:
480,112,15730,1,0,0:0:0:0:
424,56,15841,1,10,0:0:0:0:
328,96,15951,5,0,0:0:0:0:
262,49,16061,1,10,0:0:0:0:
186,69,16172,1,0,0:0:0:0:
144,152,16282,5,10,0:0:0:0:
144,152,16392,1,0,0:0:0:0:
56,136,16502,2,0,P|48:88|32:32,1,95.9999970703126,12|0,0:1|0:0,0:0:0:0:
248,184,16723,2,0,P|227:252|209:322,1,143.999995605469,12|0,0:1|0:0,0:0:0:0:
264,384,16944,6,0,B|225:356|225:356|177:363,1,95.9999970703126,10|0,0:0|0:0,0:0:0:0:
96,384,17164,1,10,0:0:0:0:
96,288,17274,2,0,P|49:275|4:260,1,95.9999970703126,0|10,0:0|0:0,0:0:0:0:
0,160,17495,1,0,0:0:0:0:
80,136,17605,2,0,P|68:89|58:42,1,95.9999970703126,10|0,0:0|0:0,0:0:0:0:
152,16,17826,1,10,0:0:0:0:
216,80,17936,5,0,0:0:0:0:
296,104,18047,1,10,0:0:0:0:
360,56,18157,1,0,0:0:0:0:
288,0,18267,5,10,0:0:0:0:
264,88,18377,1,0,0:0:0:0:
240,184,18488,1,10,0:0:0:0:
216,280,18598,6,0,P|304:299|353:223,1,191.999994140625,4|0,0:1|0:0,0:0:0:0:
151,352,18929,2,0,P|105:363|59:377,1,95.9999970703126,8|0,0:0|0:0,0:0:0:0:
144,152,19149,2,0,P|97:140|51:126,1,95.9999970703126,8|0,0:0|0:0,0:0:0:0:
0,304,19370,2,0,L|45:288,3,47.9999985351563,8|8|0|0,0:0|0:0|0:0|0:0,0:0:0:0:
112,240,19591,6,0,L|157:256,3,47.9999985351563,8|8|0|0,0:0|0:0|0:0|0:0,0:0:0:0:
232,240,19811,5,8,0:0:0:0:
320,264,19922,1,8,0:0:0:0:
408,288,20032,2,0,P|413:335|421:382,1,95.9999970703126,2|0,0:0|0:0,0:0:0:0:
288,176,20252,5,4,0:1:0:0:
272,96,20362,1,0,0:0:0:0:
320,32,20472,1,0,0:0:0:0:
384,96,20582,5,4,0:0:0:0:
414,69,20692,1,0,0:0:0:0:
454,73,20802,1,0,0:0:0:0:
464,152,20913,5,4,0:0:0:0:
483,158,21023,1,0,0:0:0:0:
491,176,21133,1,0,0:0:0:0:
432,239,21244,6,0,P|425:271|416:302,2,64,4|0|0,0:0|0:0|0:0,0:0:0:0:
272,248,21575,1,4,0:0:0:0:
272,248,21685,1,0,0:0:0:0:
232,312,21796,2,0,P|238:343|247:374,1,64,8|0,0:0|0:0,0:0:0:0:
160,160,22016,5,12,0:1:0:0:
80,144,22126,1,0,0:0:0:0:
16,192,22236,1,0,0:0:0:0:
80,256,22346,5,4,0:0:0:0:
53,286,22456,1,0,0:0:0:0:
57,326,22568,1,0,0:0:0:0:
136,336,22677,5,4,0:0:0:0:
142,355,22787,1,0,0:0:0:0:
160,363,22899,1,0,0:0:0:0:
232,312,23009,6,0,P|263:307|294:300,2,64,4|0|0,0:0|0:0|0:0,0:0:0:0:
88,184,23340,1,4,0:0:0:0:
88,184,23450,1,0,0:0:0:0:
160,160,23560,2,0,P|191:166|222:171,1,64,8|0,0:0|0:0,0:0:0:0:
448,24,23781,5,12,0:1:0:0:
464,104,23891,1,0,0:0:0:0:
416,168,24001,1,0,0:0:0:0:
336,136,24112,5,4,0:0:0:0:
312,168,24222,1,0,0:0:0:0:
320,208,24332,1,0,0:0:0:0:
400,256,24443,5,4,0:0:0:0:
404,276,24553,1,0,0:0:0:0:
392,292,24663,1,0,0:0:0:0:
296,304,24774,5,4,0:0:0:0:
295,304,24884,2,0,P|264:310|234:322,1,64
56,344,25104,1,4,0:0:0:0:
56,344,25215,1,0,0:0:0:0:
128,368,25325,2,0,P|139:338|146:306,1,64,8|0,0:0|0:0,0:0:0:0:
24,208,25546,5,12,0:1:0:0:
8,128,25656,1,0,0:0:0:0:
56,64,25766,1,0,0:0:0:0:
136,112,25877,5,4,0:0:0:0:
166,85,25987,1,0,0:0:0:0:
206,89,26097,1,0,0:0:0:0:
256,160,26207,5,4,0:0:0:0:
275,166,26317,1,0,0:0:0:0:
283,184,26427,1,0,0:0:0:0:
264,272,26538,5,4,0:0:0:0:
264,272,26649,1,0,0:0:0:0:
264,272,26759,1,0,0:0:0:0:
205,350,26869,6,0,P|165:356|127:367,1,80,8|0,0:0|0:0,0:0:0:0:
400,112,27090,2,0,P|439:118|477:129,1,80,12|0,0:1|0:0,0:0:0:0:
218,11,27310,6,0,P|217:50|205:88,1,80,4|0,0:1|0:0,0:0:0:0:
128,104,27531,1,8,0:0:0:0:
56,208,27641,2,0,P|95:216|133:228,1,80,0|0,0:1|0:0,0:0:0:0:
205,350,27862,2,0,P|243:338|282:329,1,80,0|8,0:1|0:0,0:0:0:0:
352,264,28082,6,0,P|391:272|429:284,1,80,0|0,0:1|0:0,0:0:0:0:
496,240,28303,1,0,0:0:0:0:
480,160,28413,1,8,0:0:0:0:
408,128,28524,1,0,0:0:0:0:
336,160,28634,2,0,B|312:127|312:127|322:88,1,80
464,8,28854,2,0,B|487:40|487:40|477:79,1,80,8|0,0:0|0:0,0:0:0:0:
256,40,29075,5,0,0:0:0:0:
200,96,29185,2,0,P|160:101|122:114,1,80,0|8,0:0|0:0,0:0:0:0:
80,240,29406,2,0,P|42:227|2:221,1,80
96,360,29627,1,0,0:0:0:0:
168,328,29737,1,0,0:0:0:0:
240,360,29847,6,0,P|243:320|251:280,1,80,0|2,0:0|0:0,0:0:0:0:
320,240,30068,1,2,0:0:0:0:
312,160,30178,1,10,0:0:0:0:
304,80,30288,1,2,0:0:0:0:
384,40,30399,5,2,0:0:0:0:
368,128,30509,1,2,0:0:0:0:
343,224,30619,2,0,P|305:234|267:246,1,80,10|2,0:0|0:0,0:0:0:0:
96,360,30840,6,0,P|57:347|19:337,1,80,4|0,0:1|0:0,0:0:0:0:
0,264,31060,1,8,0:0:0:0:
112,200,31171,2,0,B|127:162|127:162|114:125,1,80
72,48,31391,1,0,0:0:0:0:
152,0,31502,1,8,0:0:0:0:
208,64,31612,6,0,P|246:72|282:91,1,80
320,160,31832,1,0,0:0:0:0:
400,176,31943,1,8,0:0:0:0:
448,112,32053,1,0,0:0:0:0:
368,40,32163,5,0,0:0:0:0:
344,128,32274,1,0,0:0:0:0:
320,226,32384,2,0,P|328:265|334:304,1,80,8|0,0:0|0:0,0:0:0:0:
272,352,32604,5,0,0:0:0:0:
200,296,32715,1,0,0:0:0:0:
112,304,32825,2,0,P|36:311|15:383,1,160,8|0,0:0|0:0,0:0:0:0:
0,216,33156,1,0,0:0:0:0:
64,168,33266,1,8,0:0:0:0:
16,104,33377,6,0,B|-3:68|-3:68|4:29,1,80,0|2,0:0|0:0,0:0:0:0:
80,8,33597,1,2,0:0:0:0:
152,40,33707,1,10,0:0:0:0:
224,72,33818,1,2,0:0:0:0:
192,160,33928,5,2,0:0:0:0:
288,144,34038,1,2,0:0:0:0:
384,128,34149,2,0,L|390:88,3,40,10|8|8|8,0:0|0:0|0:0|0:0,0:0:0:0:
416,144,34369,6,0,L|430:222,1,80,4|8,0:1|0:0,0:0:0:0:
224,384,34590,2,0,L|209:305,1,80,0|8,0:0|0:0,0:0:0:0:
336,208,34810,1,2,0:0:0:0:
336,208,34921,1,8,0:0:0:0:
304,288,35031,1,0,0:0:0:0:
304,288,35141,1,8,0:0:0:0:
208,305,35252,6,0,P|170:315|133:330,1,80,2|8,0:0|0:0,0:0:0:0:
240,80,35472,2,0,P|278:90|315:105,1,80,0|8,0:0|0:0,0:0:0:0:
104,256,35693,1,2,0:0:0:0:
104,256,35803,1,8,0:0:0:0:
48,192,35913,1,0,0:0:0:0:
48,192,36024,1,8,0:0:0:0:
96,128,36134,6,0,B|110:90|110:90|93:54,1,80,4|8,0:1|0:0,0:0:0:0:
16,80,36354,1,0,0:0:0:0:
0,200,36465,2,0,P|39:206|78:215,1,80,8|0,0:0|0:0,0:0:0:0:
120,304,36685,1,8,0:0:0:0:
208,280,36796,1,0,0:0:0:0:
296,256,36906,6,0,P|333:270|371:281,1,80,8|2,0:0|0:0,0:0:0:0:
400,368,37127,2,0,P|436:352|471:332,1,80,10|2,0:0|0:0,0:0:0:0:
512,264,37347,1,10,0:0:0:0:
456,208,37457,1,2,0:0:0:0:
488,136,37568,1,10,0:0:0:0:
456,64,37678,1,2,0:0:0:0:
456,64,37788,1,10,0:0:0:0:
455,64,37899,6,0,P|418:78|381:91,1,80,4|8,0:1|0:0,0:0:0:0:
280,104,38119,1,0,0:0:0:0:
208,72,38229,1,8,0:0:0:0:
128,88,38340,2,0,B|113:41|113:41|122:11,1,80,2|8,0:0|0:0,0:0:0:0:
280,104,38560,2,0,B|295:151|295:151|285:180,1,80,0|8,0:0|0:0,0:0:0:0:
208,240,38781,5,2,0:0:0:0:
128,208,38891,1,8,0:0:0:0:
40,240,39002,1,0,0:0:0:0:
16,328,39112,1,8,0:0:0:0:
80,383,39222,2,0,P|118:372|157:366,1,80,2|8,0:0|0:0,0:0:0:0:
232,328,39443,1,0,0:0:0:0:
232,328,39553,1,8,0:0:0:0:
288,384,39663,5,4,0:1:0:0:
368,352,39774,1,8,0:0:0:0:
448,320,39884,1,0,0:0:0:0:
480,240,39994,6,0,P|467:202|463:162,1,80,8|0,0:0|0:0,0:0:0:0:
408,112,40215,1,8,0:0:0:0:
424,32,40325,1,0,0:0:0:0:
424,32,40435,1,8,0:0:0:0:
344,0,40546,6,0,L|304:5,1,40,8|0,0:0|0:0,0:0:0:0:
344,16,40656,2,0,L|304:21,1,40
256,96,40766,6,0,L|217:86,3,40,0|0|4|4,0:0|0:0|0:0|0:0,0:0:0:0:
192,8,40972,5,8,0:0:0:0:
112,56,41076,1,8,0:0:0:0:
104,152,41179,1,8,0:0:0:0:
168,216,41294,6,0,B|248:188|290:249|288:257|314:313|391:304,1,256,4|0,0:1|0:0,2:0:0:0:
464,248,42286,5,0,2:0:0:0:
464,144,42398,1,0,2:0:0:0:
400,96,42511,1,0,2:0:0:0:
352,104,42624,1,0,2:0:0:0:
344,128,42737,1,0,2:0:0:0:
360,136,42849,1,0,2:0:0:0:
368,128,42962,1,0,2:0:0:0:
360,120,43188,5,4,0:1:0:0:
296,72,43299,1,0,0:0:0:0:
216,64,43409,1,0,0:0:0:0:
152,112,43519,2,0,P|138:190|136:270,2,160,2|2|2,0:0|0:0|0:0,0:0:0:0:
72,88,44071,5,4,0:1:0:0:
24,152,44182,1,0,0:0:0:0:
16,232,44292,1,0,0:0:0:0:
64,296,44402,2,0,P|142:309|222:311,2,160,2|2|2,0:0|0:0|0:0,0:0:0:0:
216,224,44953,5,4,0:1:0:0:
304,240,45064,1,0,0:0:0:0:
392,256,45174,1,0,0:0:0:0:
480,279,45284,2,0,P|481:240|490:201,1,80,2|0,0:0|0:0,0:0:0:0:
416,176,45505,2,0,P|417:136|426:97,1,80,2|0,0:0|0:0,0:0:0:0:
368,48,45725,1,2,0:0:0:0:
288,104,45836,5,4,0:1:0:0:
216,48,45946,1,0,0:0:0:0:
128,64,46056,1,0,0:0:0:0:
103,152,46166,2,0,P|103:191|111:231,1,80,2|0,0:0|0:0,0:0:0:0:
256,272,46387,2,0,P|256:232|248:192,1,80,2|0,0:0|0:0,0:0:0:0:
184,152,46608,1,2,0:0:0:0:
224,80,46718,5,4,0:1:0:0:
296,48,46828,1,0,0:0:0:0:
368,80,46939,1,0,0:0:0:0:
392,152,47049,2,0,P|398:231|415:309,2,160,2|2|2,0:0|0:0|0:0,0:0:0:0:
448,88,47600,5,4,0:1:0:0:
376,56,47710,1,0,0:0:0:0:
304,88,47821,1,0,0:0:0:0:
280,160,47931,2,0,P|273:239|256:317,2,160,2|2|2,0:0|0:0|0:0,0:0:0:0:
192,96,48483,5,4,0:1:0:0:
176,184,48593,1,0,0:0:0:0:
160,272,48703,1,0,0:0:0:0:
144,360,48814,2,0,P|104:362|64:369,1,80,2|0,0:0|0:0,0:0:0:0:
80,288,49034,2,0,P|40:290|0:297,1,80,2|0,0:0|0:0,0:0:0:0:
8,216,49255,1,2,0:0:0:0:
80,168,49365,5,4,0:1:0:0:
168,184,49475,1,0,0:0:0:0:
232,120,49586,1,0,0:0:0:0:
215,32,49696,2,0,P|176:31|136:24,1,80,2|0,0:0|0:0,0:0:0:0:
240,208,49916,2,0,P|279:208|319:215,1,80,2|0,0:0|0:0,0:0:0:0:
392,184,50137,1,0,0:0:0:0:
464,216,50247,5,4,0:1:0:0:
480,248,50358,1,0,0:0:0:0:
480,280,50468,1,0,0:0:0:0:
456,304,50578,1,0,0:0:0:0:
392,360,50689,5,8,0:0:0:0:
352,328,50799,1,0,0:0:0:0:
304,312,50909,1,0,0:0:0:0:
256,312,51019,1,0,0:0:0:0:
184,368,51130,5,4,0:1:0:0:
136,304,51240,1,0,0:0:0:0:
144,224,51350,1,0,0:0:0:0:
192,160,51461,1,0,0:0:0:0:
280,200,51571,5,12,0:1:0:0:
16,32,51791,1,2,0:0:0:0:
16,32,51902,1,2,0:0:0:0:
16,32,52012,5,4,0:1:0:0:
80,80,52122,1,0,0:0:0:0:
120,152,52233,1,0,0:0:0:0:
103,231,52343,2,0,P|34:260|33:336,2,160,2|2|2,0:0|0:0|0:0,0:0:0:0:
176,280,52894,5,4,0:1:0:0:
256,296,53005,1,0,0:0:0:0:
336,280,53115,1,0,0:0:0:0:
384,216,53225,2,0,P|412:146|488:145,2,160,2|2|2,0:0|0:0|0:0,0:0:0:0:
432,312,53777,5,4,0:1:0:0:
488,256,53887,1,0,0:0:0:0:
488,176,53997,1,0,0:0:0:0:
440,111,54108,2,0,P|433:72|431:32,1,80,2|0,0:0|0:0,0:0:0:0:
352,88,54328,2,0,P|345:48|343:8,1,80,2|0,0:0|0:0,0:0:0:0:
256,16,54549,1,2,0:0:0:0:
200,80,54659,5,4,0:1:0:0:
120,64,54769,1,0,0:0:0:0:
64,120,54880,1,0,0:0:0:0:
96,192,54990,2,0,P|135:200|173:212,1,80,2|0,0:0|0:0,0:0:0:0:
152,384,55211,2,0,P|112:375|74:363,1,80,2|0,0:0|0:0,0:0:0:0:
0,336,55431,1,2,0:0:0:0:
48,272,55541,5,4,0:1:0:0:
128,288,55652,1,0,0:0:0:0:
208,304,55762,1,0,0:0:0:0:
288,320,55872,2,0,P|359:295|362:220,2,160,2|2|2,0:0|0:0|0:0,0:0:0:0:
432,368,56424,5,4,0:1:0:0:
448,288,56535,1,0,0:0:0:0:
464,208,56645,1,0,0:0:0:0:
480,127,56755,2,0,P|455:55|380:52,2,160,2|2|2,0:0|0:0|0:0,0:0:0:0:
352,136,57306,5,4,0:1:0:0:
280,80,57416,1,0,0:0:0:0:
192,72,57527,1,0,0:0:0:0:
111,104,57637,2,0,P|97:141|94:181,1,80,2|0,0:0|0:0,0:0:0:0:
8,208,57858,2,0,P|10:247|24:285,1,80,2|0,0:0|0:0,0:0:0:0:
8,368,58078,1,2,0:0:0:0:
96,376,58189,5,4,0:1:0:0:
160,320,58299,1,0,0:0:0:0:
248,312,58409,1,0,0:0:0:0:
328,336,58519,2,0,P|366:347|399:368,1,80,2|0,0:0|0:0,0:0:0:0:
488,240,58740,2,0,P|449:228|416:207,1,80,2|0,0:0|0:0,0:0:0:0:
328,240,58961,1,2,0:0:0:0:
256,184,59071,5,4,0:1:0:0:
264,152,59181,1,0,0:0:0:0:
272,120,59291,1,0,0:0:0:0:
280,88,59402,1,0,0:0:0:0:
352,24,59512,5,12,0:0:0:0:
364,72,59622,1,0,0:0:0:0:
376,120,59732,1,0,0:0:0:0:
388,168,59843,1,0,0:0:0:0:
472,208,59953,5,4,0:0:0:0:
472,208,60064,1,0,0:0:0:0:
312,336,60284,1,0,0:0:0:0:
248,288,60394,1,12,0:1:0:0:
176,280,60505,1,8,0:0:0:0:
128,304,60615,1,4,0:0:0:0:
120,320,60725,1,4,0:0:0:0:
184,376,60836,6,0,B|210:312|210:312|176:263,1,128,4|0,3:1|0:0,0:0:0:0:
8,216,61166,2,0,P|70:203|132:185,1,128,0|0,3:0|0:0,0:0:0:0:
168,96,61497,1,8,0:1:0:0:
352,176,61718,6,0,P|413:180|450:131,1,128,0|2,3:0|0:3,0:0:0:0:
449,123,62012,1,2,0:3:0:0:
449,115,62086,1,2,0:3:0:0:
448,107,62159,1,2,0:3:0:0:
272,232,62380,1,0,3:0:0:0:
472,344,62600,5,8,0:1:0:0:
399,287,62821,2,0,P|339:304|298:352,1,128,0|0,3:0|0:0,0:0:0:0:
216,312,63152,2,0,P|207:342|211:374,1,64,4|0,0:3|0:0,0:0:0:0:
211,374,63483,5,0,3:0:0:0:
32,240,63703,2,0,P|67:292|74:355,1,128,8|0,0:1|3:0,0:0:0:0:
224,112,64144,2,0,P|188:164|181:227,1,128,8|0,0:1|3:0,0:0:0:0:
0,72,64586,1,8,0:1:0:0:
111,139,64806,6,0,B|159:99|159:99|224:112,1,128,0|0,3:0|0:0,0:0:0:0:
304,208,65137,2,0,P|322:146|333:83,1,128,0|0,3:0|0:0,0:0:0:0:
424,16,65468,1,8,0:1:0:0:
504,216,65689,6,0,P|442:211|405:260,1,128,0|2,3:0|0:3,0:0:0:0:
407,268,65983,1,2,0:3:0:0:
407,276,66057,1,2,0:3:0:0:
408,284,66130,1,2,0:3:0:0:
176,336,66350,1,0,3:0:0:0:
224,112,66571,1,8,3:1:0:0:
303,168,66791,6,0,P|272:223|263:286,1,128,0|0,3:0|0:0,0:0:0:0:
336,320,67122,2,0,P|341:351|354:380,1,64,12|0,0:3|0:0,0:0:0:0:
354,380,67453,5,0,3:0:0:0:
88,384,67674,2,0,P|146:357|209:348,1,128,8|0,0:1|3:3,0:0:0:0:
0,120,68115,2,0,P|58:146|121:155,1,128,8|0,0:1|3:0,0:0:0:0:
0,336,68556,1,8,0:1:0:0:
256,192,68777,5,4,0:1:0:0:
256,192,70100,5,8,0:0:0:0:
255,177,70173,1,0,0:0:0:0:
254,163,70247,1,0,0:0:0:0:
253,149,70320,1,8,0:0:0:0:
252,135,70394,1,0,0:0:0:0:
251,121,70467,1,0,0:0:0:0:
249,106,70541,5,12,0:0:0:0:
271,79,70614,1,4,0:0:0:0:
303,63,70688,1,4,0:0:0:0:
338,62,70761,1,12,0:0:0:0:
371,75,70835,1,4,0:0:0:0:
396,100,70908,1,4,0:0:0:0:
409,133,70983,6,0,L|397:195,1,64,8|0,0:0|0:0,0:0:0:0:
336,248,71203,1,8,0:0:0:0:
360,352,71314,1,2,0:0:0:0:
344,352,71534,5,8,0:0:0:0:
368,272,71644,1,8,0:0:0:0:
398,194,71755,6,0,P|353:115|265:131,1,191.999994140625,4|0,0:1|0:0,0:0:0:0:
167,96,72085,2,0,P|173:144|176:192,1,95.9999970703126,8|0,0:0|0:0,0:0:0:0:
40,296,72306,1,0,0:0:0:0:
128,288,72416,1,0,0:0:0:0:
192,344,72526,1,8,0:0:0:0:
264,287,72637,6,0,P|353:284|384:369,1,191.999994140625,2|0,0:0|0:0,0:0:0:0:
496,280,72967,2,0,B|514:238|514:238|484:197,1,95.9999970703126,8|0,0:0|0:0,0:0:0:0:
368,112,73188,1,0,0:0:0:0:
408,40,73298,1,0,0:0:0:0:
448,120,73409,5,8,0:0:0:0:
400,208,73519,2,0,P|353:194|306:190,1,95.9999970703126,2|0,0:0|0:0,0:0:0:0:
224,144,73740,1,0,0:0:0:0:
160,248,73850,2,0,P|112:252|66:265,1,95.9999970703126,8|0,0:0|0:0,0:0:0:0:
24,184,74070,2,0,P|70:170|117:166,1,95.9999970703126
224,320,74291,1,8,0:0:0:0:
296,368,74401,6,0,B|320:326|320:326|308:279,1,95.9999970703126,2|0,0:0|0:0,0:0:0:0:
192,160,74622,1,2,0:0:0:0:
184,72,74732,1,8,0:0:0:0:
232,0,74842,2,0,P|318:23|321:112,1,191.999994140625,2|0,0:0|0:0,0:0:0:0:
392,176,75173,1,8,0:0:0:0:
308,279,75284,6,0,P|215:294|138:351,1,191.999994140625,4|0,0:1|0:0,0:0:0:0:
384,384,75615,2,0,P|405:341|404:294,1,95.9999970703126,8|0,0:0|0:0,0:0:0:0:
117,166,75835,2,0,P|95:208|96:255,1,95.9999970703126
200,184,76056,1,8,0:0:0:0:
48,112,76166,6,0,P|77:26|167:19,1,191.999994140625,2|0,0:0|0:0,0:0:0:0:
334,80,76497,2,0,P|286:85|240:96,1,95.9999970703126,8|0,0:0|0:0,0:0:0:0:
96,272,76717,1,0,0:0:0:0:
152,344,76828,1,0,0:0:0:0:
240,344,76938,1,8,0:0:0:0:
312,296,77048,6,0,L|297:201,1,95.9999970703126,2|0,0:0|0:0,0:0:0:0:
320,120,77269,1,0,0:0:0:0:
240,96,77379,1,8,0:0:0:0:
240,96,77490,1,0,0:0:0:0:
291,29,77600,6,0,B|248:3|248:3|203:14,1,95.9999970703126
104,16,77820,1,8,0:0:0:0:
24,104,77931,6,0,P|36:150|40:197,1,95.9999970703126,2|0,0:0|0:0,0:0:0:0:
272,352,78151,2,0,P|275:304|288:258,1,95.9999970703126,0|8,0:0|0:0,0:0:0:0:
119,104,78372,2,0,P|143:191|233:201,1,191.999994140625,2|8,0:0|0:0,0:0:0:0:
264,128,78703,1,8,0:0:0:0:
408,168,78813,6,0,P|418:263|439:356,1,191.999994140625,4|0,0:1|0:0,0:0:0:0:
344,104,79144,2,0,P|350:57|359:10,1,95.9999970703126,8|0,0:0|0:0,0:0:0:0:
119,38,79365,1,0,0:0:0:0:
119,38,79475,1,0,0:0:0:0:
47,94,79585,1,8,0:0:0:0:
135,134,79695,6,0,P|229:151|319:183,1,191.999994140625,2|0,0:0|0:0,0:0:0:0:
144,360,80026,2,0,P|96:369|50:382,1,95.9999970703126,8|0,0:0|0:0,0:0:0:0:
32,224,80247,1,0,0:0:0:0:
120,248,80357,1,0,0:0:0:0:
208,272,80467,1,8,0:0:0:0:
264,352,80578,6,0,P|354:350|390:266,1,191.999994140625,2|0,0:0|0:0,0:0:0:0:
472,168,80909,2,0,P|478:215|480:263,1,95.9999970703126,8|0,0:0|0:0,0:0:0:0:
168,368,81129,2,0,P|161:320|159:272,1,95.9999970703126
112,192,81350,1,8,0:0:0:0:
104,64,81460,6,0,B|211:56|155:152|266:138,1,191.999994140625,2|0,0:0|0:0,0:0:0:0:
328,80,81791,1,8,0:0:0:0:
496,104,81901,2,0,B|507:152|507:152|482:191,1,95.9999970703126
208,272,82122,1,0,0:0:0:0:
208,176,82232,1,8,0:0:0:0:
281,112,82342,6,0,P|354:164|335:252,1,191.999994140625,4|0,0:1|0:0,0:0:0:0:
256,376,82673,2,0,P|302:364|350:359,1,95.9999970703126,8|0,0:0|0:0,0:0:0:0:
208,176,82894,2,0,P|161:187|113:192,1,95.9999970703126
32,160,83115,1,8,0:0:0:0:
149,299,83225,6,0,P|241:271|335:252,1,191.999994140625,2|0,0:0|0:0,0:0:0:0:
496,360,83556,2,0,P|498:312|507:265,1,95.9999970703126,8|0,0:0|0:0,0:0:0:0:
312,160,83776,2,0,P|309:112|300:65,1,95.9999970703126
224,32,83997,1,8,0:0:0:0:
410,123,84107,6,0,P|416:213|334:251,1,191.999994140625,2|0,0:0|0:0,0:0:0:0:
208,176,84438,2,0,P|160:181|114:194,1,95.9999970703126,8|0,0:0|0:0,0:0:0:0:
40,160,84659,1,0,0:0:0:0:
96,288,84769,2,0,P|49:275|2:269,1,95.9999970703126,0|8,0:0|0:0,0:0:0:0:
224,32,84990,6,0,P|317:9|412:5,1,191.999994140625,4|0,0:1|0:0,0:0:0:0:
128,8,85320,1,8,0:0:0:0:
208,176,85431,2,0,P|114:153|19:149,1,191.999994140625,2|0,0:0|0:0,0:0:0:0:
296,136,85762,1,8,0:0:0:0:
296,136,85872,1,2,0:0:0:0:
296,136,85982,5,0,0:0:0:0:
296,136,86865,5,8,0:0:0:0:
320,216,86975,1,8,0:0:0:0:
336,296,87085,1,8,0:0:0:0:
335,295,87195,2,0,P|260:294|228:362,2,160,2|2|2,0:0|0:0|0:0,0:0:0:0:
448,368,87747,6,0,B|466:298|466:298|441:266|441:266|462:189,1,191.999994140625,10|10,0:0|0:0,0:0:0:0:
272,43,88077,2,0,P|287:88|295:135,1,95.9999970703126,0|10,0:0|0:0,0:0:0:0:
192,288,88298,1,0,0:0:0:0:
128,224,88408,6,0,B|166:193|166:193|211:204,1,95.9999970703126,10|0,0:0|0:0,0:0:0:0:
280,264,88629,1,10,0:0:0:0:
368,232,88739,2,0,B|399:194|399:194|387:148,1,95.9999970703126,0|10,0:0|0:0,0:0:0:0:
320,72,88960,1,0,0:0:0:0:
224,88,89070,5,10,0:0:0:0:
159,30,89180,1,0,0:0:0:0:
75,51,89291,1,10,0:0:0:0:
120,136,89401,5,0,0:0:0:0:
37,163,89511,1,10,0:0:0:0:
13,246,89622,1,0,0:0:0:0:
104,272,89732,5,10,0:0:0:0:
104,272,89842,1,0,0:0:0:0:
96,360,89952,2,0,P|48:365|1:373,1,95.9999970703126,12|0,0:1|0:0,0:0:0:0:
200,192,90173,2,0,P|269:209|340:221,1,143.999995605469,12|0,0:1|0:0,0:0:0:0:
400,272,90394,6,0,B|426:229|426:229|412:185,1,95.9999970703126,10|0,0:0|0:0,0:0:0:0:
232,40,90614,1,10,0:0:0:0:
176,99,90724,2,0,P|190:144|199:191,1,95.9999970703126,0|10,0:0|0:0,0:0:0:0:
144,264,90945,1,0,0:0:0:0:
216,352,91055,6,0,P|262:363|308:377,1,95.9999970703126,10|0,0:0|0:0,0:0:0:0:
392,344,91276,1,10,0:0:0:0:
480,360,91386,5,0,0:0:0:0:
512,288,91497,1,10,0:0:0:0:
464,224,91607,1,0,0:0:0:0:
368,216,91717,5,10,0:0:0:0:
304,152,91827,1,0,0:0:0:0:
320,64,91938,1,10,0:0:0:0:
391,120,92048,6,0,P|300:148|213:188,1,191.999994140625,4|0,0:1|0:0,0:0:0:0:
480,160,92379,2,0,B|496:112|496:112|472:73,1,95.9999970703126,8|0,0:0|0:0,0:0:0:0:
208,0,92599,2,0,B|192:48|192:48|215:86,1,95.9999970703126,8|0,0:0|0:0,0:0:0:0:
384,172,92820,6,0,L|392:120,3,40,8|8|0|0,0:0|0:0|0:0|0:0,0:0:0:0:
232,240,93041,2,0,L|224:188,3,40,4|4|0|0,0:0|0:0|0:0|0:0,0:0:0:0:
344,352,93261,2,0,L|352:300,3,40,8|8|0|0,0:0|0:0|0:0|0:0,0:0:0:0:
232,352,93482,5,12,0:1:0:0:
232,352,93592,1,0,0:0:0:0:
184,256,93702,6,0,P|277:275|368:305,1,191.999994140625,10|10,0:0|0:0,0:0:0:0:
184,160,94033,2,0,P|136:164|88:171,1,95.9999970703126,0|10,0:0|0:0,0:0:0:0:
8,336,94254,1,0,0:0:0:0:
88,376,94364,6,0,B|102:327|102:327|78:288,1,95.9999970703126,10|0,0:0|0:0,0:0:0:0:
8,240,94585,1,10,0:0:0:0:
88,152,94695,2,0,P|94:104|107:58,1,95.9999970703126,0|10,0:0|0:0,0:0:0:0:
184,16,94916,1,0,0:0:0:0:
264,56,95026,5,10,0:0:0:0:
344,80,95136,1,0,0:0:0:0:
360,160,95247,1,10,0:0:0:0:
296,224,95357,5,0,0:0:0:0:
336,297,95467,1,10,0:0:0:0:
291,365,95578,1,0,0:0:0:0:
200,360,95688,5,10,0:0:0:0:
200,360,95798,1,0,0:0:0:0:
144,288,95908,2,0,P|98:301|50:310,1,95.9999970703126,12|0,0:1|0:0,0:0:0:0:
270,110,96129,2,0,P|318:159|296:224,1,143.999995605469,12|0,0:1|0:0,0:0:0:0:
232,280,96349,6,0,B|211:239|211:239|222:190,1,95.9999970703126,10|0,0:0|0:0,0:0:0:0:
384,16,96570,1,10,0:0:0:0:
364,94,96680,2,0,P|316:99|270:110,1,95.9999970703126,0|10,0:0|0:0,0:0:0:0:
192,56,96901,1,0,0:0:0:0:
128,144,97011,2,0,P|81:133|33:128,1,95.9999970703126,10|0,0:0|0:0,0:0:0:0:
8,224,97232,1,10,0:0:0:0:
56,296,97342,5,0,0:0:0:0:
136,280,97452,1,10,0:0:0:0:
200,328,97563,1,0,0:0:0:0:
272,272,97673,5,10,0:0:0:0:
368,280,97783,1,0,0:0:0:0:
424,200,97894,1,10,0:0:0:0:
320,192,98004,6,0,P|349:285|367:379,1,191.999994140625,4|8,0:1|0:0,0:0:0:0:
192,248,98335,5,8,0:0:0:0:
208,168,98445,1,8,0:0:0:0:
224,88,98555,2,0,B|263:59|263:59|307:76,1,95.9999970703126,8|8,0:0|0:0,0:0:0:0:
248,328,98776,2,0,B|209:357|209:357|164:339,1,95.9999970703126,2|0,0:0|0:0,0:0:0:0:
0,152,98997,5,8,0:0:0:0:
85,175,99107,1,8,0:0:0:0:
170,198,99217,1,8,0:0:0:0:
263,222,99327,1,8,0:0:0:0:
355,245,99438,1,8,0:0:0:0:
480,32,99659,6,0,L|490:112,1,80,4|0,0:1|0:0,0:0:0:0:
416,232,99879,1,0,0:0:0:0:
392,152,99989,2,0,L|382:232,1,80,4|0,0:0|0:0,0:0:0:0:
272,320,100210,1,0,0:0:0:0:
336,368,100320,1,4,0:0:0:0:
416,351,100431,6,0,P|451:334|490:327,1,80
288,232,100651,1,4,0:0:0:0:
216,200,100761,1,0,0:0:0:0:
152,240,100872,1,0,0:0:0:0:
96,328,100982,5,4,0:0:0:0:
16,280,101092,1,4,0:0:0:0:
32,183,101203,2,0,P|49:148|56:109,1,80,8|4,0:0|0:0,0:0:0:0:
136,48,101423,5,4,0:1:0:0:
232,80,101534,2,0,P|224:40|207:5,1,80
392,72,101754,2,0,P|374:107|367:146,1,80,4|0,0:0|0:0,0:0:0:0:
280,256,101975,1,0,0:0:0:0:
344,304,102085,1,4,0:0:0:0:
424,288,102195,6,0,L|438:209,1,80
496,384,102416,2,0,L|510:305,1,80,4|0,0:0|0:0,0:0:0:0:
328,280,102636,1,0,0:0:0:0:
272,336,102747,1,4,0:0:0:0:
192,344,102857,1,4,0:0:0:0:
88,368,102967,5,8,0:0:0:0:
56,280,103078,1,0,0:0:0:0:
136,216,103188,6,0,L|150:137,1,80,4|0,0:1|0:0,0:0:0:0:
72,32,103409,1,0,0:0:0:0:
8,80,103519,2,0,L|22:159,1,80,4|0,0:0|0:0,0:0:0:0:
160,56,103739,2,0,P|199:47|238:38,1,80,0|4,0:0|0:0,0:0:0:0:
296,120,103960,6,0,P|335:128|374:137,1,80
432,56,104181,1,4,0:0:0:0:
496,104,104291,1,0,0:0:0:0:
480,184,104401,1,0,0:0:0:0:
384,224,104511,5,4,0:0:0:0:
320,296,104622,1,4,0:0:0:0:
368,376,104732,2,0,L|445:354,1,80,8|4,0:0|0:0,0:0:0:0:
256,208,104953,5,4,0:1:0:0:
192,256,105063,2,0,P|181:294|169:332,1,80
24,304,105284,2,0,P|36:342|46:380,1,80,4|0,0:0|0:0,0:0:0:0:
96,248,105504,1,0,0:0:0:0:
112,168,105614,1,4,0:0:0:0:
80,96,105725,6,0,P|40:104|1:113,1,80
160,0,105945,1,4,0:0:0:0:
240,16,106056,1,0,0:0:0:0:
319,32,106166,1,0,0:0:0:0:
408,96,106276,6,0,L|402:56,1,40,8|8,0:0|0:0,0:0:0:0:
416,88,106386,2,0,L|410:48,1,40
496,72,106497,5,12,0:1:0:0:
264,192,106717,5,4,0:1:0:0:
184,200,106828,1,8,0:0:0:0:
144,264,106938,1,0,0:0:0:0:
176,336,107048,1,8,0:0:0:0:
248,368,107159,2,0,L|325:346,1,80,2|8,0:0|0:0,0:0:0:0:
440,184,107379,2,0,L|362:205,1,80,0|8,0:0|0:0,0:0:0:0:
400,368,107600,5,2,0:0:0:0:
400,368,107710,1,8,0:0:0:0:
472,328,107820,1,0,0:0:0:0:
472,328,107931,1,8,0:0:0:0:
471,247,108041,2,0,P|459:209|455:170,1,80,2|8,0:0|0:0,0:0:0:0:
296,88,108261,2,0,P|308:49|312:10,1,80,0|8,0:0|0:0,0:0:0:0:
384,96,108482,5,4,0:1:0:0:
328,160,108592,1,8,0:0:0:0:
352,240,108703,1,0,0:0:0:0:
296,304,108813,2,0,B|256:304|256:304|230:334,1,80,8|0,0:0|0:0,0:0:0:0:
56,376,109034,1,8,0:0:0:0:
24,296,109144,1,0,0:0:0:0:
72,224,109254,1,8,0:0:0:0:
168,224,109364,5,2,0:0:0:0:
168,224,109475,2,0,L|153:302,1,80,10|2,0:0|0:0,0:0:0:0:
256,200,109695,1,10,0:0:0:0:
232,112,109806,1,2,0:0:0:0:
208,24,109916,1,10,0:0:0:0:
208,24,110026,2,0,L|128:16,1,80,2|10,0:0|0:0,0:0:0:0:
32,144,110247,5,4,0:1:0:0:
104,192,110357,1,8,0:0:0:0:
184,176,110467,1,0,0:0:0:0:
240,112,110578,1,8,0:0:0:0:
320,112,110688,2,0,B|344:152|344:152|338:184,1,80,2|8,0:0|0:0,0:0:0:0:
168,336,110909,2,0,B|144:296|144:296|149:263,1,80,0|8,0:0|0:0,0:0:0:0:
328,280,111129,5,2,0:0:0:0:
328,280,111240,1,8,0:0:0:0:
392,336,111350,1,0,0:0:0:0:
392,336,111460,1,8,0:0:0:0:
464,312,111570,2,0,B|480:272|480:272|463:238,1,80,2|8,0:0|0:0,0:0:0:0:
240,200,111791,2,0,B|224:240|224:240|240:273,1,80,0|8,0:0|0:0,0:0:0:0:
472,120,112011,5,4,0:1:0:0:
392,72,112122,1,8,0:0:0:0:
312,112,112232,1,0,0:0:0:0:
232,80,112342,2,0,L|216:1,1,80,8|0,0:0|0:0,0:0:0:0:
304,8,112563,1,8,0:0:0:0:
152,120,112673,2,0,L|136:198,1,80,0|8,0:0|0:0,0:0:0:0:
16,272,112894,5,2,0:0:0:0:
72,336,113004,1,10,0:0:0:0:
152,368,113114,1,2,0:0:0:0:
240,360,113225,1,10,0:0:0:0:
304,272,113335,5,2,0:0:0:0:
264,200,113446,1,10,0:0:0:0:
184,200,113556,1,2,0:0:0:0:
152,280,113666,1,10,0:0:0:0:
216,336,113776,6,0,L|255:342,3,40,8|0|0|0,0:0|0:0|0:0|0:0,0:0:0:0:
208,256,113997,2,0,L|168:262,3,40
232,176,114217,2,0,L|271:182,3,40
200,104,114438,2,0,L|122:125,1,80
328,360,114659,6,0,L|405:338,1,80,8|0,0:0|0:0,0:0:0:0:
424,264,114879,1,8,0:0:0:0:
472,176,114989,1,0,0:0:0:0:
440,88,115100,1,2,0:0:0:0:
456,72,115320,5,2,0:0:0:0:
415,168,115431,6,0,P|326:198|264:270,1,191.999994140625,4|0,0:1|0:0,0:0:0:0:
488,376,115761,2,0,P|503:331|491:285,1,95.9999970703126,8|0,0:0|0:0,0:0:0:0:
176,232,115982,2,0,P|160:276|172:322,1,95.9999970703126
256,360,116203,1,8,0:0:0:0:
304,176,116313,6,0,P|209:158|125:113,1,191.999994140625,2|0,0:0|0:0,0:0:0:0:
320,8,116644,2,0,B|336:48|336:48|315:96,1,95.9999970703126,8|0,0:0|0:0,0:0:0:0:
64,200,116864,1,0,0:0:0:0:
8,136,116975,1,0,0:0:0:0:
32,56,117085,1,8,0:0:0:0:
120,95,117195,6,0,P|200:138|199:230,1,191.999994140625,2|0,0:0|0:0,0:0:0:0:
72,360,117526,1,8,0:0:0:0:
72,272,117636,1,0,0:0:0:0:
152,320,117747,2,0,P|198:329|242:350,1,95.9999970703126
312,320,117967,1,8,0:0:0:0:
424,376,118078,6,0,B|448:336|448:336|441:287,1,95.9999970703126,2|0,0:0|0:0,0:0:0:0:
464,160,118298,1,2,0:0:0:0:
384,168,118409,1,8,0:0:0:0:
304,176,118519,2,0,P|288:83|342:6,1,191.999994140625,2|0,0:0|0:0,0:0:0:0:
384,88,118850,1,8,0:0:0:0:
207,144,118960,6,0,P|112:154|21:182,1,191.999994140625,4|0,0:1|0:0,0:0:0:0:
224,328,119291,2,0,P|239:283|227:237,1,95.9999970703126,8|0,0:0|0:0,0:0:0:0:
489,121,119511,2,0,P|473:165|485:211,1,95.9999970703126
408,264,119732,1,8,0:0:0:0:
304,144,119842,6,0,P|209:126|114:118,1,191.999994140625,2|0,0:0|0:0,0:0:0:0:
32,288,120173,2,0,B|72:312|72:312|118:295,1,95.9999970703126,8|0,0:0|0:0,0:0:0:0:
256,344,120394,1,0,0:0:0:0:
344,312,120504,1,0,0:0:0:0:
344,312,120614,1,8,0:0:0:0:
424,376,120725,6,0,L|437:280,1,95.9999970703126,2|0,0:0|0:0,0:0:0:0:
472,184,120945,1,0,0:0:0:0:
432,96,121056,1,8,0:0:0:0:
464,16,121166,1,0,0:0:0:0:
464,16,121276,2,0,P|419:33|372:44,1,95.9999970703126
296,8,121497,1,8,0:0:0:0:
112,88,121607,6,0,P|205:106|278:166,1,191.999994140625,2|0,0:0|0:0,0:0:0:0:
368,144,121938,1,8,0:0:0:0:
488,280,122048,2,0,P|394:294|325:359,1,191.999994140625,2|8,0:0|0:0,0:0:0:0:
224,328,122379,1,8,0:0:0:0:
80,376,122489,6,0,P|21:305|53:219,1,191.999994140625,4|0,0:1|0:0,0:0:0:0:
231,224,122820,2,0,P|187:242|140:249,1,95.9999970703126,8|0,0:0|0:0,0:0:0:0:
16,48,123041,2,0,P|60:29|107:22,1,95.9999970703126
64,128,123261,1,8,0:0:0:0:
208,48,123372,6,0,P|270:115|246:203,1,191.999994140625,2|0,0:0|0:0,0:0:0:0:
88,344,123703,2,0,P|134:342|169:374,1,95.9999970703126,8|0,0:0|0:0,0:0:0:0:
440,240,123923,2,0,P|393:241|358:209,1,95.9999970703126
456,152,124144,1,8,0:0:0:0:
448,336,124254,6,0,P|353:355|261:379,1,191.999994140625,2|0,0:0|0:0,0:0:0:0:
64,232,124585,2,0,P|50:187|74:147,1,95.9999970703126,8|0,0:0|0:0,0:0:0:0:
216,16,124806,1,0,0:0:0:0:
256,96,124916,1,0,0:0:0:0:
208,168,125026,1,8,0:0:0:0:
160,95,125136,6,0,P|255:85|347:59,1,191.999994140625,2|0,0:0|0:0,0:0:0:0:
160,95,125467,1,8,0:0:0:0:
192,264,125578,2,0,P|99:238|4:227,1,191.999994140625
192,264,125909,1,8,0:0:0:0:
112,384,126019,6,0,P|71:300|110:215,1,191.999994140625,4|0,0:1|0:0,0:0:0:0:
352,272,126350,2,0,B|347:323|347:323|313:352,1,95.9999970703126,8|0,0:0|0:0,0:0:0:0:
128,128,126570,2,0,B|133:77|133:77|166:47,1,95.9999970703126
224,168,126791,1,8,0:0:0:0:
440,128,126901,6,0,P|346:104|253:83,1,191.999994140625,2|0,0:0|0:0,0:0:0:0:
440,295,127232,2,0,P|469:259|465:212,1,95.9999970703126,8|0,0:0|0:0,0:0:0:0:
192,296,127453,2,0,P|187:342|217:379,1,95.9999970703126
272,248,127673,1,8,0:0:0:0:
80,216,127784,6,0,P|64:121|28:32,1,191.999994140625,2|0,0:0|0:0,0:0:0:0:
208,104,128114,2,0,P|189:148|178:194,1,95.9999970703126,8|0,0:0|0:0,0:0:0:0:
368,344,128335,1,0,0:0:0:0:
448,304,128445,1,0,0:0:0:0:
448,304,128556,1,8,0:0:0:0:
368,248,128666,6,0,P|281:284|239:368,1,191.999994140625,4|0,0:1|0:0,0:0:0:0:
368,248,128997,1,8,0:0:0:0:
232,160,129107,6,0,P|145:123|103:39,1,191.999994140625,4|0,0:1|0:0,0:0:0:0:
232,160,129438,1,8,0:0:0:0:
136,184,129548,1,2,0:0:0:0:
136,184,130541,5,8,0:0:0:0:
112,272,130651,1,8,0:0:0:0:
88,360,130761,1,8,0:0:0:0:
87,359,130872,2,0,P|23:317|21:240,2,160,2|2|2,0:0|0:0|0:0,0:0:0:0:
248,304,131423,5,2,0:0:0:0:
184,16,134953,5,8,0:0:0:0:
280,168,135284,5,8,0:0:0:0:
128,104,135504,1,8,0:0:0:0:
288,160,135725,5,0,0:0:0:0:
192,184,135835,1,8,0:0:0:0:
280,168,136166,5,8,0:0:0:0:
128,104,136386,1,8,0:0:0:0:
288,160,136607,5,0,0:0:0:0:
192,184,136717,1,8,0:0:0:0:
184,200,137048,5,8,0:0:0:0:
280,64,137269,1,8,0:0:0:0:
192,184,137489,5,0,0:0:0:0:
280,168,137600,1,8,0:0:0:0:
352,208,137710,1,8,0:0:0:0:
368,288,137820,1,8,0:0:0:0:
328,360,137931,1,8,0:0:0:0:
136,288,138151,5,8,0:0:0:0:
408,368,138372,5,8,0:0:0:0:
272,288,138482,6,0,B|210:211|314:179|258:108,1,191.999994140625,4|8,0:1|0:0,0:0:0:0:
136,56,138813,1,0,0:0:0:0:
64,112,138923,1,0,0:0:0:0:
64,112,139034,1,0,0:0:0:0:
136,160,139144,2,0,B|152:112|152:112|138:68,1,95.9999970703126,10|0,0:0|0:0,0:0:0:0:
0,296,139364,6,0,P|91:325|176:370,1,191.999994140625,2|8,0:0|0:0,0:0:0:0:
248,336,139695,1,0,0:0:0:0:
336,352,139806,5,2,0:0:0:0:
352,328,139916,1,0,0:0:0:0:
440,304,140026,5,10,0:0:0:0:
427,278,140136,1,0,0:0:0:0:
392,208,140247,5,2,0:0:0:0:
392,208,140357,1,0,0:0:0:0:
392,208,140467,1,8,0:0:0:0:
296,216,140578,5,2,0:0:0:0:
288,184,140688,1,0,0:0:0:0:
296,216,140798,1,0,0:0:0:0:
184,248,140909,5,10,0:0:0:0:
200,184,141019,1,0,0:0:0:0:
184,248,141129,5,2,0:0:0:0:
160,312,141239,1,0,0:0:0:0:
144,368,141350,2,0,L|49:383,1,95.9999970703126,8|0,0:0|0:0,0:0:0:0:
0,136,141570,1,2,0:0:0:0:
64,96,141681,1,0,0:0:0:0:
144,48,141791,5,8,0:0:0:0:
216,88,141901,1,0,0:0:0:0:
296,55,142011,2,0,P|385:49|422:132,1,191.999994140625,2|8,0:0|0:0,0:0:0:0:
336,232,142342,1,2,0:0:0:0:
312,256,142453,1,0,0:0:0:0:
320,288,142563,1,0,0:0:0:0:
384,360,142673,5,10,0:0:0:0:
384,360,142784,1,0,0:0:0:0:
232,288,142894,6,0,P|209:329|210:377,1,95.9999970703126,2|0,0:0|0:0,0:0:0:0:
296,376,143114,1,8,0:0:0:0:
408,272,143225,2,0,P|408:224|386:182,1,95.9999970703126,2|0,0:0|0:0,0:0:0:0:
416,96,143445,1,0,0:0:0:0:
336,72,143556,1,10,0:0:0:0:
280,136,143666,1,0,0:0:0:0:
208,96,143776,6,0,P|141:31|49:40,1,191.999994140625,2|0,0:0|0:0,0:0:0:0:
96,207,144107,2,0,P|112:163|103:116,1,95.9999970703126
8,168,144328,1,2,0:0:0:0:
0,256,144438,1,8,0:0:0:0:
80,312,144548,1,0,0:0:0:0:
176,375,144659,6,0,P|222:363|269:359,1,95.9999970703126,2|0,0:0|0:0,0:0:0:0:
304,88,144879,2,0,P|394:117|471:174,1,191.999994140625,2|8,0:0|0:0,0:0:0:0:
376,376,145210,1,8,0:0:0:0:
328,296,145320,1,8,0:0:0:0:
368,216,145431,1,8,0:0:0:0:
496,280,145541,5,2,0:0:0:0:
496,280,145651,1,0,0:0:0:0:
496,280,145761,2,0,B|440:272|440:272|405:291,1,95.9999970703126,10|0,0:0|0:0,0:0:0:0:
272,128,145982,5,2,0:0:0:0:
256,120,146037,1,0,0:0:0:0:
240,112,146092,1,0,0:0:0:0:
224,104,146147,1,0,0:0:0:0:
208,96,146203,2,0,L|202:48,3,47.9999985351563,8|0|2|0,0:0|0:0|0:0|0:0,0:0:0:0:
24,192,146423,6,0,L|29:239,3,47.9999985351563,2|0|0|0,0:0|0:0|0:0|0:0,0:0:0:0:
72,112,146644,2,0,L|117:127,3,47.9999985351563,10|0|0|0,0:0|0:0|0:0|0:0,0:0:0:0:
168,224,146864,2,0,L|213:208,3,47.9999985351563,2|0|0|0,0:0|0:0|0:0|0:0,0:0:0:0:
344,224,147085,2,0,B|368:176|368:176|357:134,1,95.9999970703126,10|0,0:0|0:0,0:0:0:0:
496,320,147306,5,2,0:0:0:0:
408,352,147416,1,0,0:0:0:0:
320,384,147526,2,0,L|256:358,2,63.9999980468751,10|0|0,0:0|0:0|0:0,0:0:0:0:
156,326,147747,6,0,L|88:349,2,63.9999980468751,2|0|0,0:0|0:0|0:0,0:0:0:0:
244,262,147967,2,0,L|264:193,2,63.9999980468751,10|0|0,0:0|0:0|0:0,0:0:0:0:
136,136,148188,6,0,L|116:60,2,63.9999980468751,6|0|0,0:0|0:0|0:0,0:0:0:0:
216,24,148409,1,14,0:0:0:0:
304,40,148519,1,0,0:0:0:0:
335,143,148629,2,0,P|244:156|199:238,1,191.999994140625,6|0,0:0|0:0,0:0:0:0:
392,216,148960,1,0,0:0:0:0:
440,128,149070,6,0,L|445:80,3,47.9999985351563,2|0|0|0,0:0|0:0|0:0|0:0,0:0:0:0:
392,16,149291,1,10,0:0:0:0:
304,40,149401,1,0,0:0:0:0:
271,136,149511,2,0,P|273:183|286:229,1,95.9999970703126,2|0,0:0|0:0,0:0:0:0:
144,360,149732,1,10,0:0:0:0:
56,320,149842,1,0,0:0:0:0:
8,239,149953,6,0,P|48:215|94:223,1,95.9999970703126,2|0,0:0|0:0,0:0:0:0:
368,384,150173,2,0,L|355:288,1,95.9999970703126,10|0,0:0|0:0,0:0:0:0:
264,304,150394,1,0,0:0:0:0:
184,208,150504,2,0,L|196:112,1,95.9999970703126,2|8,0:0|0:0,0:0:0:0:
256,40,150725,1,0,0:0:0:0:
128,16,150835,6,0,P|80:21|37:43,1,95.9999970703126,2|0,0:0|0:0,0:0:0:0:
112,96,151056,1,8,0:0:0:0:
272,48,151166,2,0,P|319:53|362:75,1,95.9999970703126,2|0,0:0|0:0,0:0:0:0:
280,136,151386,1,0,0:0:0:0:
168,216,151497,2,0,L|74:194,1,95.9999970703126,10|0,0:0|0:0,0:0:0:0:
280,352,151717,5,10,0:0:0:0:
292,275,151828,1,8,0:0:0:0:
305,198,151938,1,8,0:0:0:0:
317,121,152048,1,8,0:0:0:0:
247,57,152159,5,8,0:0:0:0:
260,140,152269,1,8,0:0:0:0:
273,224,152379,1,8,0:0:0:0:
285,307,152489,1,8,0:0:0:0:
232,368,152600,5,2,0:0:0:0:
8,48,153372,6,0,P|212:115|137:317,1,480,4|2,0:1|2:2,0:0:0:0:
137,317,154364,5,2,0:0:0:0:
272,352,155136,6,0,P|452:324|446:141,1,400,4|0,0:1|0:0,0:0:0:0:
376,96,155798,1,0,0:0:0:0:
296,104,155909,1,0,0:0:0:0:
256,176,156019,1,0,0:0:0:0:
280,256,156129,6,0,P|359:266|437:282,1,160,4|0,0:1|0:0,0:0:0:0:
200,280,156460,1,0,0:0:0:0:
328,160,156570,2,0,P|249:175|170:186,1,160,8|0,0:0|0:0,0:0:0:0:
16,120,156901,6,0,P|4:82|18:45,1,80,4|0,0:1|0:0,0:0:0:0:
152,16,157122,2,0,P|163:53|149:90,1,80
96,160,157342,1,0,0:0:0:0:
200,280,157453,6,0,P|272:255|288:181,1,160,8|0,0:0|0:0,0:0:0:0:
224,120,157784,1,0,0:0:0:0:
336,32,157894,6,0,P|408:56|424:130,1,160,4|0,0:1|0:0,0:0:0:0:
496,184,158225,1,0,0:0:0:0:
376,232,158335,2,0,P|349:307|329:384,1,160,8|0,0:0|0:0,0:0:0:0:
480,344,158666,1,4,0:1:0:0:
480,344,158776,6,0,P|482:304|463:270,1,80
288,216,158997,2,0,P|285:255|304:289,1,80
176,368,159217,1,8,0:0:0:0:
96,344,159328,1,8,0:0:0:0:
72,264,159438,1,2,0:0:0:0:
328,168,159659,6,0,B|354:104|354:104|320:55,1,128,4|0,3:1|0:0,0:0:0:0:
232,0,159989,2,0,P|219:62|201:124,1,128,0|0,3:0|0:0,0:0:0:0:
120,152,160320,1,8,0:1:0:0:
64,352,160541,6,0,P|125:356|162:307,1,128,0|2,3:0|0:3,0:0:0:0:
161,299,160835,1,2,0:3:0:0:
161,291,160909,1,2,0:3:0:0:
160,283,160982,1,2,0:3:0:0:
288,336,161203,1,0,3:0:0:0:
416,376,161423,5,8,0:1:0:0:
480,256,161644,2,0,P|495:195|474:136,1,128,0|0,3:0|0:0,0:0:0:0:
408,88,161975,2,0,P|430:66|443:36,1,64,12|0,3:0|3:0,0:0:0:0:
304,224,162306,5,0,3:0:0:0:
112,128,162526,2,0,P|147:180|154:243,1,128,8|0,0:1|3:0,0:0:0:0:
320,16,162967,2,0,P|284:68|277:131,1,128,8|0,0:1|3:0,0:0:0:0:
112,32,163409,1,8,0:1:0:0:
24,296,163629,6,0,B|72:336|72:336|137:323,1,128,4|0,3:1|0:0,0:0:0:0:
224,384,163960,2,0,P|242:322|253:259,1,128,0|0,3:0|0:0,0:0:0:0:
208,176,164291,1,8,0:1:0:0:
320,16,164512,6,0,P|382:11|419:60,1,128,0|0,3:0|0:0,0:0:0:0:
418,67,164806,1,2,0:3:0:0:
418,75,164880,1,2,0:3:0:0:
417,83,164953,1,2,0:3:0:0:
303,168,165173,1,0,3:0:0:0:
168,144,165394,1,8,0:1:0:0:
64,248,165614,6,0,P|33:303|24:366,1,128,0|0,3:0|0:0,0:0:0:0:
120,320,165945,2,0,P|133:349|138:380,1,64,12|0,0:3|0:0,0:0:0:0:
272,256,166276,5,0,3:0:0:0:
64,144,166497,2,0,P|45:84|74:28,1,128,8|4,0:1|0:3,0:0:0:0:
152,8,166828,2,0,L|216:16,1,64,4|4,0:3|0:3,0:0:0:0:
184,256,167159,1,8,0:1:0:0:
408,368,167379,1,4,0:3:0:0:
424,344,167489,1,4,0:3:0:0:
440,312,167600,6,0,L|425:233,1,80,14|0,0:1|0:0,0:0:0:0:
328,208,167820,2,0,L|342:129,1,80
344,32,168041,5,10,0:0:0:0:
296,16,168151,1,0,0:0:0:0:
248,32,168261,1,0,0:0:0:0:
224,72,168372,1,0,0:0:0:0:
135,88,168482,6,0,P|128:126|138:165,1,80,10|0,0:0|0:0,0:0:0:0:
16,256,168703,2,0,P|23:217|13:178,1,80
128,280,168923,6,0,L|203:305,1,80,10|0,0:0|0:0,0:0:0:0:
280,384,169144,2,0,L|355:358,1,80
472,384,169364,6,0,L|488:305,1,80,10|0,0:0|0:0,0:0:0:0:
432,224,169585,1,4,0:1:0:0:
416,200,169695,1,0,0:0:0:0:
392,168,169806,1,8,0:0:0:0:
376,144,169916,1,0,0:0:0:0:
424,72,170026,5,2,0:0:0:0:
392,56,170136,1,0,0:0:0:0:
360,40,170247,1,8,0:0:0:0:
328,24,170357,1,0,0:0:0:0:
256,96,170467,5,2,0:0:0:0:
208,64,170578,1,0,0:0:0:0:
144,0,170688,5,8,0:0:0:0:
64,32,170798,1,0,0:0:0:0:
16,112,170909,5,2,0:0:0:0:
104,128,171019,1,0,0:0:0:0:
104,216,171129,5,8,0:0:0:0:
104,216,171239,1,0,0:0:0:0:
32,288,171350,6,0,B|8:256|8:256|13:216,1,80,2|0,0:0|0:0,0:0:0:0:
184,168,171570,2,0,B|208:200|208:200|202:239,1,80,14|0,0:1|0:0,0:0:0:0:
112,360,171791,2,0,L|190:375,1,80
296,312,172011,5,10,0:0:0:0:
336,328,172122,1,0,0:0:0:0:
368,344,172232,1,0,0:0:0:0:
400,360,172342,1,0,0:0:0:0:
480,320,172453,2,0,P|481:280|485:240,1,80,10|0,0:0|0:0,0:0:0:0:
360,152,172673,2,0,P|358:191|354:231,1,80
472,136,172894,5,10,0:0:0:0:
472,136,173004,1,0,0:0:0:0:
472,48,173114,1,0,0:0:0:0:
472,48,173225,1,0,0:0:0:0:
392,0,173335,2,0,L|317:28,1,80,10|0,0:0|0:0,0:0:0:0:
224,88,173556,5,6,0:1:0:0:
176,72,173666,1,0,0:0:0:0:
128,56,173776,1,8,0:0:0:0:
80,40,173886,1,0,0:0:0:0:
16,144,173997,5,2,0:0:0:0:
64,128,174107,1,0,0:0:0:0:
112,112,174217,1,8,0:0:0:0:
160,96,174327,1,0,0:0:0:0:
248,144,174438,5,2,0:0:0:0:
248,144,174548,1,0,0:0:0:0:
232,232,174659,5,8,0:0:0:0:
152,216,174769,1,0,0:0:0:0:
96,312,174879,5,2,0:0:0:0:
176,304,174989,1,0,0:0:0:0:
240,368,175100,5,8,0:0:0:0:
240,368,175210,1,0,0:0:0:0:
320,336,175320,5,10,0:0:0:0:
320,336,175431,1,0,0:0:0:0:
392,376,175541,5,4,0:1:0:0:
288,248,176864,5,8,0:0:0:0:
303,249,176937,1,0,0:0:0:0:
317,250,177011,1,0,0:0:0:0:
331,251,177084,1,8,0:0:0:0:
345,252,177158,1,0,0:0:0:0:
359,253,177231,1,0,0:0:0:0:
374,255,177305,5,12,0:0:0:0:
401,233,177378,1,4,0:0:0:0:
417,201,177452,1,4,0:0:0:0:
418,166,177525,1,12,0:0:0:0:
405,133,177599,1,4,0:0:0:0:
380,108,177672,1,4,0:0:0:0:
347,95,177747,6,0,L|285:107,1,64,8|0,0:0|0:0,0:0:0:0:
208,184,177967,1,8,0:0:0:0:
128,120,178078,1,8,0:0:0:0:
48,192,178188,6,0,L|16:197,3,32
72,208,178409,1,8,0:0:0:0:
0,344,178519,6,0,P|236:303|473:266,1,480,4|0,0:1|0:0,2:0:0:0:
416,320,179401,1,8,0:0:0:0:
416,320,179621,1,8,0:0:0:0:
416,320,179842,1,8,0:0:0:0:
336,216,180062,6,0,L|329:255,2,40,0|0|8,0:0|0:0|0:0,0:0:0:0:
472,88,180283,6,0,B|480:32|480:32|452:4,1,95.9999970703126,4|0,0:1|0:1,0:0:0:0:
368,40,180504,1,0,0:0:0:0:
280,24,180614,1,8,0:0:0:0:
240,96,180724,1,0,0:0:0:0:
152,112,180834,2,0,L|167:17,1,95.9999970703126
72,128,181055,1,8,0:0:0:0:
0,239,181165,6,0,P|89:257|114:345,1,191.999994140625,2|2,0:0|0:0,0:0:0:0:
112,232,181496,1,8,0:0:0:0:
256,312,181606,6,0,P|302:320|343:297,1,95.9999970703126,2|0,0:0|0:0,0:0:0:0:
376,64,181827,1,0,0:0:0:0:
280,56,181937,1,8,0:0:0:0:
224,128,182048,6,0,P|131:143|54:200,1,191.999994140625,4|0,0:1|0:0,0:0:0:0:
312,216,182379,2,0,P|333:173|332:126,1,95.9999970703126,8|0,0:0|0:0,0:0:0:0:
120,288,182599,2,0,P|98:330|99:377,1,95.9999970703126
16,288,182820,1,8,0:0:0:0:
208,272,182930,6,0,P|295:311|367:373,1,191.999994140625,2|0,0:0|0:0,0:0:0:0:
488,240,183261,2,0,P|440:245|394:256,1,95.9999970703126,8|0,0:0|0:0,0:0:0:0:
176,368,183481,1,0,0:0:0:0:
95,320,183592,1,0,0:0:0:0:
87,232,183702,1,8,0:0:0:0:
135,152,183812,6,0,L|230:167,1,95.9999970703126,2|0,0:0|0:0,0:0:0:0:
328,192,184033,1,0,0:0:0:0:
408,144,184143,1,8,0:0:0:0:
408,144,184254,1,0,0:0:0:0:
464,64,184364,6,0,B|421:38|421:38|376:49,1,95.9999970703126
288,0,184584,1,8,0:0:0:0:
144,48,184695,6,0,P|156:94|160:141,1,95.9999970703126,2|0,0:0|0:0,0:0:0:0:
368,320,184915,2,0,P|371:272|384:226,1,95.9999970703126,0|8,0:0|0:0,0:0:0:0:
104,256,185136,2,0,P|17:280|7:370,1,191.999994140625,2|8,0:0|0:0,0:0:0:0:
232,288,185467,1,8,0:0:0:0:
134,151,185577,6,0,P|144:246|165:339,1,191.999994140625,4|0,0:1|0:0,0:0:0:0:
32,160,185908,2,0,P|38:113|47:66,1,95.9999970703126,8|0,0:0|0:0,0:0:0:0:
320,32,186129,1,0,0:0:0:0:
320,32,186239,1,0,0:0:0:0:
392,88,186349,1,8,0:0:0:0:
376,176,186459,6,0,P|282:193|192:225,1,191.999994140625,2|0,0:0|0:0,0:0:0:0:
96,336,186790,2,0,P|49:323|2:314,1,95.9999970703126,8|0,0:0|0:0,0:0:0:0:
128,80,187011,1,0,0:0:0:0:
216,104,187121,1,0,0:0:0:0:
304,128,187231,1,8,0:0:0:0:
360,208,187342,6,0,P|450:206|486:122,1,191.999994140625,2|0,0:0|0:0,0:0:0:0:
288,256,187673,2,0,P|294:303|296:351,1,95.9999970703126,8|0,0:0|0:0,0:0:0:0:
384,96,187893,2,0,P|377:48|375:0,1,95.9999970703126
296,88,188114,1,8,0:0:0:0:
125,182,188224,6,0,B|232:174|176:270|287:256,1,191.999994140625,2|0,0:0|0:0,0:0:0:0:
280,176,188555,1,8,0:0:0:0:
112,288,188665,2,0,B|101:336|101:336|126:375,1,95.9999970703126
400,376,188886,1,0,0:0:0:0:
480,328,188996,1,8,0:0:0:0:
469,236,189106,6,0,P|417:163|329:182,1,191.999994140625,4|0,0:1|0:0,0:0:0:0:
272,368,189437,2,0,P|260:322|255:274,1,95.9999970703126,8|0,0:0|0:0,0:0:0:0:
80,160,189658,2,0,P|74:207|64:254,1,95.9999970703126
0,160,189879,1,8,0:0:0:0:
64,344,189989,6,0,P|156:316|250:297,1,191.999994140625,2|0,0:0|0:0,0:0:0:0:
344,384,190320,2,0,P|346:336|355:289,1,95.9999970703126,8|0,0:0|0:0,0:0:0:0:
496,168,190540,2,0,P|493:120|484:73,1,95.9999970703126
408,16,190761,1,8,0:0:0:0:
208,80,190871,6,0,P|202:170|284:208,1,191.999994140625,2|0,0:0|0:0,0:0:0:0:
408,104,191202,2,0,P|360:109|314:122,1,95.9999970703126,8|0,0:0|0:0,0:0:0:0:
376,192,191423,1,0,0:0:0:0:
256,304,191533,2,0,P|209:291|162:285,1,95.9999970703126,0|8,0:0|0:0,0:0:0:0:
0,168,191754,6,0,P|3:263|26:356,1,191.999994140625,4|0,0:1|0:0,0:0:0:0:
88,128,192084,1,8,0:0:0:0:
208,192,192195,2,0,P|212:96|235:3,1,191.999994140625,2|0,0:0|0:0,0:0:0:0:
312,232,192526,1,8,0:0:0:0:
312,232,192636,1,2,0:0:0:0:
312,232,192746,5,0,0:0:0:0:
296,160,193629,1,8,0:0:0:0:
376,128,193739,1,8,0:0:0:0:
464,104,193849,1,8,0:0:0:0:
464,104,193959,2,0,P|504:152|472:256,2,160,2|2|2,0:0|0:0|0:0,0:0:0:0:
256,336,194511,6,0,B|186:318|186:318|154:343|154:343|77:322,1,191.999994140625,10|10,0:0|0:0,0:0:0:0:
336,272,194841,2,0,P|351:317|359:364,1,95.9999970703126,0|10,0:0|0:0,0:0:0:0:
264,224,195062,1,0,0:0:0:0:
296,128,195172,6,0,B|334:97|334:97|379:108,1,95.9999970703126,10|0,0:0|0:0,0:0:0:0:
472,136,195393,1,10,0:0:0:0:
456,240,195503,2,0,B|468:286|468:286|437:324,1,95.9999970703126,0|10,0:0|0:0,0:0:0:0:
359,364,195724,1,0,0:0:0:0:
272,384,195834,5,10,0:0:0:0:
207,326,195944,1,0,0:0:0:0:
123,347,196055,1,10,0:0:0:0:
64,272,196165,5,0,0:0:0:0:
5,207,196275,1,10,0:0:0:0:
26,123,196386,1,0,0:0:0:0:
120,160,196496,5,10,0:0:0:0:
120,160,196606,1,0,0:0:0:0:
208,120,196716,2,0,P|216:72|221:24,1,95.9999970703126,12|0,0:1|0:0,0:0:0:0:
392,240,196937,2,0,P|375:309|363:380,1,143.999995605469,12|0,0:1|0:0,0:0:0:0:
464,376,197158,6,0,B|490:333|490:333|476:289,1,95.9999970703126,10|0,0:0|0:0,0:0:0:0:
376,72,197378,1,10,0:0:0:0:
296,112,197488,2,0,P|310:157|319:204,1,95.9999970703126,0|10,0:0|0:0,0:0:0:0:
264,272,197709,1,0,0:0:0:0:
176,320,197819,6,0,P|130:305|83:294,1,95.9999970703126,10|0,0:0|0:0,0:0:0:0:
16,224,198040,1,10,0:0:0:0:
8,136,198150,5,0,0:0:0:0:
80,96,198261,1,10,0:0:0:0:
144,144,198371,1,0,0:0:0:0:
232,104,198481,5,10,0:0:0:0:
304,160,198591,1,0,0:0:0:0:
400,144,198702,1,10,0:0:0:0:
410,35,198812,6,0,P|319:63|232:103,1,191.999994140625,4|0,0:1|0:0,0:0:0:0:
144,160,199143,2,0,B|120:121|120:121|136:73,1,95.9999970703126,8|0,0:0|0:0,0:0:0:0:
400,144,199363,2,0,B|423:182|423:182|407:230,1,95.9999970703126,8|0,0:0|0:0,0:0:0:0:
192,320,199584,6,0,L|208:264,3,47.9999985351563,8|8|0|0,0:0|0:0|0:0|0:0,0:0:0:0:
317,206,199805,2,0,L|301:150,3,47.9999985351563,0|0|4|4,0:0|0:0|0:0|0:0,0:0:0:0:
400,288,200025,2,0,L|386:334,3,47.9999985351563,8|8|0|0,0:0|0:0|0:0|0:0,0:0:0:0:
480,224,200246,5,12,0:1:0:0:
480,224,200356,1,0,0:0:0:0:
392,264,200466,6,0,P|299:245|208:215,1,191.999994140625,10|10,0:0|0:0,0:0:0:0:
376,368,200797,2,0,P|423:361|471:357,1,95.9999970703126,0|10,0:0|0:0,0:0:0:0:
512,128,201018,1,0,0:0:0:0:
432,88,201128,6,0,B|418:137|418:137|442:176,1,95.9999970703126,10|0,0:0|0:0,0:0:0:0:
400,256,201349,1,10,0:0:0:0:
272,344,201459,2,0,P|278:296|291:250,1,95.9999970703126,0|10,0:0|0:0,0:0:0:0:
344,184,201680,1,0,0:0:0:0:
288,112,201790,5,10,0:0:0:0:
264,32,201900,1,0,0:0:0:0:
184,16,202011,1,10,0:0:0:0:
128,88,202121,5,0,0:0:0:0:
44,89,202231,1,10,0:0:0:0:
8,162,202342,1,0,0:0:0:0:
64,232,202452,5,10,0:0:0:0:
64,232,202562,1,0,0:0:0:0:
48,312,202672,2,0,P|94:325|142:334,1,95.9999970703126,12|0,0:1|0:0,0:0:0:0:
336,264,202893,2,0,P|384:313|362:378,1,143.999995605469,12|0,0:1|0:0,0:0:0:0:
272,320,203113,6,0,B|251:279|251:279|262:230,1,95.9999970703126,10|0,0:0|0:0,0:0:0:0:
376,32,203334,1,10,0:0:0:0:
412,110,203444,2,0,P|460:115|506:126,1,95.9999970703126,0|10,0:0|0:0,0:0:0:0:
496,208,203665,1,0,0:0:0:0:
376,312,203775,2,0,P|365:265|360:217,1,95.9999970703126,10|0,0:0|0:0,0:0:0:0:
320,144,203996,1,10,0:0:0:0:
264,80,204106,5,0,0:0:0:0:
192,120,204216,1,10,0:0:0:0:
120,80,204327,1,0,0:0:0:0:
48,136,204437,5,10,0:0:0:0:
24,224,204547,1,0,0:0:0:0:
104,280,204658,1,10,0:0:0:0:
160,352,204768,6,0,P|253:323|347:305,1,191.999994140625,4|0,0:1|0:0,0:0:0:0:
424,352,205099,5,8,0:0:0:0:
496,288,205209,2,0,L|482:241,1,47.9999985351563
504,280,205319,2,0,L|490:233,1,47.9999985351563,8|0,0:0|0:0,0:0:0:0:
400,176,205430,6,0,L|408:145,3,31.9999990234375,0|0|0|4,0:0|0:0|0:0|0:0,0:0:0:0:
504,104,205650,6,0,L|488:60,2,47.9999985351563
272,232,205871,6,0,L|227:248,2,47.9999985351563,4|4|8,0:0|0:0|0:0,0:0:0:0:
280,128,206085,5,8,0:0:0:0:
184,96,206189,1,8,0:0:0:0:
152,200,206293,1,8,0:0:0:0:
264,224,206397,1,4,0:1:0:0:
256,192,206452,12,0,208161,0:0:0:0:
