osu file format v14

[General]
AudioFilename: audio.mp3
AudioLeadIn: 0
PreviewTime: 68641
Countdown: 1
SampleSet: None
StackLeniency: 0.2
Mode: 0
LetterboxInBreaks: 0
WidescreenStoryboard: 1

[Editor]
Bookmarks: 3789,8201,27060,34229,41067,43053,60700,71509,106581,114523,115515,129523,131232,138401,159467,167464,175405,177997,192997,194375,206286,208051,208161
DistanceSpacing: 0.2
BeatDivisor: 4
GridSize: 4
TimelineZoom: 1

[Metadata]
Title:Naikan Uchuu Shisha no Yurikago
TitleUnicode:内観宇宙死者のゆりかご
Artist:Yousei Teikoku
ArtistUnicode:妖精帝國
Creator:Antares-
Version:testplay pattern
Source:
Tags:
BeatmapID:1362479
BeatmapSetID:642289

[Difficulty]
HPDrainRate:5
CircleSize:4
OverallDifficulty:9
ApproachRate:9.7
SliderMultiplier:2.1
SliderTickRate:1

[Events]
//Background and Video events
0,0,"1letssee.jpg",0,0
//Break Periods
//Storyboard Layer 0 (Background)
//Storyboard Layer 1 (Fail)
//Storyboard Layer 2 (Pass)
//Storyboard Layer 3 (Foreground)
//Storyboard Sound Samples

[TimingPoints]
310,220.588235294118,4,1,0,100,1,0
7589,-133.333333333333,4,1,0,100,0,0
8251,220.588235294118,3,1,0,100,1,0
10236,-80,3,1,0,100,0,0
10907,-100,3,1,0,100,0,0
13434,-133.333333333333,3,1,0,100,0,0
14206,-100,3,1,0,100,0,0
20162,220.588235294118,4,1,0,100,1,0
41228,-200,4,1,0,100,0,0
62733,-100,4,1,0,100,0,0
63397,-50,4,1,0,100,0,0
70014,-100,4,1,0,100,0,0
87662,220.588235294118,3,1,0,100,1,0

[HitObjects]
93,76,34279,5,6,0:3:0:0:
121,178,34389,1,0,0:0:0:0:
224,149,34499,1,8,0:3:0:0:
195,47,34610,1,0,0:0:0:0:
188,214,34719,5,2,0:3:0:0:
290,186,34830,1,0,0:0:0:0:
261,83,34940,1,8,0:3:0:0:
159,112,35051,1,0,0:0:0:0:
252,251,35162,5,6,0:3:0:0:
224,149,35272,1,0,0:0:0:0:
121,178,35382,1,8,0:3:0:0:
150,280,35493,1,0,0:0:0:0:
290,186,35603,5,2,0:3:0:0:
188,214,35713,1,0,0:0:0:0:
217,317,35824,1,8,0:3:0:0:
319,288,35934,1,0,0:0:0:0:
150,280,36044,5,0,0:0:0:0:
224,149,36154,1,0,0:0:0:0:
217,317,36264,1,0,0:0:0:0:
159,112,36375,2,0,L|277:84,1,105
280,360,36595,2,0,L|177:384,1,105
224,149,36816,2,0,P|251:199|243:263,1,105
353,113,37037,6,0,P|403:86|467:94,1,105
423,163,37257,1,0,0:0:0:0:
283,13,37367,1,0,0:0:0:0:
224,149,37478,1,0,0:0:0:0:
332,278,37588,2,0,P|380:294|435:285,1,105
419,76,37809,5,6,0:3:0:0:
391,178,37919,1,0,0:0:0:0:
288,149,38029,1,8,0:3:0:0:
317,47,38140,1,0,0:0:0:0:
324,214,38249,5,2,0:3:0:0:
222,186,38360,1,0,0:0:0:0:
251,83,38470,1,8,0:3:0:0:
353,112,38581,1,0,0:0:0:0:
260,251,38692,5,6,0:3:0:0:
288,149,38802,1,0,0:0:0:0:
391,178,38912,1,8,0:3:0:0:
362,280,39023,1,0,0:0:0:0:
222,186,39133,5,2,0:3:0:0:
324,214,39243,1,0,0:0:0:0:
295,317,39354,1,8,0:3:0:0:
193,288,39464,1,0,0:0:0:0:
362,280,39573,5,0,0:0:0:0:
288,149,39684,1,0,0:0:0:0:
295,317,39794,1,0,0:0:0:0:
353,112,39904,2,0,P|300:75|248:87,1,105
170,208,40125,1,0,2:0:0:0:
193,288,40235,1,0,2:0:0:0:
250,230,40345,1,0,2:0:0:0:
159,57,40456,5,0,0:0:0:0:
159,57,40511,1,0,0:0:0:0:
159,57,40566,1,0,0:0:0:0:
204,123,40676,2,0,P|147:141|101:118,1,105
249,55,40897,2,0,P|285:109|268:174,1,105
221,267,41117,1,0,0:0:0:0:
221,267,41228,6,0,B|200:325|200:325|280:307|279:251|253:216|253:216|319:258|366:243|366:243|417:228|472:252,1,420
472,251,42220,5,0,0:0:0:0:
489,216,42331,1,0,0:0:0:0:
463,178,42441,1,0,0:0:0:0:
480,146,42551,1,0,0:0:0:0:
460,104,42662,1,0,0:0:0:0:
477,72,42772,1,0,0:0:0:0:
459,28,42882,1,0,0:0:0:0:
