osu file format v14

[General]
AudioFilename: audio.mp3
AudioLeadIn: 0
PreviewTime: 68691
Countdown: 1
SampleSet: Normal
StackLeniency: 0.2
Mode: 0
LetterboxInBreaks: 0
WidescreenStoryboard: 1

[Editor]
Bookmarks: 3789,8201,27060,34229,41067,43053,51926,60700,69964,71509,74867,78066,85792,87612,88544,99573,101338,101448
DistanceSpacing: 0.1
BeatDivisor: 4
GridSize: 4
TimelineZoom: 1

[Metadata]
Title:Naikan Uchuu Shisha no Yurikago
TitleUnicode:内観宇宙死者のゆりかご
Artist:Yousei Teikoku
ArtistUnicode:妖精帝國
Creator:Antares-
Version:Cradle of Eternity
Source:
Tags:flamma idola
BeatmapID:1361710
BeatmapSetID:642289

[Difficulty]
HPDrainRate:5
CircleSize:4.2
OverallDifficulty:9.5
ApproachRate:10
SliderMultiplier:2.1
SliderTickRate:1

[Events]
//Background and Video events
0,0,"1letssee.jpg",0,0
//Break Periods
2,68891,69564
//Storyboard Layer 0 (Background)
//Storyboard Layer 1 (Fail)
//Storyboard Layer 2 (Pass)
//Storyboard Layer 3 (Foreground)
//Storyboard Sound Samples

[TimingPoints]
310,220.588235294118,4,1,0,80,1,0
8251,220.588235294118,3,1,0,80,1,0
20162,220.588235294118,4,1,0,80,1,0
41228,-200,4,1,0,80,0,0
60750,-200,4,1,0,80,0,0
60860,-200,4,1,0,5,0,0
60970,-200,4,1,0,80,0,0
61081,-200,4,1,0,5,0,0
61191,-200,4,1,0,80,0,0
61301,-200,4,1,0,5,0,0
61412,-200,4,1,0,80,0,0
61522,-200,4,1,0,5,0,0
61632,-200,4,1,0,80,0,0
61742,-200,4,1,0,5,0,0
61853,-200,4,1,0,80,0,0
61963,-200,4,1,0,5,0,0
62073,-200,4,1,0,80,0,0
62184,-200,4,1,0,5,0,0
62294,-200,4,1,0,80,0,0
62404,-200,4,1,0,5,0,0
62514,-200,4,1,0,80,0,0
62735,-400,4,1,0,80,0,0
63066,-400,4,1,0,5,0,0
63176,-400,4,1,0,80,0,0
63507,-400,4,1,0,5,0,0
63617,-133.333333333333,4,1,0,80,0,0
63728,-133.333333333333,4,1,0,5,0,0
63838,-133.333333333333,4,1,0,80,0,0
63948,-133.333333333333,4,1,0,5,0,0
64059,-133.333333333333,4,1,0,80,0,0
64169,-133.333333333333,4,1,0,5,0,0
64279,-133.333333333333,4,1,0,80,0,0
64389,-133.333333333333,4,1,0,5,0,0
64500,-133.333333333333,4,1,0,80,0,0
64610,-133.333333333333,4,1,0,5,0,0
64720,-200,4,1,0,80,0,0
64830,-200,4,1,0,5,0,0
64941,-200,4,1,0,80,0,0
65051,-200,4,1,0,5,0,0
65162,-200,4,1,0,80,0,0
65272,-200,4,1,0,5,0,0
65382,-200,4,1,0,80,0,0
65492,-200,4,1,0,5,0,0
65603,-200,4,1,0,80,0,0
65713,-200,4,1,0,5,0,0
65823,-200,4,1,0,80,0,0
65933,-200,4,1,0,5,0,0
66044,-200,4,1,0,80,0,0
66154,-200,4,1,0,5,0,0
66264,-200,4,1,0,80,0,0
66374,-200,4,1,0,5,0,0
66485,-200,4,1,0,80,0,0
66706,-400,4,1,0,80,0,0
67037,-400,4,1,0,5,0,0
67147,-400,4,1,0,80,0,0
67478,-400,4,1,0,5,0,0
67588,-133.333333333333,4,1,0,80,0,0
67698,-133.333333333333,4,1,0,5,0,0
67809,-133.333333333333,4,1,0,80,0,0
67919,-133.333333333333,4,1,0,5,0,0
68029,-133.333333333333,4,1,0,80,0,0
68139,-133.333333333333,4,1,0,5,0,0
68250,-133.333333333333,4,1,0,80,0,0
68360,-133.333333333333,4,1,0,5,0,0
68470,-133.333333333333,4,1,0,80,0,0
68581,-133.333333333333,4,1,0,5,0,0
68691,-133.333333333333,4,1,0,80,0,0
70014,-133.333333333333,4,1,0,80,0,0
71669,220.588235294118,4,1,0,80,1,1
71669,-80,4,1,0,80,0,1
85787,-1000,4,1,0,80,0,0
86779,-80,4,1,0,80,0,0
87662,220.588235294118,3,1,0,80,1,0

[Colours]
Combo1 : 192,192,192
Combo2 : 255,128,128
Combo3 : 128,128,192
Combo4 : 255,0,0

[HitObjects]
81,89,310,5,0,0:0:0:0:
148,95,420,1,0,0:0:0:0:
142,162,530,1,0,0:0:0:0:
75,156,640,1,0,0:0:0:0:
224,324,861,1,0,0:0:0:0:
148,95,1082,1,0,0:0:0:0:
231,142,1192,5,0,0:0:0:0:
292,113,1302,1,0,0:0:0:0:
320,174,1412,1,0,0:0:0:0:
259,203,1522,1,0,0:0:0:0:
32,188,1743,1,0,0:0:0:0:
292,113,1964,1,0,0:0:0:0:
212,262,2074,5,0,0:0:0:0:
150,290,2184,1,0,0:0:0:0:
122,228,2294,1,0,0:0:0:0:
184,199,2404,1,0,0:0:0:0:
425,319,2625,1,0,0:0:0:0:
150,290,2846,1,0,0:0:0:0:
292,113,2957,5,0,0:0:0:0:
321,51,3067,1,0,0:0:0:0:
383,79,3177,1,0,0:0:0:0:
355,141,3287,1,0,0:0:0:0:
90,76,3508,1,0,0:0:0:0:
321,51,3729,1,0,0:0:0:0:
302,265,3839,5,0,0:0:0:0:
355,141,3949,1,0,0:0:0:0:
435,253,4060,1,0,0:0:0:0:
220,156,4170,1,0,0:0:0:0:
382,379,4390,1,0,0:0:0:0:
321,51,4611,1,0,0:0:0:0:
198,292,4721,5,0,0:0:0:0:
93,204,4832,1,0,0:0:0:0:
220,156,4942,1,0,0:0:0:0:
68,337,5052,1,0,0:0:0:0:
112,69,5273,1,0,0:0:0:0:
198,292,5493,1,0,0:0:0:0:
290,128,5604,5,0,0:0:0:0:
455,96,5714,1,0,0:0:0:0:
402,255,5824,1,0,0:0:0:0:
346,19,5935,1,0,0:0:0:0:
346,364,6155,1,0,0:0:0:0:
455,96,6376,1,0,0:0:0:0:
198,292,6486,5,0,0:0:0:0:
67,186,6596,1,0,0:0:0:0:
223,125,6707,1,0,0:0:0:0:
73,314,6817,1,0,0:0:0:0:
106,37,7037,1,0,0:0:0:0:
198,292,7258,1,0,0:0:0:0:
288,179,7368,5,0,0:0:0:0:
303,174,7423,1,0,0:0:0:0:
318,173,7479,1,0,0:0:0:0:
332,178,7534,1,0,0:0:0:0:
349,182,7589,1,0,0:0:0:0:
363,188,7644,1,0,0:0:0:0:
378,189,7699,1,0,0:0:0:0:
393,187,7754,1,0,0:0:0:0:
407,177,7810,5,0,0:0:0:0:
419,167,7865,1,0,0:0:0:0:
425,152,7920,1,0,0:0:0:0:
425,136,7975,1,0,0:0:0:0:
416,122,8030,1,0,0:0:0:0:
401,116,8085,1,0,0:0:0:0:
385,113,8140,1,0,0:0:0:0:
372,118,8196,1,0,0:0:0:0:
364,128,8251,6,0,L|241:120,1,105
126,38,8471,1,0,0:0:0:0:
213,206,8581,2,0,P|257:152|254:105,1,105
217,0,8802,1,0,0:0:0:0:
134,199,8912,6,0,P|158:264|200:285,1,105
377,264,9133,1,0,0:0:0:0:
179,132,9243,2,0,P|110:120|71:146,1,105
13,273,9464,1,0,0:0:0:0:
213,206,9574,6,0,P|256:159|254:105,1,105
217,0,9795,1,0,0:0:0:0:
335,173,9905,1,0,0:0:0:0:
179,132,10015,2,0,L|45:147,1,105
155,274,10236,5,0,0:0:0:0:
77,69,10346,1,0,0:0:0:0:
101,337,10456,5,0,0:0:0:0:
179,132,10566,1,0,0:0:0:0:
180,354,10677,5,0,0:0:0:0:
127,100,10787,1,0,0:0:0:0:
265,222,10898,6,0,P|325:251|388:226,1,105
461,111,11118,1,0,0:0:0:0:
251,142,11228,2,0,P|195:179|186:246,1,105
260,373,11449,1,0,0:0:0:0:
327,170,11559,6,0,P|322:103|268:61,1,105
133,32,11780,1,0,0:0:0:0:
265,222,11890,2,0,P|325:251|388:226,1,105
461,111,12111,1,0,0:0:0:0:
251,142,12221,6,0,P|195:179|186:246,1,105
284,370,12442,1,0,0:0:0:0:
129,283,12552,2,0,P|96:226|110:164,1,105
133,32,12773,1,0,0:0:0:0:
251,142,12883,5,0,0:0:0:0:
98,188,12993,1,0,0:0:0:0:
152,30,13103,1,0,0:0:0:0:
249,158,13213,1,0,0:0:0:0:
90,177,13323,1,0,0:0:0:0:
218,235,13434,5,0,0:0:0:0:
219,240,13489,1,0,0:0:0:0:
220,244,13545,1,0,0:0:0:0:
254,132,13655,5,0,0:0:0:0:
255,127,13710,1,0,0:0:0:0:
256,123,13766,1,0,0:0:0:0:
333,240,13876,5,0,0:0:0:0:
334,245,13931,1,0,0:0:0:0:
335,249,13987,1,0,0:0:0:0:
376,128,14096,5,0,0:0:0:0:
399,293,14206,6,0,P|348:327|302:318,1,105
142,242,14427,1,0,0:0:0:0:
234,99,14537,2,0,P|263:146|240:216,1,105
159,315,14758,1,0,0:0:0:0:
156,86,14868,6,0,P|182:37|254:22,1,105
399,59,15089,1,0,0:0:0:0:
188,164,15199,2,0,P|132:165|83:110,1,105
13,2,15420,1,0,0:0:0:0:
234,99,15530,6,0,P|263:146|240:216,1,105
97,291,15751,1,0,0:0:0:0:
248,216,15861,1,0,0:0:0:0:
129,91,15971,2,0,L|251:100,1,105
388,243,16192,5,0,0:0:0:0:
328,26,16302,1,0,0:0:0:0:
313,263,16412,5,0,0:0:0:0:
399,59,16522,1,0,0:0:0:0:
368,318,16633,5,0,0:0:0:0:
335,106,16743,1,0,0:0:0:0:
162,214,16853,6,0,P|119:186|103:131,1,105
168,0,17074,1,0,0:0:0:0:
240,194,17184,2,0,P|237:245|197:286,1,105
52,296,17405,1,0,0:0:0:0:
182,135,17515,6,0,P|227:111|283:125,1,105
372,277,17736,1,0,0:0:0:0:
162,214,17846,2,0,P|119:186|103:131,1,105
168,0,18067,1,0,0:0:0:0:
240,194,18177,6,0,P|237:245|197:286,1,105
39,214,18398,1,0,0:0:0:0:
131,360,18508,2,0,L|260:377,1,105
464,353,18728,1,0,0:0:0:0:
394,171,18839,5,0,0:0:0:0:
343,359,18949,1,0,0:0:0:0:
501,237,19059,1,0,0:0:0:0:
307,244,19170,1,0,0:0:0:0:
464,353,19280,1,0,0:0:0:0:
394,171,19390,5,0,0:0:0:0:
392,165,19445,1,0,0:0:0:0:
390,159,19501,1,0,0:0:0:0:
307,244,19611,5,0,0:0:0:0:
305,250,19666,1,0,0:0:0:0:
303,256,19722,1,0,0:0:0:0:
263,125,19831,5,0,0:0:0:0:
201,321,19942,2,0,P|151:334|87:293,1,105
133,165,20162,5,0,0:0:0:0:
209,184,20272,1,0,0:0:0:0:
186,109,20382,1,0,0:0:0:0:
154,240,20492,1,0,0:0:0:0:
263,125,20603,5,0,0:0:0:0:
282,116,20713,1,0,0:0:0:0:
302,115,20823,1,0,0:0:0:0:
318,119,20934,1,0,0:0:0:0:
359,153,21044,5,0,0:0:0:0:
378,160,21154,1,0,0:0:0:0:
398,161,21264,1,0,0:0:0:0:
418,155,21375,1,0,0:0:0:0:
467,131,21485,5,0,0:0:0:0:
476,149,21595,1,0,0:0:0:0:
482,254,21706,1,0,0:0:0:0:
474,233,21816,1,0,0:0:0:0:
381,162,21926,5,0,0:0:0:0:
314,206,22037,1,0,0:0:0:0:
385,243,22147,1,0,0:0:0:0:
307,124,22257,1,0,0:0:0:0:
319,285,22367,5,0,0:0:0:0:
301,296,22478,1,0,0:0:0:0:
280,300,22588,1,0,0:0:0:0:
259,294,22698,1,0,0:0:0:0:
219,254,22809,5,0,0:0:0:0:
200,243,22919,1,0,0:0:0:0:
179,242,23029,1,0,0:0:0:0:
158,245,23139,1,0,0:0:0:0:
120,280,23250,5,0,0:0:0:0:
110,261,23360,1,0,0:0:0:0:
110,146,23470,1,0,0:0:0:0:
119,164,23581,1,0,0:0:0:0:
197,164,23691,5,0,0:0:0:0:
251,102,23801,1,0,0:0:0:0:
174,89,23912,1,0,0:0:0:0:
274,177,24022,1,0,0:0:0:0:
221,27,24132,5,0,0:0:0:0:
240,19,24242,1,0,0:0:0:0:
261,17,24353,1,0,0:0:0:0:
280,22,24463,1,0,0:0:0:0:
320,52,24573,5,0,0:0:0:0:
340,57,24684,1,0,0:0:0:0:
360,53,24794,1,0,0:0:0:0:
379,45,24904,1,0,0:0:0:0:
408,1,25014,5,0,0:0:0:0:
453,25,25125,1,0,0:0:0:0:
417,115,25235,1,0,0:0:0:0:
462,139,25346,1,0,0:0:0:0:
426,251,25456,5,0,0:0:0:0:
498,286,25566,1,0,0:0:0:0:
434,330,25676,1,0,0:0:0:0:
491,212,25787,1,0,0:0:0:0:
365,298,25897,5,0,0:0:0:0:
336,311,26007,1,0,0:0:0:0:
304,309,26117,1,0,0:0:0:0:
277,292,26228,1,0,0:0:0:0:
237,226,26338,5,0,0:0:0:0:
208,211,26448,1,0,0:0:0:0:
176,212,26559,1,0,0:0:0:0:
146,224,26669,1,0,0:0:0:0:
93,274,26779,5,0,0:0:0:0:
29,108,26889,1,0,0:0:0:0:
48,334,27000,1,0,0:0:0:0:
74,168,27110,1,0,0:0:0:0:
121,343,27220,6,0,P|163:298|152:233,1,105
102,98,27441,2,0,P|164:107|216:84,1,105
350,26,27662,1,0,0:0:0:0:
442,138,27772,1,0,0:0:0:0:
303,148,27882,2,0,L|294:265,1,105
403,358,28103,6,0,P|427:305|413:237,1,105
350,26,28323,1,0,0:0:0:0:
303,149,28434,2,0,P|372:170|423:145,1,105
430,0,28654,1,0,0:0:0:0:
219,105,28764,2,0,P|212:177|258:225,1,105
372,333,28985,5,0,0:0:0:0:
373,102,29095,1,0,0:0:0:0:
314,261,29206,2,0,L|199:277,1,105
219,105,29426,1,0,0:0:0:0:
185,298,29536,1,0,0:0:0:0:
133,147,29647,2,0,L|18:131,1,105
99,235,29867,5,0,0:0:0:0:
139,51,29978,1,0,0:0:0:0:
23,212,30088,5,0,0:0:0:0:
255,185,30198,1,0,0:0:0:0:
41,289,30309,5,0,0:0:0:0:
139,51,30419,1,0,0:0:0:0:
314,239,30529,2,0,P|269:265|219:255,1,105
132,357,30750,6,0,P|197:341|258:366,1,105
255,185,30970,2,0,P|233:135|247:77,1,105
425,16,31191,1,0,0:0:0:0:
318,125,31301,1,0,0:0:0:0:
219,15,31412,2,0,L|105:28,1,105
0,118,31632,6,0,L|108:138,1,105
255,185,31853,1,0,0:0:0:0:
111,236,31963,2,0,P|93:176|110:124,1,105
219,15,32184,1,0,0:0:0:0:
187,250,32294,2,0,P|150:306|88:305,1,105
99,111,32514,5,0,0:0:0:0:
133,304,32624,1,0,0:0:0:0:
185,153,32735,2,0,L|300:137,1,105
280,309,32955,1,0,0:0:0:0:
314,116,33065,1,0,0:0:0:0:
366,267,33176,2,0,L|481:283,1,105
449,108,33396,5,0,0:0:0:0:
244,229,33507,1,0,0:0:0:0:
469,281,33617,5,0,0:0:0:0:
410,26,33727,1,0,0:0:0:0:
244,229,33838,5,0,0:0:0:0:
488,189,33948,1,0,0:0:0:0:
280,309,34059,2,0,P|226:317|177:286,1,105
50,44,34279,5,6,0:3:0:0:
127,178,34389,1,0,0:0:0:0:
120,6,34499,1,8,0:3:0:0:
59,220,34610,1,0,0:0:0:0:
189,48,34719,5,2,0:3:0:0:
263,257,34830,1,0,0:0:0:0:
265,23,34940,1,8,0:3:0:0:
195,213,35051,1,0,0:0:0:0:
334,75,35162,5,6,0:3:0:0:
415,207,35272,1,0,0:0:0:0:
407,40,35382,1,8,0:3:0:0:
343,241,35493,1,0,0:0:0:0:
475,87,35603,5,2,0:3:0:0:
412,292,35713,1,0,0:0:0:0:
405,123,35824,1,8,0:3:0:0:
482,253,35934,1,0,0:0:0:0:
224,149,36044,5,0,0:0:0:0:
343,241,36154,1,0,0:0:0:0:
217,317,36264,1,0,0:0:0:0:
159,112,36375,2,0,L|277:84,1,105
280,360,36595,2,0,L|177:384,1,105
224,149,36816,2,0,P|251:199|243:263,1,105
353,113,37037,6,0,P|403:86|467:94,1,105
423,163,37257,1,0,0:0:0:0:
283,13,37367,1,0,0:0:0:0:
224,149,37478,1,0,0:0:0:0:
332,278,37588,2,0,P|380:294|435:285,1,105
490,48,37809,5,6,0:3:0:0:
413,181,37919,1,0,0:0:0:0:
420,9,38029,1,8,0:3:0:0:
481,223,38140,1,0,0:0:0:0:
351,51,38249,5,2,0:3:0:0:
277,260,38360,1,0,0:0:0:0:
275,26,38470,1,8,0:3:0:0:
345,216,38581,1,0,0:0:0:0:
206,78,38692,5,6,0:3:0:0:
125,210,38802,1,0,0:0:0:0:
133,43,38912,1,8,0:3:0:0:
197,244,39023,1,0,0:0:0:0:
64,87,39133,5,2,0:3:0:0:
127,292,39243,1,0,0:0:0:0:
136,121,39354,1,8,0:3:0:0:
56,249,39464,1,0,0:0:0:0:
345,216,39573,5,0,0:0:0:0:
206,155,39684,1,0,0:0:0:0:
228,319,39794,1,0,0:0:0:0:
417,163,39904,2,0,P|366:130|317:131,1,105
134,237,40125,1,0,0:0:0:0:
287,380,40235,1,0,0:0:0:0:
345,216,40345,1,0,0:0:0:0:
166,64,40456,5,0,0:0:0:0:
166,64,40511,1,0,0:0:0:0:
166,64,40566,1,0,0:0:0:0:
230,235,40676,2,0,P|173:253|127:230,1,105
208,0,40897,2,0,P|244:54|227:119,1,105
230,235,41117,1,0,0:0:0:0:
230,235,41228,6,0,B|203:270|205:295|268:314|315:247|291:190|267:160|207:157|152:181|143:251|161:295|161:295|111:280|86:240|91:229,1,420
15,113,42220,5,0,0:0:0:0:
83,78,42331,1,0,0:0:0:0:
151,112,42441,1,0,0:0:0:0:
217,75,42551,1,0,0:0:0:0:
287,113,42662,1,0,0:0:0:0:
356,82,42772,1,0,0:0:0:0:
415,122,42882,2,0,L|464:90,1,52.5
336,231,43103,5,0,0:0:0:0:
415,210,43213,1,0,0:0:0:0:
439,288,43323,1,0,0:0:0:0:
361,309,43434,1,0,0:0:0:0:
415,210,43654,1,0,0:0:0:0:
361,309,43875,1,0,0:0:0:0:
191,255,43985,5,0,0:0:0:0:
179,171,44095,1,0,0:0:0:0:
262,193,44206,1,0,0:0:0:0:
249,109,44316,1,0,0:0:0:0:
179,171,44537,1,0,0:0:0:0:
249,109,44757,1,0,0:0:0:0:
54,168,44867,5,0,0:0:0:0:
29,249,44978,1,0,0:0:0:0:
68,322,45088,1,0,0:0:0:0:
145,352,45198,1,0,0:0:0:0:
306,130,45419,1,0,0:0:0:0:
145,352,45639,1,0,0:0:0:0:
306,130,45750,5,0,0:0:0:0:
248,67,45861,1,0,0:0:0:0:
167,42,45971,1,0,0:0:0:0:
90,76,46081,1,0,0:0:0:0:
160,243,46301,1,0,0:0:0:0:
90,76,46522,1,0,0:0:0:0:
86,69,46577,1,0,0:0:0:0:
82,60,46632,5,0,0:0:0:0:
153,119,46742,1,0,0:0:0:0:
94,185,46853,1,0,0:0:0:0:
27,129,46963,1,0,0:0:0:0:
153,119,47184,1,0,0:0:0:0:
27,129,47404,1,0,0:0:0:0:
256,58,47514,5,0,0:0:0:0:
341,24,47624,1,0,0:0:0:0:
368,108,47735,1,0,0:0:0:0:
287,138,47845,1,0,0:0:0:0:
341,24,48066,1,0,0:0:0:0:
287,138,48287,1,0,0:0:0:0:
287,149,48342,1,0,0:0:0:0:
286,155,48397,5,0,0:0:0:0:
314,250,48507,1,0,0:0:0:0:
402,295,48617,1,0,0:0:0:0:
501,280,48728,1,0,0:0:0:0:
406,85,48948,1,0,0:0:0:0:
501,280,49169,1,0,0:0:0:0:
314,250,49279,5,0,0:0:0:0:
242,183,49389,1,0,0:0:0:0:
247,83,49500,1,0,0:0:0:0:
315,10,49610,1,0,0:0:0:0:
446,134,49831,1,0,0:0:0:0:
242,183,50051,5,0,0:0:0:0:
208,173,50106,1,0,0:0:0:0:
187,149,50162,1,0,0:0:0:0:
247,83,50272,1,0,0:0:0:0:
65,240,50492,5,0,0:0:0:0:
104,369,50603,1,0,0:0:0:0:
195,271,50713,1,0,0:0:0:0:
380,76,50934,5,0,0:0:0:0:
247,83,51044,1,0,0:0:0:0:
319,195,51154,1,0,0:0:0:0:
396,371,51375,5,0,0:0:0:0:
512,307,51485,1,0,0:0:0:0:
399,236,51595,1,0,0:0:0:0:
282,303,51706,1,0,0:0:0:0:
154,263,51816,1,0,0:0:0:0:
106,139,51926,5,0,0:0:0:0:
176,92,52037,1,0,0:0:0:0:
252,130,52147,1,0,0:0:0:0:
182,177,52258,1,0,0:0:0:0:
98,57,52478,1,0,0:0:0:0:
182,177,52698,1,0,0:0:0:0:
361,77,52809,5,0,0:0:0:0:
383,160,52919,1,0,0:0:0:0:
463,138,53029,1,0,0:0:0:0:
441,55,53139,1,0,0:0:0:0:
383,160,53360,1,0,0:0:0:0:
180,68,53581,1,0,0:0:0:0:
175,64,53636,1,0,0:0:0:0:
170,62,53691,5,0,0:0:0:0:
116,126,53801,1,0,0:0:0:0:
107,210,53912,1,0,0:0:0:0:
138,287,54022,1,0,0:0:0:0:
383,160,54242,1,0,0:0:0:0:
138,287,54463,1,0,0:0:0:0:
383,160,54573,5,0,0:0:0:0:
321,101,54684,1,0,0:0:0:0:
238,87,54794,1,0,0:0:0:0:
157,108,54904,1,0,0:0:0:0:
286,298,55125,1,0,0:0:0:0:
157,108,55345,1,0,0:0:0:0:
153,101,55400,1,0,0:0:0:0:
149,95,55456,5,0,0:0:0:0:
116,180,55566,1,0,0:0:0:0:
201,210,55676,1,0,0:0:0:0:
234,125,55786,1,0,0:0:0:0:
116,180,56007,1,0,0:0:0:0:
234,125,56228,1,0,0:0:0:0:
299,250,56338,5,0,0:0:0:0:
332,335,56448,1,0,0:0:0:0:
417,305,56558,1,0,0:0:0:0:
384,220,56668,1,0,0:0:0:0:
332,335,56889,1,0,0:0:0:0:
146,294,57110,1,0,0:0:0:0:
141,288,57165,1,0,0:0:0:0:
136,280,57220,5,0,0:0:0:0:
192,214,57331,1,0,0:0:0:0:
203,130,57441,1,0,0:0:0:0:
177,50,57551,1,0,0:0:0:0:
51,147,57772,1,0,0:0:0:0:
136,280,57992,1,0,0:0:0:0:
301,139,58103,5,0,0:0:0:0:
385,145,58213,1,0,0:0:0:0:
453,193,58323,1,0,0:0:0:0:
486,273,58434,1,0,0:0:0:0:
331,297,58654,1,0,0:0:0:0:
385,145,58875,5,0,0:0:0:0:
385,118,58930,1,0,0:0:0:0:
372,95,58985,1,0,0:0:0:0:
301,139,59095,1,0,0:0:0:0:
224,378,59316,5,0,0:0:0:0:
331,297,59427,1,0,0:0:0:0:
208,245,59537,1,0,0:0:0:0:
262,10,59757,5,0,0:0:0:0:
301,139,59868,1,0,0:0:0:0:
392,41,59978,1,0,0:0:0:0:
45,151,60198,5,0,0:0:0:0:
174,112,60309,1,0,0:0:0:0:
76,21,60419,1,0,0:0:0:0:
45,151,60529,1,0,0:0:0:0:
146,245,60639,1,0,0:0:0:0:
275,187,60750,6,0,P|306:175|339:184,1,52.5
447,191,60970,2,0,P|416:203|383:194,1,52.5
296,132,61191,2,0,P|327:142|347:171,1,52.5
425,245,61411,2,0,P|394:235|374:206,1,52.5
348,103,61632,6,0,P|365:132|362:166,1,52.5
373,274,61852,2,0,P|356:245|359:211,1,52.5
405,115,62073,2,0,P|400:148|376:172,1,52.5
316,262,62293,2,0,P|321:229|345:205,1,52.5
360,186,62514,5,0,0:0:0:0:
222,233,62735,6,0,P|184:240|142:226,1,78.75
187,149,63176,2,0,P|161:119|153:76,1,78.75
400,147,63617,6,0,P|408:192|391:244,1,78.7500030040742
291,48,63838,2,0,P|330:52|365:70,1,78.7500030040742
166,121,64059,2,0,P|182:85|211:58,1,78.7500030040742
198,263,64279,2,0,P|168:236|151:201,1,78.7500030040742
342,277,64500,2,0,P|308:297|269:303,1,78.7500030040742
41,263,64720,6,0,P|29:242|26:212,1,52.5
102,217,64941,2,0,P|123:205|153:202,1,52.5
148,278,65162,2,0,P|160:299|163:329,1,52.5
87,324,65382,2,0,P|66:336|36:339,1,52.5
211,155,65603,6,0,P|232:143|262:140,1,52.5
257,216,65824,2,0,P|269:237|272:267,1,52.5
196,262,66045,2,0,P|175:274|145:277,1,52.5
150,201,66265,2,0,P|138:180|135:150,1,52.5
269,295,66485,5,0,0:0:0:0:
269,295,66706,6,0,P|311:306|347:296,1,78.75
141,73,67147,2,0,P|183:62|219:72,1,78.75
354,155,67588,6,0,L|372:258,1,78.7500030040742
127,150,67809,2,0,L|140:72,1,78.7500030040742
288,211,68029,2,0,L|306:314,1,78.7500030040742
45,183,68250,2,0,L|58:105,1,78.7500030040742
218,262,68470,2,0,L|236:365,1,78.7500030040742
140,72,68691,5,4,0:0:0:0:
141,73,70014,5,0,0:0:0:0:
182,63,70088,1,0,0:0:0:0:
221,77,70162,1,0,0:0:0:0:
271,138,70235,5,0,0:0:0:0:
309,154,70309,1,0,0:0:0:0:
349,143,70383,1,0,0:0:0:0:
420,107,70456,5,0,0:0:0:0:
438,142,70530,1,0,0:0:0:0:
429,183,70604,1,0,0:0:0:0:
377,245,70676,5,0,0:0:0:0:
365,285,70750,1,0,0:0:0:0:
373,325,70823,1,0,0:0:0:0:
437,374,70897,6,0,L|494:279,1,78.7500030040742
250,91,71117,2,0,L|209:158,1,78.7500030040742
210,159,71448,5,0,0:0:0:0:
416,291,71559,1,0,0:0:0:0:
281,211,71669,6,0,P|245:144|254:79,1,131.25
414,78,71889,1,0,0:0:0:0:
368,229,71999,2,0,P|303:225|257:181,1,131.25
265,5,72220,1,0,0:0:0:0:
101,167,72330,1,0,0:0:0:0:
185,31,72441,1,0,0:0:0:0:
29,134,72551,6,0,P|22:197|64:246,1,131.25
227,247,72771,1,0,0:0:0:0:
88,91,72882,2,0,P|19:163|31:214,1,131.25
104,373,73103,1,0,0:0:0:0:
185,182,73213,1,0,0:0:0:0:
178,347,73323,1,0,0:0:0:0:
262,173,73433,6,0,P|223:114|158:108,1,131.25
28,340,73654,1,0,0:0:0:0:
227,247,73764,2,0,P|262:182|224:113,1,131.25
146,16,73985,1,0,0:0:0:0:
97,171,74095,1,0,0:0:0:0:
95,176,74150,1,0,0:0:0:0:
95,182,74206,1,0,0:0:0:0:
292,137,74316,5,0,0:0:0:0:
62,98,74426,1,0,0:0:0:0:
337,68,74537,1,0,0:0:0:0:
97,171,74647,1,0,0:0:0:0:
375,137,74757,5,0,0:0:0:0:
239,341,74867,1,0,0:0:0:0:
258,68,74978,1,0,0:0:0:0:
323,367,75088,1,0,0:0:0:0:
124,296,75198,6,0,P|161:330|285:316,1,131.25
345,227,75419,1,0,0:0:0:0:
106,218,75529,2,0,P|122:292|171:334,1,131.25
438,247,75750,5,0,0:0:0:0:
373,119,75860,1,0,0:0:0:0:
294,300,75970,1,0,0:0:0:0:
294,70,76080,2,0,P|359:26|421:44,1,131.25
493,321,76301,1,0,0:0:0:0:
287,141,76412,2,0,P|296:63|356:28,1,131.25
512,16,76632,5,0,0:0:0:0:
195,31,76742,1,0,0:0:0:0:
373,119,76853,1,0,0:0:0:0:
123,56,76963,2,0,P|88:116|105:189,1,131.25
198,291,77184,1,0,0:0:0:0:
195,31,77294,2,0,P|126:54|92:103,1,131.25
274,272,77514,5,0,0:0:0:0:
29,210,77625,1,0,0:0:0:0:
252,349,77735,1,0,0:0:0:0:
364,109,77845,2,0,P|317:44|228:37,1,131.25
198,291,78066,5,0,0:0:0:0:
364,109,78175,1,0,0:0:0:0:
95,182,78286,2,0,P|142:117|231:110,1,131.25
349,281,78507,5,0,0:0:0:0:
95,182,78616,1,0,0:0:0:0:
364,109,78727,1,0,0:0:0:0:
364,109,78948,5,0,0:0:0:0:
472,270,79059,2,0,P|421:256|343:284,1,131.25
203,348,79279,1,0,0:0:0:0:
76,282,79389,1,0,0:0:0:0:
142,155,79500,1,0,0:0:0:0:
269,221,79610,1,0,0:0:0:0:
269,221,79831,5,4,0:0:0:0:
227,5,79941,2,0,P|251:64|227:136,1,131.25
189,222,80162,1,0,0:0:0:0:
255,349,80272,1,0,0:0:0:0:
382,283,80383,1,0,0:0:0:0:
316,156,80493,1,0,0:0:0:0:
316,156,80713,5,0,0:0:0:0:
92,179,80823,2,0,L|218:111,1,131.25
442,48,81044,1,0,0:0:0:0:
432,211,81154,1,0,0:0:0:0:
269,201,81264,1,0,0:0:0:0:
279,38,81374,1,0,0:0:0:0:
462,130,81595,5,0,0:0:0:0:
426,334,81706,1,0,0:0:0:0:
269,201,81816,1,0,0:0:0:0:
114,95,82037,5,0,0:0:0:0:
309,117,82147,1,0,0:0:0:0:
191,277,82257,1,0,0:0:0:0:
309,117,82478,5,0,0:0:0:0:
397,289,82588,2,0,P|333:307|264:282,1,131.25
117,178,82808,1,0,0:0:0:0:
213,51,82919,1,0,0:0:0:0:
340,147,83029,1,0,0:0:0:0:
244,274,83139,1,0,0:0:0:0:
244,274,83360,5,0,0:0:0:0:
403,93,83470,2,0,P|345:65|284:84,1,131.25
244,274,83691,1,0,0:0:0:0:
405,313,83801,1,0,0:0:0:0:
444,152,83911,1,0,0:0:0:0:
283,113,84021,1,0,0:0:0:0:
283,113,84242,5,0,0:0:0:0:
405,313,84353,2,0,L|367:169,1,131.25
253,12,84573,1,0,0:0:0:0:
163,173,84684,1,0,0:0:0:0:
305,289,84794,1,0,0:0:0:0:
159,66,84904,2,0,L|1:96,1,131.25
225,207,85125,5,0,0:0:0:0:
332,84,85235,1,0,0:0:0:0:
171,53,85345,2,0,L|42:77,1,131.25
354,232,85566,5,0,0:0:0:0:
241,118,85676,1,0,0:0:0:0:
171,271,85787,6,0,B|213:292|213:292|254:288,1,84
99,170,86779,5,0,0:0:0:0:
224,58,86890,1,0,0:0:0:0:
93,292,87000,1,0,0:0:0:0:
218,180,87111,1,0,0:0:0:0:
4,30,87331,1,0,0:0:0:0:
93,292,87551,1,0,0:0:0:0:
218,180,87662,6,0,P|274:166|339:205,1,105
446,287,87882,1,0,0:0:0:0:
265,256,87992,1,0,0:0:0:0:
482,170,88103,2,0,P|502:114|488:59,1,105
206,80,88323,6,0,P|198:131|217:179,1,105
346,288,88544,1,0,0:0:0:0:
285,121,88654,1,0,0:0:0:0:
159,266,88764,2,0,P|104:281|36:264,1,105
106,80,88985,6,0,P|161:65|224:95,1,105
336,185,89206,1,0,0:0:0:0:
156,155,89316,1,0,0:0:0:0:
371,111,89426,2,0,P|415:161|411:222,1,105
156,155,89647,5,0,0:0:0:0:
336,185,89757,1,0,0:0:0:0:
216,331,89867,5,0,0:0:0:0:
183,80,89978,1,0,0:0:0:0:
373,253,90088,5,0,0:0:0:0:
156,155,90198,1,0,0:0:0:0:
216,331,90309,6,0,P|165:354|101:337,1,105
14,170,90529,1,0,0:0:0:0:
157,264,90639,1,0,0:0:0:0:
78,89,90750,2,0,L|199:78,1,105
320,321,90970,6,0,L|215:330,1,105
84,217,91191,1,0,0:0:0:0:
385,273,91301,2,0,P|394:345|348:391,1,105
157,264,91522,1,0,0:0:0:0:
349,119,91632,6,0,P|395:93|453:102,1,105
455,315,91853,1,0,0:0:0:0:
295,183,91963,2,0,P|269:128|290:70,1,105
331,25,92184,1,0,0:0:0:0:
389,182,92294,5,0,0:0:0:0:
220,192,92404,1,0,0:0:0:0:
304,32,92514,1,0,0:0:0:0:
366,209,92625,1,0,0:0:0:0:
207,169,92735,1,0,0:0:0:0:
144,51,92845,5,0,0:0:0:0:
142,43,92900,1,0,0:0:0:0:
139,32,92956,1,0,0:0:0:0:
71,147,93066,5,0,0:0:0:0:
73,139,93121,1,0,0:0:0:0:
76,128,93177,1,0,0:0:0:0:
146,242,93287,5,0,0:0:0:0:
144,234,93342,1,0,0:0:0:0:
141,223,93398,1,0,0:0:0:0:
66,325,93507,5,0,0:0:0:0:
226,260,93617,2,0,P|286:240|349:262,1,105
489,348,93838,1,0,0:0:0:0:
356,174,93948,2,0,P|331:118|351:40,1,105
503,10,94169,1,0,0:0:0:0:
422,227,94279,6,0,P|366:254|301:233,1,105
175,123,94500,1,0,0:0:0:0:
333,75,94610,1,0,0:0:0:0:
151,203,94720,2,0,P|101:159|99:100,1,105
394,16,94941,6,0,P|418:76|397:134,1,105
313,278,95162,1,0,0:0:0:0:
232,72,95272,2,0,P|295:61|359:97,1,105
459,176,95492,1,0,0:0:0:0:
216,190,95603,5,0,0:0:0:0:
440,254,95713,1,0,0:0:0:0:
161,253,95823,5,0,0:0:0:0:
382,196,95934,1,0,0:0:0:0:
137,176,96044,5,0,0:0:0:0:
363,273,96154,1,0,0:0:0:0:
188,112,96264,6,0,P|136:95|86:113,1,105
6,281,96485,1,0,0:0:0:0:
137,176,96595,1,0,0:0:0:0:
263,269,96706,2,0,P|315:285|388:251,1,105
241,47,96926,6,0,P|269:106|251:168,1,105
155,297,97147,1,0,0:0:0:0:
188,112,97257,1,0,0:0:0:0:
319,260,97367,2,0,P|377:286|442:271,1,105
340,59,97588,6,0,P|271:39|217:61,1,105
96,195,97809,1,0,0:0:0:0:
378,126,97919,2,0,P|416:80|404:14,1,105
205,31,98139,1,0,0:0:0:0:
96,195,98250,1,0,0:0:0:0:
18,123,98360,5,0,0:0:0:0:
20,112,98415,1,0,0:0:0:0:
23,102,98470,1,0,0:0:0:0:
101,216,98581,5,0,0:0:0:0:
99,205,98636,1,0,0:0:0:0:
96,195,98691,1,0,0:0:0:0:
184,132,98801,5,0,0:0:0:0:
186,121,98856,1,0,0:0:0:0:
189,111,98911,1,0,0:0:0:0:
287,196,99022,5,0,0:0:0:0:
285,185,99077,1,0,0:0:0:0:
282,175,99132,1,0,0:0:0:0:
356,69,99242,5,0,0:0:0:0:
406,247,99353,1,0,0:0:0:0:
239,289,99463,1,0,0:0:0:0:
189,111,99574,1,0,0:0:0:0:
256,192,99684,12,0,101448,0:0:0:0:
