osu file format v14

[General]
AudioFilename: audio.mp3
AudioLeadIn: 0
PreviewTime: 52521
Countdown: 1
SampleSet: None
StackLeniency: 0.7
Mode: 0
LetterboxInBreaks: 0
WidescreenStoryboard: 0

[Editor]
Bookmarks: 41494,73228,78417
DistanceSpacing: 2
BeatDivisor: 8
GridSize: 8
TimelineZoom: 1

[Metadata]
Title:Mischievous of Alice
TitleUnicode:Mischievous of Alice
Artist:Yousei Teikoku
ArtistUnicode:Yousei Teikoku
Creator:Maruyu
Version:hinsvar face
Source:
Tags:
BeatmapID:1009319
BeatmapSetID:472326

[Difficulty]
HPDrainRate:7
CircleSize:4
OverallDifficulty:8.9
ApproachRate:9
SliderMultiplier:1.5
SliderTickRate:1

[Events]
//Background and Video events
0,0,"holy.png",0,0
//Break Periods
//Storyboard Layer 0 (Background)
//Storyboard Layer 1 (Fail)
//Storyboard Layer 2 (Pass)
//Storyboard Layer 3 (Foreground)
//Storyboard Sound Samples

[TimingPoints]
655,324.324324324324,4,3,0,100,1,0
42168,-100,4,3,0,100,0,1
51573,-100,4,3,0,100,0,0
52546,-100,4,3,0,100,0,1
61465,-76.9230769230769,4,3,0,100,0,1
61790,-100,4,3,0,100,0,1
62600,-142.857142857143,4,3,0,100,0,1
62925,-100,4,3,0,100,0,0
78492,-83.3333333333333,4,1,0,100,0,1
90654,-83.3333333333333,4,1,0,100,0,0

[Colours]
Combo1 : 191,191,0
Combo2 : 255,150,0
Combo3 : 47,47,255
Combo4 : 250,61,14

[HitObjects]
75,311,655,6,0,L|153:304,1,75
98,290,1952,6,0,L|176:283,1,75
121,269,3249,6,0,L|199:262,1,75
253,338,4384,5,0,0:0:0:0:
279,214,4546,1,0,0:0:0:0:
264,352,4709,1,0,0:0:0:0:
268,200,4871,1,0,0:0:0:0:
377,280,5033,2,0,L|459:274,1,75
257,186,5357,1,0,0:0:0:0:
365,374,5519,1,0,0:0:0:0:
365,374,5600,1,0,0:0:0:0:
365,374,5682,1,0,0:0:0:0:
406,199,5844,6,0,L|331:204,1,75
377,179,7141,6,0,L|302:184,1,75
348,159,8438,6,0,L|273:164,1,75
214,232,9573,5,0,0:0:0:0:
321,149,9736,1,0,0:0:0:0:
134,131,9898,1,0,0:0:0:0:
336,132,10060,1,0,0:0:0:0:
204,243,10222,2,0,P|200:284|205:322,1,75
423,367,10546,5,0,0:0:0:0:
420,337,10627,1,0,0:0:0:0:
418,307,10708,1,0,0:0:0:0:
416,277,10789,1,0,0:0:0:0:
413,247,10870,1,0,0:0:0:0:
411,217,10951,1,0,0:0:0:0:
409,187,11033,6,0,L|413:112,1,75
422,23,11357,1,0,0:0:0:0:
498,161,11519,1,0,0:0:0:0:
317,143,11682,2,0,L|321:68,1,75
413,112,12006,1,0,0:0:0:0:
337,250,12168,1,0,0:0:0:0:
186,138,12330,6,0,B|169:92|180:36|180:36|147:71,1,150
72,217,12817,2,0,B|146:194|146:240|220:219,1,150
117,363,13303,2,0,B|104:328|104:328|111:292,1,75
186,138,13627,5,0,0:0:0:0:
279,271,13790,1,0,0:0:0:0:
193,63,13952,2,0,L|186:138,1,75
311,343,14276,2,0,L|300:188,1,150
397,59,14763,1,0,0:0:0:0:
471,165,14925,6,0,P|400:184|328:166,1,150
40,218,15411,2,0,P|111:199|183:217,1,150
56,336,15898,1,0,0:0:0:0:
46,308,15979,1,0,0:0:0:0:
40,278,16060,1,0,0:0:0:0:
38,248,16141,1,0,0:0:0:0:
40,218,16222,6,0,L|44:141,1,75
81,61,16546,1,0,0:0:0:0:
127,188,16709,1,0,0:0:0:0:
239,31,16871,2,0,L|165:29,1,75
201,111,17195,1,0,0:0:0:0:
324,56,17357,1,0,0:0:0:0:
230,213,17519,6,0,B|221:307|221:307|237:365,1,150
447,291,18006,2,0,P|373:280|302:300,1,150
63,291,18492,2,0,P|100:298|137:292,1,75
256,91,18817,5,0,0:0:0:0:
175,158,18979,1,0,0:0:0:0:
331,127,19141,2,0,P|340:92|330:53,1,75
148,141,19465,2,0,L|154:292,1,150
175,158,19952,1,0,0:0:0:0:
31,64,20114,6,0,P|111:77|175:39,1,150
256,91,20600,1,0,0:0:0:0:
223,225,20763,2,0,L|227:274,2,37.5
336,31,21087,1,0,0:0:0:0:
441,230,21249,1,0,0:0:0:0:
440,248,21330,1,0,0:0:0:0:
440,266,21411,6,0,L|454:346,1,75
349,192,21736,2,0,L|335:272,1,75
247,357,22060,1,0,0:0:0:0:
245,364,22141,1,0,0:0:0:0:
243,371,22222,1,0,0:0:0:0:
170,220,22384,2,0,P|204:203|241:199,1,75
109,299,22709,5,0,0:0:0:0:
21,280,22871,1,0,0:0:0:0:
85,126,23033,2,0,L|82:201,1,75
2,293,23357,1,0,0:0:0:0:
170,220,23519,1,0,0:0:0:0:
6,160,23682,1,0,0:0:0:0:
121,326,23844,1,0,0:0:0:0:
139,58,24006,6,0,P|108:42|68:42,1,75
218,129,24330,2,0,L|305:120,1,75
486,82,24654,2,0,P|425:39|351:46,1,150
190,211,25141,1,0,0:0:0:0:
190,211,25303,6,0,L|277:202,1,75
397,141,25627,1,0,0:0:0:0:
394,178,25708,1,0,0:0:0:0:
392,215,25789,1,0,0:0:0:0:
390,253,25870,1,0,0:0:0:0:
387,290,25951,1,0,0:0:0:0:
416,372,26114,1,0,0:0:0:0:
322,120,26276,1,0,0:0:0:0:
264,282,26438,1,0,0:0:0:0:
474,209,26600,6,0,P|478:172|474:135,1,75
256,54,26925,1,0,0:0:0:0:
341,137,27087,1,0,0:0:0:0:
445,28,27249,2,0,L|371:22,1,75
181,60,27573,2,0,L|255:53,1,75
415,143,27898,6,0,L|340:136,1,75
97,241,28222,2,0,L|171:234,1,75
476,313,28546,2,0,L|401:306,1,75
222,331,28871,1,0,0:0:0:0:
337,192,29033,1,0,0:0:0:0:
305,283,29195,6,0,L|313:363,1,75
337,192,29519,1,0,0:0:0:0:
222,331,29682,1,0,0:0:0:0:
222,331,29763,1,0,0:0:0:0:
222,331,29844,1,0,0:0:0:0:
401,306,30006,1,0,0:0:0:0:
235,200,30168,2,0,P|199:195|161:197,1,75
337,192,30492,6,0,P|400:178|456:110,1,150
346,75,30979,1,0,0:0:0:0:
346,75,31060,1,0,0:0:0:0:
346,75,31141,1,0,0:0:0:0:
389,264,31303,1,0,0:0:0:0:
493,31,31465,1,0,0:0:0:0:
254,106,31627,1,0,0:0:0:0:
216,109,31709,1,0,0:0:0:0:
178,113,31790,5,0,0:0:0:0:
47,234,31952,1,0,0:0:0:0:
157,221,32114,1,0,0:0:0:0:
84,62,32276,1,0,0:0:0:0:
2,135,32438,1,0,0:0:0:0:
178,113,32600,1,0,0:0:0:0:
20,148,32763,1,0,0:0:0:0:
175,234,32925,1,0,0:0:0:0:
84,28,33087,6,0,L|85:102,1,75
187,251,33411,1,0,0:0:0:0:
288,67,33573,1,0,0:0:0:0:
288,67,33654,1,0,0:0:0:0:
288,67,33736,2,0,L|278:141,1,75
209,22,34060,1,0,0:0:0:0:
375,46,34222,1,0,0:0:0:0:
264,232,34384,6,0,P|224:216|197:186,1,75
345,202,34709,2,0,L|354:276,1,75
277,141,35033,1,0,0:0:0:0:
277,141,35114,1,0,0:0:0:0:
277,141,35195,1,0,0:0:0:0:
426,228,35357,1,0,0:0:0:0:
273,310,35519,1,0,0:0:0:0:
354,91,35682,5,0,0:0:0:0:
354,91,35844,2,0,L|428:99,1,75
158,196,36168,1,0,0:0:0:0:
158,196,36330,2,0,L|83:204,1,75
354,293,36654,1,0,0:0:0:0:
255,142,36817,1,0,0:0:0:0:
255,142,36898,1,0,0:0:0:0:
255,142,36979,5,0,0:0:0:0:
274,54,37141,1,0,0:0:0:0:
321,202,37303,1,0,0:0:0:0:
169,169,37465,1,0,0:0:0:0:
340,192,37627,1,0,0:0:0:0:
273,75,37790,1,0,0:0:0:0:
245,260,37952,2,0,L|249:339,1,75
329,292,38276,5,0,0:0:0:0:
164,242,38438,1,0,0:0:0:0:
340,192,38600,1,0,0:0:0:0:
144,248,38763,1,0,0:0:0:0:
107,246,38844,1,0,0:0:0:0:
69,243,38925,1,0,0:0:0:0:
112,163,39087,1,0,0:0:0:0:
179,329,39249,1,0,0:0:0:0:
1,304,39411,1,0,0:0:0:0:
136,134,39573,6,0,B|247:129|247:129|200:151,1,150
24,166,40060,1,0,0:0:0:0:
93,44,40222,2,0,L|183:47,1,75
337,126,40546,2,0,L|380:122,1,37.5
495,226,40709,5,0,0:0:0:0:
492,240,40790,1,0,0:0:0:0:
489,254,40871,2,0,L|446:250,1,37.5
298,213,41033,2,0,L|341:209,1,37.5
405,350,41195,2,0,L|362:346,1,37.5
214,309,41357,2,0,L|257:305,1,37.5
382,276,41519,5,0,0:0:0:0:
382,276,41682,1,0,0:0:0:0:
382,276,42168,6,0,P|385:239|387:201,1,75
130,239,42492,2,0,L|124:164,1,75
38,122,42817,1,0,0:0:0:0:
66,343,42979,1,0,0:0:0:0:
215,196,43141,1,0,0:0:0:0:
37,121,43303,6,0,P|112:119|179:87,1,150
364,128,43790,2,0,L|289:120,1,75
277,129,44033,1,0,0:0:0:0:
265,137,44114,1,0,0:0:0:0:
420,192,44276,1,0,0:0:0:0:
473,36,44438,1,0,0:0:0:0:
322,204,44600,1,0,0:0:0:0:
426,293,44763,6,0,P|462:285|496:257,1,75
420,192,45087,1,0,0:0:0:0:
289,338,45249,2,0,L|363:347,1,75
420,192,45573,1,0,0:0:0:0:
503,360,45736,1,0,0:0:0:0:
219,218,45898,6,0,B|170:204|127:221|127:221|105:202|77:199,1,150
175,343,46384,1,0,0:0:0:0:
142,120,46546,1,0,0:0:0:0:
142,120,46627,1,0,0:0:0:0:
142,120,46709,1,0,0:0:0:0:
173,327,46871,1,0,0:0:0:0:
1,252,47033,1,0,0:0:0:0:
329,221,47195,1,0,0:0:0:0:
329,221,47277,1,0,0:0:0:0:
329,221,47357,6,0,P|366:220|403:226,1,75
182,162,47682,2,0,P|144:160|107:166,1,75
218,283,48006,1,0,0:0:0:0:
293,99,48168,1,0,0:0:0:0:
329,221,48330,1,0,0:0:0:0:
209,79,48492,6,0,P|134:73|59:91,1,150
256,192,48979,1,0,0:0:0:0:
315,34,49141,1,0,0:0:0:0:
313,20,49222,1,0,0:0:0:0:
311,6,49303,1,0,0:0:0:0:
256,192,49465,1,0,0:0:0:0:
446,147,49627,2,0,L|371:137,1,75
141,247,49952,5,0,0:0:0:0:
212,192,50114,1,0,0:0:0:0:
116,264,50276,2,0,L|41:274,1,75
199,103,50600,1,0,0:0:0:0:
212,192,50763,1,0,0:0:0:0:
195,73,50925,1,0,0:0:0:0:
141,247,51087,6,0,P|213:283|284:247,1,150
160,34,51573,1,0,0:0:0:0:
212,192,51736,1,0,0:0:0:0:
322,67,51898,1,0,0:0:0:0:
51,157,52060,1,0,0:0:0:0:
314,95,52222,1,0,0:0:0:0:
236,353,52384,1,0,0:0:0:0:
236,353,52465,1,0,0:0:0:0:
236,353,52546,5,0,0:0:0:0:
309,109,52709,1,0,0:0:0:0:
105,261,52871,1,0,0:0:0:0:
360,257,53033,1,0,0:0:0:0:
152,110,53195,1,0,0:0:0:0:
335,239,53357,1,0,0:0:0:0:
130,243,53519,2,0,L|55:235,1,75
233,39,53844,5,0,0:0:0:0:
270,207,54006,1,0,0:0:0:0:
141,92,54168,1,0,0:0:0:0:
312,109,54330,1,0,0:0:0:0:
312,109,54411,1,0,0:0:0:0:
312,109,54492,1,0,0:0:0:0:
163,195,54654,1,0,0:0:0:0:
238,22,54817,1,0,0:0:0:0:
275,220,54979,1,0,0:0:0:0:
428,89,55141,5,0,0:0:0:0:
229,51,55303,1,0,0:0:0:0:
296,243,55465,1,0,0:0:0:0:
220,80,55627,1,0,0:0:0:0:
407,66,55790,2,0,L|483:73,1,75
292,151,56114,1,0,0:0:0:0:
292,151,56195,1,0,0:0:0:0:
292,151,56276,1,0,0:0:0:0:
311,32,56438,5,0,0:0:0:0:
411,170,56600,1,0,0:0:0:0:
272,264,56763,1,0,0:0:0:0:
178,125,56925,1,0,0:0:0:0:
178,125,57006,1,0,0:0:0:0:
178,125,57087,1,0,0:0:0:0:
427,174,57249,1,0,0:0:0:0:
258,272,57411,2,0,L|173:261,1,75
427,174,57736,5,0,0:0:0:0:
330,342,57898,1,0,0:0:0:0:
309,85,58060,1,0,0:0:0:0:
424,257,58222,2,0,B|450:210|447:146|447:146|426:173,1,150
420,177,58627,1,0,0:0:0:0:
414,182,58709,1,0,0:0:0:0:
429,353,58871,1,0,0:0:0:0:
292,111,59033,6,0,L|295:203,1,75
429,353,59357,1,0,0:0:0:0:
217,226,59519,1,0,0:0:0:0:
219,233,59600,1,0,0:0:0:0:
222,240,59682,1,0,0:0:0:0:
440,367,59844,1,0,0:0:0:0:
459,128,60006,1,0,0:0:0:0:
332,265,60168,1,0,0:0:0:0:
435,108,60330,6,0,L|447:190,1,75
473,37,60654,1,0,0:0:0:0:
293,157,60817,1,0,0:0:0:0:
331,56,60979,1,0,0:0:0:0:
255,258,61142,1,0,0:0:0:0:
145,30,61303,1,0,0:0:0:0:
269,286,61465,6,0,P|214:227|189:304,1,194.999991073609
334,348,61952,1,0,0:0:0:0:
464,113,62114,1,0,0:0:0:0:
419,116,62195,1,0,0:0:0:0:
374,120,62276,1,0,0:0:0:0:
329,124,62357,1,0,0:0:0:0:
285,128,62438,1,0,0:0:0:0:
240,131,62519,1,0,0:0:0:0:
195,135,62600,6,0,L|112:130,1,78.7499975967408
190,56,62925,6,0,L|195:135,1,78.7499975967408
153,209,63249,1,0,0:0:0:0:
115,56,63411,1,0,0:0:0:0:
240,214,63573,2,0,L|235:293,1,78.7499975967408
194,134,63898,1,0,0:0:0:0:
314,260,64060,1,0,0:0:0:0:
96,318,64222,6,0,B|45:298|0:316|0:316|21:302|33:272,1,150
127,140,64709,2,0,B|135:27|135:27|110:60,1,150
81,206,65195,1,0,0:0:0:0:
245,192,65357,1,0,0:0:0:0:
245,192,65438,1,0,0:0:0:0:
245,192,65519,5,0,0:0:0:0:
222,310,65682,1,0,0:0:0:0:
199,109,65844,2,0,P|234:98|271:101,1,75
482,154,66168,2,0,P|410:174|336:166,1,150
504,130,66654,1,0,0:0:0:0:
370,252,66817,6,0,P|291:248|248:196,1,150
45,324,67303,2,0,P|124:320|167:268,1,150
133,76,67790,1,0,0:0:0:0:
80,240,67952,1,0,0:0:0:0:
247,196,68114,6,0,P|254:159|247:122,1,75
167,269,68438,1,0,0:0:0:0:
331,164,68600,1,0,0:0:0:0:
167,22,68763,2,0,P|160:58|167:95,1,75
331,164,69087,1,0,0:0:0:0:
304,47,69249,1,0,0:0:0:0:
240,227,69411,6,0,B|236:276|236:276|256:377,1,150
462,301,69898,2,0,P|397:265|323:268,1,150
78,298,70384,2,0,P|115:300|149:287,1,75
160,277,70627,1,0,0:0:0:0:
169,265,70709,5,0,0:0:0:0:
177,145,70871,1,0,0:0:0:0:
27,187,71033,2,0,L|102:194,1,75
255,99,71357,2,0,P|195:56|120:74,1,150
260,189,71844,1,0,0:0:0:0:
260,189,72006,6,0,B|377:181|377:181|345:170,1,150
177,145,72492,2,0,B|60:153|60:153|92:164,1,150
285,279,72979,2,0,P|291:242|284:205,1,75
152,55,73303,6,0,P|146:92|153:129,1,75
284,205,73627,1,0,0:0:0:0:
246,91,73790,1,0,0:0:0:0:
59,164,73952,2,0,L|64:238,1,75
152,128,74276,1,0,0:0:0:0:
10,78,74438,1,0,0:0:0:0:
14,325,74600,6,0,B|71:351|122:318|122:318|143:327|165:320,1,150
172,321,75006,1,0,0:0:0:0:
186,320,75087,1,0,0:0:0:0:
363,351,75249,1,0,0:0:0:0:
377,353,75330,1,0,0:0:0:0:
391,354,75411,1,0,0:0:0:0:
302,183,75573,1,0,0:0:0:0:
186,320,75736,1,0,0:0:0:0:
322,160,75898,6,0,L|316:85,1,75
262,229,76222,1,0,0:0:0:0:
405,192,76384,1,0,0:0:0:0:
314,53,76546,1,0,0:0:0:0:
314,53,76627,1,0,0:0:0:0:
314,53,76709,1,0,0:0:0:0:
255,254,76871,1,0,0:0:0:0:
430,209,77033,1,0,0:0:0:0:
183,98,77195,6,0,L|134:91,3,37.5
148,197,77519,6,0,L|110:202,3,37.5
45,118,77844,1,0,0:0:0:0:
31,75,77925,1,0,0:0:0:0:
25,30,78006,1,0,0:0:0:0:
66,48,78087,1,0,0:0:0:0:
110,56,78168,1,0,0:0:0:0:
154,48,78249,1,0,0:0:0:0:
195,30,78330,1,0,0:0:0:0:
235,48,78411,1,0,0:0:0:0:
279,56,78492,6,0,L|368:51,1,89.9999972534181
194,126,78817,1,0,0:0:0:0:
407,159,78979,1,0,0:0:0:0:
407,159,79060,1,0,0:0:0:0:
407,159,79141,1,0,0:0:0:0:
314,291,79303,1,0,0:0:0:0:
279,56,79465,1,0,0:0:0:0:
293,325,79627,1,0,0:0:0:0:
424,131,79790,6,0,L|319:123,1,89.9999972534181
213,244,80114,1,0,0:0:0:0:
154,48,80276,1,0,0:0:0:0:
392,264,80438,2,0,L|497:256,1,89.9999972534181
235,147,80762,1,0,0:0:0:0:
272,359,80925,1,0,0:0:0:0:
272,359,81006,1,0,0:0:0:0:
272,359,81087,6,0,L|279:265,1,89.9999972534181
146,34,81411,1,0,0:0:0:0:
75,275,81573,1,0,0:0:0:0:
138,20,81736,1,0,0:0:0:0:
169,197,81898,1,0,0:0:0:0:
21,131,82060,1,0,0:0:0:0:
285,85,82222,1,0,0:0:0:0:
285,85,82303,1,0,0:0:0:0:
285,85,82384,6,0,L|376:91,1,89.9999972534181
169,197,82709,1,0,0:0:0:0:
138,20,82871,1,0,0:0:0:0:
138,20,82952,1,0,0:0:0:0:
138,20,83033,1,0,0:0:0:0:
75,275,83195,1,0,0:0:0:0:
328,203,83357,1,0,0:0:0:0:
21,131,83519,1,0,0:0:0:0:
21,131,83600,1,0,0:0:0:0:
21,131,83682,5,0,0:0:0:0:
92,305,83844,1,0,0:0:0:0:
209,52,84006,1,0,0:0:0:0:
186,238,84168,1,0,0:0:0:0:
186,238,84249,1,0,0:0:0:0:
186,238,84330,1,0,0:0:0:0:
103,99,84492,1,0,0:0:0:0:
276,212,84654,1,0,0:0:0:0:
92,305,84817,1,0,0:0:0:0:
92,305,84898,1,0,0:0:0:0:
92,305,84979,5,0,0:0:0:0:
290,200,85141,1,0,0:0:0:0:
100,81,85303,1,0,0:0:0:0:
236,334,85465,1,0,0:0:0:0:
388,90,85627,1,0,0:0:0:0:
151,181,85790,1,0,0:0:0:0:
151,181,85871,1,0,0:0:0:0:
151,181,85952,1,0,0:0:0:0:
349,341,86114,1,0,0:0:0:0:
349,341,86195,1,0,0:0:0:0:
349,341,86276,5,0,0:0:0:0:
388,90,86438,1,0,0:0:0:0:
290,200,86600,1,0,0:0:0:0:
512,169,86763,1,0,0:0:0:0:
280,92,86925,1,0,0:0:0:0:
415,304,87087,1,0,0:0:0:0:
415,304,87168,1,0,0:0:0:0:
415,304,87249,1,0,0:0:0:0:
492,61,87411,1,0,0:0:0:0:
492,61,87492,1,0,0:0:0:0:
492,61,87573,6,0,L|404:46,1,89.9999972534181
387,54,87817,1,0,0:0:0:0:
371,62,87898,1,0,0:0:0:0:
512,169,88060,1,0,0:0:0:0:
280,92,88222,1,0,0:0:0:0:
280,92,88303,1,0,0:0:0:0:
280,92,88384,1,0,0:0:0:0:
330,332,88546,1,0,0:0:0:0:
170,226,88709,1,0,0:0:0:0:
170,226,88790,1,0,0:0:0:0:
170,226,88871,6,0,L|62:233,1,89.9999972534181
206,333,89195,1,0,0:0:0:0:
143,126,89357,1,0,0:0:0:0:
143,126,89438,1,0,0:0:0:0:
143,126,89519,2,0,L|35:133,1,89.9999972534181
206,333,89844,1,0,0:0:0:0:
357,166,90006,6,0,L|206:151,1,134.999995880127
205,158,90330,1,0,0:0:0:0:
381,192,90492,1,0,0:0:0:0:
80,231,90654,1,0,0:0:0:0:
256,192,90736,12,0,99087,0:0:0:0:
