osu file format v14

[General]
AudioFilename: audio.mp3
AudioLeadIn: 0
PreviewTime: 52236
Countdown: 0
SampleSet: Normal
StackLeniency: 0.7
Mode: 1
LetterboxInBreaks: 0
WidescreenStoryboard: 1

[Editor]
Bookmarks: 10804,21182,31561,39344,40642,42020,52317,62696,73074,85236,85398,93831
DistanceSpacing: 0.9
BeatDivisor: 4
GridSize: 32
TimelineZoom: 1.9

[Metadata]
Title:Mischievous of Alice
TitleUnicode:Mischievous of Alice
Artist:Yousei Teikoku
ArtistUnicode:妖精帝國
Creator:Linkff001
Version:Slyme's Muzukashii
Source:クイーンズゲイト スパイラルカオス
Tags:hades the mari 0hara mari_0hara Slyme Nintendoisgood hades:the other world queen's gate spiral chaos game version japanese rock jrock j-rock metal female vocalist
BeatmapID:4459201
BeatmapSetID:2120580

[Difficulty]
HPDrainRate:6
CircleSize:5
OverallDifficulty:5
ApproachRate:5
SliderMultiplier:1.4
SliderTickRate:1

[Events]
//Background and Video events
0,0,"706886-wallpaper-queens-blade-1920x1080-hd-1080p.jpg",0,120
//Break Periods
//Storyboard Layer 0 (Background)
//Storyboard Layer 1 (Fail)
//Storyboard Layer 2 (Pass)
//Storyboard Layer 3 (Foreground)
//Storyboard Layer 4 (Overlay)
//Storyboard Sound Samples

[TimingPoints]
426,324.324324324324,4,1,0,75,1,0
426,-100,4,1,0,75,0,0
10155,-100,4,1,0,75,0,0
10236,-100,4,1,0,76,0,0
10317,-100,4,1,0,77,0,0
10398,-100,4,1,0,79,0,0
10480,-100,4,1,0,80,0,0
10561,-100,4,1,0,81,0,0
10642,-100,4,1,0,83,0,0
10723,-100,4,1,0,84,0,0
10804,-100,4,1,0,85,0,0
21507,-100,4,1,0,70,0,0
30750,-100,4,1,0,72,0,0
30831,-100,4,1,0,72,0,0
30912,-100,4,1,0,73,0,0
31074,-100,4,1,0,75,0,0
31155,-100,4,1,0,76,0,0
31236,-100,4,1,0,77,0,0
31317,-100,4,1,0,77,0,0
31398,-100,4,1,0,78,0,0
31480,-100,4,1,0,79,0,0
31561,-100,4,1,0,80,0,0
41939,-100,4,1,0,85,0,0
51344,-100,4,1,0,85,0,0
51425,-100,4,1,0,86,0,0
51507,-100,4,1,0,87,0,0
51669,-100,4,1,0,88,0,0
51831,-100,4,1,0,90,0,0
51993,-100,4,1,0,92,0,0
52074,-100,4,1,0,93,0,0
52155,-100,4,1,0,93,0,0
52236,-100,4,1,0,94,0,0
52317,-100,4,1,0,95,0,1
61723,-100,4,1,0,95,0,1
61885,-100,4,1,0,93,0,1
61966,-100,4,1,0,93,0,1
62047,-100,4,1,0,92,0,1
62128,-100,4,1,0,91,0,1
62209,-100,4,1,0,90,0,1
62290,-100,4,1,0,89,0,1
62371,-100,4,1,0,89,0,1
62696,-100,4,1,0,85,0,0
72425,-100,4,1,0,85,0,0
72507,-100,4,1,0,86,0,0
72588,-100,4,1,0,88,0,0
72669,-100,4,1,0,89,0,0
72750,-100,4,1,0,90,0,0
72831,-100,4,1,0,91,0,0
72912,-100,4,1,0,93,0,0
72993,-100,4,1,0,94,0,0
73074,-100,4,1,0,95,0,1
85236,-100,4,1,0,95,0,0
86696,-100,4,1,0,85,0,0
87993,-100,4,1,0,75,0,0
89290,-100,4,1,0,65,0,0
90588,-100,4,1,0,55,0,0
91885,-100,4,1,0,45,0,0

[HitObjects]
256,192,426,5,0,0:0:0:0:
256,192,588,1,0,0:0:0:0:
256,192,1723,1,0,0:0:0:0:
256,192,1885,1,0,0:0:0:0:
256,192,3020,1,0,0:0:0:0:
256,192,3182,1,0,0:0:0:0:
256,192,4155,1,8,0:0:0:0:
256,192,4317,1,0,0:0:0:0:
256,192,4480,1,8,0:0:0:0:
256,192,4804,1,0,0:0:0:0:
256,192,4966,1,0,0:0:0:0:
256,192,5128,1,8,0:0:0:0:
256,192,5290,1,0,0:0:0:0:
256,192,5371,1,0,0:0:0:0:
256,192,5453,1,0,0:0:0:0:
256,192,5615,1,8,0:0:0:0:
256,192,5777,1,8,0:0:0:0:
256,192,6912,1,8,0:0:0:0:
256,192,7074,1,8,0:0:0:0:
256,192,8209,1,8,0:0:0:0:
256,192,8371,1,8,0:0:0:0:
256,192,9344,1,0,0:0:0:0:
256,192,9506,1,8,0:0:0:0:
256,192,9669,1,0,0:0:0:0:
256,192,9993,1,0,0:0:0:0:
256,192,10155,1,8,0:0:0:0:
256,192,10317,1,0,0:0:0:0:
256,192,10398,1,0,0:0:0:0:
256,192,10480,1,0,0:0:0:0:
256,192,10642,1,8,0:0:0:0:
256,192,10804,1,4,0:0:0:0:
256,192,11128,1,0,0:0:0:0:
256,192,11290,1,0,0:0:0:0:
256,192,11453,1,8,0:0:0:0:
256,192,11534,1,8,0:0:0:0:
256,192,11615,1,8,0:0:0:0:
256,192,11777,1,0,0:0:0:0:
256,192,12101,1,8,0:0:0:0:
256,192,12263,1,0,0:0:0:0:
256,192,12425,1,8,0:0:0:0:
256,192,12507,1,8,0:0:0:0:
256,192,12588,1,8,0:0:0:0:
256,192,12750,1,0,0:0:0:0:
256,192,12912,1,8,0:0:0:0:
256,192,13074,1,0,0:0:0:0:
256,192,13236,1,0,0:0:0:0:
256,192,13398,1,12,0:0:0:0:
256,192,13723,1,0,0:0:0:0:
256,192,13885,1,8,0:0:0:0:
256,192,14047,1,0,0:0:0:0:
256,192,14371,1,8,0:0:0:0:
256,192,14534,1,8,0:0:0:0:
256,192,14696,1,0,0:0:0:0:
256,192,14858,1,8,0:0:0:0:
256,192,15020,1,0,0:0:0:0:
256,192,15101,1,0,0:0:0:0:
256,192,15182,1,0,0:0:0:0:
256,192,15344,1,8,0:0:0:0:
256,192,15507,1,0,0:0:0:0:
256,192,15993,1,12,0:0:0:0:
256,192,16317,1,8,0:0:0:0:
256,192,16479,1,0,0:0:0:0:
256,192,16642,1,8,0:0:0:0:
256,192,16723,1,8,0:0:0:0:
256,192,16804,1,8,0:0:0:0:
256,192,16966,1,0,0:0:0:0:
256,192,17290,1,8,0:0:0:0:
256,192,17452,1,0,0:0:0:0:
256,192,17614,1,8,0:0:0:0:
256,192,17696,1,8,0:0:0:0:
256,192,17777,1,8,0:0:0:0:
256,192,17939,1,0,0:0:0:0:
256,192,18101,1,8,0:0:0:0:
256,192,18263,1,0,0:0:0:0:
256,192,18425,1,0,0:0:0:0:
256,192,18587,1,12,0:0:0:0:
256,192,18912,1,0,0:0:0:0:
256,192,19074,1,8,0:0:0:0:
256,192,19236,1,0,0:0:0:0:
256,192,19560,1,8,0:0:0:0:
256,192,19723,1,8,0:0:0:0:
256,192,19885,1,0,0:0:0:0:
256,192,20047,1,8,0:0:0:0:
256,192,20209,1,0,0:0:0:0:
256,192,20290,1,0,0:0:0:0:
256,192,20371,1,0,0:0:0:0:
256,192,20533,1,8,0:0:0:0:
256,192,20696,1,0,0:0:0:0:
256,192,21182,1,12,0:0:0:0:
256,192,21507,1,0,0:0:0:0:
256,192,21669,1,0,0:0:0:0:
256,192,21831,1,8,0:0:0:0:
256,192,21993,1,8,0:0:0:0:
256,192,22155,1,0,0:0:0:0:
256,192,22480,1,8,0:0:0:0:
256,192,22642,1,0,0:0:0:0:
256,192,22804,1,8,0:0:0:0:
256,192,23128,1,0,0:0:0:0:
256,192,23290,1,8,0:0:0:0:
256,192,23453,1,8,0:0:0:0:
256,192,23615,1,0,0:0:0:0:
256,192,23777,1,12,0:0:0:0:
256,192,24101,1,8,0:0:0:0:
256,192,24263,1,0,0:0:0:0:
256,192,24425,1,8,0:0:0:0:
256,192,24587,1,8,0:0:0:0:
256,192,24749,1,0,0:0:0:0:
256,192,25074,1,8,0:0:0:0:
256,192,25236,1,0,0:0:0:0:
256,192,25398,1,8,0:0:0:0:
256,192,25722,1,8,0:0:0:0:
256,192,26047,1,0,0:0:0:0:
256,192,26371,1,12,0:0:0:0:
256,192,26696,1,0,0:0:0:0:
256,192,26858,1,8,0:0:0:0:
256,192,27020,1,0,0:0:0:0:
256,192,27182,1,0,0:0:0:0:
256,192,27344,1,8,0:0:0:0:
256,192,27669,1,8,0:0:0:0:
256,192,27831,1,0,0:0:0:0:
256,192,27993,1,8,0:0:0:0:
256,192,28317,1,8,0:0:0:0:
256,192,28479,1,8,0:0:0:0:
256,192,28642,1,0,0:0:0:0:
256,192,28804,1,8,0:0:0:0:
256,192,28966,1,4,0:0:0:0:
256,192,29290,1,8,0:0:0:0:
256,192,29452,1,0,0:0:0:0:
256,192,29614,1,8,0:0:0:0:
256,192,29776,1,0,0:0:0:0:
256,192,29939,1,0,0:0:0:0:
256,192,30101,1,8,0:0:0:0:
256,192,30425,1,0,0:0:0:0:
256,192,30588,1,8,0:0:0:0:
256,192,30750,1,8,0:0:0:0:
256,192,30911,1,0,0:0:0:0:
256,192,31560,1,12,0:0:0:0:
256,192,31723,1,0,0:0:0:0:
256,192,31885,1,8,0:0:0:0:
256,192,32047,1,8,0:0:0:0:
256,192,32209,1,0,0:0:0:0:
256,192,32371,1,0,0:0:0:0:
256,192,32534,1,8,0:0:0:0:
256,192,32858,1,0,0:0:0:0:
256,192,33020,1,8,0:0:0:0:
256,192,33182,1,8,0:0:0:0:
256,192,33344,1,0,0:0:0:0:
256,192,33669,1,8,0:0:0:0:
256,192,33831,1,0,0:0:0:0:
256,192,34155,1,12,0:0:0:0:
256,192,34317,1,0,0:0:0:0:
256,192,34480,1,8,0:0:0:0:
256,192,34804,1,0,0:0:0:0:
256,192,34966,1,0,0:0:0:0:
256,192,35128,1,8,0:0:0:0:
256,192,35290,1,0,0:0:0:0:
256,192,35453,1,12,0:0:0:0:
256,192,35777,1,0,0:0:0:0:
256,192,35939,1,8,0:0:0:0:
256,192,36425,1,8,0:0:0:0:
256,192,36750,1,4,0:0:0:0:
256,192,36912,1,8,0:0:0:0:
256,192,37074,1,0,0:0:0:0:
256,192,37236,1,0,0:0:0:0:
256,192,37399,1,8,0:0:0:0:
256,192,37561,1,0,0:0:0:0:
256,192,37723,1,8,0:0:0:0:
256,192,38048,1,0,0:0:0:0:
256,192,38209,1,0,0:0:0:0:
256,192,38371,1,0,0:0:0:0:
256,192,38534,1,8,0:0:0:0:
256,192,38859,1,8,0:0:0:0:
256,192,39021,1,0,0:0:0:0:
256,192,39345,1,12,0:0:0:0:
256,192,39507,1,0,0:0:0:0:
256,192,39670,1,8,0:0:0:0:
256,192,39994,1,0,0:0:0:0:
256,192,40156,1,0,0:0:0:0:
256,192,40318,1,8,0:0:0:0:
256,192,40480,1,0,0:0:0:0:
256,192,40643,1,12,0:0:0:0:
256,192,40967,1,0,0:0:0:0:
256,192,41129,1,8,0:0:0:0:
256,192,41290,1,0,0:0:0:0:
256,192,41453,1,0,0:0:0:0:
256,192,41939,1,12,0:0:0:0:
256,192,42263,1,8,0:0:0:0:
256,192,42425,1,0,0:0:0:0:
256,192,42588,1,8,0:0:0:0:
256,192,42669,1,8,0:0:0:0:
256,192,42750,1,8,0:0:0:0:
256,192,42912,1,0,0:0:0:0:
256,192,43074,1,12,0:0:0:0:
256,192,43398,1,8,0:0:0:0:
256,192,43561,1,8,0:0:0:0:
256,192,43723,1,0,0:0:0:0:
256,192,43804,1,0,0:0:0:0:
256,192,43885,1,0,0:0:0:0:
256,192,44047,1,8,0:0:0:0:
256,192,44209,1,0,0:0:0:0:
256,192,44534,1,12,0:0:0:0:
256,192,44696,1,0,0:0:0:0:
256,192,44858,1,8,0:0:0:0:
256,192,44939,1,8,0:0:0:0:
256,192,45020,1,8,0:0:0:0:
256,192,45182,1,0,0:0:0:0:
256,192,45344,1,8,0:0:0:0:
256,192,45507,1,8,0:0:0:0:
256,192,45669,1,4,0:0:0:0:
256,192,46155,1,0,0:0:0:0:
256,192,46317,1,8,0:0:0:0:
256,192,46398,1,8,0:0:0:0:
256,192,46480,1,8,0:0:0:0:
256,192,46642,1,0,0:0:0:0:
256,192,46804,1,8,0:0:0:0:
256,192,47128,1,12,0:0:0:0:
256,192,47453,1,8,0:0:0:0:
256,192,47615,1,0,0:0:0:0:
256,192,47776,1,8,0:0:0:0:
256,192,47857,1,8,0:0:0:0:
256,192,47938,1,8,0:0:0:0:
256,192,48100,1,0,0:0:0:0:
256,192,48263,1,12,0:0:0:0:
256,192,48588,1,8,0:0:0:0:
256,192,48749,1,8,0:0:0:0:
256,192,48911,1,0,0:0:0:0:
256,192,48992,1,0,0:0:0:0:
256,192,49073,1,0,0:0:0:0:
256,192,49235,1,8,0:0:0:0:
256,192,49397,1,0,0:0:0:0:
256,192,49722,1,12,0:0:0:0:
256,192,49884,1,0,0:0:0:0:
256,192,50046,1,8,0:0:0:0:
256,192,50127,1,8,0:0:0:0:
256,192,50208,1,8,0:0:0:0:
256,192,50370,1,0,0:0:0:0:
256,192,50534,1,8,0:0:0:0:
256,192,50695,1,8,0:0:0:0:
256,192,50857,1,4,0:0:0:0:
256,192,51343,1,8,0:0:0:0:
256,192,51668,1,8,0:0:0:0:
256,192,51993,1,0,0:0:0:0:
256,192,52317,1,12,0:0:0:0:
256,192,52480,1,0,0:0:0:0:
256,192,52642,1,8,0:0:0:0:
256,192,52723,1,8,0:0:0:0:
256,192,52804,1,8,0:0:0:0:
256,192,52966,1,0,0:0:0:0:
256,192,53128,1,8,0:0:0:0:
256,192,53290,1,0,0:0:0:0:
256,192,53615,1,8,0:0:0:0:
256,192,53777,1,0,0:0:0:0:
256,192,53939,1,8,0:0:0:0:
256,192,54101,1,0,0:0:0:0:
256,192,54182,1,0,0:0:0:0:
256,192,54263,1,0,0:0:0:0:
256,192,54425,1,8,0:0:0:0:
256,192,54588,1,0,0:0:0:0:
256,192,54912,1,4,0:0:0:0:
256,192,55075,1,8,0:0:0:0:
256,192,55237,1,0,0:0:0:0:
256,192,55318,1,0,0:0:0:0:
256,192,55399,1,0,0:0:0:0:
256,192,55561,1,8,0:0:0:0:
256,192,55723,1,8,0:0:0:0:
256,192,55885,1,0,0:0:0:0:
256,192,56209,1,8,0:0:0:0:
256,192,56371,1,0,0:0:0:0:
256,192,56534,1,8,0:0:0:0:
256,192,56696,1,0,0:0:0:0:
256,192,57182,1,0,0:0:0:0:
256,192,57507,1,12,0:0:0:0:
256,192,57670,1,0,0:0:0:0:
256,192,57832,1,8,0:0:0:0:
256,192,57913,1,8,0:0:0:0:
256,192,57994,1,8,0:0:0:0:
256,192,58156,1,0,0:0:0:0:
256,192,58318,1,8,0:0:0:0:
256,192,58480,1,0,0:0:0:0:
256,192,58805,1,8,0:0:0:0:
256,192,58967,1,0,0:0:0:0:
256,192,59129,1,8,0:0:0:0:
256,192,59291,1,0,0:0:0:0:
256,192,59372,1,0,0:0:0:0:
256,192,59453,1,0,0:0:0:0:
256,192,59615,1,8,0:0:0:0:
256,192,59778,1,0,0:0:0:0:
256,192,60102,1,12,0:0:0:0:
256,192,60263,1,0,0:0:0:0:
256,192,60425,1,8,0:0:0:0:
256,192,60508,1,8,0:0:0:0:
256,192,60589,1,8,0:0:0:0:
256,192,60751,1,0,0:0:0:0:
256,192,60913,1,8,0:0:0:0:
256,192,61074,1,8,0:0:0:0:
256,192,61236,1,4,0:0:0:0:
256,192,61724,1,8,0:0:0:0:
256,192,61886,1,0,0:0:0:0:
256,192,62047,1,8,0:0:0:0:
256,192,62128,1,8,0:0:0:0:
256,192,62209,1,8,0:0:0:0:
256,192,62372,1,0,0:0:0:0:
256,192,62696,1,12,0:0:0:0:
256,192,63020,1,0,0:0:0:0:
256,192,63182,1,0,0:0:0:0:
256,192,63345,1,8,0:0:0:0:
256,192,63426,1,8,0:0:0:0:
256,192,63507,1,8,0:0:0:0:
256,192,63669,1,0,0:0:0:0:
256,192,63993,1,8,0:0:0:0:
256,192,64155,1,0,0:0:0:0:
256,192,64317,1,8,0:0:0:0:
256,192,64399,1,8,0:0:0:0:
256,192,64480,1,8,0:0:0:0:
256,192,64642,1,0,0:0:0:0:
256,192,64804,1,8,0:0:0:0:
256,192,64966,1,0,0:0:0:0:
256,192,65128,1,0,0:0:0:0:
256,192,65290,1,12,0:0:0:0:
256,192,65615,1,0,0:0:0:0:
256,192,65777,1,8,0:0:0:0:
256,192,65939,1,0,0:0:0:0:
256,192,66263,1,8,0:0:0:0:
256,192,66426,1,8,0:0:0:0:
256,192,66588,1,0,0:0:0:0:
256,192,66750,1,8,0:0:0:0:
256,192,66912,1,0,0:0:0:0:
256,192,66993,1,0,0:0:0:0:
256,192,67074,1,0,0:0:0:0:
256,192,67236,1,8,0:0:0:0:
256,192,67399,1,0,0:0:0:0:
256,192,67885,1,12,0:0:0:0:
256,192,68209,1,8,0:0:0:0:
256,192,68371,1,0,0:0:0:0:
256,192,68534,1,8,0:0:0:0:
256,192,68615,1,8,0:0:0:0:
256,192,68696,1,8,0:0:0:0:
256,192,68858,1,0,0:0:0:0:
256,192,69182,1,8,0:0:0:0:
256,192,69344,1,0,0:0:0:0:
256,192,69506,1,8,0:0:0:0:
256,192,69588,1,8,0:0:0:0:
256,192,69669,1,8,0:0:0:0:
256,192,69831,1,0,0:0:0:0:
256,192,69993,1,8,0:0:0:0:
256,192,70155,1,0,0:0:0:0:
256,192,70317,1,0,0:0:0:0:
256,192,70479,1,12,0:0:0:0:
256,192,70804,1,0,0:0:0:0:
256,192,70966,1,8,0:0:0:0:
256,192,71128,1,0,0:0:0:0:
256,192,71452,1,8,0:0:0:0:
256,192,71615,1,8,0:0:0:0:
256,192,71777,1,0,0:0:0:0:
256,192,71939,1,8,0:0:0:0:
256,192,72101,1,0,0:0:0:0:
256,192,72182,1,0,0:0:0:0:
256,192,72263,1,0,0:0:0:0:
256,192,72425,1,8,0:0:0:0:
256,192,72588,1,0,0:0:0:0:
256,192,73074,1,12,0:0:0:0:
256,192,73236,1,0,0:0:0:0:
256,192,73398,1,8,0:0:0:0:
256,192,73560,1,0,0:0:0:0:
256,192,73723,1,8,0:0:0:0:
256,192,73804,1,8,0:0:0:0:
256,192,73885,1,8,0:0:0:0:
256,192,74047,1,0,0:0:0:0:
256,192,74371,1,12,0:0:0:0:
256,192,74533,1,0,0:0:0:0:
256,192,74695,1,8,0:0:0:0:
256,192,74777,1,8,0:0:0:0:
256,192,74858,1,8,0:0:0:0:
256,192,75020,1,0,0:0:0:0:
256,192,75182,1,8,0:0:0:0:
256,192,75344,1,0,0:0:0:0:
256,192,75425,1,0,0:0:0:0:
256,192,75506,1,0,0:0:0:0:
256,192,75668,1,12,0:0:0:0:
256,192,75993,1,8,0:0:0:0:
256,192,76155,1,0,0:0:0:0:
256,192,76317,1,8,0:0:0:0:
256,192,76398,1,8,0:0:0:0:
256,192,76480,1,8,0:0:0:0:
256,192,76641,1,0,0:0:0:0:
256,192,76966,1,4,0:0:0:0:
256,192,77128,1,8,0:0:0:0:
256,192,77290,1,0,0:0:0:0:
256,192,77371,1,0,0:0:0:0:
256,192,77452,1,0,0:0:0:0:
256,192,77614,1,8,0:0:0:0:
256,192,77777,1,0,0:0:0:0:
256,192,78263,1,12,0:0:0:0:
256,192,78425,1,0,0:0:0:0:
256,192,78587,1,8,0:0:0:0:
256,192,78749,1,0,0:0:0:0:
256,192,78912,1,8,0:0:0:0:
256,192,78993,1,8,0:0:0:0:
256,192,79074,1,8,0:0:0:0:
256,192,79236,1,0,0:0:0:0:
256,192,79560,1,12,0:0:0:0:
256,192,79722,1,0,0:0:0:0:
256,192,79884,1,8,0:0:0:0:
256,192,79966,1,8,0:0:0:0:
256,192,80047,1,8,0:0:0:0:
256,192,80209,1,0,0:0:0:0:
256,192,80371,1,8,0:0:0:0:
256,192,80533,1,0,0:0:0:0:
256,192,80614,1,0,0:0:0:0:
256,192,80695,1,0,0:0:0:0:
256,192,80857,1,12,0:0:0:0:
256,192,81182,1,8,0:0:0:0:
256,192,81344,1,0,0:0:0:0:
256,192,81506,1,8,0:0:0:0:
256,192,81587,1,8,0:0:0:0:
256,192,81669,1,8,0:0:0:0:
256,192,81830,1,0,0:0:0:0:
256,192,82155,1,4,0:0:0:0:
256,192,82317,1,8,0:0:0:0:
256,192,82479,1,0,0:0:0:0:
256,192,82560,1,0,0:0:0:0:
256,192,82641,1,0,0:0:0:0:
256,192,82803,1,8,0:0:0:0:
256,192,82966,1,0,0:0:0:0:
256,192,83453,1,4,0:0:0:0:
256,192,83615,1,8,0:0:0:0:
256,192,83777,1,0,0:0:0:0:
256,192,83939,1,0,0:0:0:0:
256,192,84102,1,8,0:0:0:0:
256,192,84183,1,8,0:0:0:0:
256,192,84264,1,8,0:0:0:0:
256,192,84426,1,0,0:0:0:0:
256,192,84588,1,0,0:0:0:0:
256,192,84750,1,8,0:0:0:0:
256,192,84912,1,8,0:0:0:0:
256,192,85074,1,0,0:0:0:0:
256,192,85236,1,12,0:0:0:0:
256,192,85561,12,8,93831,0:0:0:0:
