osu file format v14

[General]
AudioFilename: audio.mp3
AudioLeadIn: 0
PreviewTime: 52236
Countdown: 0
SampleSet: Normal
StackLeniency: 0.7
Mode: 1
LetterboxInBreaks: 0
WidescreenStoryboard: 1

[Editor]
Bookmarks: 10804,21182,31561,39344,40642,42020,52317,62696,73074,85236,85398,93831
DistanceSpacing: 0.9
BeatDivisor: 4
GridSize: 32
TimelineZoom: 1.9

[Metadata]
Title:Mischievous of Alice
TitleUnicode:Mischievous of Alice
Artist:Yousei Teikoku
ArtistUnicode:妖精帝國
Creator:Linkff001
Version:Oni
Source:クイーンズゲイト スパイラルカオス
Tags:hades the mari 0hara mari_0hara Slyme Nintendoisgood hades:the other world queen's gate spiral chaos game version japanese rock jrock j-rock metal female vocalist
BeatmapID:4457308
BeatmapSetID:2120580

[Difficulty]
HPDrainRate:5
CircleSize:5
OverallDifficulty:5.5
ApproachRate:5
SliderMultiplier:1.4
SliderTickRate:1

[Events]
//Background and Video events
0,0,"706886-wallpaper-queens-blade-1920x1080-hd-1080p.jpg",0,120
//Break Periods
//Storyboard Layer 0 (Background)
//Storyboard Layer 1 (Fail)
//Storyboard Layer 2 (Pass)
//Storyboard Layer 3 (Foreground)
//Storyboard Layer 4 (Overlay)
//Storyboard Sound Samples

[TimingPoints]
426,324.324324324324,4,1,0,75,1,0
426,-105.263157894737,4,1,0,75,0,0
10155,-105.263157894737,4,1,0,75,0,0
10236,-103.89818298247,4,1,0,76,0,0
10317,-102.568154879494,4,1,0,77,0,0
10398,-101.271748459078,4,1,0,79,0,0
10480,-99.992296433249,4,1,0,80,0,0
10561,-98.759796089173,4,1,0,81,0,0
10642,-97.557309282225,4,1,0,83,0,0
10723,-96.383752877404,4,1,0,84,0,0
10804,-95.238095238095,4,1,0,85,0,0
21507,-111.111111111111,4,1,0,70,0,0
30750,-109.103154113817,4,1,0,72,0,0
30831,-108.120133481646,4,1,0,72,0,0
30912,-107.154668724507,4,1,0,73,0,0
31074,-105.274558648327,4,1,0,75,0,0
31155,-104.35902941808,4,1,0,76,0,0
31236,-103.45928685471,4,1,0,77,0,0
31317,-102.574926129168,4,1,0,77,0,0
31398,-101.705556136863,4,1,0,78,0,0
31480,-100.840336134454,4,1,0,79,0,0
31561,-100,4,1,0,80,0,0
41939,-95.2380952380952,4,1,0,85,0,0
51344,-95.238095238095,4,1,0,85,0,0
51425,-94.488953629522,4,1,0,86,0,0
51507,-93.742473144178,4,1,0,87,0,0
51669,-92.301854574776,4,1,0,88,0,0
51831,-90.904844209838,4,1,0,90,0,0
51993,-89.549491509825,4,1,0,92,0,0
52074,-88.886858813319,4,1,0,93,0,0
52155,-88.233960553163,4,1,0,93,0,0
52236,-87.59058378719,4,1,0,94,0,0
52317,-86.95652173913,4,1,0,95,0,1
61723,-86.95652173913,4,1,0,95,0,1
61885,-88.181887375094,4,1,0,93,0,1
61966,-88.807612706825,4,1,0,93,0,1
62047,-89.442281605329,4,1,0,92,0,1
62128,-90.086087198001,4,1,0,91,0,1
62209,-90.739228213075,4,1,0,90,0,1
62290,-91.401909184145,4,1,0,89,0,1
62371,-92.074340663707,4,1,0,89,0,1
62696,-95.238095238095,4,1,0,85,0,0
72263,-94.3396226415094,4,1,0,86,0,0
72344,-93.4579439252336,4,1,0,87,0,0
72425,-92.5925925925926,4,1,0,88,0,0
72507,-91.743119266055,4,1,0,89,0,0
72588,-90.9090909090909,4,1,0,90,0,0
72669,-90.383678016851,4,1,0,90,0,0
72750,-88.879758970145,4,1,0,91,0,0
72831,-87.425069037516,4,1,0,92,0,0
72912,-86.017229953612,4,1,0,93,0,0
72993,-84.6540142177,4,1,0,94,0,0
73074,-83.333333333333,4,1,0,95,0,1
85236,-83.3333333333333,4,1,0,95,0,0
86696,-83.3333333333333,4,1,0,85,0,0
87993,-83.3333333333333,4,1,0,75,0,0
89290,-83.3333333333333,4,1,0,65,0,0
90588,-83.3333333333333,4,1,0,55,0,0
91885,-83.3333333333333,4,1,0,45,0,0

[HitObjects]
165,269,426,5,4,0:0:0:0:
165,269,588,1,4,0:0:0:0:
11,157,1723,1,4,0:0:0:0:
11,157,1885,1,4,0:0:0:0:
438,177,3020,1,4,0:0:0:0:
393,174,3182,1,4,0:0:0:0:
35,288,4155,1,12,0:0:0:0:
150,251,4480,1,12,0:0:0:0:
267,213,4804,1,12,0:0:0:0:
267,213,5128,1,12,0:0:0:0:
267,213,5290,1,0,0:0:0:0:
267,213,5371,1,0,0:0:0:0:
267,213,5453,1,0,0:0:0:0:
267,213,5615,1,4,0:0:0:0:
238,179,5777,1,4,0:0:0:0:
322,182,6912,1,4,0:0:0:0:
322,182,7074,1,4,0:0:0:0:
199,158,8209,1,4,0:0:0:0:
199,158,8371,1,4,0:0:0:0:
185,127,9344,1,12,0:0:0:0:
224,85,9669,1,12,0:0:0:0:
225,83,9993,1,12,0:0:0:0:
221,16,10155,1,0,0:0:0:0:
193,32,10236,1,0,0:0:0:0:
226,82,10317,1,8,0:0:0:0:
159,106,10480,1,8,0:0:0:0:
99,128,10642,1,0,0:0:0:0:
71,138,10804,1,12,0:0:0:0:
69,161,11128,1,0,0:0:0:0:
81,167,11290,1,0,0:0:0:0:
308,219,11453,1,8,0:0:0:0:
287,277,11777,1,8,0:0:0:0:
69,161,12101,1,8,0:0:0:0:
130,147,12263,1,0,0:0:0:0:
189,189,12425,1,8,0:0:0:0:
241,202,12588,1,8,0:0:0:0:
231,182,12669,1,8,0:0:0:0:
221,164,12750,1,0,0:0:0:0:
241,202,12912,1,8,0:0:0:0:
241,202,13074,1,0,0:0:0:0:
178,201,13236,1,0,0:0:0:0:
241,202,13398,1,12,0:0:0:0:
337,280,13723,1,0,0:0:0:0:
306,232,13885,1,8,0:0:0:0:
424,362,14047,1,8,0:0:0:0:
358,290,14371,1,8,0:0:0:0:
236,190,14696,1,8,0:0:0:0:
228,163,14858,1,0,0:0:0:0:
335,280,15020,1,8,0:0:0:0:
383,325,15182,1,0,0:0:0:0:
367,312,15263,1,0,0:0:0:0:
351,299,15344,1,8,0:0:0:0:
291,239,15507,1,0,0:0:0:0:
260,211,15669,1,8,0:0:0:0:
200,159,15831,1,0,0:0:0:0:
200,159,15912,1,0,0:0:0:0:
337,284,15993,1,12,0:0:0:0:
69,161,16317,1,0,0:0:0:0:
81,167,16479,1,8,0:0:0:0:
308,219,16642,1,0,0:0:0:0:
287,277,16966,1,0,0:0:0:0:
69,161,17290,1,0,0:0:0:0:
130,147,17452,1,8,0:0:0:0:
189,189,17614,1,0,0:0:0:0:
241,202,17777,1,8,0:0:0:0:
231,182,17858,1,8,0:0:0:0:
221,164,17939,1,0,0:0:0:0:
241,202,18101,1,8,0:0:0:0:
241,202,18263,1,0,0:0:0:0:
178,201,18425,1,0,0:0:0:0:
241,202,18587,1,12,0:0:0:0:
337,280,18912,1,0,0:0:0:0:
306,232,19074,1,8,0:0:0:0:
424,362,19236,1,0,0:0:0:0:
358,290,19560,1,0,0:0:0:0:
236,190,19885,1,8,0:0:0:0:
228,163,20047,1,0,0:0:0:0:
335,280,20209,1,8,0:0:0:0:
383,325,20371,1,0,0:0:0:0:
367,312,20452,1,0,0:0:0:0:
351,299,20533,1,8,0:0:0:0:
333,267,20615,1,8,0:0:0:0:
291,239,20696,1,0,0:0:0:0:
260,211,20858,1,8,0:0:0:0:
200,159,21020,1,0,0:0:0:0:
337,284,21182,1,12,0:0:0:0:
247,182,21507,1,0,0:0:0:0:
225,138,21669,1,8,0:0:0:0:
247,182,21831,1,0,0:0:0:0:
247,182,22155,1,8,0:0:0:0:
204,143,22317,1,0,0:0:0:0:
247,182,22480,1,0,0:0:0:0:
247,182,22804,1,8,0:0:0:0:
199,173,22966,1,0,0:0:0:0:
247,182,23128,1,8,0:0:0:0:
231,137,23290,1,0,0:0:0:0:
371,193,23453,1,8,0:0:0:0:
256,224,23534,1,8,0:0:0:0:
312,190,23615,1,0,0:0:0:0:
283,185,23777,1,12,0:0:0:0:
237,81,24101,1,8,0:0:0:0:
231,119,24263,1,0,0:0:0:0:
280,187,24425,1,8,0:0:0:0:
198,126,24750,1,0,0:0:0:0:
198,126,24912,1,0,0:0:0:0:
278,188,25074,1,8,0:0:0:0:
231,77,25398,1,0,0:0:0:0:
204,111,25561,1,0,0:0:0:0:
154,163,25642,1,0,0:0:0:0:
277,186,25723,1,0,0:0:0:0:
228,176,25885,1,8,0:0:0:0:
234,83,26047,1,0,0:0:0:0:
255,144,26209,1,0,0:0:0:0:
255,144,26371,1,12,0:0:0:0:
255,144,26696,1,0,0:0:0:0:
201,98,26858,1,0,0:0:0:0:
255,144,27020,1,8,0:0:0:0:
255,144,27344,1,8,0:0:0:0:
218,142,27507,1,8,0:0:0:0:
255,144,27669,1,0,0:0:0:0:
255,144,27993,1,8,0:0:0:0:
280,58,28155,1,0,0:0:0:0:
255,144,28317,1,8,0:0:0:0:
273,84,28480,1,0,0:0:0:0:
255,144,28642,1,8,0:0:0:0:
256,224,28723,1,8,0:0:0:0:
191,164,28804,1,0,0:0:0:0:
152,206,28966,1,12,0:0:0:0:
297,169,29290,1,8,0:0:0:0:
277,149,29453,1,0,0:0:0:0:
380,85,29615,1,8,0:0:0:0:
277,149,29939,1,0,0:0:0:0:
277,149,30101,1,8,0:0:0:0:
222,147,30263,1,0,0:0:0:0:
202,53,30425,1,0,0:0:0:0:
240,103,30588,1,8,0:0:0:0:
240,103,30750,1,0,0:0:0:0:
203,99,30831,1,0,0:0:0:0:
240,103,30912,1,8,0:0:0:0:
240,103,31074,1,0,0:0:0:0:
240,103,31236,1,8,0:0:0:0:
258,81,31317,1,8,0:0:0:0:
240,103,31398,1,8,0:0:0:0:
240,103,31561,1,4,0:0:0:0:
257,176,31885,1,0,0:0:0:0:
275,254,32047,1,8,0:0:0:0:
276,225,32128,1,8,0:0:0:0:
333,241,32209,1,0,0:0:0:0:
333,241,32371,1,8,0:0:0:0:
333,241,32534,1,8,0:0:0:0:
329,212,32615,1,0,0:0:0:0:
333,241,32696,1,8,0:0:0:0:
333,241,32858,1,0,0:0:0:0:
333,241,33020,1,8,0:0:0:0:
333,241,33182,1,0,0:0:0:0:
333,241,33344,1,8,0:0:0:0:
303,190,33669,1,8,0:0:0:0:
257,141,33831,1,0,0:0:0:0:
285,183,33993,1,0,0:0:0:0:
285,183,34155,1,12,0:0:0:0:
275,65,34480,1,0,0:0:0:0:
238,37,34642,1,8,0:0:0:0:
247,171,34804,1,8,0:0:0:0:
224,163,34885,1,8,0:0:0:0:
267,135,34966,1,0,0:0:0:0:
257,55,35128,1,8,0:0:0:0:
259,96,35290,1,0,0:0:0:0:
208,109,35453,1,12,0:0:0:0:
152,119,35777,1,0,0:0:0:0:
209,86,35939,1,0,0:0:0:0:
144,113,36101,1,8,0:0:0:0:
203,87,36263,1,8,0:0:0:0:
143,111,36425,1,0,0:0:0:0:
201,84,36588,1,0,0:0:0:0:
234,93,36669,1,0,0:0:0:0:
138,102,36750,1,12,0:0:0:0:
257,176,37074,1,0,0:0:0:0:
275,254,37236,1,0,0:0:0:0:
276,225,37317,1,8,0:0:0:0:
333,241,37398,1,0,0:0:0:0:
333,241,37560,1,8,0:0:0:0:
333,241,37723,1,0,0:0:0:0:
329,212,37804,1,0,0:0:0:0:
333,241,37885,1,8,0:0:0:0:
333,241,38047,1,0,0:0:0:0:
333,241,38209,5,8,0:0:0:0:
333,241,38371,1,8,0:0:0:0:
333,241,38533,1,0,0:0:0:0:
303,190,38858,1,8,0:0:0:0:
257,141,39020,1,8,0:0:0:0:
192,192,39101,1,8,0:0:0:0:
285,183,39182,1,0,0:0:0:0:
285,183,39344,1,12,0:0:0:0:
217,84,39669,1,8,0:0:0:0:
175,114,39831,1,8,0:0:0:0:
175,114,39993,1,0,0:0:0:0:
113,125,40155,1,8,0:0:0:0:
270,50,40317,1,0,0:0:0:0:
160,160,40398,1,8,0:0:0:0:
230,75,40480,1,0,0:0:0:0:
130,172,40642,1,12,0:0:0:0:
217,87,40966,1,0,0:0:0:0:
217,87,41128,1,0,0:0:0:0:
217,87,41290,1,8,0:0:0:0:
217,87,41453,1,8,0:0:0:0:
315,329,41939,5,12,0:0:0:0:
188,215,42263,1,0,0:0:0:0:
228,236,42425,1,8,0:0:0:0:
134,157,42588,1,0,0:0:0:0:
159,148,42669,1,0,0:0:0:0:
159,148,42750,1,8,0:0:0:0:
159,148,42912,1,0,0:0:0:0:
134,157,43074,1,12,0:0:0:0:
134,157,43398,1,8,0:0:0:0:
155,165,43480,1,8,0:0:0:0:
134,157,43561,1,0,0:0:0:0:
134,157,43723,1,8,0:0:0:0:
187,176,43885,1,0,0:0:0:0:
243,196,44047,1,0,0:0:0:0:
220,174,44128,1,0,0:0:0:0:
297,216,44209,1,8,0:0:0:0:
323,225,44371,1,0,0:0:0:0:
323,225,44534,1,12,0:0:0:0:
323,225,44858,1,8,0:0:0:0:
300,196,45020,1,8,0:0:0:0:
264,157,45182,1,0,0:0:0:0:
352,106,45344,1,8,0:0:0:0:
253,157,45425,1,8,0:0:0:0:
352,106,45507,1,0,0:0:0:0:
352,106,45669,1,12,0:0:0:0:
284,215,45993,1,0,0:0:0:0:
303,151,46155,1,8,0:0:0:0:
283,201,46317,1,0,0:0:0:0:
266,179,46398,1,0,0:0:0:0:
283,201,46480,1,8,0:0:0:0:
253,157,46642,1,0,0:0:0:0:
253,157,46804,1,8,0:0:0:0:
218,102,46966,1,8,0:0:0:0:
233,125,47128,1,4,0:0:0:0:
273,229,47453,1,0,0:0:0:0:
293,234,47615,1,8,0:0:0:0:
252,347,47777,1,0,0:0:0:0:
236,311,47858,1,8,0:0:0:0:
238,289,47939,1,8,0:0:0:0:
236,311,48101,1,0,0:0:0:0:
256,180,48263,1,12,0:0:0:0:
257,300,48588,1,0,0:0:0:0:
300,290,48669,1,8,0:0:0:0:
257,242,48750,1,0,0:0:0:0:
257,242,48912,1,8,0:0:0:0:
303,257,49074,1,0,0:0:0:0:
369,276,49236,1,8,0:0:0:0:
346,268,49317,1,8,0:0:0:0:
314,258,49398,1,0,0:0:0:0:
314,258,49561,1,0,0:0:0:0:
314,258,49723,1,12,0:0:0:0:
279,154,50047,1,8,0:0:0:0:
290,209,50209,1,0,0:0:0:0:
241,139,50371,1,8,0:0:0:0:
290,209,50534,1,0,0:0:0:0:
266,193,50615,1,0,0:0:0:0:
290,209,50696,1,8,0:0:0:0:
290,209,50858,1,12,0:0:0:0:
251,165,51182,1,0,0:0:0:0:
302,24,51344,1,8,0:0:0:0:
266,38,51425,1,0,0:0:0:0:
296,75,51507,1,8,0:0:0:0:
12,56,51669,1,8,0:0:0:0:
69,87,51831,1,0,0:0:0:0:
78,101,51993,1,0,0:0:0:0:
95,101,52074,1,8,0:0:0:0:
377,269,52155,1,0,0:0:0:0:
227,266,52317,5,12,0:0:0:0:
229,284,52642,1,8,0:0:0:0:
229,284,52804,1,0,0:0:0:0:
223,255,52885,1,0,0:0:0:0:
229,284,52966,1,8,0:0:0:0:
229,284,53128,1,0,0:0:0:0:
321,213,53290,1,8,0:0:0:0:
389,190,53615,1,8,0:0:0:0:
367,202,53696,1,8,0:0:0:0:
350,212,53777,1,0,0:0:0:0:
330,224,53939,1,8,0:0:0:0:
297,211,54020,1,0,0:0:0:0:
330,224,54101,1,8,0:0:0:0:
302,200,54182,1,8,0:0:0:0:
330,224,54263,1,0,0:0:0:0:
278,221,54425,1,8,0:0:0:0:
278,221,54588,1,0,0:0:0:0:
236,183,54750,1,0,0:0:0:0:
236,183,54912,1,12,0:0:0:0:
106,228,55236,1,0,0:0:0:0:
129,152,55398,1,8,0:0:0:0:
135,116,55480,1,8,0:0:0:0:
147,103,55561,1,0,0:0:0:0:
156,48,55723,1,0,0:0:0:0:
192,87,55885,1,8,0:0:0:0:
154,52,56209,1,0,0:0:0:0:
154,52,56290,1,8,0:0:0:0:
154,52,56371,1,0,0:0:0:0:
113,39,56534,1,8,0:0:0:0:
160,62,56615,1,8,0:0:0:0:
141,68,56696,1,0,0:0:0:0:
192,76,56777,1,0,0:0:0:0:
202,79,56858,1,8,0:0:0:0:
237,106,57020,1,0,0:0:0:0:
237,106,57182,1,8,0:0:0:0:
171,117,57344,1,0,0:0:0:0:
171,117,57507,1,12,0:0:0:0:
171,117,57831,1,0,0:0:0:0:
171,117,57993,1,8,0:0:0:0:
171,117,58074,1,8,0:0:0:0:
171,117,58155,1,0,0:0:0:0:
171,117,58317,1,0,0:0:0:0:
228,115,58480,1,8,0:0:0:0:
285,147,58804,1,8,0:0:0:0:
231,131,58885,1,0,0:0:0:0:
231,131,58966,1,8,0:0:0:0:
231,131,59128,1,0,0:0:0:0:
227,160,59209,1,8,0:0:0:0:
282,98,59290,1,0,0:0:0:0:
260,104,59371,1,0,0:0:0:0:
223,132,59453,1,8,0:0:0:0:
258,88,59615,1,0,0:0:0:0:
213,137,59777,1,8,0:0:0:0:
220,75,59939,1,0,0:0:0:0:
187,133,60101,1,12,0:0:0:0:
237,8,60425,1,8,0:0:0:0:
241,64,60588,1,0,0:0:0:0:
238,26,60669,1,0,0:0:0:0:
186,126,60750,1,8,0:0:0:0:
209,73,60912,1,8,0:0:0:0:
148,179,61236,1,12,0:0:0:0:
257,111,61561,1,8,0:0:0:0:
314,78,61723,1,0,0:0:0:0:
256,91,61885,1,0,0:0:0:0:
256,91,61966,1,0,0:0:0:0:
256,91,62047,1,8,0:0:0:0:
256,91,62209,1,0,0:0:0:0:
256,91,62371,1,8,0:0:0:0:
71,138,62696,1,4,0:0:0:0:
69,161,63020,1,0,0:0:0:0:
81,167,63182,1,0,0:0:0:0:
308,219,63345,1,8,0:0:0:0:
287,277,63669,1,8,0:0:0:0:
69,161,63993,1,8,0:0:0:0:
130,147,64155,1,0,0:0:0:0:
189,189,64317,1,8,0:0:0:0:
241,202,64480,1,8,0:0:0:0:
231,182,64561,1,8,0:0:0:0:
221,164,64642,1,0,0:0:0:0:
241,202,64804,1,8,0:0:0:0:
241,202,64966,1,0,0:0:0:0:
178,201,65128,1,0,0:0:0:0:
241,202,65290,1,12,0:0:0:0:
337,280,65615,1,0,0:0:0:0:
306,232,65777,1,8,0:0:0:0:
424,362,65939,1,8,0:0:0:0:
358,290,66263,1,8,0:0:0:0:
236,190,66588,1,8,0:0:0:0:
228,163,66750,1,0,0:0:0:0:
335,280,66912,1,8,0:0:0:0:
383,325,67074,1,0,0:0:0:0:
367,312,67155,1,0,0:0:0:0:
351,299,67236,1,8,0:0:0:0:
291,239,67399,1,0,0:0:0:0:
260,211,67561,1,8,0:0:0:0:
200,159,67723,1,0,0:0:0:0:
192,192,67804,1,0,0:0:0:0:
337,284,67885,1,12,0:0:0:0:
69,161,68209,1,0,0:0:0:0:
81,167,68371,1,8,0:0:0:0:
308,219,68534,1,0,0:0:0:0:
287,277,68858,1,0,0:0:0:0:
69,161,69182,1,0,0:0:0:0:
130,147,69344,1,8,0:0:0:0:
189,189,69506,1,0,0:0:0:0:
241,202,69669,1,8,0:0:0:0:
231,182,69750,1,8,0:0:0:0:
221,164,69831,1,0,0:0:0:0:
241,202,69993,1,8,0:0:0:0:
241,202,70155,1,0,0:0:0:0:
178,201,70317,1,0,0:0:0:0:
241,202,70479,1,12,0:0:0:0:
337,280,70804,1,0,0:0:0:0:
306,232,70966,1,8,0:0:0:0:
424,362,71128,1,0,0:0:0:0:
358,290,71452,1,0,0:0:0:0:
236,190,71777,1,8,0:0:0:0:
228,163,71939,1,0,0:0:0:0:
335,280,72101,1,8,0:0:0:0:
383,325,72263,5,0,0:0:0:0:
367,312,72344,1,0,0:0:0:0:
351,299,72425,1,8,0:0:0:0:
333,267,72507,1,8,0:0:0:0:
291,239,72588,1,0,0:0:0:0:
260,211,72750,1,8,0:0:0:0:
253,174,72831,1,0,0:0:0:0:
200,159,72912,1,0,0:0:0:0:
337,284,73074,1,12,0:0:0:0:
69,161,73398,5,0,0:0:0:0:
81,167,73560,1,0,0:0:0:0:
117,186,73641,1,0,0:0:0:0:
308,219,73723,1,8,0:0:0:0:
259,192,74047,1,0,0:0:0:0:
258,226,74209,1,0,0:0:0:0:
69,161,74371,1,8,0:0:0:0:
98,154,74452,1,8,0:0:0:0:
130,147,74533,1,0,0:0:0:0:
166,140,74614,1,0,0:0:0:0:
189,189,74695,1,8,0:0:0:0:
241,202,74858,1,0,0:0:0:0:
231,182,74939,1,8,0:0:0:0:
221,164,75020,1,0,0:0:0:0:
241,202,75182,1,8,0:0:0:0:
241,202,75344,1,0,0:0:0:0:
178,201,75506,1,0,0:0:0:0:
241,202,75668,1,12,0:0:0:0:
337,280,75993,1,0,0:0:0:0:
236,190,76074,1,0,0:0:0:0:
306,232,76155,1,8,0:0:0:0:
424,362,76317,1,8,0:0:0:0:
358,290,76641,1,8,0:0:0:0:
316,247,76804,1,0,0:0:0:0:
236,190,76966,1,0,0:0:0:0:
228,163,77047,1,0,0:0:0:0:
228,163,77128,1,8,0:0:0:0:
228,163,77209,1,8,0:0:0:0:
335,280,77290,1,0,0:0:0:0:
383,325,77452,1,8,0:0:0:0:
367,312,77533,1,8,0:0:0:0:
351,299,77614,1,0,0:0:0:0:
291,239,77777,1,0,0:0:0:0:
260,211,77939,1,8,0:0:0:0:
284,205,78020,1,0,0:0:0:0:
200,159,78101,1,0,0:0:0:0:
337,284,78263,1,12,0:0:0:0:
69,161,78587,1,0,0:0:0:0:
81,167,78749,1,8,0:0:0:0:
117,186,78830,1,8,0:0:0:0:
308,219,78912,1,0,0:0:0:0:
287,277,79236,1,0,0:0:0:0:
258,226,79398,1,8,0:0:0:0:
69,161,79560,1,0,0:0:0:0:
98,154,79641,1,0,0:0:0:0:
130,147,79722,1,8,0:0:0:0:
166,140,79803,1,8,0:0:0:0:
189,189,79884,1,0,0:0:0:0:
241,202,80047,1,8,0:0:0:0:
231,182,80128,1,8,0:0:0:0:
221,164,80209,1,0,0:0:0:0:
241,202,80371,1,8,0:0:0:0:
241,202,80533,1,0,0:0:0:0:
178,201,80695,1,0,0:0:0:0:
241,202,80857,1,12,0:0:0:0:
337,280,81182,1,0,0:0:0:0:
310,271,81263,1,0,0:0:0:0:
306,232,81344,1,8,0:0:0:0:
424,362,81506,1,0,0:0:0:0:
358,290,81830,1,0,0:0:0:0:
316,247,81993,1,8,0:0:0:0:
236,190,82155,1,8,0:0:0:0:
228,163,82236,1,8,0:0:0:0:
228,163,82317,1,0,0:0:0:0:
228,163,82398,1,8,0:0:0:0:
335,280,82479,1,0,0:0:0:0:
383,325,82641,1,8,0:0:0:0:
367,312,82722,1,8,0:0:0:0:
351,299,82803,1,0,0:0:0:0:
291,239,82966,1,0,0:0:0:0:
260,211,83128,1,0,0:0:0:0:
232,196,83209,1,8,0:0:0:0:
200,159,83290,1,0,0:0:0:0:
337,284,83452,1,12,0:0:0:0:
324,157,83777,1,0,0:0:0:0:
331,219,83939,1,8,0:0:0:0:
331,219,84020,1,0,0:0:0:0:
331,219,84101,1,0,0:0:0:0:
272,202,84263,1,8,0:0:0:0:
210,182,84425,1,0,0:0:0:0:
154,163,84588,1,0,0:0:0:0:
129,155,84669,1,8,0:0:0:0:
100,145,84750,1,0,0:0:0:0:
100,145,84831,1,0,0:0:0:0:
100,145,84912,1,8,0:0:0:0:
141,105,85074,1,8,0:0:0:0:
218,162,85236,5,4,0:0:0:0:
256,192,85398,12,0,93831,0:0:0:0:
