osu file format v14

[General]
AudioFilename: audio.mp3
AudioLeadIn: 0
PreviewTime: 52236
Countdown: 0
SampleSet: Normal
StackLeniency: 0.7
Mode: 1
LetterboxInBreaks: 0
WidescreenStoryboard: 1

[Editor]
Bookmarks: 10804,21182,31561,39344,40642,42020,52317,62696,73074,85236,85398,93831
DistanceSpacing: 0.9
BeatDivisor: 2
GridSize: 32
TimelineZoom: 1.9

[Metadata]
Title:Mischievous of Alice
TitleUnicode:Mischievous of Alice
Artist:Yousei Teikoku
ArtistUnicode:妖精帝國
Creator:Linkff001
Version:Kantan
Source:クイーンズゲイト スパイラルカオス
Tags:hades the mari 0hara mari_0hara Slyme Nintendoisgood hades:the other world queen's gate spiral chaos game version japanese rock jrock j-rock metal female vocalist
BeatmapID:4455861
BeatmapSetID:2120580

[Difficulty]
HPDrainRate:8
CircleSize:5
OverallDifficulty:3
ApproachRate:5
SliderMultiplier:1.4
SliderTickRate:1

[Events]
//Background and Video events
0,0,"706886-wallpaper-queens-blade-1920x1080-hd-1080p.jpg",0,120
//Break Periods
//Storyboard Layer 0 (Background)
//Storyboard Layer 1 (Fail)
//Storyboard Layer 2 (Pass)
//Storyboard Layer 3 (Foreground)
//Storyboard Layer 4 (Overlay)
//Storyboard Sound Samples

[TimingPoints]
426,324.324324324324,4,1,0,75,1,0
426,-100,4,1,0,75,0,0
10155,-100,4,1,0,75,0,0
10236,-100,4,1,0,76,0,0
10317,-100,4,1,0,77,0,0
10398,-100,4,1,0,79,0,0
10480,-100,4,1,0,80,0,0
10561,-100,4,1,0,81,0,0
10642,-100,4,1,0,83,0,0
10723,-100,4,1,0,84,0,0
10804,-100,4,1,0,85,0,0
21507,-100,4,1,0,70,0,0
30750,-100,4,1,0,72,0,0
30831,-100,4,1,0,72,0,0
30912,-100,4,1,0,73,0,0
31074,-100,4,1,0,75,0,0
31155,-100,4,1,0,76,0,0
31236,-100,4,1,0,77,0,0
31317,-100,4,1,0,77,0,0
31398,-100,4,1,0,78,0,0
31480,-100,4,1,0,79,0,0
31561,-100,4,1,0,80,0,0
41939,-100,4,1,0,85,0,0
51344,-100,4,1,0,85,0,0
51425,-100,4,1,0,86,0,0
51507,-100,4,1,0,87,0,0
51669,-100,4,1,0,88,0,0
51831,-100,4,1,0,90,0,0
51993,-100,4,1,0,92,0,0
52074,-100,4,1,0,93,0,0
52155,-100,4,1,0,93,0,0
52236,-100,4,1,0,94,0,0
52317,-100,4,1,0,95,0,1
61723,-100,4,1,0,95,0,1
61885,-100,4,1,0,93,0,1
61966,-100,4,1,0,93,0,1
62047,-100,4,1,0,92,0,1
62128,-100,4,1,0,91,0,1
62209,-100,4,1,0,90,0,1
62290,-100,4,1,0,89,0,1
62371,-100,4,1,0,89,0,1
62696,-100,4,1,0,85,0,0
72425,-100,4,1,0,85,0,0
72507,-100,4,1,0,86,0,0
72588,-100,4,1,0,88,0,0
72669,-100,4,1,0,89,0,0
72750,-100,4,1,0,90,0,0
72831,-100,4,1,0,91,0,0
72912,-100,4,1,0,93,0,0
72993,-100,4,1,0,94,0,0
73074,-100,4,1,0,95,0,1
85236,-100,4,1,0,95,0,0
86696,-100,4,1,0,85,0,0
87993,-100,4,1,0,75,0,0
89290,-100,4,1,0,65,0,0
90588,-100,4,1,0,55,0,0
91885,-100,4,1,0,45,0,0

[HitObjects]
188,221,426,5,4,0:0:0:0:
163,209,1723,1,4,0:0:0:0:
162,208,3020,1,4,0:0:0:0:
160,208,4155,1,12,0:0:0:0:
334,194,4480,1,12,0:0:0:0:
333,194,4804,1,12,0:0:0:0:
327,193,5128,1,12,0:0:0:0:
317,191,5615,1,4,0:0:0:0:
202,151,6912,1,4,0:0:0:0:
201,151,8209,1,4,0:0:0:0:
198,150,9344,1,12,0:0:0:0:
197,150,9669,1,12,0:0:0:0:
197,150,9993,1,12,0:0:0:0:
197,150,10317,1,12,0:0:0:0:
129,169,10804,5,12,0:0:0:0:
308,219,11453,1,0,0:0:0:0:
69,161,12101,1,8,0:0:0:0:
241,202,12425,1,0,0:0:0:0:
241,202,12912,1,8,0:0:0:0:
241,202,13398,1,12,0:0:0:0:
337,280,13723,1,0,0:0:0:0:
424,362,14047,1,8,0:0:0:0:
236,190,14696,1,0,0:0:0:0:
383,325,15020,1,8,0:0:0:0:
291,239,15507,1,0,0:0:0:0:
337,284,15993,1,12,0:0:0:0:
308,219,16642,1,0,0:0:0:0:
69,161,17290,1,0,0:0:0:0:
241,202,17615,1,8,0:0:0:0:
241,202,18101,1,0,0:0:0:0:
241,202,18587,1,12,0:0:0:0:
337,280,18912,1,0,0:0:0:0:
409,346,19236,1,8,0:0:0:0:
236,190,19885,1,8,0:0:0:0:
383,325,20209,1,0,0:0:0:0:
337,284,21182,1,12,0:0:0:0:
299,333,21507,1,0,0:0:0:0:
298,333,21831,1,0,0:0:0:0:
296,332,22480,1,8,0:1:0:0:
293,329,23128,1,0,0:0:0:0:
291,328,23453,1,8,0:0:0:0:
289,327,24101,1,8,0:0:0:0:
219,228,24425,1,0,0:0:0:0:
220,226,25074,1,8,0:0:0:0:
220,226,25723,1,0,0:0:0:0:
218,222,26047,1,8,0:0:0:0:
293,219,26696,1,8,0:0:0:0:
291,222,27020,1,0,0:0:0:0:
291,223,27669,1,8,0:0:0:0:
290,223,28317,1,0,0:0:0:0:
288,221,28642,1,0,0:0:0:0:
281,216,28966,1,12,0:0:0:0:
276,215,29615,1,8,0:0:0:0:
265,212,30101,1,0,0:0:0:0:
178,300,31561,5,12,0:0:0:0:
269,333,32209,1,0,0:0:0:0:
269,333,32534,1,0,0:0:0:0:
145,137,32858,1,8,0:0:0:0:
334,286,33344,1,0,0:0:0:0:
162,146,33831,1,8,0:0:0:0:
361,311,34155,1,4,0:0:0:0:
283,234,34804,1,8,0:0:0:0:
280,234,35128,1,0,0:0:0:0:
279,233,35453,1,12,0:0:0:0:
414,285,36750,1,4,0:0:0:0:
263,226,37398,1,8,0:0:0:0:
261,226,37723,1,8,0:0:0:0:
257,222,38047,1,0,0:0:0:0:
62,98,38534,1,8,0:0:0:0:
348,276,39020,1,0,0:0:0:0:
242,218,39344,5,12,0:0:0:0:
240,216,40642,1,4,0:0:0:0:
255,189,41290,1,0,0:0:0:0:
239,214,41939,1,12,0:0:0:0:
337,170,42263,1,0,0:0:0:0:
336,170,42588,1,8,0:0:0:0:
257,135,43074,1,4,0:0:0:0:
249,126,43723,1,0,0:0:0:0:
246,124,44534,1,4,0:0:0:0:
93,115,45020,1,8,0:0:0:0:
213,122,45344,1,0,0:0:0:0:
209,121,45669,1,12,0:0:0:0:
322,131,46317,1,0,0:0:0:0:
231,116,47128,1,12,0:0:0:0:
182,115,47453,1,0,0:0:0:0:
182,115,47777,1,0,0:0:0:0:
182,115,48263,1,12,0:0:0:0:
173,67,48912,1,8,0:0:0:0:
130,145,49723,1,4,0:0:0:0:
205,94,50209,1,8,0:0:0:0:
194,83,50534,1,0,0:0:0:0:
187,79,50858,1,12,0:0:0:0:
181,71,51344,5,0,0:0:0:0:
279,194,52317,5,12,0:0:0:0:
229,284,52642,5,8,0:0:0:0:
229,284,52966,1,0,0:0:0:0:
389,190,53615,1,0,0:0:0:0:
330,224,54101,1,8,0:0:0:0:
236,183,54912,1,12,0:0:0:0:
106,228,55236,1,0,0:0:0:0:
147,103,55561,1,0,0:0:0:0:
154,52,56209,1,0,0:0:0:0:
113,39,56696,1,8,0:0:0:0:
171,117,57507,1,12,0:0:0:0:
171,117,57831,1,0,0:0:0:0:
171,117,58155,1,0,0:0:0:0:
285,147,58804,1,8,0:0:0:0:
231,131,59290,1,0,0:0:0:0:
187,133,60101,1,12,0:0:0:0:
237,8,60425,1,0,0:0:0:0:
186,126,60750,1,8,0:0:0:0:
148,179,61236,1,12,0:0:0:0:
256,91,62047,1,8,0:0:0:0:
256,91,62696,1,4,0:0:0:0:
308,219,63344,1,8,0:0:0:0:
69,161,63992,1,0,0:0:0:0:
241,202,64317,1,8,0:0:0:0:
241,202,65289,1,12,0:0:0:0:
337,280,65614,1,0,0:0:0:0:
424,362,65938,1,8,0:0:0:0:
236,190,66587,1,0,0:0:0:0:
383,325,66912,1,8,0:0:0:0:
291,239,67398,1,0,0:0:0:0:
337,284,67884,1,12,0:0:0:0:
308,219,68533,1,0,0:0:0:0:
69,161,69181,1,8,0:0:0:0:
241,202,69507,1,0,0:0:0:0:
241,202,69992,1,0,0:0:0:0:
241,202,70480,1,12,0:0:0:0:
337,280,70803,1,0,0:0:0:0:
409,346,71127,1,8,0:0:0:0:
236,190,71776,1,0,0:0:0:0:
383,325,72101,1,8,0:0:0:0:
260,211,72587,5,0,0:0:0:0:
337,284,73073,1,12,0:0:0:0:
308,219,73723,5,0,0:0:0:0:
69,161,74371,1,12,0:0:0:0:
241,202,74696,1,0,0:0:0:0:
241,202,75668,1,12,0:0:0:0:
424,362,75993,1,0,0:0:0:0:
337,280,76317,1,0,0:0:0:0:
236,190,76966,1,12,0:0:0:0:
383,325,77290,1,0,0:0:0:0:
291,239,77777,1,8,0:0:0:0:
337,284,78263,1,12,0:0:0:0:
308,219,78912,1,0,0:0:0:0:
69,161,79560,1,4,0:0:0:0:
241,202,79885,1,8,0:0:0:0:
241,202,80371,1,8,0:0:0:0:
241,202,80857,1,12,0:0:0:0:
424,362,81182,1,0,0:0:0:0:
337,280,81506,1,8,0:0:0:0:
236,190,82155,1,12,0:0:0:0:
383,325,82480,1,0,0:0:0:0:
200,159,82966,1,0,0:0:0:0:
337,284,83452,1,12,0:0:0:0:
331,219,84101,1,0,0:0:0:0:
154,163,84588,1,8,0:0:0:0:
218,162,85236,5,4,0:0:0:0:
256,192,85398,12,0,93831,0:0:0:0:
