osu file format v14

[General]
AudioFilename: audio.mp3
AudioLeadIn: 0
PreviewTime: 41830
Countdown: 0
SampleSet: Soft
StackLeniency: 0.7
Mode: 0
LetterboxInBreaks: 0
WidescreenStoryboard: 1

[Editor]
Bookmarks: 3027,36757,52324,76973
DistanceSpacing: 0.9
BeatDivisor: 4
GridSize: 4
TimelineZoom: 1.5

[Metadata]
Title:Mischievous of Alice
TitleUnicode:Mischievous of Alice
Artist:Yousei Teikoku
ArtistUnicode:妖精帝國
Creator:Kuki1537
Version:Venix's Extra
Source:クイーンズゲイト スパイラルカオス
Tags:Hades:The other world Queen's Gate Spiral Chaos game version japanese rock jrock j-rock metal female vocalist saltylucario saltking salty MajK00 Venix
BeatmapID:3773174
BeatmapSetID:1525481

[Difficulty]
HPDrainRate:5
CircleSize:4
OverallDifficulty:8.3
ApproachRate:9
SliderMultiplier:1.8
SliderTickRate:1

[Events]
//Background and Video events
0,0,"i wish artists made stuff in 16 9 resolutions.jpg",0,0
//Break Periods
//Storyboard Layer 0 (Background)
//Storyboard Layer 1 (Fail)
//Storyboard Layer 2 (Pass)
//Storyboard Layer 3 (Foreground)
//Storyboard Layer 4 (Overlay)
//Storyboard Sound Samples

[TimingPoints]
433,324.324324324324,4,2,45,55,1,0
433,-142.857142857143,4,2,45,55,0,0
4162,-142.857142857143,4,2,45,70,0,0
5622,-142.857142857143,4,2,45,55,0,0
9351,-142.857142857143,4,2,45,70,0,0
10162,-100,4,2,45,70,0,0
10811,-111.111111111111,4,2,45,80,0,0
11784,-100,4,2,45,80,0,0
13730,-111.111111111111,4,2,45,80,0,0
18919,-111.111111111111,4,2,45,80,0,0
21189,-117.647058823529,4,2,45,65,0,0
21514,-133.333333333333,4,2,45,65,0,0
22162,-117.647058823529,4,2,45,65,0,0
26703,-133.333333333333,4,2,45,65,0,0
27351,-117.647058823529,4,2,45,65,0,0
31568,-105.263157894737,4,2,45,75,0,0
40649,-105.263157894737,4,2,45,85,0,0
41946,-90.9090909090909,4,2,45,85,0,1
47135,-83.3333333333333,4,2,45,85,0,1
48270,-90.9090909090909,4,2,45,85,0,1
62703,-100,4,2,45,80,0,0
72757,-76.9230769230769,4,2,45,80,0,0
73081,-95.2380952380952,4,2,45,90,0,1
75676,-95.2380952380952,4,2,45,90,0,1
85243,-95.2380952380952,4,2,45,90,0,0
85324,-95.2380952380952,4,2,45,40,0,0
87351,-95.2380952380952,4,2,45,32,0,0
89946,-95.2380952380952,4,2,45,24,0,0
92541,-95.2380952380952,4,2,45,16,0,0
93838,-95.2380952380952,4,2,45,5,0,0

[Colours]
Combo1 : 233,216,163
Combo2 : 212,212,212
Combo3 : 183,140,234
Combo4 : 255,170,155

[HitObjects]
38,250,433,5,4,1:2:0:0:
104,46,595,1,0,1:2:0:0:
76,179,757,2,0,B|83:224|83:224|112:263|113:309,2,125.999996154785,2|2|0,0:2|0:2|0:0,0:2:0:0:
38,250,1730,1,4,1:2:0:0:
104,46,1892,1,0,1:2:0:0:
112,297,2054,2,0,B|112:263|83:224|83:224|76:179,2,125.999996154785,2|2|0,0:2|0:2|0:0,0:2:0:0:
38,250,3027,1,4,1:2:0:0:
104,46,3189,1,0,1:2:0:0:
76,179,3351,2,0,B|121:172|121:172|160:143|206:142,2,125.999996154785,2|2|0,0:2|0:2|0:2,0:2:0:0:
16,126,4162,5,8,0:2:0:0:
41,113,4324,1,0,1:2:0:0:
95,253,4487,1,8,0:2:0:0:
145,273,4649,1,0,1:2:0:0:
260,203,4811,1,8,0:2:0:0:
333,176,4973,1,0,1:2:0:0:
415,297,5135,1,8,0:2:0:0:
498,343,5297,1,0,3:2:0:0:
510,318,5378,1,0,3:2:0:0:
509,290,5460,1,0,1:2:0:0:
372,372,5622,5,4,1:2:0:0:
448,161,5784,1,0,1:2:0:0:
415,297,5946,2,0,B|401:238|379:193|379:193|351:178,2,125.999996154785,2|2|0,0:2|0:2|0:0,0:2:0:0:
372,372,6919,1,4,1:2:0:0:
448,161,7081,1,0,1:2:0:0:
365,185,7243,2,0,B|379:193|379:193|401:238|415:297,2,125.999996154785,2|2|0,0:2|0:2|0:0,0:2:0:0:
372,372,8217,1,4,1:2:0:0:
448,161,8379,1,0,1:2:0:0:
415,297,8541,2,0,B|407:310|407:310|362:332|303:346,2,125.999996154785,2|2|0,0:2|0:2|0:2,0:2:0:0:
362,239,9351,5,8,0:2:0:0:
340,212,9514,1,0,1:2:0:0:
226,268,9676,1,8,0:2:0:0:
201,321,9838,1,0,1:2:0:0:
125,205,10000,1,8,0:2:0:0:
62,140,10162,1,0,1:2:0:0:
62,140,10243,1,0,3:0:0:0:
62,140,10324,1,8,0:2:0:0:
62,140,10405,1,8,0:2:0:0:
62,140,10487,5,8,0:2:0:0:
92,129,10568,1,0,3:2:0:0:
92,97,10649,1,0,3:2:0:0:
62,87,10730,1,0,3:2:0:0:
42,113,10811,2,0,B|91:93|91:93|117:41|193:19,1,161.999995056153,6|8,1:2|0:2,0:2:0:0:
282,115,11460,1,2,1:2:0:0:
253,185,11622,1,0,0:2:0:0:
199,47,11784,2,0,B|234:44|273:19|273:19|299:35|339:41,1,135,8|0,0:2|0:0,0:2:0:0:
463,89,12108,6,0,B|439:124|417:127|417:127|392:-1,1,180,2|10,1:2|0:2,0:2:0:0:
372,108,12595,1,2,0:2:0:0:
474,234,12757,2,0,B|439:226|412:206|412:206|368:261|292:287,1,180,0|8,1:2|0:2,0:0:0:0:
205,334,13324,1,2,0:2:0:0:
199,329,13405,2,0,B|170:243,1,90,6|0,1:2|0:2,0:2:0:0:
286,347,13730,2,0,P|334:361|377:379,1,80.9999975280763,10|0,0:2|0:2,0:2:0:0:
122,354,14054,2,0,P|74:340|31:322,1,80.9999975280763,2|0,1:2|0:2,0:0:0:0:
244,219,14378,1,8,0:2:0:0:
244,219,14541,1,0,0:2:0:0:
170,243,14703,6,0,B|209:265|209:265|270:259|345:199,1,161.999995056153,2|10,1:2|0:2,0:2:0:0:
387,111,15189,1,2,0:2:0:0:
387,111,15270,1,2,0:0:0:0:
387,111,15351,2,0,B|344:100|344:100|376:36|443:15,1,161.999995056153,0|10,1:2|0:2,0:0:0:0:
477,145,15838,1,2,0:2:0:0:
446,13,16000,2,0,B|373:2|314:35|314:35|286:14,1,161.999995056153,6|8,1:2|0:2,0:2:0:0:
175,133,16649,1,2,1:2:0:0:
233,185,16811,1,0,0:2:0:0:
274,31,16973,2,0,B|225:1|181:3|181:3|146:25,1,121.499996292114,8|0,0:2|0:0,0:2:0:0:
18,113,17297,6,0,B|50:135|50:135|85:74|66:-19,1,161.999995056153,2|10,1:2|0:2,0:2:0:0:
104,107,17784,1,2,0:2:0:0:
14,214,17946,2,0,B|-4:258|-4:258|13:320|0:375,1,161.999995056153,0|8,1:2|0:2,0:0:0:0:
192,241,18514,1,2,0:2:0:0:
200,248,18595,2,0,L|288:270,1,80.9999975280763,6|0,1:2|0:2,0:2:0:0:
146,138,18919,2,0,P|116:184|115:216,1,80.9999975280763,8|0,0:2|0:2,0:2:0:0:
316,384,19243,2,0,P|346:338|347:306,1,80.9999975280763,2|0,1:2|0:2,0:0:0:0:
151,339,19568,1,8,0:2:0:0:
151,339,19730,1,0,0:2:0:0:
71,337,19892,6,0,B|125:317|125:317|147:261|230:236,1,161.999995056153,2|10,1:2|0:2,0:2:0:0:
312,222,20378,1,2,0:2:0:0:
247,125,20541,1,0,1:2:0:0:
232,149,20622,1,8,0:2:0:0:
239,177,20703,1,2,1:2:0:0:
393,96,20865,1,8,0:2:0:0:
142,12,21027,1,2,0:2:0:0:
167,44,21108,1,2,0:2:0:0:
204,54,21189,5,6,1:2:0:0:
30,359,21514,2,0,P|61:312|72:262,1,101.250003862381,10|0,0:2|0:0,0:2:0:0:
67,347,21838,2,0,P|99:371|154:388,1,67.5000025749208,2|0,1:2|1:2,0:0:0:0:
232,326,22162,2,0,L|349:308,1,114.750002188683,10|0,0:2|0:0,0:2:0:0:
430,344,22487,6,0,L|354:332,1,76.5000014591217,2|0,1:2|0:0,0:2:0:0:
279,235,22811,2,0,L|211:188,1,76.5000014591217,10|0,0:2|3:2,0:0:0:0:
303,61,23135,1,2,1:2:0:0:
327,152,23297,1,0,1:2:0:0:
398,16,23460,1,10,0:2:0:0:
398,16,23541,1,10,0:2:0:0:
398,16,23622,1,10,0:2:0:0:
398,16,23703,1,10,0:2:0:0:
398,16,23784,1,4,1:2:0:0:
20,29,24108,6,0,L|40:104,1,76.5000014591217,10|0,0:2|3:2,0:0:0:0:
33,245,24432,2,0,L|99:170,1,76.5000014591217,2|0,1:2|1:2,0:2:0:0:
44,342,24757,1,10,0:2:0:0:
44,342,24919,1,0,0:2:0:0:
265,275,25081,2,0,B|233:262|233:262|176:291|90:292,1,153.000002918243,2|10,1:2|0:2,0:2:0:0:
256,358,25568,1,0,3:2:0:0:
273,362,25649,1,0,3:2:0:0:
288,373,25730,5,2,1:2:0:0:
428,289,25892,1,0,1:2:0:0:
352,308,26054,1,8,0:2:0:0:
437,312,26216,1,8,0:2:0:0:
252,262,26378,1,4,1:2:0:0:
398,65,26703,6,0,P|426:106|439:155,1,101.250003862381,10|0,0:2|0:0,0:2:0:0:
441,68,27027,2,0,P|465:36|482:-19,1,67.5000025749208,2|0,1:2|1:2,0:0:0:0:
301,146,27351,2,0,L|183:109,1,114.750002188683,10|0,0:2|0:0,0:2:0:0:
94,119,27676,2,0,L|42:47,1,76.5000014591217,2|0,1:2|0:0,0:2:0:0:
9,216,28000,2,0,L|32:302,1,76.5000014591217,10|0,0:2|3:2,0:0:0:0:
108,339,28324,1,2,1:2:0:0:
108,339,28486,1,0,1:2:0:0:
0,376,28649,5,10,0:2:0:0:
154,271,28811,1,10,0:2:0:0:
0,376,28973,2,0,L|75:356,1,76.5000014591217,6|0,1:2|0:2,0:2:0:0:
259,369,29297,2,0,L|185:347,1,76.5000014591217,10|0,0:2|3:2,0:0:0:0:
362,188,29622,1,2,1:2:0:0:
390,258,29784,1,0,1:2:0:0:
427,151,29946,1,10,0:2:0:0:
245,259,30108,2,0,B|254:211|254:211|224:165|228:84,1,153.000002918243,2|0,0:2|1:2,0:0:0:0:
310,14,30595,5,8,0:2:0:0:
173,41,30757,1,0,3:2:0:0:
201,34,30838,1,0,3:2:0:0:
224,17,30919,1,0,1:2:0:0:
312,138,31081,5,0,1:2:0:0:
359,81,31243,1,8,0:2:0:0:
85,130,31405,1,8,0:2:0:0:
115,151,31486,1,8,0:2:0:0:
153,161,31567,1,4,1:2:0:0:
268,320,31730,5,2,0:2:0:0:
230,236,31892,1,10,0:2:0:0:
157,296,32054,1,2,0:2:0:0:
92,235,32216,1,2,1:2:0:0:
50,360,32378,1,2,1:2:0:0:
87,218,32541,1,10,0:2:0:0:
162,313,32703,1,2,1:2:0:0:
82,201,32865,5,2,0:2:0:0:
31,116,33027,1,2,1:2:0:0:
162,14,33189,1,10,0:2:0:0:
133,116,33351,1,2,3:2:0:0:
133,116,33432,1,0,3:2:0:0:
133,116,33514,1,0,1:2:0:0:
76,42,33676,5,2,1:2:0:0:
259,92,33838,1,10,0:2:0:0:
360,119,34000,1,2,0:2:0:0:
500,20,34162,2,0,B|457:38|457:38|469:113|471:185,1,170.999995433807,6|8,1:2|0:2,0:2:0:0:
406,306,34649,1,0,0:2:0:0:
308,288,34811,1,2,1:2:0:0:
436,227,34973,1,0,1:2:0:0:
488,360,35135,1,10,0:2:0:0:
359,220,35297,5,2,3:2:0:0:
359,220,35378,1,0,3:2:0:0:
359,220,35460,1,4,1:2:0:0:
279,211,35622,5,0,0:2:0:0:
200,252,35784,5,8,0:2:0:0:
154,332,35946,1,0,0:2:0:0:
69,356,36108,5,0,1:2:0:0:
31,348,36270,1,0,1:2:0:0:
16,327,36432,1,8,0:2:0:0:
16,312,36595,5,0,3:2:0:0:
38,281,36676,1,0,3:2:0:0:
40,243,36757,1,4,1:2:0:0:
102,94,36919,1,2,0:2:0:0:
164,143,37081,1,10,0:2:0:0:
232,101,37243,1,2,0:2:0:0:
288,223,37405,1,2,1:2:0:0:
361,85,37568,1,2,1:2:0:0:
277,231,37730,1,10,0:2:0:0:
243,93,37892,1,2,1:2:0:0:
266,239,38054,5,2,0:2:0:0:
209,344,38216,1,2,1:2:0:0:
96,286,38378,1,10,0:2:0:0:
301,343,38541,1,2,3:2:0:0:
321,347,38622,1,0,3:2:0:0:
340,340,38703,1,0,1:2:0:0:
110,274,38865,5,2,1:2:0:0:
23,370,39027,1,10,0:2:0:0:
223,332,39189,1,10,0:2:0:0:
124,174,39351,2,0,B|101:129|101:129|107:91|92:23,1,128.249996575356,4|0,1:2|0:0,0:2:0:0:
91,47,39676,5,8,0:2:0:0:
329,19,39838,1,0,3:2:0:0:
412,164,40000,1,0,1:2:0:0:
224,124,40162,1,0,1:2:0:0:
326,106,40324,1,10,0:2:0:0:
212,303,40487,1,2,3:2:0:0:
187,284,40568,1,0,3:2:0:0:
175,255,40649,5,4,1:2:0:0:
184,40,40811,1,0,1:2:0:0:
131,358,40973,1,8,0:2:0:0:
14,227,41135,1,0,3:2:0:0:
34,274,41216,1,0,3:2:0:0:
32,325,41297,5,8,0:2:0:0:
434,147,41460,1,8,0:2:0:0:
71,151,41946,6,0,L|26:48,1,99.0000030212403,6|0,1:2|0:2,0:2:0:0:
219,280,42270,2,0,B|269:294|306:299|306:299|321:328|352:352,1,148.50000453186,10|0,0:2|0:0,0:2:0:0:
357,342,42595,1,2,1:2:0:0:
94,245,42757,2,0,B|119:221|119:221|152:215|212:168,1,99.0000030212403,2|8,1:2|0:2,0:0:0:0:
486,59,43081,2,0,B|443:30|443:30|400:86|392:182,1,198.000006042481,6|2,1:2|1:2,0:2:0:0:
456,259,43568,1,10,0:2:0:0:
204,93,43730,1,2,3:2:0:0:
233,118,43811,1,0,3:0:0:0:
267,134,43892,1,0,1:2:0:0:
338,84,44054,5,2,0:2:0:0:
135,20,44216,1,10,0:2:0:0:
232,265,44378,1,2,1:2:0:0:
475,175,44541,1,4,1:2:0:0:
166,206,44703,5,2,0:2:0:0:
59,181,44865,1,10,0:2:0:0:
0,266,45027,1,2,0:2:0:0:
0,266,45108,1,2,0:0:0:0:
0,266,45189,1,0,1:2:0:0:
162,99,45351,5,2,1:2:0:0:
112,0,45514,1,10,0:2:0:0:
152,128,45676,2,0,B|135:181|135:181|149:234|137:296,1,148.50000453186,6|0,1:2|0:0,0:2:0:0:
136,278,46000,1,0,1:2:0:0:
378,202,46162,2,0,L|318:183,1,49.5000015106202,10|0,0:2|0:0,0:0:0:0:
271,102,46324,2,0,B|263:77|263:77|307:65|375:82,1,99.0000030212403,2|0,3:2|1:2,0:0:0:0:
430,284,46649,5,0,1:2:0:0:
264,217,46811,2,0,L|324:198,1,49.5000015106202,8|0,0:2|0:0,0:0:0:0:
485,109,46973,1,0,3:2:0:0:
491,69,47054,1,0,3:2:0:0:
466,33,47135,6,0,P|440:103|438:174,1,107.999996704102,6|0,1:2|0:2,0:2:0:0:
286,339,47460,2,0,B|282:306|282:306|249:249|150:201,1,161.999995056153,10|0,0:2|0:0,0:2:0:0:
180,227,47784,1,2,1:2:0:0:
378,328,47946,2,0,B|409:357|442:364|442:364|484:347,1,107.999996704102,2|8,1:2|0:2,0:0:0:0:
126,312,48270,2,0,B|113:254|70:184|70:184|101:127,1,198.000006042481,6|2,1:2|1:2,0:2:0:0:
185,53,48757,1,10,0:2:0:0:
33,306,48919,1,2,3:2:0:0:
22,338,49000,1,0,3:0:0:0:
0,363,49081,1,0,1:2:0:0:
1,231,49243,5,2,1:2:0:0:
211,307,49405,1,8,0:2:0:0:
377,106,49568,1,2,1:2:0:0:
97,133,49730,1,4,1:2:0:0:
318,301,49892,5,2,0:2:0:0:
392,248,50054,1,10,0:2:0:0:
487,270,50216,1,2,0:2:0:0:
487,270,50297,1,2,0:0:0:0:
487,270,50378,1,0,1:2:0:0:
416,167,50541,5,2,1:2:0:0:
456,59,50703,1,10,0:2:0:0:
402,191,50865,2,0,B|415:215|434:232|434:232|427:299|397:338,1,148.50000453186,6|0,1:2|0:0,0:2:0:0:
401,327,51189,1,0,1:2:0:0:
85,155,51351,2,0,P|40:95|27:47,1,99.0000030212403,10|0,0:2|3:2,0:2:0:0:
97,36,51595,1,0,3:2:0:0:
97,36,51676,2,0,B|139:59|139:59|167:43|214:34,1,99.0000030212403,2|0,1:2|1:2,0:2:0:0:
261,181,52000,1,10,0:2:0:0:
101,322,52162,1,8,0:2:0:0:
101,284,52243,1,8,0:2:0:0:
121,252,52324,5,6,1:2:0:0:
187,342,52487,1,2,1:2:0:0:
296,316,52649,1,10,0:2:0:0:
351,369,52811,1,2,0:2:0:0:
456,232,52973,1,2,1:2:0:0:
450,351,53135,2,0,L|415:246,1,99.0000030212403,2|8,1:2|0:2,0:2:0:0:
470,140,53460,1,0,1:2:0:0:
418,24,53622,2,0,L|402:81,1,49.5000015106202,2|0,0:2|0:0,0:0:0:0:
348,121,53784,5,2,1:2:0:0:
265,53,53946,1,10,0:2:0:0:
199,167,54108,1,2,3:2:0:0:
199,167,54189,1,0,3:2:0:0:
199,167,54270,1,0,1:2:0:0:
116,210,54432,1,0,1:2:0:0:
3,160,54595,2,0,B|25:148|25:148|60:148|119:185,1,99.0000030212403,8|0,0:2|0:2,0:2:0:0:
226,380,54919,5,6,1:2:0:0:
199,292,55081,1,2,1:2:0:0:
286,186,55243,1,10,0:2:0:0:
190,82,55405,1,2,0:2:0:0:
267,11,55568,1,2,1:2:0:0:
193,198,55730,2,0,L|214:101,1,99.0000030212403,2|8,1:2|0:2,0:2:0:0:
373,278,56054,2,0,L|390:333,1,49.5000015106202,0|0,1:2|0:0,0:0:0:0:
381,265,56216,5,2,0:2:0:0:
301,322,56378,1,2,1:2:0:0:
201,291,56541,1,10,0:2:0:0:
151,360,56703,1,2,3:2:0:0:
151,360,56784,1,0,3:2:0:0:
151,360,56865,1,0,1:2:0:0:
75,380,57027,1,0,1:2:0:0:
13,208,57189,2,0,B|10:237|10:237|32:269|29:310,1,99.0000030212403,8|0,0:2|0:2,0:2:0:0:
17,54,57514,5,6,1:2:0:0:
92,106,57677,1,2,1:2:0:0:
177,45,57839,1,10,0:2:0:0:
264,124,58001,1,2,0:2:0:0:
351,162,58163,1,2,1:2:0:0:
464,40,58325,2,0,L|438:135,1,99.0000030212403,2|8,1:2|0:2,0:2:0:0:
473,322,58650,1,0,1:2:0:0:
406,377,58812,2,0,L|394:328,1,49.5000015106202,2|0,0:2|0:0,0:0:0:0:
338,275,58974,5,2,1:2:0:0:
251,343,59136,1,10,0:2:0:0:
174,279,59298,1,2,3:2:0:0:
174,279,59379,1,0,3:2:0:0:
174,279,59460,1,0,1:2:0:0:
83,372,59622,1,0,1:2:0:0:
19,248,59784,2,0,B|24:220|24:220|9:180|22:116,1,99.0000030212403,8|0,0:2|0:2,0:2:0:0:
246,246,60108,2,0,B|292:289|351:300|351:300|320:240,1,148.50000453186,6|0,1:2|0:0,0:2:0:0:
271,313,60432,6,0,L|161:340,1,99.0000030212403,10|0,0:2|0:2,0:2:0:0:
219,170,60757,1,2,1:2:0:0:
189,96,60919,1,2,1:2:0:0:
259,21,61081,1,8,0:2:0:0:
203,188,61243,2,0,B|165:203|165:203|123:168|60:160,1,148.50000453186,6|0,1:2|0:0,0:2:0:0:
54,172,61568,5,0,1:2:0:0:
320,181,61730,1,12,0:2:0:0:
101,337,61892,1,8,0:2:0:0:
96,305,61973,1,8,0:2:0:0:
109,275,62054,1,10,0:2:0:0:
404,370,62216,1,2,3:2:0:0:
469,328,62378,1,0,3:2:0:0:
471,333,62703,6,0,B|410:318|363:313|363:313|330:327,1,135,6|0,1:2|0:0,0:2:0:0:
337,335,63027,2,0,P|295:359|250:379,1,90,8|0,0:2|0:2,0:2:0:0:
162,291,63351,1,2,1:2:0:0:
124,220,63514,1,0,0:2:0:0:
36,320,63676,2,0,B|81:295|81:295|112:329|177:333,1,135,8|0,0:2|0:0,0:2:0:0:
237,237,64000,6,0,B|217:195|221:151|221:151|261:51,1,180,2|10,1:2|0:2,0:2:0:0:
143,139,64487,1,2,0:2:0:0:
254,257,64649,2,0,L|345:278,1,90,0|2,1:2|0:2,0:0:0:0:
432,217,64892,1,2,0:0:0:0:
432,217,64973,2,0,B|410:189|410:189|380:187|356:201,1,90,8|0,0:2|3:2,0:0:0:0:
86,219,65297,2,0,B|67:170|67:170|35:148|15:91,1,135,4|0,1:2|0:0,0:2:0:0:
27,96,65622,6,0,P|16:153|9:207,1,90,10|0,0:2|0:2,0:2:0:0:
152,48,65946,2,0,P|215:86|277:118,1,135,2|0,1:2|0:0,0:0:0:0:
278,113,66270,1,8,0:2:0:0:
380,41,66432,1,0,0:2:0:0:
361,239,66595,2,0,B|377:274|410:289|410:289|475:240,1,135,2|0,1:2|0:0,0:2:0:0:
460,243,66919,1,10,0:2:0:0:
306,344,67081,1,2,0:2:0:0:
230,325,67243,2,0,B|193:308|193:308|124:351|53:368,1,180,0|8,1:2|0:2,0:0:0:0:
46,27,67892,6,0,B|72:54|72:54|65:99|42:151,1,135,6|0,1:2|0:0,0:2:0:0:
49,160,68216,2,0,P|95:151|133:129,1,90,8|0,0:2|0:2,0:2:0:0:
258,21,68540,1,2,1:2:0:0:
325,65,68703,1,0,0:2:0:0:
279,264,68865,2,0,B|254:219|254:219|284:184|292:123,1,135,8|0,0:2|0:0,0:2:0:0:
368,287,69189,6,0,B|320:265|320:265|268:285|228:388,1,180,2|10,1:2|0:2,0:2:0:0:
49,160,69676,1,2,0:2:0:0:
12,271,69838,2,0,L|108:246,1,90,0|2,1:2|0:2,0:0:0:0:
191,277,70081,1,2,0:0:0:0:
191,277,70162,2,0,B|221:256|229:226|229:226|202:201,1,90,8|0,0:2|0:2,0:0:0:0:
367,367,70486,2,0,B|411:357|444:317|444:317|494:296,1,135,4|0,1:2|0:0,0:2:0:0:
492,312,70811,6,0,P|498:267|507:223,1,90,10|0,0:2|0:2,0:2:0:0:
374,55,71135,2,0,P|387:123|397:192,1,135,2|0,1:2|0:0,0:0:0:0:
389,196,71459,1,8,0:2:0:0:
483,103,71621,1,0,0:2:0:0:
271,52,71784,2,0,B|196:95|196:95|195:123|225:163,1,135,2|0,1:2|0:0,0:2:0:0:
221,145,72108,1,10,0:2:0:0:
92,277,72270,2,0,L|100:220,1,45,2|0,0:2|0:0,0:0:0:0:
75,6,72432,1,0,1:2:0:0:
18,56,72514,1,8,0:2:0:0:
29,106,72595,5,8,0:2:0:0:
22,136,72676,1,8,0:2:0:0:
31,153,72757,2,0,L|90:144,1,58.4999973220826,0|0,3:2|3:2,0:0:0:0:
211,246,72919,2,0,L|268:254,1,58.4999973220826,0|0,3:2|3:2,0:0:0:0:
412,170,73081,6,0,B|431:113|431:113|420:75|436:15,1,141.749995674133,6|0,1:2|0:0,0:2:0:0:
442,20,73405,1,8,0:2:0:0:
476,266,73568,1,0,1:2:0:0:
300,101,73730,1,10,0:2:0:0:
272,176,73892,1,0,1:2:0:0:
114,133,74054,2,0,B|92:90|92:90|46:82|3:45,1,141.749995674133,8|0,0:2|0:0,0:0:0:0:
3,59,74378,6,0,P|50:58|106:44,1,94.499997116089,14|0,0:2|1:2,0:0:0:0:
309,0,74703,1,10,0:2:0:0:
192,106,74865,1,2,1:2:0:0:
192,106,74946,1,0,1:0:0:0:
192,106,75027,2,0,B|268:68|268:68|295:81|356:77,1,141.749995674133,8|0,0:2|0:0,0:0:0:0:
334,73,75351,1,8,0:2:0:0:
424,299,75514,1,0,1:2:0:0:
449,279,75595,1,0,1:2:0:0:
461,251,75676,5,4,1:2:0:0:
148,347,76000,2,0,P|103:371|54:386,1,94.499997116089,10|0,0:2|1:2,0:0:0:0:
201,218,76324,2,0,B|240:220|240:220|265:272|339:315,1,141.749995674133,10|0,0:2|0:0,0:0:0:0:
318,297,76649,1,8,0:2:0:0:
407,206,76811,1,0,1:2:0:0:
117,250,76973,2,0,B|107:188|78:139|78:139|85:96,1,141.749995674133,14|0,0:2|0:0,0:0:0:0:
70,189,77297,2,0,P|35:234|0:258,1,94.499997116089,10|2,0:2|1:2,0:0:0:0:
138,10,77622,2,0,P|85:31|42:34,1,94.499997116089,8|2,0:2|1:2,0:0:0:0:
268,94,77946,1,8,0:2:0:0:
225,370,78108,1,0,3:2:0:0:
192,347,78189,1,0,3:2:0:0:
180,310,78270,6,0,B|187:280|187:280|175:250|137:217,1,94.499997116089,6|0,1:2|1:2,0:2:0:0:
330,363,78595,1,8,0:2:0:0:
330,363,78757,1,0,1:2:0:0:
374,129,78919,2,0,B|328:174|328:174|324:220|292:259,1,141.749995674133,10|0,0:2|0:0,0:0:0:0:
293,251,79243,2,0,P|256:207|237:160,1,94.499997116089,8|0,0:2|1:2,0:0:0:0:
104,292,79568,2,0,B|74:351|33:383|33:383|-7:386,1,141.749995674133,14|0,0:2|0:0,0:0:0:0:
5,376,79892,1,10,0:2:0:0:
84,204,80054,1,2,1:2:0:0:
30,38,80216,1,8,0:2:0:0:
14,114,80378,5,2,1:2:0:0:
233,40,80541,1,8,0:2:0:0:
199,311,80703,1,0,1:2:0:0:
179,268,80784,1,0,1:2:0:0:
178,222,80865,1,4,1:2:0:0:
498,92,81189,2,0,P|487:148|455:184,1,94.499997116089,10|0,0:2|1:2,0:0:0:0:
173,111,81514,2,0,B|131:74|131:74|87:85|28:76,1,141.749995674133,10|0,0:2|0:0,0:0:0:0:
34,83,81838,1,8,0:2:0:0:
165,0,82000,1,0,1:2:0:0:
453,150,82162,6,0,B|449:112|449:112|434:83|434:48|434:48|419:6,1,141.749995674133,12|0,0:2|0:0,0:0:0:0:
412,93,82487,2,0,L|423:193,1,94.499997116089,10|2,0:2|1:2,0:0:0:0:
126,24,82811,2,0,L|91:128,1,94.499997116089,8|2,0:2|1:2,0:0:0:0:
291,200,83135,2,0,L|277:248,1,47.2499985580445,8|0,0:2|0:0,0:0:0:0:
64,269,83297,2,0,L|78:317,1,47.2499985580445,0|0,1:2|1:2,0:0:0:0:
309,353,83460,6,0,B|375:357|409:341|409:341|456:296,1,141.749995674133,6|0,1:2|0:0,0:2:0:0:
438,303,83784,1,8,0:2:0:0:
229,365,83946,1,0,1:2:0:0:
101,199,84108,2,0,B|69:162|69:162|62:110|8:47,1,141.749995674133,2|0,1:2|0:0,0:2:0:0:
23,82,84432,5,8,0:2:0:0:
312,216,84595,1,2,3:2:0:0:
350,212,84676,1,0,3:2:0:0:
379,187,84757,1,0,1:2:0:0:
262,69,84919,1,8,0:2:0:0:
359,356,85081,1,8,0:2:0:0:
421,26,85243,5,4,1:2:0:0:
256,192,85324,12,0,93838,0:2:0:0:
