osu file format v14

[General]
AudioFilename: audio.mp3
AudioLeadIn: 0
PreviewTime:41830
Countdown: 0
SampleSet: Soft
StackLeniency: 0.7
Mode: 0
LetterboxInBreaks: 0
WidescreenStoryboard: 1

[Editor]
DistanceSpacing: 1
BeatDivisor: 4
GridSize: 4
TimelineZoom: 1.5

[Metadata]
Title:Mischievous of Alice
TitleUnicode:Mischievous of Alice
Artist:Yousei Teikoku
ArtistUnicode:妖精帝國
Creator:Kuki1537
Version:Normal
Source:クイーンズゲイト スパイラルカオス
Tags:Hades:The other world Queen's Gate Spiral Chaos game version japanese rock jrock j-rock metal female vocalist saltylucario saltking salty MajK00 Venix
BeatmapID:3647100
BeatmapSetID:1525481

[Difficulty]
HPDrainRate:3
CircleSize:3.6
OverallDifficulty:4
ApproachRate:5
SliderMultiplier:0.999999999999999
SliderTickRate:1

[Events]
//Background and Video events
0,0,"i wish artists made stuff in 16 9 resolutions.jpg",0,0
//Break Periods
//Storyboard Layer 0 (Background)
//Storyboard Layer 1 (Fail)
//Storyboard Layer 2 (Pass)
//Storyboard Layer 3 (Foreground)
//Storyboard Layer 4 (Overlay)
//Storyboard Sound Samples

[TimingPoints]
433,324.324324324324,4,2,45,55,1,0
4162,-100,4,2,45,70,0,0
5622,-100,4,2,45,55,0,0
9351,-100,4,2,45,70,0,0
10811,-100,4,2,45,80,0,0
21189,-100,4,2,45,65,0,0
31568,-100,4,2,45,75,0,0
40649,-100,4,2,45,85,0,0
41946,-100,4,2,45,85,0,1
62703,-100,4,2,45,80,0,0
73081,-100,4,2,45,90,0,1
85243,-100,4,2,45,90,0,0
85324,-100,4,2,45,40,0,0
87351,-100,4,2,45,32,0,0
89946,-100,4,2,45,24,0,0
92541,-100,4,2,45,16,0,0
93838,-100,4,2,45,5,0,0

[Colours]
Combo1 : 233,216,163
Combo2 : 212,212,212
Combo3 : 183,140,234
Combo4 : 255,170,155

[HitObjects]
5,100,433,6,0,L|61:92,1,50,4|0,1:2|1:2,0:0:0:0:
98,21,1730,2,0,L|147:28,1,50,4|0,1:2|1:2,0:0:0:0:
191,99,3027,2,0,L|247:91,1,50,4|0,1:2|1:2,0:0:0:0:
297,31,4162,5,8,0:2:0:0:
393,2,4487,1,8,0:2:0:0:
475,57,4811,1,8,0:2:0:0:
497,154,5135,2,0,L|485:256,1,99.9999999999999,8|0,0:2|1:2,0:0:0:0:
482,303,5622,6,0,L|429:310,1,50,4|0,1:2|1:2,0:0:0:0:
378,381,6919,2,0,L|325:374,1,50,4|0,1:2|1:2,0:0:0:0:
261,312,8216,2,0,L|208:319,1,50,4|0,1:2|1:2,0:0:0:0:
145,375,9351,5,8,0:2:0:0:
56,327,9676,1,8,0:2:0:0:
68,227,10000,2,0,L|75:175,1,50,8|0,0:2|1:2,0:0:0:0:
60,129,10324,2,0,P|112:121|166:104,1,99.9999999999999,8|0,0:2|3:2,0:0:0:0:
185,65,10811,6,0,P|237:73|291:90,1,99.9999999999999,6|8,1:2|0:2,0:2:0:0:
335,171,11460,2,0,P|327:223|310:277,1,99.9999999999999,2|8,1:2|0:2,0:0:0:0:
236,331,12108,2,0,P|201:328|150:278,1,99.9999999999999,2|10,1:2|0:2,0:2:0:0:
142,237,12595,1,2,0:2:0:0:
203,158,12919,2,0,L|194:53,1,99.9999999999999,2|2,0:2|0:2,0:2:0:0:
190,8,13405,5,6,1:2:0:0:
102,57,13730,2,0,P|62:43|-15:44,2,99.9999999999999,8|2|8,0:2|1:2|0:2,0:0:0:0:
159,139,14703,2,0,P|157:188|142:236,1,99.9999999999999,2|10,1:2|0:2,0:2:0:0:
112,276,15189,1,2,0:2:0:0:
179,350,15514,2,0,L|236:344,1,50,2|10,0:2|0:2,0:0:0:0:
277,370,15838,1,2,0:2:0:0:
277,370,16000,6,0,L|386:360,1,99.9999999999999,6|8,1:2|0:2,0:2:0:0:
440,283,16649,2,0,L|430:174,1,99.9999999999999,2|8,1:2|0:2,0:0:0:0:
463,88,17297,2,0,P|433:71|361:73,1,99.9999999999999,2|10,1:2|0:2,0:2:0:0:
325,45,17784,1,2,0:2:0:0:
240,98,18108,2,0,P|232:146|212:214,1,99.9999999999999,2|2,0:2|0:2,0:2:0:0:
201,242,18595,5,6,1:2:0:0:
237,335,18919,2,0,P|267:348|341:345,2,99.9999999999999,8|2|8,0:2|1:2|0:2,0:2:0:0:
140,362,19892,2,0,P|134:321|113:256,1,99.9999999999999,2|10,1:2|0:2,0:2:0:0:
88,230,20378,1,2,0:2:0:0:
88,230,20541,2,0,P|96:204|100:181,1,50,0|2,1:2|1:2,0:0:0:0:
50,101,21027,1,2,0:2:0:0:
50,101,21189,6,0,P|91:77|163:78,1,99.9999999999999,6|10,1:2|0:2,0:2:0:0:
228,21,21838,1,2,1:2:0:0:
310,76,22162,1,10,0:2:0:0:
264,165,22487,2,0,P|222:181|167:180,2,99.9999999999999,2|10|2,1:2|0:2|1:2,0:2:0:0:
352,212,23460,2,0,P|380:222|405:225,1,50,10|10,0:2|0:2,0:0:0:0:
448,211,23784,6,0,P|455:251|478:318,1,99.9999999999999,4|10,1:2|0:2,0:2:0:0:
402,378,24432,1,2,1:2:0:0:
322,316,24757,1,10,0:2:0:0:
230,355,25081,2,0,P|181:361|125:332,2,99.9999999999999,2|10|2,1:2|0:2|1:2,0:2:0:0:
330,355,26054,2,0,L|339:303,1,50,8|8,0:2|0:2,0:0:0:0:
332,256,26378,6,0,L|319:143,1,99.9999999999999,4|10,1:2|0:2,0:2:0:0:
350,60,27027,2,0,P|305:34|243:39,1,99.9999999999999,2|10,1:2|0:2,0:0:0:0:
178,94,27676,1,2,1:2:0:0:
86,53,28000,1,10,0:2:0:0:
6,113,28324,1,2,1:2:0:0:
6,213,28649,2,0,L|68:200,1,50,10|10,0:2|0:2,0:2:0:0:
96,231,28973,6,0,P|137:258|202:252,1,99.9999999999999,6|10,1:2|0:2,0:2:0:0:
248,180,29622,2,0,P|289:153|354:159,1,99.9999999999999,2|10,1:2|0:2,0:2:0:0:
384,173,30108,2,0,L|369:280,1,99.9999999999999,2|0,0:2|1:2,0:0:0:0:
362,321,30595,1,8,0:2:0:0:
277,373,30919,1,0,1:2:0:0:
202,306,31243,2,0,L|211:253,1,50,8|8,0:2|0:2,0:0:0:0:
245,221,31568,6,0,P|224:167|221:114,1,99.9999999999999,4|10,1:2|0:2,0:2:0:0:
250,86,32054,1,2,0:2:0:0:
250,86,32216,2,0,P|292:92|322:88,2,50,2|2|10,1:2|1:2|0:2,0:0:0:0:
163,34,32865,2,0,P|123:18|61:31,1,99.9999999999999,2|10,0:2|0:2,0:0:0:0:
29,58,33351,1,2,3:2:0:0:
68,155,33676,1,2,1:2:0:0:
68,155,33838,2,0,P|75:187|76:212,1,50,10|2,0:2|0:2,0:0:0:0:
52,248,34162,6,0,P|108:254|158:269,1,99.9999999999999,6|8,1:2|0:2,0:2:0:0:
235,318,34811,2,0,P|291:312|341:297,1,99.9999999999999,2|10,1:2|0:2,0:2:0:0:
379,278,35297,1,2,3:2:0:0:
379,278,35460,2,0,L|389:379,2,99.9999999999999,4|8|0,1:2|0:2|1:2,0:2:0:0:
295,223,36432,2,0,L|290:171,1,50,8|0,0:2|3:2,0:0:0:0:
321,133,36757,6,0,P|342:103|402:79,1,99.9999999999999,4|10,1:2|0:2,0:2:0:0:
447,60,37243,1,2,0:2:0:0:
447,60,37405,2,0,L|454:5,2,50,2|2|10,1:2|1:2|0:2,0:0:0:0:
501,144,38054,2,0,L|486:257,1,99.9999999999999,2|10,0:2|0:2,0:0:0:0:
481,292,38541,1,2,3:2:0:0:
410,362,38865,1,2,1:2:0:0:
410,362,39027,2,0,P|381:351|347:351,1,50,10|10,0:2|0:2,0:0:0:0:
326,314,39351,6,0,P|289:345|222:349,1,99.9999999999999,4|8,1:2|0:2,0:2:0:0:
143,382,40000,1,0,1:2:0:0:
61,324,40324,1,10,0:2:0:0:
56,294,40487,1,2,3:2:0:0:
52,264,40649,2,0,P|45:213|34:158,1,99.9999999999999,4|8,1:2|0:2,0:0:0:0:
68,128,41135,1,0,3:2:0:0:
68,128,41297,2,0,P|100:137|125:139,1,50,8|8,0:2|0:2,0:0:0:0:
240,53,41946,5,6,1:2:0:0:
330,10,42270,1,10,0:2:0:0:
412,76,42595,1,2,1:2:0:0:
412,76,42757,2,0,P|403:122|401:149,1,50,2|8,1:2|0:2,0:0:0:0:
430,166,43081,2,0,P|429:211|414:281,1,99.9999999999999,6|2,1:2|1:2,0:2:0:0:
385,302,43568,1,10,0:2:0:0:
385,302,43730,1,2,3:2:0:0:
288,329,44054,2,0,P|284:353|278:378,2,50,2|10|2,0:2|0:2|1:2,0:0:0:0:
251,294,44541,6,0,P|238:231|233:191,1,99.9999999999999,4|10,1:2|0:2,0:2:0:0:
201,157,45027,2,0,P|167:155|134:148,1,50,2|0,0:2|1:2,0:2:0:0:
102,141,45351,1,2,1:2:0:0:
18,196,45676,2,0,L|29:304,1,99.9999999999999,6|0,1:2|1:2,0:2:0:0:
71,330,46162,1,10,0:2:0:0:
71,330,46324,2,0,P|120:325|165:345,1,99.9999999999999,2|0,3:2|1:2,0:0:0:0:
214,333,46811,1,8,0:2:0:0:
278,256,47135,5,6,1:2:0:0:
224,171,47460,1,10,0:2:0:0:
270,84,47784,1,2,1:2:0:0:
270,84,47946,2,0,P|311:78|332:71,1,50,2|8,1:2|0:2,0:0:0:0:
356,42,48270,2,0,P|405:40|466:64,1,99.9999999999999,6|2,1:2|1:2,0:2:0:0:
486,100,48757,1,10,0:2:0:0:
486,100,48919,1,2,3:2:0:0:
472,199,49243,2,0,L|462:255,1,50,2|8,1:2|0:2,0:0:0:0:
437,293,49568,1,2,1:2:0:0:
437,293,49730,6,0,P|390:299|328:316,1,99.9999999999999,4|10,1:2|0:2,0:2:0:0:
291,328,50216,1,2,0:2:0:0:
234,244,50541,2,0,P|229:210|223:186,1,50,2|10,1:2|0:2,0:0:0:0:
259,157,50865,2,0,P|266:111|286:50,1,99.9999999999999,6|0,1:2|1:2,0:2:0:0:
250,21,51351,1,10,0:2:0:0:
151,0,51676,1,2,1:2:0:0:
74,63,52000,2,0,L|82:127,1,50,10|8,0:2|0:2,0:0:0:0:
88,161,52324,5,6,1:2:0:0:
14,229,52649,1,10,0:2:0:0:
59,323,52973,1,2,1:2:0:0:
59,323,53135,2,0,P|115:309|168:310,1,99.9999999999999,2|0,1:2|1:2,0:2:0:0:
206,316,53622,2,0,P|210:348|212:372,2,50,2|2|10,0:2|1:2|0:2,0:0:0:0:
244,283,54108,2,0,P|252:223|259:181,1,99.9999999999999,2|0,3:2|1:2,0:0:0:0:
265,134,54595,1,8,0:2:0:0:
292,37,54919,5,6,1:2:0:0:
388,10,55243,1,10,0:2:0:0:
474,70,55568,1,2,1:2:0:0:
474,70,55730,2,0,P|466:108|459:175,1,99.9999999999999,2|0,1:2|1:2,0:2:0:0:
450,217,56216,2,0,P|421:207|395:206,2,50,2|2|10,0:2|1:2|0:2,0:0:0:0:
483,254,56703,2,0,P|483:299|440:348,1,99.9999999999999,2|0,3:2|1:2,0:0:0:0:
404,358,57189,1,8,0:2:0:0:
317,308,57514,5,6,1:2:0:0:
227,264,57838,1,10,0:2:0:0:
148,324,58162,1,2,1:2:0:0:
148,324,58324,2,0,P|101:341|47:329,1,99.9999999999999,2|0,1:2|1:2,0:2:0:0:
6,313,58811,2,0,L|0:371,2,50,2|2|10,0:2|1:2|0:2,0:0:0:0:
13,263,59297,2,0,L|25:162,1,99.9999999999999,2|0,3:2|1:2,0:0:0:0:
31,113,59784,1,8,0:2:0:0:
129,98,60108,6,0,L|141:-3,2,99.9999999999999,6|10|2,1:2|0:2|1:2,0:2:0:0:
156,140,60919,1,2,1:2:0:0:
249,103,61243,2,0,P|277:90|349:96,1,99.9999999999999,6|0,1:2|1:2,0:2:0:0:
379,129,61730,2,0,L|372:184,1,50,12|8,0:2|0:2,0:0:0:0:
402,224,62054,1,10,0:2:0:0:
402,224,62216,2,0,L|395:279,1,50,2|0,3:2|3:2,0:2:0:0:
351,363,62703,6,0,P|315:351|249:349,1,99.9999999999999,6|8,1:2|0:2,0:2:0:0:
165,301,63351,2,0,P|177:265|179:199,1,99.9999999999999,2|8,1:2|0:2,0:0:0:0:
264,150,64000,2,0,P|264:100|278:52,1,99.9999999999999,2|10,1:2|0:2,0:2:0:0:
250,10,64487,1,2,0:2:0:0:
150,20,64811,2,0,L|41:33,1,99.9999999999999,2|0,0:2|3:2,0:2:0:0:
1,40,65297,5,4,1:2:0:0:
42,131,65622,2,0,P|54:175|36:231,2,99.9999999999999,10|2|8,0:2|1:2|0:2,0:2:0:0:
125,75,66595,2,0,P|163:67|236:96,1,99.9999999999999,2|10,1:2|0:2,0:2:0:0:
252,122,67081,1,2,0:2:0:0:
239,221,67405,2,0,L|232:275,1,50,2|8,0:2|0:2,0:0:0:0:
228,324,67730,1,0,3:2:0:0:
228,324,67892,6,0,P|264:315|341:310,1,99.9999999999999,6|8,1:2|0:2,0:2:0:0:
421,341,68541,2,0,P|424:291|435:242,1,99.9999999999999,2|8,1:2|0:2,0:0:0:0:
505,171,69189,2,0,P|501:121|490:72,1,99.9999999999999,2|10,1:2|0:2,0:2:0:0:
470,26,69676,1,2,0:2:0:0:
387,81,70000,2,0,P|362:101|281:100,1,99.9999999999999,2|0,0:2|0:2,0:2:0:0:
252,80,70487,5,4,1:2:0:0:
167,132,70811,2,0,L|55:122,2,99.9999999999999,10|2|8,0:2|1:2|0:2,0:2:0:0:
236,203,71784,2,0,P|255:237|252:305,1,99.9999999999999,2|10,1:2|0:2,0:2:0:0:
232,341,72270,2,0,L|180:335,1,50,2|0,0:2|1:2,0:0:0:0:
139,358,72595,1,8,0:2:0:0:
139,358,72757,2,0,L|87:352,1,50,0|0,3:2|3:2,0:0:0:0:
56,315,73081,5,6,1:2:0:0:
1,208,73405,1,8,0:2:0:0:
76,114,73730,1,10,0:2:0:0:
190,148,74054,1,8,0:2:0:0:
285,76,74378,2,0,P|327:56|395:61,1,99.9999999999999,14|10,0:2|0:2,0:0:0:0:
438,41,74865,2,0,P|451:73|454:97,1,50,2|8,1:2|0:2,0:0:0:0:
505,118,75189,2,0,P|499:142|489:164,1,50,2|8,1:2|0:2,0:0:0:0:
461,220,75514,1,0,1:2:0:0:
461,220,75676,5,4,1:2:0:0:
344,192,76000,1,10,0:2:0:0:
264,281,76324,1,10,0:2:0:0:
147,253,76649,1,8,0:2:0:0:
192,141,76973,2,0,L|181:36,1,99.9999999999999,14|10,0:2|0:2,0:0:0:0:
137,0,77460,2,0,L|78:8,1,50,2|8,1:2|0:2,0:0:0:0:
49,52,77784,2,0,L|57:111,1,50,2|8,1:2|0:2,0:0:0:0:
67,164,78108,1,0,3:2:0:0:
67,164,78270,5,6,1:2:0:0:
11,270,78595,1,8,0:2:0:0:
94,356,78919,1,10,0:2:0:0:
204,310,79243,1,8,0:2:0:0:
190,190,79568,2,0,P|160:130|166:88,1,99.9999999999999,14|10,0:2|0:2,0:0:0:0:
207,59,80054,2,0,P|240:69|261:70,1,50,2|8,1:2|0:2,0:0:0:0:
305,37,80378,2,0,P|338:27|359:26,1,50,2|8,1:2|0:2,0:0:0:0:
416,40,80703,1,0,1:2:0:0:
416,40,80865,5,4,1:2:0:0:
381,154,81189,1,10,0:2:0:0:
456,247,81514,1,10,0:2:0:0:
421,361,81838,1,8,0:2:0:0:
312,310,82162,2,0,L|210:299,1,99.9999999999999,12|10,0:2|0:2,0:0:0:0:
158,272,82649,2,0,P|148:243|148:213,1,50,2|8,1:2|0:2,0:0:0:0:
185,177,82973,2,0,P|195:148|195:118,1,50,2|8,1:2|0:2,0:0:0:0:
174,78,83297,1,0,1:2:0:0:
174,78,83460,6,0,L|287:64,1,99.9999999999999,6|8,1:2|0:2,0:2:0:0:
380,12,84108,2,0,P|400:49|406:108,1,99.9999999999999,2|8,1:2|0:2,0:2:0:0:
448,148,84595,2,0,P|428:185|422:244,1,99.9999999999999,2|8,3:2|0:2,0:0:0:0:
445,302,85081,1,8,0:2:0:0:
445,302,85243,1,4,1:2:0:0:
256,192,85405,12,0,93838,0:2:0:0:
