osu file format v14

[General]
AudioFilename: audio.mp3
AudioLeadIn: 0
PreviewTime:41830
Countdown: 0
SampleSet: Soft
StackLeniency: 0.5
Mode: 0
LetterboxInBreaks: 0
WidescreenStoryboard: 1

[Editor]
DistanceSpacing: 1
BeatDivisor: 4
GridSize: 32
TimelineZoom: 1.5

[Metadata]
Title:Mischievous of Alice
TitleUnicode:Mischievous of Alice
Artist:Yousei Teikoku
ArtistUnicode:妖精帝國
Creator:Kuki1537
Version:MajK00's Hard
Source:クイーンズゲイト スパイラルカオス
Tags:Hades:The other world Queen's Gate Spiral Chaos game version japanese rock jrock j-rock metal female vocalist saltylucario saltking salty MajK00 Venix
BeatmapID:3647099
BeatmapSetID:1525481

[Difficulty]
HPDrainRate:4.2
CircleSize:3.6
OverallDifficulty:6.5
ApproachRate:8
SliderMultiplier:1.37
SliderTickRate:1

[Events]
//Background and Video events
0,0,"i wish artists made stuff in 16 9 resolutions.jpg",0,0
//Break Periods
//Storyboard Layer 0 (Background)
//Storyboard Layer 1 (Fail)
//Storyboard Layer 2 (Pass)
//Storyboard Layer 3 (Foreground)
//Storyboard Layer 4 (Overlay)
//Storyboard Sound Samples

[TimingPoints]
433,324.324324324324,4,2,45,55,1,0
433,-121.951219512195,4,2,45,55,0,0
4162,-121.951219512195,4,2,45,70,0,0
5622,-121.951219512195,4,2,45,55,0,0
9351,-121.951219512195,4,2,45,70,0,0
10811,-103.092783505155,4,2,45,80,0,0
21189,-103.092783505155,4,2,45,65,0,0
31568,-103.092783505155,4,2,45,75,0,0
40649,-103.092783505155,4,2,45,85,0,0
41946,-91.743119266055,4,2,45,85,0,0
62703,-98.0392156862745,4,2,45,80,0,0
73081,-89.2857142857143,4,2,45,90,0,0
85324,-89.2857142857143,4,2,45,40,0,0
87351,-89.2857142857143,4,2,45,32,0,0
89946,-89.2857142857143,4,2,45,24,0,0
92541,-89.2857142857143,4,2,45,16,0,0
93838,-89.2857142857143,4,2,45,5,0,0

[Colours]
Combo1 : 233,216,163
Combo2 : 212,212,212
Combo3 : 183,140,234
Combo4 : 255,170,155

[HitObjects]
111,110,433,5,4,1:2:0:0:
111,110,595,1,0,1:2:0:0:
186,62,757,2,0,L|199:7,2,56.1700008570862,2|2|2,0:2|0:2|0:2,0:2:0:0:
252,127,1243,2,0,L|361:99,1,112.340001714172,2|2,0:2|0:2,0:2:0:0:
450,127,1730,5,4,1:2:0:0:
450,127,1892,1,0,1:2:0:0:
417,208,2054,2,0,P|444:214|471:221,2,56.1700008570862,2|2|2,0:2|0:2|0:2,0:2:0:0:
356,282,2541,2,0,P|301:294|246:308,1,112.340001714172,2|2,0:2|0:2,0:2:0:0:
172,270,3027,5,4,1:2:0:0:
172,270,3189,1,0,1:2:0:0:
110,331,3351,2,0,P|99:357|96:384,2,56.1700008570862,2|2|2,0:2|0:2|0:2,0:2:0:0:
85,244,3838,2,0,P|74:188|57:135,1,112.340001714172,2|8,0:2|0:2,0:2:0:0:
139,96,4324,5,0,1:2:0:0:
182,173,4487,2,0,L|236:186,1,56.1700008570862,8|0,0:2|1:2,0:0:0:0:
284,263,4811,2,0,L|338:249,1,56.1700008570862,8|0,0:2|1:2,0:0:0:0:
422,226,5135,1,8,0:2:0:0:
440,311,5297,2,0,L|467:317,2,28.0850004285431,0|0|0,3:2|3:2|1:2,0:0:0:0:
369,372,5622,5,4,1:2:0:0:
369,372,5784,1,0,1:2:0:0:
297,317,5946,2,0,L|283:262,2,56.1700008570862,2|2|2,0:2|0:2|0:2,0:2:0:0:
216,350,6432,2,0,P|161:338|107:322,1,112.340001714172,2|2,0:2|0:2,0:2:0:0:
23,326,6919,5,4,1:2:0:0:
23,326,7081,1,0,1:2:0:0:
59,245,7243,2,0,P|84:234|112:231,2,56.1700008570862,2|2|2,0:2|0:2|0:2,0:2:0:0:
0,184,7730,2,0,P|14:129|27:75,1,112.340001714172,2|2,0:2|0:2,0:2:0:0:
89,0,8216,5,4,1:2:0:0:
89,0,8378,1,0,1:2:0:0:
164,54,8541,2,0,L|177:0,2,56.1700008570862,2|2|2,0:2|0:2|0:2,0:2:0:0:
131,136,9027,2,0,P|186:138|233:109,1,112.340001714172,2|8,0:2|0:2,0:2:0:0:
286,44,9514,5,0,1:2:0:0:
333,115,9676,2,0,L|387:128,1,56.1700008570862,8|0,0:2|1:2,0:0:0:0:
458,68,10000,2,0,L|512:81,1,56.1700008570862,8|0,0:2|1:2,0:0:0:0:
502,176,10324,1,8,0:2:0:0:
502,176,10405,1,8,0:2:0:0:
502,176,10487,2,0,L|508:203,3,28.0850004285431,8|0|0|0,0:2|3:2|3:2|3:2,0:2:0:0:
512,239,10811,6,0,P|479:239|449:254,1,66.4450015714989,6|0,1:2|0:2,0:2:0:0:
416,336,11135,2,0,P|386:321|353:320,1,66.4450015714989,8|0,0:2|0:2,0:2:0:0:
256,295,11460,2,0,L|272:359,1,66.4450015714989,2|0,1:2|0:2,0:0:0:0:
184,384,11784,2,0,L|167:319,1,66.4450015714989,8|0,0:2|0:2,0:2:0:0:
83,283,12108,6,0,P|101:219|115:154,1,132.890003142998,2|10,1:2|0:2,0:2:0:0:
55,76,12595,2,0,L|119:59,1,66.4450015714989,2|0,0:2|1:2,0:2:0:0:
194,0,12919,2,0,L|258:16,1,66.4450015714989,2|8,0:2|0:2,0:2:0:0:
286,109,13243,5,2,0:2:0:0:
286,109,13324,1,2,0:2:0:0:
286,109,13405,2,0,P|296:140|302:173,1,66.4450015714989,6|0,1:2|0:2,0:2:0:0:
382,220,13730,2,0,P|371:251|365:284,1,66.4450015714989,10|0,0:2|0:2,0:2:0:0:
278,263,14054,2,0,L|213:279,1,66.4450015714989,2|0,1:2|0:2,0:0:0:0:
232,364,14378,2,0,L|296:347,1,66.4450015714989,8|0,0:2|0:2,0:0:0:0:
365,283,14703,6,0,B|413:295|413:295|433:321|433:321|481:333,1,132.890003142998,2|10,1:2|0:2,0:2:0:0:
486,244,15189,2,0,P|477:211|469:179,1,66.4450015714989,2|0,0:2|1:2,0:2:0:0:
449,95,15514,1,2,0:2:0:0:
385,150,15676,2,0,L|352:158,3,33.2225007857495,10|2|2|2,0:2|0:2|0:2|0:2,0:0:0:0:
331,166,16000,6,0,P|300:153|267:149,1,66.4450015714989,6|0,1:2|0:2,0:2:0:0:
191,94,16324,2,0,P|158:97|127:110,1,66.4450015714989,8|0,0:2|0:2,0:2:0:0:
181,186,16649,2,0,L|164:250,1,66.4450015714989,2|0,1:2|0:2,0:0:0:0:
241,297,16973,2,0,L|257:361,1,66.4450015714989,8|0,0:2|0:2,0:2:0:0:
156,351,17297,6,0,P|92:332|27:318,1,132.890003142998,2|10,1:2|0:2,0:2:0:0:
53,233,17784,2,0,P|46:200|36:168,1,66.4450015714989,2|0,0:2|1:2,0:2:0:0:
123,150,18108,2,0,P|129:182|139:214,1,66.4450015714989,2|8,0:2|0:2,0:2:0:0:
223,159,18432,5,2,0:2:0:0:
223,159,18514,1,2,0:2:0:0:
223,159,18595,2,0,L|287:175,1,66.4450015714989,6|0,1:2|0:2,0:2:0:0:
366,125,18919,2,0,L|382:189,1,66.4450015714989,8|0,0:2|0:2,0:2:0:0:
469,168,19243,2,0,L|452:103,1,66.4450015714989,2|0,1:2|0:2,0:0:0:0:
386,35,19568,2,0,P|353:34|323:20,1,66.4450015714989,8|0,0:2|0:2,0:0:0:0:
233,62,19892,6,0,B|168:49|175:102|108:94,1,132.890003142998,2|10,1:2|0:2,0:2:0:0:
30,56,20378,1,2,0:2:0:0:
48,152,20541,1,0,1:2:0:0:
48,152,20622,1,8,0:2:0:0:
48,152,20703,2,0,L|31:216,1,66.4450015714989,2|8,1:2|0:2,0:0:0:0:
97,311,21027,5,2,0:2:0:0:
97,311,21108,1,2,0:2:0:0:
97,311,21189,2,0,P|32:313|-1:375,2,132.890003142998,6|10|2,1:2|0:2|1:2,0:2:0:0:
157,374,22000,1,0,1:2:0:0:
157,374,22162,2,0,L|221:357,1,66.4450015714989,10|0,0:2|0:2,0:2:0:0:
278,279,22487,6,0,P|308:292|341:295,1,66.4450015714989,2|0,1:2|0:0,0:2:0:0:
398,221,22811,2,0,P|394:188|380:158,1,66.4450015714989,10|0,0:2|3:2,0:0:0:0:
287,146,23135,2,0,P|260:165|241:192,1,66.4450015714989,2|0,1:2|1:2,0:2:0:0:
278,279,23460,1,10,0:2:0:0:
278,279,23622,1,10,0:2:0:0:
177,281,23784,6,0,P|111:286|50:311,2,132.890003142998,4|10|2,1:2|0:2|1:2,0:2:0:0:
227,363,24595,1,0,1:2:0:0:
227,363,24757,2,0,L|291:379,1,66.4450015714989,10|0,0:2|0:2,0:2:0:0:
354,304,25081,6,0,P|383:288|415:287,1,66.4450015714989,2|0,1:2|0:0,0:2:0:0:
494,329,25405,2,0,P|501:296|510:264,1,66.4450015714989,10|0,0:2|3:2,0:0:0:0:
503,239,25649,1,0,3:2:0:0:
503,239,25730,2,0,P|495:206|486:174,1,66.4450015714989,2|0,1:2|1:2,0:2:0:0:
472,88,26054,1,8,0:2:0:0:
472,88,26216,1,8,0:2:0:0:
377,119,26378,6,0,P|378:53|418:1,2,132.890003142998,4|10|2,1:2|0:2|1:2,0:2:0:0:
336,200,27189,1,0,1:2:0:0:
336,200,27351,2,0,P|303:196|272:184,1,66.4450015714989,10|0,0:2|0:2,0:2:0:0:
198,119,27676,6,0,L|133:135,1,66.4450015714989,2|0,1:2|0:0,0:2:0:0:
43,153,28000,2,0,L|61:89,1,66.4450015714989,10|0,0:2|3:2,0:0:0:0:
91,1,28324,2,0,L|137:48,1,66.4450015714989,2|0,1:2|1:2,0:2:0:0:
198,119,28649,1,10,0:2:0:0:
198,119,28811,1,10,0:2:0:0:
260,47,28973,6,0,P|323:28|388:14,2,132.890003142998,6|10|2,1:2|0:2|1:2,0:2:0:0:
290,136,29784,1,0,1:2:0:0:
290,136,29946,2,0,P|322:143|354:152,1,66.4450015714989,10|2,0:2|0:2,0:0:0:0:
427,99,30270,6,0,P|440:129|443:162,1,66.4450015714989,0|0,1:2|1:2,0:2:0:0:
416,238,30595,1,8,0:2:0:0:
506,277,30757,1,0,3:2:0:0:
506,277,30838,1,0,3:2:0:0:
506,277,30919,2,0,L|497:309,3,33.2225007857495,0|0|0|0,1:2|1:2|1:2|1:2,0:2:0:0:
494,335,31243,2,0,P|461:340|429:350,1,66.4450015714989,8|8,0:2|0:2,0:0:0:0:
411,365,31487,5,8,0:2:0:0:
411,365,31568,2,0,L|346:348,1,66.4450015714989,4|2,1:2|0:2,0:2:0:0:
289,282,31892,2,0,L|224:298,1,66.4450015714989,10|2,0:2|0:2,0:0:0:0:
132,323,32216,2,0,L|148:258,1,66.4450015714989,2|2,1:2|1:2,0:0:0:0:
49,263,32541,2,0,L|32:198,1,66.4450015714989,10|2,0:2|0:2,0:2:0:0:
0,113,32865,5,2,0:2:0:0:
0,113,33027,1,2,1:2:0:0:
42,37,33189,2,0,P|74:38|104:51,1,66.4450015714989,10|2,0:2|3:2,0:0:0:0:
134,74,33432,1,0,3:2:0:0:
134,74,33514,2,0,P|163:60|196:59,1,66.4450015714989,0|2,1:2|1:2,0:0:0:0:
288,72,33838,1,10,0:2:0:0:
288,72,34000,1,2,0:2:0:0:
259,161,34162,6,0,L|242:225,1,66.4450015714989,6|0,1:2|0:0,0:2:0:0:
307,295,34487,2,0,L|323:359,1,66.4450015714989,8|0,0:2|0:2,0:0:0:0:
405,300,34811,2,0,P|437:304|469:315,1,66.4450015714989,2|0,1:2|1:2,0:2:0:0:
496,218,35135,1,10,0:2:0:0:
404,195,35297,5,2,3:2:0:0:
404,195,35378,1,0,3:2:0:0:
404,195,35460,2,0,L|387:130,1,66.4450015714989,4|0,1:2|0:2,0:2:0:0:
473,104,35784,2,0,L|489:39,1,66.4450015714989,8|0,0:2|0:2,0:2:0:0:
396,41,36108,2,0,P|363:44|332:57,1,66.4450015714989,0|0,1:2|1:2,0:0:0:0:
281,126,36432,2,0,P|250:113|217:109,1,66.4450015714989,8|0,0:2|3:2,0:0:0:0:
190,115,36676,5,0,3:2:0:0:
190,115,36757,2,0,L|206:179,1,66.4450015714989,4|2,1:2|0:2,0:2:0:0:
124,244,37081,2,0,L|108:180,1,66.4450015714989,10|2,0:2|0:2,0:0:0:0:
16,184,37405,2,0,L|32:119,1,66.4450015714989,2|2,1:2|1:2,0:0:0:0:
56,29,37730,2,0,P|88:26|119:12,1,66.4450015714989,10|2,0:2|1:2,0:0:0:0:
206,50,38054,6,0,P|196:81|189:114,1,66.4450015714989,2|2,0:2|1:2,0:0:0:0:
216,195,38378,1,10,0:2:0:0:
282,136,38541,1,2,3:2:0:0:
282,136,38622,1,0,3:2:0:0:
282,136,38703,2,0,P|312:123|345:119,1,66.4450015714989,0|2,1:2|1:2,0:0:0:0:
410,177,39027,1,10,0:2:0:0:
410,177,39189,1,10,0:2:0:0:
507,160,39351,6,0,P|489:224|474:288,2,132.890003142998,4|8|0,1:2|0:2|1:2,0:2:0:0:
496,62,40162,1,0,1:2:0:0:
406,87,40324,2,0,P|374:83|342:72,1,66.4450015714989,10|2,0:2|3:2,0:0:0:0:
327,54,40568,1,0,3:2:0:0:
327,54,40649,2,0,P|294:58|262:69,1,66.4450015714989,4|0,1:2|1:2,0:0:0:0:
246,160,40973,2,0,P|214:148|181:144,1,66.4450015714989,8|0,0:2|3:2,0:0:0:0:
84,94,41297,5,8,0:2:0:0:
176,44,41460,1,8,0:2:0:0:
0,279,41946,6,0,P|36:277|69:294,1,74.6650007975083,6|0,1:2|0:2,0:2:0:0:
141,362,42270,2,0,P|177:363|210:346,1,74.6650007975083,10|0,0:2|0:2,0:2:0:0:
250,267,42595,1,2,1:2:0:0:
158,275,42757,2,0,L|176:202,1,74.6650007975083,2|8,1:2|0:2,0:0:0:0:
167,103,43081,6,0,B|213:91|250:120|233:125|261:150|306:138,1,149.330001595017,6|2,1:2|1:2,0:2:0:0:
369,65,43568,1,10,0:2:0:0:
439,141,43730,1,2,3:2:0:0:
439,141,43811,1,0,3:0:0:0:
439,141,43892,2,0,P|427:176|420:213,1,74.6650007975083,0|2,1:2|0:2,0:0:0:0:
407,298,44216,1,10,0:2:0:0:
492,276,44378,1,2,1:2:0:0:
458,366,44541,6,0,P|424:381|387:384,1,74.6650007975083,4|2,1:2|0:2,0:2:0:0:
316,322,44865,1,10,0:2:0:0:
241,384,45027,2,0,L|222:311,1,74.6650007975083,2|0,0:2|1:2,0:2:0:0:
292,224,45351,2,0,L|310:151,1,74.6650007975083,2|10,1:2|0:2,0:0:0:0:
348,39,45676,6,0,P|277:63|203:75,1,149.330001595017,6|0,1:2|1:2,0:2:0:0:
117,16,46162,1,10,0:2:0:0:
51,96,46324,1,2,3:2:0:0:
51,96,46405,1,0,3:2:0:0:
51,96,46487,2,0,P|87:99|123:114,1,74.6650007975083,0|0,1:2|1:2,0:2:0:0:
162,199,46811,1,8,0:2:0:0:
67,194,46973,5,0,3:2:0:0:
67,194,47054,1,0,3:2:0:0:
67,194,47135,2,0,L|85:266,1,74.6650007975083,6|0,1:2|0:2,0:2:0:0:
28,351,47460,2,0,L|100:369,1,74.6650007975083,10|0,0:2|0:2,0:2:0:0:
199,384,47784,1,2,1:2:0:0:
175,290,47946,2,0,L|247:271,1,74.6650007975083,2|8,1:2|0:2,0:0:0:0:
316,189,48270,6,0,B|365:221|365:221|343:309,1,149.330001595017,6|2,1:2|1:2,0:2:0:0:
418,384,48757,2,0,L|436:311,1,74.6650007975083,10|2,0:2|3:2,0:0:0:0:
464,289,49000,1,0,3:0:0:0:
464,289,49081,2,0,L|445:216,1,74.6650007975083,0|2,1:2|1:2,0:0:0:0:
503,140,49405,2,0,P|470:121|432:121,1,74.6650007975083,8|2,0:2|1:2,0:0:0:0:
331,117,49730,6,0,L|349:44,1,74.6650007975083,4|2,1:2|0:2,0:2:0:0:
241,82,50054,1,10,0:2:0:0:
191,0,50216,2,0,P|154:-2|121:15,1,74.6650007975083,2|0,0:2|1:2,0:2:0:0:
49,80,50541,1,2,1:2:0:0:
119,145,50703,1,10,0:2:0:0:
40,208,50865,6,0,P|60:279|76:352,1,149.330001595017,6|0,1:2|1:2,0:2:0:0:
150,285,51351,2,0,P|187:287|221:302,1,74.6650007975083,10|0,0:2|3:2,0:2:0:0:
242,325,51595,1,0,3:2:0:0:
242,325,51676,2,0,P|275:309|313:307,1,74.6650007975083,2|0,1:2|1:2,0:2:0:0:
389,363,52000,1,10,0:2:0:0:
431,278,52162,5,8,0:2:0:0:
431,278,52243,1,8,0:2:0:0:
431,278,52324,2,0,L|412:205,1,74.6650007975083,6|2,1:2|1:2,0:2:0:0:
321,186,52649,2,0,L|339:113,1,74.6650007975083,10|2,0:2|0:2,0:0:0:0:
302,24,52973,1,2,1:2:0:0:
241,100,53135,1,2,1:2:0:0:
197,14,53297,2,0,L|124:32,1,74.6650007975083,8|0,0:2|1:2,0:0:0:0:
67,109,53622,6,0,P|99:125|136:126,1,74.6650007975083,2|2,0:2|1:2,0:0:0:0:
241,100,53946,1,10,0:2:0:0:
212,200,54108,1,2,3:2:0:0:
212,200,54189,1,0,3:2:0:0:
212,200,54270,2,0,L|139:219,1,74.6650007975083,0|0,1:2|1:2,0:2:0:0:
46,207,54595,2,0,P|47:244|64:276,1,74.6650007975083,8|0,0:2|0:2,0:2:0:0:
98,378,54919,6,0,P|134:378|166:359,1,74.6650007975083,6|2,1:2|1:2,0:0:0:0:
241,294,55243,2,0,P|272:312|309:312,1,74.6650007975083,10|2,0:2|0:2,0:0:0:0:
396,252,55568,1,2,1:2:0:0:
294,222,55730,1,2,1:2:0:0:
372,159,55892,2,0,L|444:140,1,74.6650007975083,8|0,0:2|1:2,0:0:0:0:
488,242,56216,6,0,P|487:279|471:312,1,74.6650007975083,2|2,0:2|1:2,0:0:0:0:
381,376,56541,1,10,0:2:0:0:
310,312,56703,1,2,3:2:0:0:
310,312,56784,1,0,3:2:0:0:
310,312,56865,2,0,P|272:311|239:328,1,74.6650007975083,0|0,1:2|1:2,0:2:0:0:
158,384,57189,2,0,L|139:311,1,74.6650007975083,8|0,0:2|0:2,0:2:0:0:
117,201,57514,6,0,P|152:210|189:219,1,74.6650007975083,6|2,1:2|1:2,0:0:0:0:
212,127,57838,2,0,P|175:118|139:108,1,74.6650007975083,10|2,0:2|0:2,0:0:0:0:
210,33,58162,1,2,1:2:0:0:
293,85,58324,1,2,1:2:0:0:
352,15,58487,2,0,P|384:-2|421:0,1,74.6650007975083,8|0,0:2|1:2,0:0:0:0:
476,90,58811,6,0,L|457:162,1,74.6650007975083,2|2,0:2|1:2,0:0:0:0:
435,264,59135,1,10,0:2:0:0:
337,242,59297,1,2,3:2:0:0:
337,242,59378,1,0,3:2:0:0:
337,242,59460,2,0,L|355:314,1,74.6650007975083,0|0,1:2|1:2,0:2:0:0:
285,384,59784,2,0,P|249:373|212:365,1,74.6650007975083,8|0,0:2|0:2,0:2:0:0:
131,302,60108,6,0,B|76:315|76:315|54:344|54:344|0:358,2,149.330001595017,6|10|2,1:2|0:2|1:2,0:2:0:0:
111,205,60919,2,0,L|38:223,1,74.6650007975083,2|8,1:2|0:2,0:0:0:0:
92,114,61243,6,0,P|160:126|201:190,1,149.330001595017,6|0,1:2|1:2,0:2:0:0:
219,287,61730,1,12,0:2:0:0:
292,227,61892,1,8,0:2:0:0:
292,227,61973,1,8,0:2:0:0:
292,227,62054,2,0,P|329:227|362:243,1,74.6650007975083,10|2,0:2|3:2,0:0:0:0:
384,267,62297,1,0,3:2:0:0:
384,267,62378,2,0,L|456:248,1,74.6650007975083,0|0,3:2|0:2,0:2:0:0:
512,178,62703,6,0,P|482:160|447:159,1,69.8700004264526,6|0,1:2|0:2,0:2:0:0:
389,93,63027,2,0,P|359:110|324:111,1,69.8700004264526,8|0,0:2|0:2,0:2:0:0:
238,45,63351,2,0,L|221:112,1,69.8700004264526,2|0,1:2|0:2,0:0:0:0:
124,117,63676,2,0,L|140:184,1,69.8700004264526,8|0,0:2|0:2,0:2:0:0:
72,271,64000,6,0,P|140:276|186:326,1,139.740000852905,2|10,1:2|0:2,0:2:0:0:
263,384,64487,2,0,L|330:367,1,69.8700004264526,2|0,0:2|1:2,0:2:0:0:
351,282,64811,1,2,0:2:0:0:
351,282,64973,2,0,L|418:298,1,69.8700004264526,8|0,0:2|3:2,0:0:0:0:
444,201,65297,6,0,P|409:197|377:184,1,69.8700004264526,4|0,1:2|0:2,0:2:0:0:
311,114,65622,2,0,L|378:97,1,69.8700004264526,10|0,0:2|0:2,0:2:0:0:
357,13,65946,2,0,L|289:29,1,69.8700004264526,2|0,1:2|0:2,0:0:0:0:
223,89,66270,2,0,P|188:86|156:72,1,69.8700004264526,8|0,0:2|0:2,0:0:0:0:
56,57,66595,6,0,P|73:124|89:192,1,139.740000852905,2|10,1:2|0:2,0:2:0:0:
38,274,67081,2,0,P|72:276|104:290,1,69.8700004264526,2|0,0:2|1:2,0:2:0:0:
153,371,67405,1,2,0:2:0:0:
153,371,67568,2,0,P|184:357|219:354,1,69.8700004264526,8|0,0:2|3:2,0:0:0:0:
315,374,67892,6,0,L|298:306,1,69.8700004264526,6|0,1:2|0:2,0:2:0:0:
226,238,68216,2,0,L|242:170,1,69.8700004264526,8|0,0:2|0:2,0:2:0:0:
194,98,68541,2,0,P|225:82|259:80,1,69.8700004264526,2|0,1:2|0:2,0:0:0:0:
327,147,68865,2,0,P|358:162|392:164,1,69.8700004264526,8|0,0:2|0:2,0:2:0:0:
503,191,69189,6,0,P|445:232|431:296,1,139.740000852905,2|10,1:2|0:2,0:2:0:0:
402,384,69676,2,0,L|334:367,1,69.8700004264526,2|0,0:2|1:2,0:2:0:0:
275,304,70000,1,2,0:2:0:0:
275,304,70162,2,0,L|207:320,1,69.8700004264526,8|0,0:2|0:2,0:0:0:0:
116,344,70487,6,0,P|116:309|131:278,1,69.8700004264526,4|0,1:2|0:2,0:2:0:0:
203,218,70811,2,0,L|186:150,1,69.8700004264526,10|0,0:2|0:2,0:2:0:0:
274,124,71135,2,0,L|290:191,1,69.8700004264526,2|0,1:2|0:2,0:0:0:0:
363,252,71460,2,0,P|377:220|380:185,1,69.8700004264526,8|0,0:2|0:2,0:0:0:0:
361,87,71784,6,0,P|291:78|226:53,1,139.740000852905,2|10,1:2|0:2,0:2:0:0:
161,0,72270,1,2,0:2:0:0:
87,56,72432,2,0,L|95:89,3,34.9350002132263,0|8|8|8,1:2|0:2|0:2|0:2,0:0:0:0:
65,107,72757,2,0,L|56:140,3,34.9350002132263,0|0|0|0,3:2|3:2|3:2|3:2,0:0:0:0:
51,179,73081,6,0,P|88:178|122:195,1,76.7200009365234,6|0,1:2|1:2,0:2:0:0:
202,256,73405,2,0,P|239:256|273:239,1,76.7200009365234,8|0,0:2|1:2,0:0:0:0:
344,154,73730,2,0,L|418:172,1,76.7200009365234,10|0,0:2|1:2,0:0:0:0:
421,279,74054,1,8,0:0:0:0:
421,279,74216,1,0,1:2:0:0:
325,347,74378,6,0,B|277:334|239:362|257:372|227:395|183:384,1,153.440001873047,14|10,0:2|0:2,0:0:0:0:
118,316,74865,2,0,L|43:297,1,76.7200009365234,2|8,1:2|0:2,0:0:0:0:
0,212,75189,1,2,1:2:0:0:
92,170,75351,1,8,0:2:0:0:
16,103,75514,5,0,1:2:0:0:
16,103,75595,1,0,1:2:0:0:
16,103,75676,2,0,L|34:28,1,76.7200009365234,4|0,1:2|1:2,0:2:0:0:
139,18,76000,2,0,P|176:10|213:0,1,76.7200009365234,10|0,0:2|1:2,0:0:0:0:
246,107,76324,2,0,P|208:114|171:125,1,76.7200009365234,10|0,0:2|1:2,0:0:0:0:
100,209,76649,1,8,0:0:0:0:
100,209,76811,1,0,1:2:0:0:
7,250,76973,6,0,P|82:259|153:288,1,153.440001873047,14|10,0:2|0:2,0:0:0:0:
251,258,77460,2,0,P|285:275|323:276,1,76.7200009365234,2|8,1:2|0:2,0:0:0:0:
408,223,77784,1,2,1:2:0:0:
306,177,77946,1,8,0:2:0:0:
397,126,78108,5,0,3:2:0:0:
397,126,78189,1,0,3:2:0:0:
397,126,78270,2,0,P|435:127|469:144,1,76.7200009365234,6|0,1:2|1:2,0:2:0:0:
486,33,78595,2,0,P|447:31|413:14,1,76.7200009365234,8|0,0:2|1:2,0:0:0:0:
302,50,78919,2,0,L|227:68,1,76.7200009365234,10|0,0:2|1:2,0:0:0:0:
131,135,79243,1,8,0:0:0:0:
131,135,79405,1,0,1:2:0:0:
34,60,79568,6,0,B|-15:92|-15:92|7:187,1,153.440001873047,14|8,0:2|0:2,0:0:0:0:
85,244,80054,2,0,L|159:262,1,76.7200009365234,2|8,1:2|0:2,0:0:0:0:
252,242,80378,1,2,1:2:0:0:
213,335,80541,1,8,0:2:0:0:
309,326,80703,5,0,1:2:0:0:
309,326,80784,1,0,1:2:0:0:
309,326,80865,2,0,L|383:307,1,76.7200009365234,4|0,1:2|1:2,0:2:0:0:
350,203,81189,2,0,L|373:109,1,76.7200009365234,10|0,0:2|1:2,0:0:0:0:
422,40,81514,2,0,P|388:20|348:22,1,76.7200009365234,10|0,0:2|1:2,0:0:0:0:
272,80,81838,1,8,0:0:0:0:
272,80,82000,1,0,1:2:0:0:
160,38,82162,6,0,P|191:107|197:183,1,153.440001873047,12|10,0:2|0:2,0:0:0:0:
98,213,82649,2,0,P|82:248|79:286,1,76.7200009365234,2|8,1:2|0:2,0:0:0:0:
119,375,82973,1,2,1:2:0:0:
186,276,83135,1,8,0:2:0:0:
219,376,83297,5,0,1:2:0:0:
219,376,83378,1,0,1:2:0:0:
219,376,83460,2,0,P|255:364|293:357,1,76.7200009365234,6|0,1:2|1:2,0:2:0:0:
281,241,83784,2,0,P|317:252|355:259,1,76.7200009365234,8|0,0:2|1:2,0:0:0:0:
382,243,84027,1,0,1:2:0:0:
382,243,84108,2,0,P|418:232|456:225,1,76.7200009365234,2|0,1:2|1:2,0:2:0:0:
508,136,84432,1,8,0:2:0:0:
416,134,84595,2,0,P|378:127|341:115,1,76.7200009365234,2|0,3:2|1:2,0:0:0:0:
234,140,84919,5,8,0:2:0:0:
281,241,85081,1,8,0:2:0:0:
189,297,85243,1,4,1:2:0:0:
256,192,85405,12,0,93838,0:2:0:0:
