osu file format v14

[General]
AudioFilename: audio.mp3
AudioLeadIn: 0
PreviewTime: 41830
Countdown: 0
SampleSet: Soft
StackLeniency: 0.7
Mode: 0
LetterboxInBreaks: 0
WidescreenStoryboard: 0

[Editor]
DistanceSpacing: 1
BeatDivisor: 4
GridSize: 4
TimelineZoom: 1.5

[Metadata]
Title:Mischievous of Alice
TitleUnicode:Mischievous of Alice
Artist:Yousei Teikoku
ArtistUnicode:妖精帝國
Creator:Kuki1537
Version:Divine Guidance
Source:クイーンズゲイト スパイラルカオス
Tags:Hades:The other world Queen's Gate Spiral Chaos game version japanese rock jrock j-rock metal female vocalist saltylucario saltking salty MajK00 Venix
BeatmapID:3121104
BeatmapSetID:1525481

[Difficulty]
HPDrainRate:5
CircleSize:3.8
OverallDifficulty:9.2
ApproachRate:9.3
SliderMultiplier:1.8
SliderTickRate:1

[Events]
//Background and Video events
0,0,"i wish artists made stuff in 16 9 resolutions.jpg",0,0
//Break Periods
//Storyboard Layer 0 (Background)
//Storyboard Layer 1 (Fail)
//Storyboard Layer 2 (Pass)
//Storyboard Layer 3 (Foreground)
//Storyboard Layer 4 (Overlay)
//Storyboard Sound Samples

[TimingPoints]
433,324.324324324324,4,2,45,55,1,0
433,-142.857142857143,4,2,45,55,0,0
4162,-142.857142857143,4,2,45,70,0,0
5622,-142.857142857143,4,2,45,55,0,0
9351,-142.857142857143,4,2,45,70,0,0
10162,-100,4,2,45,70,0,0
10811,-100,4,2,45,80,0,0
21189,-117.647058823529,4,2,45,65,0,0
31568,-105.263157894737,4,2,45,75,0,0
40649,-105.263157894737,4,2,45,85,0,0
41946,-90.9090909090909,4,2,45,85,0,1
62703,-100,4,2,45,80,0,0
73081,-83.3333333333333,4,2,45,90,0,1
85243,-100,4,2,45,90,0,0
85324,-100,4,2,45,40,0,0
87351,-100,4,2,45,32,0,0
89946,-100,4,2,45,24,0,0
92541,-100,4,2,45,16,0,0
93838,-100,4,2,45,5,0,0

[Colours]
Combo1 : 233,216,163
Combo2 : 212,212,212
Combo3 : 183,140,234
Combo4 : 255,170,155

[HitObjects]
46,55,433,5,4,1:2:0:0:
107,265,595,1,0,1:2:0:0:
158,134,757,2,0,P|125:128|90:137,1,62.9999980773926,2|2,0:2|0:2,0:2:0:0:
189,221,1081,1,2,0:2:0:0:
189,221,1243,2,0,B|235:215|235:215|266:234|266:234|314:228,1,125.999996154785,2|2,0:2|0:2,0:2:0:0:
429,99,1730,5,4,1:2:0:0:
387,296,1892,1,0,1:2:0:0:
483,179,2054,2,0,L|493:241,1,62.9999980773926,2|2,0:2|0:2,0:2:0:0:
446,360,2378,1,2,0:2:0:0:
446,360,2541,2,0,P|410:343|322:365,1,125.999996154785,2|2,0:2|0:2,0:2:0:0:
202,323,3027,5,4,1:2:0:0:
406,257,3189,1,0,1:2:0:0:
276,176,3351,2,0,P|269:211|281:253,1,62.9999980773926,2|2,0:2|0:2,0:2:0:0:
346,116,3676,1,2,0:2:0:0:
346,116,3838,2,0,P|319:92|276:81,1,62.9999980773926,2|0,0:2|0:2,0:2:0:0:
135,250,4162,5,8,0:2:0:0:
233,0,4324,1,0,1:2:0:0:
306,294,4487,5,8,0:2:0:0:
206,77,4649,1,0,1:2:0:0:
154,351,4811,5,8,0:2:0:0:
243,155,4973,1,0,1:2:0:0:
289,384,5135,5,8,0:2:0:0:
227,243,5297,1,0,3:2:0:0:
227,243,5378,1,0,3:2:0:0:
227,243,5460,1,0,1:2:0:0:
390,318,5622,5,4,1:2:0:0:
154,351,5784,1,0,1:2:0:0:
316,231,5946,2,0,L|305:298,1,62.9999980773926,2|2,0:2|0:2,0:2:0:0:
269,146,6270,1,2,0:2:0:0:
269,146,6432,2,0,P|322:135|398:177,1,125.999996154785,2|2,0:2|0:2,0:2:0:0:
481,286,6919,5,4,1:2:0:0:
434,77,7081,1,0,1:2:0:0:
316,231,7243,2,0,P|283:237|253:231,1,62.9999980773926,2|2,0:2|0:2,0:2:0:0:
139,121,7568,1,2,0:2:0:0:
139,121,7730,2,0,B|180:152|180:152|163:242,1,125.999996154785,2|2,0:2|0:2,0:2:0:0:
108,384,8216,5,4,1:2:0:0:
66,188,8378,1,0,1:2:0:0:
170,317,8541,2,0,P|202:323|237:315,1,62.9999980773926,2|2,0:2|0:2,0:2:0:0:
322,194,8865,1,2,0:2:0:0:
322,194,9027,2,0,P|291:188|260:194,1,62.9999980773926,2|0,0:2|0:2,0:2:0:0:
332,362,9351,5,8,0:2:0:0:
384,106,9514,1,0,1:2:0:0:
231,317,9676,5,8,0:2:0:0:
186,71,9838,1,0,1:2:0:0:
352,279,10000,5,8,0:2:0:0:
396,16,10162,1,0,1:2:0:0:
263,228,10324,5,8,0:2:0:0:
263,228,10405,1,8,0:2:0:0:
263,228,10487,2,0,P|238:222|216:220,1,45,8|0,0:2|3:2,0:2:0:0:
281,42,10649,2,0,P|303:39|325:34,1,45,0|0,3:2|3:2,0:2:0:0:
125,200,10811,6,0,B|112:108,1,90,6|0,1:2|0:2,0:2:0:0:
354,28,11135,2,0,B|341:120,1,90,8|0,0:2|0:2,0:2:0:0:
294,353,11460,1,2,1:2:0:0:
207,146,11622,1,0,0:2:0:0:
105,344,11784,2,0,P|62:354|17:344,1,90,8|0,0:2|0:2,0:2:0:0:
266,67,12108,6,0,B|312:108|312:108|292:224,1,180,2|10,1:2|0:2,0:2:0:0:
204,345,12595,2,0,L|188:253,1,90,2|0,0:2|1:2,0:2:0:0:
399,136,12919,2,0,L|383:228,1,90,2|8,0:2|0:2,0:2:0:0:
207,146,13243,5,2,0:2:0:0:
207,146,13324,1,2,0:2:0:0:
207,146,13405,2,0,P|255:136|305:152,1,90,6|0,1:2|0:2,0:2:0:0:
192,332,13730,1,8,0:2:0:0:
107,102,13892,1,0,0:2:0:0:
288,237,14054,2,0,L|303:328,1,90,2|0,1:2|0:2,0:2:0:0:
59,190,14378,1,8,0:2:0:0:
281,49,14541,1,0,0:2:0:0:
162,262,14703,6,0,L|147:171,1,90,2|0,1:2|0:2,0:2:0:0:
204,0,15027,1,10,0:2:0:0:
342,186,15189,2,0,L|357:95,1,90,2|0,0:2|1:2,0:2:0:0:
119,80,15514,1,2,0:2:0:0:
273,261,15676,5,10,0:2:0:0:
311,284,15757,1,2,0:2:0:0:
356,288,15838,1,2,0:2:0:0:
398,272,15919,1,2,0:2:0:0:
429,239,16000,6,0,L|444:148,1,90,6|0,1:2|0:2,0:2:0:0:
231,79,16324,2,0,L|246:170,1,90,8|0,0:2|0:2,0:2:0:0:
419,375,16649,1,2,1:2:0:0:
343,147,16811,1,0,0:2:0:0:
246,365,16973,2,0,P|201:375|155:364,1,90,8|0,0:2|0:2,0:2:0:0:
76,203,17297,6,0,P|127:192|198:302,1,180,2|10,1:2|0:2,0:2:0:0:
21,367,17784,2,0,L|5:271,1,90,2|0,0:2|1:2,0:2:0:0:
199,87,18108,2,0,L|183:183,1,90,2|8,0:2|0:2,0:2:0:0:
333,364,18432,5,2,0:2:0:0:
333,364,18514,1,2,0:2:0:0:
333,364,18595,2,0,P|290:374|240:362,1,90,6|0,1:2|0:2,0:2:0:0:
352,182,18919,2,0,P|382:214|396:263,1,90,8|0,0:2|0:2,0:2:0:0:
184,175,19243,1,2,1:2:0:0:
416,90,19405,1,0,0:2:0:0:
290,273,19568,1,8,0:2:0:0:
224,42,19730,1,0,0:2:0:0:
396,257,19892,6,0,L|490:242,1,90,2|0,1:2|0:2,0:2:0:0:
456,4,20216,1,10,0:2:0:0:
352,182,20378,2,0,L|258:167,1,90,2|0,0:2|1:2,0:2:0:0:
225,162,20622,1,8,0:2:0:0:
225,162,20703,1,2,1:2:0:0:
416,90,20865,1,8,0:2:0:0:
290,273,21027,5,2,0:2:0:0:
290,273,21108,1,2,0:2:0:0:
290,273,21189,2,0,P|253:280|212:271,1,76.5000014591217,6|0,1:2|0:2,0:2:0:0:
121,128,21514,2,0,L|134:204,1,76.5000014591217,10|0,0:2|0:2,0:2:0:0:
43,352,21838,1,2,1:2:0:0:
0,211,22000,1,0,1:2:0:0:
120,292,22162,2,0,P|157:299|198:290,1,76.5000014591217,10|0,0:2|0:2,0:2:0:0:
271,69,22487,6,0,B|224:106|224:106|241:209,1,153.000002918243,2|10,1:2|0:2,0:2:0:0:
352,334,22973,1,0,3:2:0:0:
352,334,23054,1,0,3:2:0:0:
352,334,23135,2,0,L|365:255,1,76.5000014591217,2|0,1:2|1:2,0:2:0:0:
422,58,23460,5,10,0:2:0:0:
451,82,23541,1,10,0:2:0:0:
466,117,23622,1,10,0:2:0:0:
464,155,23703,1,10,0:2:0:0:
442,186,23784,6,0,L|357:172,1,76.5000014591217,4|0,1:2|0:2,0:2:0:0:
221,90,24108,1,10,0:2:0:0:
262,258,24270,1,0,3:2:0:0:
262,258,24351,1,0,3:2:0:0:
262,258,24432,2,0,P|270:217|259:179,1,76.5000014591217,2|0,1:2|1:2,0:2:0:0:
93,219,24757,2,0,P|134:227|172:216,1,76.5000014591217,10|0,0:2|0:2,0:2:0:0:
302,40,25081,6,0,P|240:-1|166:10,1,153.000002918243,2|10,1:2|0:2,0:2:0:0:
55,134,25568,1,0,3:2:0:0:
55,134,25649,1,0,3:2:0:0:
55,134,25730,2,0,P|96:126|134:137,1,76.5000014591217,2|0,1:2|1:2,0:2:0:0:
259,311,26054,1,8,0:2:0:0:
221,90,26216,1,8,0:2:0:0:
81,353,26378,6,0,P|34:360|2:352,1,76.5000014591217,4|0,1:2|0:2,0:2:0:0:
129,228,26703,2,0,P|166:221|203:228,1,76.5000014591217,10|0,0:2|0:2,0:2:0:0:
325,378,27027,1,2,1:2:0:0:
166,314,27189,1,0,1:2:0:0:
317,205,27351,2,0,L|303:282,1,76.5000014591217,10|0,0:2|0:2,0:2:0:0:
248,130,27676,6,0,P|324:104|409:152,1,153.000002918243,2|10,1:2|0:2,0:2:0:0:
486,300,28162,1,0,3:2:0:0:
486,300,28243,1,0,3:2:0:0:
486,300,28324,2,0,L|405:287,1,76.5000014591217,2|0,1:2|1:2,0:2:0:0:
248,130,28649,6,0,L|258:180,1,38.2500007295609,10|2,0:2|0:2,0:2:0:0:
212,382,28811,2,0,L|204:344,1,38.2500007295609,10|2,0:2|0:2,0:2:0:0:
83,164,28973,6,0,P|122:156|172:173,1,76.5000014591217,6|0,1:2|0:2,0:2:0:0:
274,262,29297,1,10,0:2:0:0:
107,324,29460,1,0,3:2:0:0:
107,324,29541,1,0,3:2:0:0:
107,324,29622,2,0,L|122:237,1,76.5000014591217,2|0,1:2|1:2,0:2:0:0:
61,75,29946,1,10,0:2:0:0:
4,222,30108,1,2,0:2:0:0:
157,164,30270,6,0,P|196:156|246:173,1,76.5000014591217,0|0,1:2|1:2,0:2:0:0:
387,264,30595,1,8,0:2:0:0:
304,40,30757,1,0,3:2:0:0:
304,40,30838,1,0,3:2:0:0:
304,40,30919,2,0,L|295:90,1,38.2500007295609,0|0,1:2|0:2,0:2:0:0:
405,244,31081,2,0,L|398:206,1,38.2500007295609,0|0,1:2|0:2,0:2:0:0:
464,36,31243,1,8,0:2:0:0:
306,174,31405,5,8,0:2:0:0:
306,174,31487,1,8,0:2:0:0:
306,174,31568,2,0,L|209:160,1,85.4999977169037,4|2,1:2|0:2,0:2:0:0:
69,79,31892,1,10,0:2:0:0:
147,252,32054,1,2,0:2:0:0:
187,51,32216,1,2,1:2:0:0:
49,195,32378,1,2,1:2:0:0:
239,143,32541,1,10,0:2:0:0:
53,60,32703,1,2,1:2:0:0:
106,325,32865,5,2,0:2:0:0:
144,133,33027,1,2,1:2:0:0:
100,352,33189,1,10,0:2:0:0:
18,161,33351,1,2,3:2:0:0:
18,161,33432,1,0,3:2:0:0:
18,161,33514,1,0,1:2:0:0:
235,273,33676,1,2,1:2:0:0:
0,331,33838,1,10,0:2:0:0:
144,133,34000,1,2,0:2:0:0:
196,364,34162,6,0,B|257:357|257:357|297:384|297:384|376:375,1,170.999995433807,6|8,1:2|0:2,0:2:0:0:
512,292,34649,1,0,0:2:0:0:
313,202,34811,2,0,L|329:290,1,85.4999977169037,2|0,1:2|1:2,0:2:0:0:
496,207,35135,1,10,0:2:0:0:
352,110,35297,5,2,3:2:0:0:
352,110,35378,1,0,3:2:0:0:
352,110,35460,2,0,P|307:102|263:114,1,85.4999977169037,4|0,1:2|0:2,0:2:0:0:
133,269,35784,2,0,P|174:278|216:270,1,85.4999977169037,8|0,0:2|0:2,0:2:0:0:
312,14,36108,1,0,1:2:0:0:
178,180,36270,1,0,1:2:0:0:
395,201,36432,1,8,0:2:0:0:
196,57,36595,5,0,3:2:0:0:
196,57,36676,1,0,3:2:0:0:
196,57,36757,2,0,L|105:74,1,85.4999977169037,4|2,1:2|0:2,0:2:0:0:
235,289,37081,1,10,0:2:0:0:
283,104,37243,1,2,0:2:0:0:
133,269,37405,1,2,1:2:0:0:
340,310,37568,1,2,1:2:0:0:
196,192,37730,1,10,0:2:0:0:
277,384,37892,1,2,1:2:0:0:
283,104,38054,5,2,0:2:0:0:
227,312,38216,1,2,1:2:0:0:
289,80,38378,1,10,0:2:0:0:
362,292,38541,1,2,3:2:0:0:
362,292,38622,1,0,3:2:0:0:
362,292,38703,1,0,1:2:0:0:
175,118,38865,1,2,1:2:0:0:
396,44,39027,1,10,0:2:0:0:
277,239,39189,1,10,0:2:0:0:
207,20,39351,6,0,B|114:-11|130:66|38:37,1,170.999995433807,4|8,1:2|0:2,0:2:0:0:
85,222,39838,1,0,3:2:0:0:
85,222,39919,1,0,3:2:0:0:
85,222,40000,2,0,P|127:213|176:225,1,85.4999977169037,0|0,1:2|1:2,0:2:0:0:
347,338,40324,1,10,0:2:0:0:
271,120,40487,5,2,3:2:0:0:
271,120,40568,1,0,3:2:0:0:
271,120,40649,1,4,1:2:0:0:
124,305,40811,1,0,1:2:0:0:
387,180,40973,1,8,0:2:0:0:
140,52,41135,5,0,3:2:0:0:
140,52,41216,1,0,3:2:0:0:
140,52,41297,1,8,0:2:0:0:
238,384,41460,1,8,0:2:0:0:
447,88,41946,6,0,L|345:72,1,99.0000030212403,6|0,1:2|0:2,0:2:0:0:
124,305,42270,2,0,L|221:289,1,99.0000030212403,10|0,0:2|0:2,0:2:0:0:
250,7,42595,1,2,1:2:0:0:
102,217,42757,1,2,1:2:0:0:
359,177,42919,1,8,0:2:0:0:
97,38,43081,6,0,B|50:-7|50:-7|73:132,1,198.000006042481,6|2,1:2|1:2,0:2:0:0:
55,315,43568,1,10,0:2:0:0:
235,105,43730,2,0,L|219:206,1,99.0000030212403,2|0,3:2|1:2,0:2:0:0:
251,378,44054,1,2,0:2:0:0:
321,195,44216,1,10,0:2:0:0:
144,257,44378,1,2,1:2:0:0:
343,352,44541,6,0,P|394:363|443:350,1,99.0000030212403,4|2,1:2|0:2,0:2:0:0:
430,100,44865,1,10,0:2:0:0:
265,280,45027,2,0,P|214:291|165:278,1,99.0000030212403,2|0,0:2|1:2,0:2:0:0:
303,37,45351,1,2,1:2:0:0:
391,260,45514,1,10,0:2:0:0:
196,60,45676,6,0,B|121:51|121:51|79:81|79:81|5:72,1,198.000006042481,6|0,1:2|1:2,0:2:0:0:
29,315,46162,1,10,0:2:0:0:
178,175,46324,1,2,3:2:0:0:
178,175,46405,1,0,3:2:0:0:
178,175,46487,2,0,P|225:164|273:175,1,99.0000030212403,0|0,1:2|1:2,0:2:0:0:
440,341,46811,1,8,0:2:0:0:
396,70,46973,5,0,3:2:0:0:
396,70,47054,1,0,3:2:0:0:
396,70,47135,2,0,L|378:174,1,99.0000030212403,6|0,1:2|0:2,0:2:0:0:
244,360,47460,2,0,L|226:256,1,99.0000030212403,10|0,0:2|0:2,0:2:0:0:
279,22,47784,1,2,1:2:0:0:
391,260,47946,1,2,1:2:0:0:
475,12,48108,1,8,0:2:0:0:
247,243,48270,6,0,B|142:213|162:301|55:271,1,198.000006042481,6|2,1:2|1:2,0:2:0:0:
151,0,48757,1,10,0:2:0:0:
338,197,48919,2,0,P|350:244|332:303,1,99.0000030212403,2|0,3:2|1:2,0:2:0:0:
93,181,49243,1,2,1:2:0:0:
347,106,49405,1,8,0:2:0:0:
213,328,49568,1,2,1:2:0:0:
158,31,49730,6,0,L|175:130,1,99.0000030212403,4|2,1:2|0:2,0:2:0:0:
104,342,50054,1,10,0:2:0:0:
264,145,50216,2,0,L|247:242,1,99.0000030212403,2|0,0:2|1:2,0:2:0:0:
0,359,50541,1,2,1:2:0:0:
79,154,50703,1,10,0:2:0:0:
210,364,50865,6,0,B|285:355|285:355|327:385|327:385|401:376,1,198.000006042481,6|0,1:2|1:2,0:2:0:0:
510,124,51351,2,0,P|462:112|414:123,1,99.0000030212403,10|0,0:2|3:2,0:2:0:0:
341,183,51595,1,0,3:2:0:0:
341,183,51676,2,0,L|357:283,1,99.0000030212403,2|0,1:2|1:2,0:2:0:0:
468,13,52000,1,10,0:2:0:0:
247,113,52162,5,8,0:2:0:0:
247,113,52243,1,8,0:2:0:0:
247,113,52324,2,0,L|231:210,1,99.0000030212403,6|2,1:2|1:2,0:2:0:0:
146,363,52649,1,10,0:2:0:0:
85,120,52811,1,2,0:2:0:0:
266,304,52973,1,2,1:2:0:0:
0,369,53135,2,0,L|16:271,1,99.0000030212403,2|8,1:2|0:2,0:2:0:0:
170,52,53460,1,0,1:2:0:0:
127,275,53622,5,2,0:2:0:0:
65,18,53784,1,2,1:2:0:0:
268,203,53946,1,10,0:2:0:0:
0,173,54108,1,2,3:2:0:0:
0,173,54189,1,0,3:2:0:0:
0,173,54270,2,0,P|49:162|102:176,1,99.0000030212403,0|0,1:2|1:2,0:2:0:0:
316,294,54595,2,0,P|268:304|220:293,1,99.0000030212403,8|0,0:2|0:2,0:2:0:0:
273,20,54919,5,6,1:2:0:0:
391,239,55081,1,2,1:2:0:0:
441,0,55243,1,10,0:2:0:0:
268,203,55405,1,2,0:2:0:0:
503,117,55568,1,2,1:2:0:0:
256,3,55730,2,0,P|208:-7|160:3,1,99.0000030212403,2|8,1:2|0:2,0:2:0:0:
220,293,56054,1,0,1:2:0:0:
357,60,56216,5,2,0:2:0:0:
95,172,56378,1,2,1:2:0:0:
374,259,56541,1,10,0:2:0:0:
212,90,56703,1,2,3:2:0:0:
212,90,56784,1,0,3:2:0:0:
212,90,56865,2,0,L|228:192,1,99.0000030212403,0|0,1:2|1:2,0:2:0:0:
464,330,57189,2,0,L|480:228,1,99.0000030212403,8|0,0:2|0:2,0:2:0:0:
311,30,57514,5,6,1:2:0:0:
241,289,57676,1,2,1:2:0:0:
408,91,57838,1,10,0:2:0:0:
464,330,58000,1,2,0:2:0:0:
315,124,58162,1,2,1:2:0:0:
230,381,58324,2,0,L|132:367,1,99.0000030212403,2|8,1:2|0:2,0:2:0:0:
215,112,58649,1,0,1:2:0:0:
329,348,58811,5,2,0:2:0:0:
128,174,58973,1,2,1:2:0:0:
408,91,59135,1,10,0:2:0:0:
176,265,59297,1,2,3:2:0:0:
176,265,59378,1,0,3:2:0:0:
176,265,59460,2,0,P|127:275|79:265,1,99.0000030212403,0|0,1:2|1:2,0:2:0:0:
198,14,59784,2,0,L|215:113,1,99.0000030212403,8|0,0:2|0:2,0:2:0:0:
329,348,60108,6,0,L|428:363,1,99.0000030212403,6|0,1:2|1:2,0:2:0:0:
512,108,60432,2,0,L|414:122,1,99.0000030212403,10|0,0:2|0:2,0:2:0:0:
128,174,60757,1,2,1:2:0:0:
392,263,60919,1,2,1:2:0:0:
303,24,61081,1,8,0:2:0:0:
187,277,61243,6,0,B|112:268|112:268|70:298|70:298|-4:289,1,198.000006042481,6|0,1:2|1:2,0:2:0:0:
96,27,61730,1,12,0:2:0:0:
245,201,61892,5,8,0:2:0:0:
287,227,61973,1,8,0:2:0:0:
336,231,62054,1,10,0:2:0:0:
381,212,62135,1,0,3:2:0:0:
413,176,62216,2,0,L|421:126,1,49.5000015106202,2|0,3:2|3:2,0:2:0:0:
304,24,62378,2,0,L|319:124,1,99.0000030212403,0|0,3:2|0:2,0:2:0:0:
434,339,62703,6,0,L|345:326,1,90,6|0,1:2|0:2,0:2:0:0:
103,139,63027,1,8,0:2:0:0:
336,231,63189,1,0,0:2:0:0:
121,362,63351,2,0,L|142:248,1,90,2|0,1:2|0:0,0:0:0:0:
303,140,63676,1,8,0:2:0:0:
256,370,63838,1,0,0:2:0:0:
56,231,64000,6,0,B|149:200|135:282|232:252,1,180,2|10,1:2|0:2,0:2:0:0:
205,24,64487,2,0,L|190:117,1,90,2|0,0:2|1:2,0:2:0:0:
338,285,64811,2,0,L|323:192,1,90,2|8,0:2|0:2,0:2:0:0:
512,47,65135,5,0,3:2:0:0:
512,47,65216,1,0,3:2:0:0:
512,47,65297,2,0,P|466:38|415:52,1,90,4|0,1:2|0:2,0:2:0:0:
424,228,65622,2,0,P|454:192|468:141,1,90,10|0,0:2|0:2,0:2:0:0:
297,5,65946,1,2,1:2:0:0:
218,251,66108,1,0,0:2:0:0:
344,85,66270,1,8,0:2:0:0:
411,316,66432,1,0,0:2:0:0:
262,163,66595,6,0,P|216:154|165:168,1,90,2|0,1:2|0:2,0:2:0:0:
238,384,66919,1,10,0:2:0:0:
369,224,67081,2,0,P|415:215|466:229,1,90,2|0,0:2|1:2,0:2:0:0:
218,251,67405,1,2,0:2:0:0:
344,85,67568,5,8,0:2:0:0:
382,62,67649,1,0,3:2:0:0:
427,58,67730,1,0,3:2:0:0:
469,74,67811,1,0,3:2:0:0:
500,107,67892,6,0,L|486:199,1,90,6|0,1:2|0:2,0:2:0:0:
331,384,68216,2,0,L|317:295,1,90,8|0,0:2|0:2,0:2:0:0:
291,12,68541,1,2,1:2:0:0:
398,231,68703,1,0,0:2:0:0:
210,88,68865,2,0,P|164:79|113:93,1,90,8|0,0:2|0:2,0:2:0:0:
145,339,69189,6,0,B|192:303|192:303|168:183,1,180,2|10,1:2|0:2,0:2:0:0:
42,20,69676,2,0,L|24:116,1,90,2|0,0:2|1:2,0:2:0:0:
278,258,70000,2,0,L|260:162,1,90,2|8,0:2|0:2,0:2:0:0:
7,224,70324,1,0,0:2:0:0:
234,348,70487,6,0,P|284:357|332:342,1,90,4|0,1:2|0:2,0:2:0:0:
427,114,70811,2,0,P|383:104|339:113,1,90,10|0,0:2|0:2,0:2:0:0:
178,271,71135,1,2,1:2:0:0:
277,39,71297,1,0,0:2:0:0:
374,277,71460,1,8,0:2:0:0:
143,147,71622,1,0,0:2:0:0:
410,25,71784,6,0,L|427:116,1,90,2|0,1:2|0:2,0:2:0:0:
297,327,72108,1,10,0:2:0:0:
489,241,72270,1,2,0:2:0:0:
280,147,72432,5,0,1:2:0:0:
236,122,72514,1,8,0:2:0:0:
185,121,72595,1,8,0:2:0:0:
143,147,72676,1,8,0:2:0:0:
118,189,72757,5,0,3:2:0:0:
96,196,72838,1,0,3:2:0:0:
73,196,72919,1,0,3:2:0:0:
51,189,73000,1,0,3:2:0:0:
37,176,73081,2,0,L|57:69,1,107.999996704102,6|0,1:2|1:2,0:2:0:0:
217,285,73405,5,8,0:2:0:0:
150,0,73568,1,0,1:2:0:0:
122,337,73730,5,10,0:2:0:0:
227,55,73892,1,0,1:2:0:0:
234,384,74054,5,8,0:2:0:0:
140,94,74216,1,0,1:2:0:0:
327,303,74378,5,14,0:2:0:0:
30,358,74541,1,0,1:2:0:0:
417,372,74703,5,10,0:2:0:0:
120,308,74865,1,2,1:2:0:0:
435,268,75027,5,8,0:2:0:0:
213,384,75189,1,2,1:2:0:0:
512,335,75351,5,8,0:2:0:0:
230,178,75514,1,0,1:2:0:0:
230,178,75595,1,0,1:2:0:0:
230,178,75676,2,0,L|217:290,1,107.999996704102,4|0,1:2|1:2,0:2:0:0:
397,91,76000,5,10,0:2:0:0:
115,194,76162,1,0,1:2:0:0:
444,191,76324,5,10,0:2:0:0:
157,89,76487,1,0,1:2:0:0:
512,107,76649,5,8,0:2:0:0:
230,178,76811,1,0,1:2:0:0:
429,0,76973,5,14,0:2:0:0:
504,277,77135,1,0,1:2:0:0:
317,44,77297,5,10,0:2:0:0:
258,329,77460,1,2,1:2:0:0:
419,102,77622,5,8,0:2:0:0:
494,376,77784,1,2,1:2:0:0:
327,166,77946,5,8,0:2:0:0:
282,134,78027,1,0,3:2:0:0:
228,131,78108,1,0,3:2:0:0:
181,158,78189,1,0,3:2:0:0:
155,205,78270,2,0,P|104:231|47:226,1,107.999996704102,6|0,1:2|1:2,0:2:0:0:
166,60,78595,5,8,0:2:0:0:
258,329,78757,1,0,1:2:0:0:
87,133,78919,5,10,0:2:0:0:
179,384,79081,1,0,1:2:0:0:
258,106,79243,5,8,0:2:0:0:
93,334,79405,1,0,1:2:0:0:
65,30,79568,5,14,0:2:0:0:
358,129,79730,1,0,1:2:0:0:
54,228,79892,5,10,0:2:0:0:
380,120,80054,1,2,1:2:0:0:
87,133,80216,5,8,0:2:0:0:
414,218,80378,1,2,1:2:0:0:
54,228,80541,5,8,0:2:0:0:
388,128,80703,1,0,1:2:0:0:
388,128,80784,1,0,1:2:0:0:
388,128,80865,2,0,L|373:18,1,107.999996704102,4|0,1:2|1:2,0:2:0:0:
221,259,81189,5,10,0:2:0:0:
496,154,81351,1,0,1:2:0:0:
184,167,81514,5,10,0:2:0:0:
477,268,81676,1,0,1:2:0:0:
123,239,81838,5,8,0:2:0:0:
415,197,82000,1,0,1:2:0:0:
154,82,82162,5,12,0:2:0:0:
255,361,82324,1,0,1:2:0:0:
256,56,82487,5,10,0:2:0:0:
160,330,82649,1,2,1:2:0:0:
185,0,82811,5,8,0:2:0:0:
329,298,82973,1,2,1:2:0:0:
326,0,83135,5,8,0:2:0:0:
242,284,83297,1,0,1:2:0:0:
242,284,83378,1,0,1:2:0:0:
242,284,83460,2,0,P|188:303|136:293,1,107.999996704102,6|0,1:2|1:2,0:2:0:0:
145,78,83784,1,8,0:2:0:0:
312,201,83946,5,0,1:2:0:0:
312,201,84027,1,0,1:2:0:0:
312,201,84109,2,0,P|366:220|418:210,1,107.999996704102,2|0,1:2|1:2,0:2:0:0:
317,11,84432,1,8,0:2:0:0:
192,216,84595,5,2,3:2:0:0:
192,216,84676,1,0,3:2:0:0:
192,216,84757,1,0,1:2:0:0:
374,108,84919,1,8,0:2:0:0:
67,30,85081,1,8,0:2:0:0:
256,299,85243,1,4,1:2:0:0:
256,192,85324,12,0,93838,0:2:0:0:
