osu file format v14

[General]
AudioFilename: audio.mp3
AudioLeadIn: 0
PreviewTime: 52220
Countdown: 1
SampleSet: Normal
StackLeniency: 0.7
Mode: 0
LetterboxInBreaks: 0
WidescreenStoryboard: 1

[Editor]
DistanceSpacing: 1
BeatDivisor: 2
GridSize: 4
TimelineZoom: 1.5

[Metadata]
Title:Mischievous of Alice
TitleUnicode:Mischievous of Alice
Artist:Yousei Teikoku
ArtistUnicode:妖精帝國
Creator:Delis
Version:Normal
Source:クイーンズゲイト スパイラルカオス
Tags:Hades:The other world Queen's Gate Spiral Chaos Nardoxyribonucleic
BeatmapID:1316162
BeatmapSetID:623960

[Difficulty]
HPDrainRate:5
CircleSize:4
OverallDifficulty:4
ApproachRate:5
SliderMultiplier:1
SliderTickRate:1

[Events]
//Background and Video events
0,0,"png.jpg",0,0
//Break Periods
2,65555,71939
2,125231,129020
//Storyboard Layer 0 (Background)
//Storyboard Layer 1 (Fail)
//Storyboard Layer 2 (Pass)
//Storyboard Layer 3 (Foreground)
//Storyboard Sound Samples

[TimingPoints]
491,324.324324324324,4,1,1,50,1,0
10869,-100,4,1,1,60,0,0
42004,-100,4,1,1,70,0,0
62761,-100,4,1,1,60,0,0
73139,-100,4,2,1,60,0,0
77355,-100,4,1,1,60,0,0
93896,-100,4,1,1,70,0,0
114653,-100,4,1,1,60,0,0
145788,-100,4,1,1,70,0,0
166301,-100,4,1,1,40,0,0
167518,-100,4,1,1,70,0,0
167842,-100,4,1,1,60,0,0
190545,-100,4,1,1,50,0,0
195085,-100,4,1,1,30,0,0
196382,-100,4,1,1,20,0,0
198004,-100,4,1,1,5,0,0

[Colours]
Combo1 : 163,103,67
Combo2 : 55,147,133
Combo3 : 123,95,177
Combo4 : 118,151,115
Combo5 : 167,88,106

[HitObjects]
116,100,491,6,0,L|120:164,1,50,4|4,0:2|0:2,0:0:0:0:
432,308,1788,2,0,L|424:236,1,50,4|4,0:2|0:2,0:0:0:0:
84,332,3085,6,0,L|160:328,1,50,4|4,0:2|0:2,0:0:0:0:
328,100,4220,2,0,P|268:100|208:108,2,100,8|8|8,0:0|0:0|0:0,0:0:0:0:
424,124,5193,2,0,P|428:184|392:236,1,100,8|0,0:0|0:0,0:0:0:0:
388,240,5680,6,0,P|356:252|332:268,1,50,4|4,0:2|0:2,0:0:0:0:
36,92,6977,2,0,P|68:80|92:64,1,50,4|4,0:2|0:2,0:0:0:0:
300,348,8274,6,0,P|296:308|284:276,1,50,4|4,0:2|0:2,0:0:0:0:
488,72,9409,2,0,L|500:188,2,100,8|8|8,0:0|0:0|0:0,0:0:0:0:
388,68,10382,2,0,P|336:80|276:60,1,100,8|0,0:0|0:0,0:0:0:0:
264,60,10869,6,0,P|208:48|148:52,1,100,6|8,0:0|0:0,0:0:0:0:
192,144,11518,2,0,P|132:160|88:188,1,100,2|8,0:0|0:0,0:0:0:0:
176,244,12166,2,0,P|152:308|144:356,1,100,2|8,0:0|0:0,0:0:0:0:
124,360,12653,1,0,0:0:0:0:
32,316,12977,2,0,L|12:188,1,100
24,188,13463,5,6,0:0:0:0:
72,100,13788,2,0,P|124:80|188:88,2,100,8|2|8,0:0|0:0|0:0,0:0:0:0:
140,176,14761,2,0,B|160:304,1,100,2|8,0:0|0:0,0:0:0:0:
168,304,15247,2,0,L|228:320,1,50,0|2,0:0|0:0,0:0:0:0:
248,320,15572,2,0,P|300:296|372:312,1,100
372,308,16058,6,0,P|388:248|364:196,1,100,6|8,0:0|0:0,0:0:0:0:
304,148,16707,2,0,L|160:164,1,100,2|8,0:0|0:0,0:0:0:0:
104,168,17355,2,0,P|80:92|100:40,1,100,2|8,0:0|0:0,0:0:0:0:
96,48,17842,1,0,0:0:0:0:
196,28,18166,2,0,P|264:24|316:56,1,100,0|0,0:0|0:0,0:0:0:0:
312,60,18653,6,0,L|324:180,1,100,6|8,0:0|0:0,0:0:0:0:
240,216,19301,2,0,L|228:96,1,100,2|8,0:0|0:0,0:0:0:0:
136,84,19950,2,0,P|96:156|104:200,1,100,2|8,0:0|0:0,0:0:0:0:
108,200,20436,2,0,P|116:256|120:316,2,100,0|8|10,0:0|0:0|0:0,0:0:0:0:
132,220,21247,6,0,B|192:236|260:216,1,100,4|8,0:0|0:0,0:0:0:0:
292,144,21896,2,0,B|232:128|164:148,1,100,0|8,0:0|0:0,0:0:0:0:
116,76,22545,2,0,L|0:56,2,100,0|8|0,0:0|0:0|0:0,0:0:0:0:
208,36,23518,6,0,L|272:44,1,50,8|0,0:0|0:0,0:0:0:0:
288,48,23842,2,0,P|300:116|280:164,1,100,4|8,0:0|0:0,0:0:0:0:
220,216,24490,2,0,P|208:288|220:332,2,100,0|8|0,0:0|0:0|0:0,0:0:0:0:
291,144,25463,1,8,0:0:0:0:
384,180,25788,1,0,0:0:0:0:
404,276,26112,2,0,L|388:344,2,50,8|8|4,0:0|0:0|0:0,0:0:0:0:
488,220,26761,6,0,L|476:84,1,100,8|0,0:0|0:0,0:0:0:0:
404,52,27409,1,8,0:0:0:0:
308,84,27734,2,0,P|248:80|180:64,1,100,0|8,0:0|0:0,0:0:0:0:
112,52,28382,2,0,L|144:188,1,100,0|8,0:0|0:0,0:0:0:0:
144,184,28869,5,8,0:0:0:0:
144,184,29031,2,0,P|124:248|140:312,1,100,4|8,0:0|0:0,0:0:0:0:
220,240,29680,2,0,P|272:280|340:280,1,100,8|8,0:0|0:0,0:0:0:0:
328,268,30166,2,0,P|396:224|476:236,1,150,0|8,0:0|0:0,0:0:0:0:
428,324,30977,2,0,L|316:360,1,100,8|8,0:0|0:0,0:0:0:0:
304,348,31463,5,8,0:0:0:0:
304,348,31626,2,0,B|244:336|192:340,1,100,12|8,0:0|0:0,0:0:0:0:
140,264,32274,2,0,B|200:252|252:256,1,100,0|8,0:0|0:0,0:0:0:0:
268,256,32761,1,0,0:0:0:0:
296,260,32923,2,0,P|352:268|416:268,1,100,0|8,0:0|0:0,0:0:0:0:
468,200,33572,2,0,P|472:144|468:92,1,100,8|8,0:0|0:0,0:0:0:0:
392,40,34220,6,0,L|292:64,1,100,4|8,0:0|0:0,0:0:0:0:
212,124,34869,2,0,P|200:176|216:224,1,100,0|8,0:0|0:0,0:0:0:0:
232,244,35355,1,0,0:0:0:0:
232,244,35518,1,12,0:0:0:0:
184,332,35842,1,8,0:0:0:0:
84,340,36166,2,0,P|64:288|80:228,1,100,8|8,0:0|0:0,0:0:0:0:
92,224,36653,6,0,P|100:196|96:156,1,50,0|4,0:0|0:0,0:0:0:0:
68,80,37139,1,8,0:0:0:0:
168,96,37463,2,0,P|240:80|292:64,1,100,0|8,0:0|0:0,0:0:0:0:
340,140,38112,2,0,P|392:140|440:168,1,100,0|8,0:0|0:0,0:0:0:0:
452,188,38599,1,0,0:0:0:0:
396,272,38923,1,0,0:0:0:0:
396,272,39085,2,0,L|312:280,1,50,8|8,0:0|0:0,0:0:0:0:
320,264,39409,6,0,P|260:256|200:280,2,100,12|8|8,0:0|0:0|0:0,0:0:0:0:
372,176,40382,2,0,P|372:144|364:112,1,50,8|0,0:0|0:0,0:0:0:0:
360,96,40707,2,0,P|308:120|256:108,1,100,12|8,0:0|0:0,0:0:0:0:
188,56,41355,1,8,0:0:0:0:
188,56,41518,1,8,0:0:0:0:
88,168,42004,6,0,L|112:276,2,100,4|8|0,0:0|0:0|0:0,0:0:0:0:
84,136,42815,2,0,P|112:104|132:88,1,50,0|8,0:0|0:0,0:0:0:0:
140,80,43139,2,0,P|208:120|284:96,1,150,4|8,0:0|0:0,0:0:0:0:
344,36,43950,1,0,0:0:0:0:
428,88,44274,6,0,P|432:124|428:156,1,50,8|0,0:0|0:0,0:0:0:0:
416,164,44599,2,0,P|416:224|424:308,1,100,4|8,0:0|0:0,0:0:0:0:
428,292,45085,1,0,0:0:0:0:
332,320,45409,2,0,B|304:308|252:304,1,50,0|8,0:0|0:0,0:0:0:0:
256,308,45734,2,0,P|184:324|120:264,1,150,4|8,0:0|0:0,0:0:0:0:
112,184,46545,2,0,L|128:80,1,100,10|10,0:0|0:0,0:0:0:0:
136,56,47031,5,10,0:0:0:0:
136,56,47193,2,0,B|180:88|232:72,1,100,4|8,0:0|0:0,0:0:0:0:
328,44,47842,2,0,B|384:24|428:60,1,100,0|8,0:0|0:0,0:0:0:0:
436,80,48328,2,0,L|420:180,1,100,4|0,0:0|0:0,0:0:0:0:
404,204,48815,2,0,P|396:244|396:276,1,50,8|0,0:0|0:0,0:0:0:0:
320,320,49301,6,0,L|252:336,1,50,0|8,0:0|0:0,0:0:0:0:
240,336,49626,2,0,P|172:320|120:320,1,100
112,324,50112,1,8,0:0:0:0:
112,324,50274,1,0,0:0:0:0:
56,244,50599,2,0,L|36:160,1,50,0|8,0:0|0:0,0:0:0:0:
52,168,50923,2,0,B|116:104|208:144,1,150,4|8,0:2|0:0,0:0:0:0:
256,212,51734,2,0,P|316:220|360:184,1,100,8|8,0:0|0:0,0:0:0:0:
368,180,52220,5,0,0:0:0:0:
368,180,52382,2,0,L|384:72,1,100,4|8,0:0|0:0,0:0:0:0:
288,108,53031,2,0,L|180:76,1,100,0|8,0:0|0:0,0:0:0:0:
100,36,53680,2,0,P|92:88|108:140,1,100,0|8,0:0|0:0,0:0:0:0:
184,192,54328,1,10,0:0:0:0:
284,180,54653,1,10,0:0:0:0:
348,256,54977,6,0,P|356:312|340:360,2,100,4|8|0,0:0|0:0|0:0,0:0:0:0:
284,180,55950,1,8,0:0:0:0:
324,84,56274,2,0,P|380:76|432:112,1,100,0|8,0:0|0:0,0:0:0:0:
432,120,56761,2,0,L|464:272,1,150,0|10,0:0|0:0,0:0:0:0:
480,364,57572,6,0,P|424:348|376:364,1,100,4|8,0:0|0:0,0:0:0:0:
312,292,58220,2,0,P|264:312|192:300,1,100,0|8,0:0|0:0,0:0:0:0:
192,296,58707,1,0,0:0:0:0:
192,296,58869,2,0,L|160:192,1,100,0|8,0:0|0:0,0:0:0:0:
196,104,59518,1,10,0:0:0:0:
284,60,59842,2,0,P|324:52|356:52,2,50,10|10|4,0:0|0:0|0:0,0:0:0:0:
268,160,60490,5,8,0:0:0:0:
336,232,60815,2,0,P|400:204|408:108,2,150,0|4|8,0:0|0:0|0:0,0:0:0:0:
252,284,62112,2,0,P|200:268|140:276,1,100,0|4,0:0|0:2,0:0:0:0:
64,316,62761,1,6,0:0:0:0:
256,192,62923,12,6,65355,0:0:0:0:
360,144,73139,5,4,1:1:0:0:
408,232,73463,2,0,L|512:192,2,100,2|2|2,0:0|1:2|0:0,0:0:0:0:
360,320,74436,2,0,L|260:296,1,100,2|2,1:2|0:0,0:0:0:0:
196,224,75085,2,0,L|96:268,1,100,2|2,1:2|1:2,0:0:0:0:
20,316,75734,5,4,1:2:0:0:
0,216,76058,1,2,0:0:0:0:
48,128,76382,2,0,P|100:108|168:112,1,100,2|2,1:2|0:0,0:0:0:0:
240,128,77031,1,2,1:2:0:0:
332,168,77355,2,0,P|384:172|436:148,2,100,8|4|0,3:0|3:0|0:0,0:0:0:0:
240,208,78328,5,4,0:2:0:0:
148,248,78653,2,0,P|140:312|152:352,1,100,2|0,0:2|0:2,0:0:0:0:
248,368,79301,1,2,0:2:0:0:
348,348,79626,2,0,P|356:284|344:244,1,100,2|0,0:0|0:0,0:0:0:0:
300,164,80274,2,0,P|288:112|304:56,1,100,2|2,0:0|0:2,0:0:0:0:
388,112,80923,6,0,L|416:216,2,100,2|2|2,0:0|0:0|0:0,0:0:0:0:
452,32,81896,1,2,0:0:0:0:
452,32,82058,1,2,0:0:0:0:
256,192,82220,12,4,83518,0:0:0:0:
160,160,84166,6,0,L|176:292,1,100,0|8,0:0|0:0,0:0:0:0:
232,340,84815,2,0,P|280:360|344:348,1,100,0|8,0:0|0:0,0:0:0:0:
352,340,85301,2,0,P|408:324|460:336,1,100,0|0,0:0|0:0,0:0:0:0:
476,344,85788,2,0,L|488:296,2,50,8|8|4,0:0|0:0|0:0,0:0:0:0:
408,272,86436,5,8,0:0:0:0:
480,204,86761,2,0,L|468:88,1,100,0|8,0:0|0:0,0:0:0:0:
448,84,87247,1,0,0:0:0:0:
448,84,87409,2,0,P|392:96|324:84,1,100,12|8,0:0|0:0,0:0:0:0:
260,52,88058,2,0,P|208:44|152:64,1,100,8|8,0:0|0:0,0:0:0:0:
104,140,88707,6,0,L|124:268,1,100,4|8,0:0|0:0,0:0:0:0:
132,272,89193,1,0,0:0:0:0:
132,272,89355,2,0,P|192:288|224:332,1,100,0|8,0:0|0:0,0:0:0:0:
300,368,90004,2,0,L|284:264,1,100,0|8,0:0|0:0,0:0:0:0:
272,244,90490,1,0,0:0:0:0:
304,148,90815,6,0,P|336:136|372:136,2,50,0|8|8,0:0|0:0|0:0,0:0:0:0:
276,160,91301,2,0,P|220:168|168:140,1,100,12|8,0:0|0:0,0:0:0:0:
136,60,91950,2,0,P|192:52|244:80,1,100,8|8,0:0|0:0,0:0:0:0:
256,56,92436,1,0,0:0:0:0:
256,56,92599,2,0,L|356:48,1,100,12|8,0:0|0:0,0:0:0:0:
444,96,93247,1,8,0:0:0:0:
444,96,93409,1,8,0:0:0:0:
336,200,93896,6,0,P|320:252|340:312,2,100,4|8|0,0:0|0:0|0:0,0:0:0:0:
352,176,94707,2,0,P|344:120|340:104,1,50,0|8,0:0|0:0,0:0:0:0:
336,100,95031,2,0,P|416:124|476:80,1,150,4|8,0:0|0:0,0:0:0:0:
396,20,95842,1,0,0:0:0:0:
296,36,96166,6,0,P|248:28|224:28,1,50,8|0,0:0|0:0,0:0:0:0:
220,40,96490,2,0,P|164:52|108:44,1,100,4|8,0:0|0:0,0:0:0:0:
92,40,96977,1,0,0:0:0:0:
28,120,97301,2,0,L|40:188,1,50,0|8,0:0|0:0,0:0:0:0:
44,200,97626,2,0,P|116:216|152:260,1,100,4|0,0:0|0:0,0:0:0:0:
144,260,98112,2,0,P|224:264|256:240,1,100,8|10,0:0|0:0,0:0:0:0:
312,192,98761,1,10,0:0:0:0:
236,128,99085,6,0,L|260:20,2,100,4|8|0,0:0|0:0|0:0,0:0:0:0:
216,152,99896,1,0,0:0:0:0:
136,96,100220,2,0,P|120:148|136:212,1,100,4|0,0:0|0:0,0:0:0:0:
136,220,100707,2,0,P|140:260|132:288,2,50,8|0|4,0:0|0:0|0:2,0:0:0:0:
216,152,101355,1,8,0:0:0:0:
288,220,101680,6,0,P|376:208|400:176,1,100,4|8,0:0|0:0,0:0:0:0:
376,104,102328,2,0,P|332:80|268:92,1,100,0|8,0:0|0:0,0:0:0:0:
256,96,102815,2,0,P|180:108|124:56,1,150,4|8,0:2|0:0,0:0:0:0:
76,148,103626,2,0,L|96:248,1,100,8|8,0:0|0:0,0:0:0:0:
128,340,104274,6,0,P|188:332|236:332,1,100,4|8,0:0|0:0,0:0:0:0:
328,344,104923,1,0,0:0:0:0:
328,344,105085,2,0,P|420:348|472:284,1,150,0|0,0:0|0:0,0:0:0:0:
500,220,105896,2,0,L|488:168,1,50,8|0,0:0|0:0,0:0:0:0:
484,140,106220,1,10,0:0:0:0:
408,76,106545,1,10,0:0:0:0:
316,112,106869,6,0,P|268:124|216:108,1,100,4|8,0:0|0:0,0:0:0:0:
144,44,107518,1,0,0:0:0:0:
144,44,107680,2,0,P|80:60|48:96,1,100,0|0,0:0|0:0,0:0:0:0:
48,112,108166,2,0,L|56:212,1,100,0|8,0:0|0:0,0:0:0:0:
76,232,108653,1,0,0:0:0:0:
76,232,108815,1,10,0:0:0:0:
176,248,109139,1,10,0:0:0:0:
276,260,109463,6,0,P|336:256|384:280,1,100,4|8,0:0|0:0,0:0:0:0:
464,308,110112,2,0,L|452:240,1,50,0|0,0:0|0:0,0:0:0:0:
452,228,110436,1,8,0:0:0:0:
408,136,110761,2,0,P|412:52|440:24,2,100,0|8|10,0:0|0:0|0:0,0:0:0:0:
316,180,111734,1,10,0:0:0:0:
224,140,112058,6,0,L|112:152,2,100,4|8|0,0:0|0:0|0:0,0:0:0:0:
252,124,112869,1,0,0:0:0:0:
352,136,113193,2,0,P|408:116|472:120,1,100,4|0,0:0|0:0,0:0:0:0:
476,128,113680,1,8,0:0:0:0:
448,224,114004,2,0,L|440:304,2,50,0|0|4,0:0|0:0|0:2,0:0:0:0:
348,220,114653,6,0,P|296:216|244:240,1,100,6|8,0:0|0:0,0:0:0:0:
176,296,115301,2,0,P|124:292|84:256,1,100,2|8,0:0|0:0,0:0:0:0:
88,164,115950,2,0,L|208:144,1,100,2|8,0:0|0:0,0:0:0:0:
212,132,116436,2,0,L|332:112,1,100,0|0,0:0|0:0,0:0:0:0:
336,96,116923,1,8,0:0:0:0:
332,196,117247,5,4,0:0:0:0:
256,260,117572,1,8,0:0:0:0:
176,200,117896,2,0,P|104:204|60:228,1,100,2|8,0:0|0:0,0:0:0:0:
32,304,118545,2,0,P|48:344|108:372,1,100,2|8,0:0|0:0,0:0:0:0:
124,360,119031,2,0,P|152:352|180:344,1,50,0|2,0:0|0:0,0:0:0:0:
200,352,119355,2,0,L|324:336,1,100,0|8,0:0|0:0,0:0:0:0:
328,344,119842,6,0,P|344:288|324:240,1,100,6|8,0:0|0:0,0:0:0:0:
336,152,120490,2,0,P|376:193|428:200,1,100,2|8,0:0|0:0,0:0:0:0:
500,148,121139,2,0,P|476:112|480:40,1,100,2|8,0:0|0:0,0:0:0:0:
484,28,121626,2,0,L|360:48,1,100,0|0,0:0|0:0,0:0:0:0:
356,52,122112,1,8,0:0:0:0:
256,36,122436,5,4,0:0:0:0:
192,112,122761,1,8,0:0:0:0:
260,184,123085,2,0,P|272:236|248:296,1,100,2|8,0:0|0:0,0:0:0:0:
188,348,123734,2,0,L|76:332,1,100,2|8,0:0|0:0,0:0:0:0:
60,328,124220,2,0,L|44:224,2,100,0|0|8,0:0|0:0|0:0,0:0:0:0:
48,356,125031,1,4,0:0:0:0:
256,192,130220,12,4,135409,0:0:0:0:
204,304,136058,6,0,L|96:312,1,100,0|8,0:0|0:0,0:0:0:0:
28,244,136707,2,0,P|12:188|24:136,1,100,0|8,0:0|0:0,0:0:0:0:
40,128,137193,2,0,L|212:96,1,150,0|8,0:0|0:0,0:0:0:0:
216,108,137842,5,0,0:0:0:0:
216,108,138004,2,0,P|268:112|332:108,1,100,4|8,0:0|0:0,0:0:0:0:
404,64,138653,2,0,P|408:120|404:172,1,100,0|8,0:0|0:0,0:0:0:0:
316,212,139301,1,12,0:0:0:0:
400,268,139626,1,8,0:0:0:0:
308,308,139950,1,8,0:0:0:0:
224,256,140274,2,0,L|224:196,2,50,8|8|12,0:0|0:0|0:0,0:0:0:0:
148,320,140923,6,0,P|88:328|44:320,1,100,8|0,0:0|0:0,0:0:0:0:
16,228,141572,1,8,0:0:0:0:
24,200,141734,1,0,0:0:0:0:
32,172,141896,2,0,L|16:56,1,100,0|8,0:0|0:0,0:0:0:0:
112,36,142545,2,0,L|212:48,1,100,0|8,0:0|0:0,0:0:0:0:
236,64,143031,5,8,0:0:0:0:
236,64,143193,2,0,L|336:76,1,100,12|8,0:0|0:0,0:0:0:0:
428,40,143842,2,0,P|440:92|428:148,1,100,8|8,0:0|0:0,0:0:0:0:
416,160,144328,1,0,0:0:0:0:
416,160,144490,2,0,P|404:232|436:288,1,100,12|8,0:0|0:0,0:0:0:0:
472,336,145139,1,8,0:0:0:0:
448,352,145301,1,8,0:0:0:0:
308,300,145788,6,0,P|236:296|184:312,1,100,4|8,0:0|0:0,0:0:0:0:
116,336,146436,1,0,0:0:0:0:
116,336,146599,2,0,L|100:268,1,50,0|8,0:0|0:0,0:0:0:0:
116,260,146923,2,0,P|120:208|76:136,1,100,4|0,0:0|0:0,0:0:0:0:
80,144,147409,2,0,P|140:148|200:120,1,100,8|0,0:0|0:0,0:0:0:0:
256,72,148058,6,0,B|296:60|320:64,1,50,8|0,0:0|0:0,0:0:0:0:
336,64,148382,2,0,L|344:180,1,100,4|8,0:0|0:0,0:0:0:0:
328,188,148869,1,0,0:0:0:0:
256,260,149193,2,0,P|224:272|188:280,1,50,0|8,0:0|0:0,0:0:0:0:
180,268,149518,2,0,P|116:248|56:268,1,100,4|0,0:0|0:0,0:0:0:0:
56,268,150004,2,0,L|44:204,1,50,8|0,0:0|0:0,0:0:0:0:
40,188,150328,1,10,0:0:0:0:
132,148,150653,1,10,0:0:0:0:
232,164,150977,6,0,P|296:168|352:160,2,100,4|8|0,0:0|0:0|0:0,0:0:0:0:
208,144,151788,1,0,0:0:0:0:
200,44,152112,2,0,P|264:40|348:40,1,100,4|0,0:0|0:0,0:0:0:0:
328,52,152599,2,0,P|384:52|408:48,1,50,8|0,0:0|0:0,0:0:0:0:
460,112,153085,2,0,P|472:168|452:216,1,100,0|0,0:0|0:0,0:0:0:0:
432,224,153572,6,0,P|376:248|348:288,1,100,4|8,0:0|0:0,0:0:0:0:
344,308,154058,1,0,0:0:0:0:
256,356,154382,2,0,P|252:304|256:284,1,50,0|8,0:0|0:0,0:0:0:0:
260,276,154707,2,0,P|260:204|248:148,1,100,4|0,0:2|0:0,0:0:0:0:
240,152,155193,1,8,0:0:0:0:
140,160,155518,1,8,0:0:0:0:
148,260,155842,1,8,0:0:0:0:
248,248,156166,6,0,P|308:240|356:244,1,100,4|8,0:0|0:0,0:0:0:0:
412,320,156815,2,0,P|352:328|304:324,1,100,0|8,0:0|0:0,0:0:0:0:
216,344,157463,1,0,0:0:0:0:
128,300,157788,1,8,0:0:0:0:
128,300,157950,2,0,P|100:216|128:156,1,150,0|10,0:0|0:0,0:0:0:0:
200,100,158761,6,0,P|216:148|204:212,2,100,4|8|0,0:0|0:0|0:0,0:0:0:0:
112,48,159734,1,8,0:0:0:0:
28,100,160058,2,0,L|12:212,1,100,0|8,0:0|0:0,0:0:0:0:
16,228,160545,2,0,P|88:244|116:312,1,150,0|10,0:0|0:0,0:0:0:0:
204,356,161355,6,0,P|268:364|308:344,1,100,4|8,0:0|0:0,0:0:0:0:
376,284,162004,2,0,L|368:176,1,100,0|8,0:0|0:0,0:0:0:0:
296,116,162653,2,0,P|232:108|192:128,1,100,0|8,0:0|0:0,0:0:0:0:
176,140,163139,1,0,0:0:0:0:
148,152,163301,2,0,P|96:160|40:136,1,100,10|10,0:0|0:0,0:0:0:0:
104,60,163950,5,4,0:0:0:0:
200,36,164274,1,8,0:0:0:0:
288,88,164599,1,0,0:0:0:0:
288,88,164761,2,0,P|360:88|416:48,2,100,0|4|0,0:0|0:0|0:0,0:0:0:0:
264,108,165572,1,8,0:0:0:0:
316,192,165896,1,0,0:0:0:0:
256,272,166220,1,4,0:2:0:0:
256,36,167518,5,12,0:3:0:0:
180,100,167842,2,0,P|172:152|184:216,1,100,6|8,0:0|0:0,0:0:0:0:
264,252,168490,2,0,L|372:268,1,100,2|8,0:0|0:0,0:0:0:0:
448,212,169139,2,0,P|444:136|416:104,1,100,2|8,0:0|0:0,0:0:0:0:
412,96,169626,2,0,P|384:112|348:116,1,50,2|0,0:0|0:0,0:0:0:0:
336,112,169950,2,0,P|284:88|220:96,1,100,0|0,0:0|0:0,0:0:0:0:
212,96,170436,5,6,0:0:0:0:
140,164,170761,1,8,0:0:0:0:
208,240,171085,2,0,L|216:360,1,100,2|8,0:0|0:0,0:0:0:0:
120,368,171734,2,0,P|104:328|116:268,1,100,2|8,0:0|0:0,0:0:0:0:
128,248,172220,2,0,L|68:236,1,50,0|2,0:0|0:0,0:0:0:0:
48,248,172545,2,0,L|36:132,1,100,0|0,0:0|0:0,0:0:0:0:
56,124,173031,5,6,0:0:0:0:
152,88,173355,1,8,0:0:0:0:
240,144,173680,2,0,P|288:164|360:148,1,100,2|8,0:0|0:0,0:0:0:0:
408,92,174328,1,2,0:0:0:0:
500,132,174653,1,8,0:0:0:0:
500,132,174815,2,0,L|488:244,1,100,0|2,0:0|0:0,0:0:0:0:
472,256,175301,1,8,0:0:0:0:
384,304,175626,6,0,P|320:300|280:316,1,100,4|10,0:0|0:0,0:0:0:0:
204,368,176274,2,0,P|128:360|84:324,1,100,2|8,0:0|0:0,0:0:0:0:
60,260,176923,2,0,L|72:160,1,100,2|8,0:0|0:0,0:0:0:0:
64,132,177409,2,0,P|124:108|192:108,1,100,0|0,0:0|0:0,0:0:0:0:
184,116,177896,1,8,0:0:0:0:
276,156,178220,6,0,P|332:160|380:128,1,100,6|8,0:0|0:0,0:0:0:0:
408,48,178869,2,0,P|352:44|304:76,1,100,10|8,0:0|0:0,0:0:0:0:
216,88,179518,2,0,P|152:76|100:92,1,100,14|8,0:0|0:0,0:0:0:0:
72,172,180166,2,0,P|136:184|188:168,1,100,10|8,0:0|0:0,0:0:0:0:
196,164,180653,5,0,0:0:0:0:
196,164,180815,2,0,L|176:268,2,100,14|10|10,0:0|0:0|0:0,0:0:0:0:
256,84,181788,1,8,0:0:0:0:
352,60,182112,2,0,P|408:52|456:72,1,100,14|8,0:0|0:0,0:0:0:0:
496,156,182761,2,0,P|444:164|392:144,1,100,10|8,0:0|0:0,0:0:0:0:
372,140,183247,5,0,0:0:0:0:
372,140,183409,2,0,L|384:248,1,100,14|8,0:0|0:0,0:0:0:0:
304,176,184058,2,0,L|292:284,1,100,10|8,0:0|0:0,0:0:0:0:
220,208,184707,2,0,L|224:312,1,100,14|8,0:0|0:0,0:0:0:0:
136,256,185355,2,0,L|160:364,1,100,10|8,0:0|0:0,0:0:0:0:
136,376,185842,5,0,0:0:0:0:
136,376,186004,2,0,P|72:348|20:352,2,100,14|10|10,0:0|0:0|0:0,0:0:0:0:
228,332,186977,1,8,0:0:0:0:
328,352,187301,2,0,P|380:340|440:348,1,100,14|8,0:1|0:0,0:0:0:0:
496,272,187950,1,10,0:0:0:0:
424,200,188274,6,0,L|416:136,2,50,8|0|4,0:0|0:0|0:0,0:0:0:0:
332,244,188923,1,8,0:0:0:0:
252,184,189247,2,0,P|204:168|152:176,1,100,8|8,0:0|0:0,0:0:0:0:
128,188,189734,2,0,P|56:188|12:136,1,100,0|8,0:0|0:0,0:0:0:0:
24,148,190220,2,0,L|36:88,1,50,8|4,0:0|0:0,0:0:0:0:
256,192,190545,12,0,198653,2:0:0:0:
