osu file format v14

[General]
AudioFilename: audio.mp3
AudioLeadIn: 0
PreviewTime: 52220
Countdown: 1
SampleSet: Normal
StackLeniency: 0.7
Mode: 0
LetterboxInBreaks: 0
WidescreenStoryboard: 1

[Editor]
DistanceSpacing: 0.8
BeatDivisor: 4
GridSize: 4
TimelineZoom: 1.1

[Metadata]
Title:Mischievous of Alice
TitleUnicode:Mischievous of Alice
Artist:Yousei Teikoku
ArtistUnicode:妖精帝國
Creator:Delis
Version:Hard
Source:クイーンズゲイト スパイラルカオス
Tags:Hades:The other world Queen's Gate Spiral Chaos Nardoxyribonucleic
BeatmapID:1318269
BeatmapSetID:623960

[Difficulty]
HPDrainRate:5
CircleSize:4
OverallDifficulty:7
ApproachRate:8
SliderMultiplier:1.5
SliderTickRate:2

[Events]
//Background and Video events
0,0,"png.jpg",0,0
//Break Periods
2,65555,72248
2,125231,129329
//Storyboard Layer 0 (Background)
//Storyboard Layer 1 (Fail)
//Storyboard Layer 2 (Pass)
//Storyboard Layer 3 (Foreground)
//Storyboard Sound Samples

[TimingPoints]
491,324.324324324324,4,1,1,50,1,0
10869,-100,4,1,1,60,0,0
42004,-100,4,1,1,70,0,0
62761,-100,4,1,1,60,0,0
73139,-133.333333333333,4,2,1,60,0,0
77355,-133.333333333333,4,1,1,60,0,0
78328,-100,4,1,1,60,0,0
93896,-100,4,1,1,70,0,0
114653,-100,4,1,1,60,0,0
145788,-100,4,1,1,70,0,0
166301,-100,4,1,1,40,0,0
167518,-100,4,1,1,70,0,0
167842,-100,4,1,1,60,0,0
190545,-100,4,1,1,50,0,0
195085,-100,4,1,1,30,0,0
196382,-100,4,1,1,20,0,0
198004,-100,4,1,1,5,0,0

[Colours]
Combo1 : 163,103,67
Combo2 : 55,147,133
Combo3 : 123,95,177
Combo4 : 118,151,115
Combo5 : 167,88,106

[HitObjects]
108,176,491,6,0,L|196:164,1,75,4|4,0:2|0:2,0:0:0:0:
268,208,1788,6,0,L|360:196,1,75,4|4,0:2|0:2,0:0:0:0:
428,232,3085,6,0,L|520:220,1,75,4|4,0:2|0:2,0:0:0:0:
160,104,4220,6,0,B|120:104|60:116,1,75,8|0,0:0|0:0,0:0:0:0:
128,184,4545,2,0,B|168:184|216:176,1,75,8|0,0:0|0:0,0:0:0:0:
248,256,4869,2,0,B|204:252|148:264,1,75,8|0,0:0|0:0,0:0:0:0:
120,336,5193,2,0,B|196:344|280:340,1,150,8|0,0:0|0:0,0:0:0:0:
348,300,5680,6,0,L|440:308,1,75,4|4,0:2|0:2,0:0:0:0:
204,232,6977,6,0,L|296:240,1,75,4|4,0:2|0:2,0:0:0:0:
56,168,8274,6,0,L|148:176,1,75,4|4,0:2|0:2,0:0:0:0:
300,76,9409,6,0,B|256:72|200:80,1,75,8|0,0:0|0:0,0:0:0:0:
260,156,9734,2,0,B|212:156|176:160,1,75,8|0,0:0|0:0,0:0:0:0:
216,236,10058,2,0,B|160:232|120:232,1,75,8|0,0:0|0:0,0:0:0:0:
72,288,10382,1,8,0:0:0:0:
140,344,10545,5,0,0:0:0:0:
147,342,10626,1,0,0:0:0:0:
154,340,10707,1,0,0:0:0:0:
161,339,10788,1,0,0:0:0:0:
168,337,10869,2,0,B|244:329|332:333,1,150,6|8,0:0|0:0,0:0:0:0:
472,244,11518,2,0,B|396:236|308:240,1,150,2|8,0:0|0:0,0:0:0:0:
264,40,12166,2,0,B|220:108|256:204,1,150,2|8,0:0|0:0,0:0:0:0:
324,136,12653,2,0,B|388:132|428:144,1,75,0|0,0:0|0:0,0:0:0:0:
468,196,12977,2,0,B|468:276|452:364,1,150,0|0,0:0|0:0,0:0:0:0:
384,288,13463,5,6,0:0:0:0:
228,352,13788,2,0,B|184:360|144:328,1,75,8|0,0:0|0:0,0:0:0:0:
96,276,14112,2,0,B|128:184|40:140,1,150,2|8,0:0|0:0,0:0:0:0:
152,60,14761,2,0,L|320:72,1,150,2|8,0:0|0:0,0:0:0:0:
368,116,15247,2,0,L|392:32,1,75,0|2,0:0|0:0,0:0:0:0:
460,104,15572,2,0,B|440:176|440:176|472:264,1,150,0|0,0:0|0:0,0:0:0:0:
412,320,16058,6,0,B|352:252|256:292,1,150,6|8,0:0|0:0,0:0:0:0:
80,220,16707,2,0,B|140:156|244:192,1,150,2|8,0:0|0:0,0:0:0:0:
436,140,17355,2,0,B|372:80|288:120,1,150,2|8,0:0|0:0,0:0:0:0:
344,188,17842,2,0,B|356:228|344:276,1,75,0|2,0:0|0:0,0:0:0:0:
304,336,18166,2,0,B|256:372|192:344|188:280,1,150,0|0,0:0|0:0,0:0:0:0:
232,220,18653,5,6,0:0:0:0:
200,76,18977,2,0,B|180:32|124:20,1,75,8|0,0:0|0:0,0:0:0:0:
124,112,19301,2,0,B|40:88|-20:160,2,150,2|8|2,0:0|0:0|0:0,0:0:0:0:
196,156,20112,2,0,L|264:208,1,75,0|8,0:0|0:0,0:0:0:0:
332,236,20436,2,0,B|344:196|324:152,1,75,0|2,0:0|0:0,0:0:0:0:
292,88,20761,1,8,0:0:0:0:
292,88,20842,1,8,0:0:0:0:
292,88,20923,2,0,B|280:40|288:8,1,75,10|10,0:0|0:0,0:0:0:0:
208,60,21247,6,0,B|136:48|136:48|48:88,2,150,4|8|0,0:0|0:0|0:0,0:0:0:0:
292,88,22058,1,0,0:0:0:0:
376,116,22220,2,0,B|420:116|472:104,1,75,8|0,0:0|0:0,0:0:0:0:
300,168,22545,2,0,B|224:172|148:184,1,150,0|8,0:0|0:0,0:0:0:0:
112,268,23031,1,0,0:0:0:0:
112,268,23193,2,0,B|188:268|272:256,1,150,0|8,0:0|0:0,0:0:0:0:
336,296,23680,5,0,0:0:0:0:
336,296,23842,2,0,B|376:288|444:296,1,75,4|0,0:0|0:0,0:0:0:0:
480,244,24166,2,0,B|520:208|516:132|452:108,1,150,8|0,0:0|0:0,0:0:0:0:
388,148,24653,1,0,0:0:0:0:
388,148,24815,2,0,B|348:164|300:156,1,75,8|0,0:0|0:0,0:0:0:0:
240,112,25139,2,0,L|232:28,1,75,0|0,0:0|0:0,0:0:0:0:
180,172,25463,2,0,L|96:180,1,75,8|0,0:0|0:0,0:0:0:0:
252,224,25788,2,0,L|260:308,1,75,0|0,0:0|0:0,0:0:0:0:
192,352,26112,1,8,0:0:0:0:
176,268,26274,1,8,0:0:0:0:
108,324,26436,6,0,B|56:320|12:276|28:208,2,150,4|8|0,0:0|0:0|0:0,0:0:0:0:
176,268,27247,2,0,B|172:224|172:176,2,75,0|8|0,0:0|0:0|0:0,0:0:0:0:
248,320,27734,2,0,B|288:320|324:316,1,75,0|0,0:0|0:0,0:0:0:0:
356,236,28058,2,0,B|304:240|256:240,1,75,8|0,0:0|0:0,0:0:0:0:
244,160,28382,2,0,B|240:120|240:72,1,75,0|0,0:0|0:0,0:0:0:0:
324,64,28707,2,0,B|328:104|328:152,1,75,8|8,0:0|0:0,0:0:0:0:
200,240,29031,6,0,B|124:228|44:248,2,150,4|8|8,0:0|0:0|0:0,0:0:0:0:
284,256,29842,1,0,0:0:0:0:
360,292,30004,1,8,0:0:0:0:
444,300,30166,1,0,0:0:0:0:
512,252,30328,2,0,B|508:216|492:172,1,75,2|2,0:2|0:2,0:0:0:0:
432,124,30653,2,0,B|392:112|352:88,1,75,8|2,0:0|0:2,0:0:0:0:
280,108,30977,2,0,B|224:112|176:124,1,75,2|2,0:2|2:0,0:0:0:0:
128,140,31301,1,8,0:0:0:0:
72,204,31463,1,8,0:0:0:0:
72,204,31545,1,8,0:0:0:0:
72,204,31626,1,12,0:0:0:0:
120,276,31788,6,0,B|120:324|112:364,2,75,0|8|0,0:0|0:0|0:0,0:0:0:0:
184,216,32274,2,0,B|220:196|280:184,1,75,0|0,0:0|0:0,0:0:0:0:
244,276,32599,2,0,B|292:272|344:276,1,75,8|0,0:0|0:0,0:0:0:0:
408,296,32923,1,0,0:0:0:0:
408,296,33085,2,0,L|412:208,1,75,0|8,0:0|0:0,0:0:0:0:
464,152,33409,2,0,B|392:112|320:144,1,150,0|0,0:0|0:0,0:0:0:0:
304,228,33896,1,8,0:0:0:0:
240,172,34058,5,0,0:0:0:0:
240,172,34220,2,0,B|156:160|72:192,2,150,4|8|0,0:0|0:0|0:0,0:0:0:0:
308,116,35031,2,0,B|316:72|292:24,2,75,0|8|0,0:0|0:0|0:0,0:0:0:0:
336,196,35518,2,0,B|276:268|332:352,2,150,12|8|8,0:0|0:0|0:0,0:0:0:0:
420,220,36328,2,0,B|428:180|404:128,1,75,0|8,0:0|0:0,0:0:0:0:
352,80,36653,1,8,0:0:0:0:
352,80,36734,1,8,0:0:0:0:
352,80,36815,1,4,0:0:0:0:
264,100,36977,6,0,B|224:108|188:72,2,75,0|8|0,0:0|0:0|0:0,0:0:0:0:
316,168,37463,2,0,L|340:252,1,75,0|0,0:0|0:0,0:0:0:0:
232,184,37788,2,0,L|228:284,1,75,8|0,0:0|0:0,0:0:0:0:
152,160,38112,2,0,L|124:232,2,75,0|0|8,0:0|0:0|0:0,0:0:0:0:
192,84,38599,2,0,B|264:52|368:80,1,150,0|0,0:0|0:0,0:0:0:0:
428,104,39085,1,8,0:0:0:0:
428,104,39247,1,8,0:0:0:0:
380,176,39409,6,0,B|372:216|376:256,1,75,12|0,0:0|0:0,0:0:0:0:
296,212,39734,2,0,B|300:276|320:308,1,75,8|0,0:0|0:0,0:0:0:0:
224,264,40058,2,0,B|236:320|252:344,1,75,8|0,0:0|0:0,0:0:0:0:
156,328,40382,2,0,B|140:288|144:240,1,75,8|0,0:0|0:0,0:0:0:0:
76,176,40707,2,0,B|96:144|104:100,1,75,12|0,0:0|0:0,0:0:0:0:
188,136,41031,2,0,B|192:100|180:52,1,75,8|0,0:0|0:0,0:0:0:0:
256,28,41355,5,8,0:0:0:0:
328,124,41518,1,8,0:0:0:0:
328,124,42004,6,0,L|324:284,2,150,4|8|0,0:0|0:0|0:0,0:0:0:0:
336,36,42815,2,0,B|376:24|424:28,1,75,0|8,0:0|0:0,0:0:0:0:
464,96,43139,2,0,B|512:124|508:200|456:224,1,150,4|0,0:0|0:0,0:0:0:0:
384,252,43626,1,8,0:0:0:0:
384,252,43788,2,0,B|340:256|300:280,1,75,0|0,0:0|0:0,0:0:0:0:
232,336,44112,5,0,0:0:0:0:
204,256,44274,1,8,0:0:0:0:
256,192,44436,2,0,L|248:96,1,75,0|4,0:0|0:0,0:0:0:0:
156,96,44761,2,0,L|172:176,1,75,0|8,0:0|0:0,0:0:0:0:
76,192,45085,2,0,L|76:104,1,75,0|0,0:0|0:0,0:0:0:0:
48,212,45409,2,0,L|56:292,1,75,0|8,0:0|0:0,0:0:0:0:
140,280,45734,2,0,B|228:248|288:332,1,150,4|0,0:0|0:0,0:0:0:0:
332,256,46220,2,0,L|344:168,1,75,8|0,0:0|0:0,0:0:0:0:
328,96,46545,1,10,0:0:0:0:
328,96,46707,1,10,0:0:0:0:
232,108,46869,1,10,0:0:0:0:
232,108,47031,1,10,0:0:0:0:
136,44,47193,6,0,B|96:116|128:204,2,150,4|8|0,0:0|0:0|0:0,0:0:0:0:
40,56,48004,2,0,L|0:136,1,75,0|8,0:0|0:0,0:0:0:0:
44,196,48328,2,0,B|92:272|40:352,1,150,4|0,0:0|0:0,0:0:0:0:
144,316,48815,1,8,0:0:0:0:
144,316,48977,2,0,B|180:304|236:292,1,75,0|4,0:0|0:2,0:0:0:0:
300,320,49301,2,0,B|312:272|280:232,1,75,0|8,0:0|0:0,0:0:0:0:
212,208,49626,2,0,B|240:172|288:164,1,75,0|4,0:0|0:0,0:0:0:0:
356,192,49950,2,0,B|380:156|360:92,1,75,0|8,0:0|0:0,0:0:0:0:
312,56,50274,2,0,L|208:84,1,75,0|0,0:0|0:0,0:0:0:0:
160,100,50599,5,0,0:0:0:0:
160,100,50761,1,8,0:0:0:0:
88,152,50923,2,0,B|100:208|172:224|212:180,1,150,4|0,0:2|0:0,0:0:0:0:
236,268,51409,2,0,L|220:364,1,75,8|0,0:0|0:0,0:0:0:0:
308,324,51734,2,0,L|392:304,1,75,8|0,0:0|0:0,0:0:0:0:
396,224,52058,2,0,L|300:248,1,75,8|8,0:0|0:0,0:0:0:0:
252,188,52382,5,4,0:0:0:0:
224,108,52545,1,0,0:0:0:0:
304,80,52707,1,8,0:0:0:0:
332,160,52869,1,0,0:0:0:0:
252,188,53031,1,0,0:0:0:0:
252,188,53193,2,0,B|168:180|96:192,1,150,0|0,0:0|0:0,0:0:0:0:
48,252,53680,2,0,L|56:340,1,75,0|0,0:0|0:0,0:0:0:0:
132,280,54004,2,0,L|208:272,1,75,8|0,0:0|0:0,0:0:0:0:
276,328,54328,2,0,B|320:336|348:312,1,75,10|10,0:0|0:0,0:0:0:0:
346,312,54653,1,10,0:0:0:0:
368,76,54977,6,0,L|272:96,1,75,4|0,0:0|0:0,0:0:0:0:
216,64,55301,2,0,L|196:144,1,75,8|0,0:0|0:0,0:0:0:0:
172,216,55626,1,0,0:0:0:0:
172,216,55788,2,0,B|88:220|16:216,1,150,0|0,0:0|0:0,0:0:0:0:
48,136,56274,2,0,B|96:136|124:140,1,75,0|0,0:0|0:0,0:0:0:0:
172,216,56599,2,0,B|220:220|264:216,1,75,8|0,0:0|0:0,0:0:0:0:
320,160,56923,2,0,B|324:120|316:80,1,75,10|10,0:0|0:0,0:0:0:0:
317,85,57247,1,10,0:0:0:0:
104,72,57572,6,0,B|84:116|112:156,1,75,4|0,0:0|0:0,0:0:0:0:
176,180,57896,2,0,B|196:136|168:96,1,75,8|0,0:0|0:0,0:0:0:0:
104,144,58220,1,0,0:0:0:0:
92,228,58382,2,0,B|144:300|224:264,1,150,0|0,0:0|0:0,0:0:0:0:
280,200,58869,2,0,L|292:120,2,75,0|0|8,0:0|0:0|0:0,0:0:0:0:
312,280,59355,1,0,0:0:0:0:
384,328,59518,2,0,L|464:312,1,75,10|10,0:0|0:0,0:0:0:0:
476,232,59842,2,0,L|396:248,1,75,10|10,0:0|0:0,0:0:0:0:
348,176,60166,6,0,B|312:84|404:32,2,150,4|8|0,0:0|0:0|0:0,0:0:0:0:
296,244,60977,2,0,L|216:272,1,75,0|8,0:0|0:0,0:0:0:0:
144,300,61301,2,0,B|88:296|68:260|68:260|36:280|-16:280,1,150,4|0,0:0|0:0,0:0:0:0:
16,192,61788,1,8,0:0:0:0:
64,120,61950,1,0,0:0:0:0:
64,120,62112,2,0,B|128:124|156:136,1,75,0|0,0:0|0:0,0:0:0:0:
224,108,62436,1,4,0:2:0:0:
368,312,62761,1,6,0:0:0:0:
256,192,62923,12,6,65355,0:0:0:0:
184,328,73139,6,0,L|164:196,1,112.500004291535,4|2,1:1|0:0,0:0:0:0:
280,264,73788,2,0,L|260:132,1,112.500004291535,2|2,1:2|0:0,0:0:0:0:
196,60,74436,2,0,L|332:40,1,112.500004291535,2|2,1:2|0:0,0:0:0:0:
151,169,75085,2,0,L|287:149,1,112.500004291535,2|2,1:2|1:2,0:0:0:0:
440,120,75734,1,4,1:2:0:0:
464,300,76058,6,0,B|408:328|340:284,2,112.500004291535,2|2|2,0:0|1:2|0:0,0:0:0:0:
512,168,77031,2,0,L|496:36,1,112.500004291535,2|8,1:2|3:0,0:0:0:0:
416,76,77518,1,8,3:0:0:0:
416,76,77680,2,0,B|344:64|292:96,1,112.500004291535,4|0,3:0|0:0,0:0:0:0:
204,260,78328,1,2,0:0:0:0:
368,340,78653,6,0,B|412:344|444:328,1,75,2|2,0:0|0:0,0:0:0:0:
496,264,78977,2,0,B|500:220|484:188,1,75,2|0,0:0|0:0,0:0:0:0:
408,160,79301,2,0,B|364:156|332:172,1,75,2|2,0:0|0:0,0:0:0:0:
264,232,79626,2,0,B|192:272|112:240,1,150,2|2,0:0|0:0,0:0:0:0:
152,168,80112,1,2,0:0:0:0:
68,152,80274,2,0,B|116:68|204:80|204:80,1,150,2|0,0:0|0:0,0:0:0:0:
320,144,80923,6,0,B|384:96|480:108,2,150,2|2|2,0:0|0:0|0:0,0:0:0:0:
280,216,81734,1,2,0:0:0:0:
260,296,81896,2,0,L|292:364,1,75,2|2,0:0|0:0,0:0:0:0:
354,205,82220,2,0,L|270:217,1,75,8|0,0:0|0:0,0:0:0:0:
200,240,82545,2,0,L|116:252,1,75,8|8,0:0|0:0,0:0:0:0:
44,252,82869,2,0,L|52:192,3,37.5,2|2|0|2,0:0|0:0|0:0|0:0,0:0:0:0:
72,180,83193,2,0,L|80:120,3,37.5,2|2|2|0,0:0|0:0|0:0|0:0,0:0:0:0:
100,108,83518,6,0,L|252:96,1,150,4|8,0:0|0:0,0:0:0:0:
332,84,84004,1,0,0:0:0:0:
396,144,84166,2,0,B|456:208|416:296,1,150,0|8,0:0|0:0,0:0:0:0:
336,288,84653,1,0,0:0:0:0:
268,232,84815,2,0,B|176:216|128:284,1,150,0|8,0:0|0:0,0:0:0:0:
92,192,85301,1,0,0:0:0:0:
92,192,85382,1,0,0:0:0:0:
92,192,85463,2,0,L|68:96,1,75,0|0,0:0|0:0,0:0:0:0:
140,60,85788,1,8,0:0:0:0:
168,144,85950,1,8,0:0:0:0:
248,112,86112,6,0,B|320:112|420:124,1,150,4|8,0:0|0:0,0:0:0:0:
432,200,86599,1,0,0:0:0:0:
432,200,86761,2,0,B|392:204|344:192,1,75,0|0,0:0|0:0,0:0:0:0:
296,264,87085,2,0,B|348:264|388:280,1,75,8|0,0:0|0:0,0:0:0:0:
394,294,87328,1,0,0:0:0:0:
412,316,87409,2,0,B|472:328|516:280|500:212,1,150,12|8,0:0|0:0,0:0:0:0:
468,156,87896,1,0,0:0:0:0:
468,156,88058,2,0,B|468:108|476:60,1,75,8|0,0:0|0:0,0:0:0:0:
408,28,88382,1,8,0:0:0:0:
332,72,88545,2,0,L|344:116,2,37.5,0|8|4,0:0|0:0|0:0,0:0:0:0:
248,40,88869,5,0,0:0:0:0:
248,40,89031,2,0,B|172:40|96:60,1,150,8|0,0:0|0:0,0:0:0:0:
40,128,89518,1,0,0:0:0:0:
120,172,89680,2,0,B|132:216|136:272,1,75,8|0,0:0|0:0,0:0:0:0:
80,312,90004,1,0,0:0:0:0:
152,356,90166,2,0,B|200:352|236:340,1,75,0|8,0:0|0:0,0:0:0:0:
284,276,90490,1,0,0:0:0:0:
284,276,90572,1,0,0:0:0:0:
284,276,90653,1,0,0:0:0:0:
264,188,90815,1,0,0:0:0:0:
344,140,90977,2,0,B|352:188|336:232,1,75,8|8,0:0|0:0,0:0:0:0:
196,248,91301,6,0,B|152:164|220:92,1,150,12|8,0:0|0:0,0:0:0:0:
284,44,91788,1,0,0:0:0:0:
284,44,91950,2,0,L|188:68,1,75,8|0,0:0|0:0,0:0:0:0:
120,44,92274,2,0,L|104:132,1,75,8|0,0:0|0:0,0:0:0:0:
24,156,92599,2,0,L|52:304,1,150,12|8,0:0|0:0,0:0:0:0:
120,244,93085,1,0,0:0:0:0:
184,296,93247,5,8,0:0:0:0:
252,172,93409,1,8,0:0:0:0:
252,172,93896,6,0,B|320:124|416:160,2,150,4|8|0,0:0|0:0|0:0,0:0:0:0:
216,96,94707,2,0,B|176:108|128:104,1,75,0|8,0:0|0:0,0:0:0:0:
60,56,95031,2,0,B|16:88|28:164|84:176,1,150,4|0,0:0|0:0,0:0:0:0:
168,192,95518,1,8,0:0:0:0:
252,172,95680,2,0,B|300:160|344:192,1,75,0|0,0:0|0:0,0:0:0:0:
400,220,96004,5,0,0:0:0:0:
400,220,96166,1,8,0:0:0:0:
448,148,96328,2,0,L|456:48,1,75,0|4,0:0|0:0,0:0:0:0:
368,64,96653,2,0,B|328:72|272:80,1,75,0|8,0:0|0:0,0:0:0:0:
244,176,96977,2,0,B|284:168|340:160,1,75
180,100,97301,1,0,0:0:0:0:
136,172,97463,1,8,0:0:0:0:
168,256,97626,2,0,B|224:332|320:280,1,150,4|0,0:0|0:0,0:0:0:0:
372,236,98112,2,0,L|432:164,1,75,8|0,0:0|0:0,0:0:0:0:
444,96,98436,2,0,B|400:88|360:108,1,75,10|2,0:0|0:0,0:0:0:0:
304,148,98761,2,0,B|268:168|212:156,1,75,10|0,0:0|0:0,0:0:0:0:
152,196,99085,6,0,B|96:184|52:228|64:288,2,150,4|8|0,0:0|0:0|0:0,0:0:0:0:
236,232,99896,2,0,B|228:272|232:316,1,75,0|8,0:0|0:0,0:0:0:0:
312,264,100220,2,0,B|352:228|344:156|284:140,1,150,4|0,0:0|0:0,0:0:0:0:
216,96,100707,1,8,0:0:0:0:
292,48,100869,2,0,B|340:44|380:48,1,75,0|4,0:0|0:2,0:0:0:0:
440,128,101193,5,0,0:0:0:0:
440,128,101355,1,8,0:0:0:0:
400,204,101518,2,0,B|396:260|400:296,1,75,0|4,0:0|0:0,0:0:0:0:
356,340,101842,1,0,0:0:0:0:
276,364,102004,1,8,0:0:0:0:
204,332,102166,2,0,L|192:224,1,75,0|0,0:0|0:0,0:0:0:0:
112,280,102490,2,0,B|68:288|28:256,1,75,0|8,0:0|0:0,0:0:0:0:
96,192,102815,2,0,B|148:124|252:152,1,150,4|0,0:2|0:0,0:0:0:0:
312,184,103301,2,0,L|416:224,1,75,8|0,0:0|0:0,0:0:0:0:
464,184,103626,2,0,B|512:148|500:64|432:48,1,150,8|8,0:0|0:0,0:0:0:0:
372,88,104112,5,0,0:0:0:0:
372,88,104274,2,0,L|288:80,1,75,4|0,0:0|0:0,0:0:0:0:
248,168,104599,2,0,L|332:160,1,75,8|0,0:0|0:0,0:0:0:0:
296,248,104923,1,0,0:0:0:0:
200,256,105085,2,0,B|132:204|172:116,1,150,0|0,0:0|0:0,0:0:0:0:
236,64,105572,2,0,L|308:28,2,75,0|0|8,0:0|0:0|0:0,0:0:0:0:
248,148,106058,1,0,0:0:0:0:
169,122,106220,2,0,L|80:88,1,75,10|10,0:0|0:0,0:0:0:0:
98,95,106545,1,10,0:0:0:0:
100,320,106869,6,0,B|140:324|176:304,2,75,4|0|8,0:0|0:0|0:0,0:0:0:0:
32,264,107355,1,0,0:0:0:0:
88,192,107518,1,0,0:0:0:0:
88,192,107680,2,0,B|160:176|256:188,1,150,0|0,0:0|0:0,0:0:0:0:
296,244,108166,2,0,B|340:252|384:236,1,75,0|0,0:0|0:0,0:0:0:0:
400,168,108490,2,0,B|360:160|324:172,1,75,8|0,0:0|0:0,0:0:0:0:
348,92,108815,2,0,L|352:12,1,75,10|10,0:0|0:0,0:0:0:0:
351,17,109139,1,10,0:0:0:0:
172,64,109463,6,0,B|128:140|184:208,1,150,4|8,0:0|0:0,0:0:0:0:
252,252,109950,1,0,0:0:0:0:
204,324,110112,1,0,0:0:0:0:
204,324,110274,2,0,B|160:368|92:348|80:292,1,150
96,212,110761,2,0,B|100:172|92:128,2,75,0|0|8,0:0|0:0|0:0,0:0:0:0:
176,264,111247,1,0,0:0:0:0:
176,264,111409,2,0,B|268:252|344:252,1,150,10|10,0:0|0:0,0:0:0:0:
436,104,112058,5,4,0:0:0:0:
252,160,112382,1,8,0:0:0:0:
104,60,112707,1,0,0:0:0:0:
104,60,112869,2,0,B|80:136|112:216,2,150,0|4|0,0:0|0:0|0:0,0:0:0:0:
184,72,113680,2,0,L|336:48,1,150,8|0,0:0|0:0,0:0:0:0:
412,92,114166,1,0,0:0:0:0:
412,92,114328,1,4,0:2:0:0:
256,288,114653,1,6,0:0:0:0:
256,192,114815,12,4,117247,0:0:0:0:
232,324,117572,6,0,B|156:360|76:324,2,150,8|2|8,0:0|0:0|0:0,0:0:0:0:
284,128,118545,2,0,B|360:92|440:128,1,150,2|8,0:0|0:0,0:0:0:0:
476,192,119031,2,0,L|460:288,1,75,0|2,0:0|0:0,0:0:0:0:
384,304,119355,1,0,0:0:0:0:
324,248,119518,2,0,B|356:220|416:224,1,75,8|8,0:0|0:0,0:0:0:0:
324,248,119842,6,0,B|232:280|168:200,1,150,6|8,0:0|0:0,0:0:0:0:
292,48,120490,2,0,B|384:16|448:96,1,150,2|8,0:0|0:0,0:0:0:0:
430,307,121139,2,0,B|376:368|280:336,1,150,2|8,0:0|0:0,0:0:0:0:
248,268,121626,2,0,L|236:192,1,75,0|2,0:0|0:0,0:0:0:0:
156,248,121950,2,0,L|168:84,1,150,0|0,0:0|0:0,0:0:0:0:
244,48,122436,5,4,0:0:0:0:
396,156,122761,2,0,B|408:200|392:244,1,75,8|0,0:0|0:0,0:0:0:0:
368,312,123085,2,0,B|344:340|304:352|304:352|270:335|216:340,1,150,2|8,0:0|0:0,0:0:0:0:
80,168,123734,2,0,L|252:136,1,150,2|8,0:0|0:0,0:0:0:0:
304,96,124220,1,0,0:0:0:0:
304,96,124382,2,0,B|236:32|144:88,1,150,2|8,0:0|0:0,0:0:0:0:
256,292,125031,1,4,0:0:0:0:
256,192,130220,12,4,135409,0:0:0:0:
136,328,135734,6,0,L|108:164,1,150,8|0,0:0|0:0,0:0:0:0:
96,100,136220,1,0,0:0:0:0:
180,124,136382,2,0,B|220:120|260:104,1,75,8|0,0:0|0:0,0:0:0:0:
332,68,136707,2,0,B|372:52|420:44,2,75,0|0|8,0:0|0:0|0:0,0:0:0:0:
320,152,137193,2,0,B|260:212|312:292,1,150,0|0,0:0|0:0,0:0:0:0:
388,336,137680,1,8,0:0:0:0:
388,336,137842,1,0,0:0:0:0:
452,272,138004,6,0,L|440:184,1,75,4|0,0:0|0:0,0:0:0:0:
472,108,138328,2,0,L|388:136,1,75,8|0,0:0|0:0,0:0:0:0:
332,196,138653,2,0,L|320:100,1,75,0|0,0:0|0:0,0:0:0:0:
336,36,138977,2,0,L|252:64,1,75,8|0,0:0|0:0,0:0:0:0:
200,124,139301,1,12,0:0:0:0:
200,124,139463,1,0,0:0:0:0:
248,196,139626,2,0,B|244:240|240:296,1,75,8|0,0:0|0:0,0:0:0:0:
208,348,139950,1,8,0:0:0:0:
124,348,140112,1,0,0:0:0:0:
72,284,140274,2,0,B|64:240|80:192,1,75,8|8,0:0|0:0,0:0:0:0:
120,136,140599,5,12,0:0:0:0:
120,136,140923,2,0,B|288:120,1,150,8|0,0:0|0:0,0:0:0:0:
348,108,141409,1,0,0:0:0:0:
424,112,141572,2,0,B|424:72|388:40,1,75,8|0,0:0|0:0,0:0:0:0:
308,36,141896,1,0,0:0:0:0:
308,36,142058,2,0,B|264:36|212:44,1,75,0|8,0:0|0:0,0:0:0:0:
168,96,142382,2,0,B|80:128|32:64,1,150,0|0,0:0|0:0,0:0:0:0:
48,164,142869,2,0,L|72:236,1,75,8|8,0:0|0:0,0:0:0:0:
20,328,143193,6,0,B|56:348|104:336,1,75,12|0,0:0|0:0,0:0:0:0:
176,296,143518,1,8,0:0:0:0:
176,296,143680,1,0,0:0:0:0:
248,244,143842,2,0,B|292:232|344:256,1,75,8|0,0:0|0:0,0:0:0:0:
396,288,144166,1,8,0:0:0:0:
396,288,144328,1,0,0:0:0:0:
472,344,144490,2,0,L|480:256,1,75,12|0,0:0|0:0,0:0:0:0:
424,200,144815,2,0,L|412:120,1,75,8|0,0:0|0:0,0:0:0:0:
468,56,145139,5,8,0:0:0:0:
332,36,145301,1,8,0:0:0:0:
332,36,145788,6,0,B|248:16|180:64,2,150,4|8|0,0:0|0:0|0:0,0:0:0:0:
312,116,146599,2,0,L|328:204,1,75,0|8,0:0|0:0,0:0:0:0:
300,268,146923,2,0,B|220:300|160:240,1,150,4|0,0:0|0:0,0:0:0:0:
160,160,147409,1,8,0:0:0:0:
96,100,147572,2,0,B|64:136|52:188,1,75,0|0,0:0|0:0,0:0:0:0:
44,248,147896,5,0,0:0:0:0:
132,248,148058,1,8,0:0:0:0:
120,336,148220,2,0,L|220:352,1,75,0|4,0:0|0:0,0:0:0:0:
280,284,148545,2,0,L|200:268,1,75,0|8,0:0|0:0,0:0:0:0:
268,196,148869,2,0,L|356:184,1,75,0|0,0:0|0:0,0:0:0:0:
424,176,149193,1,0,0:0:0:0:
440,92,149355,1,8,0:0:0:0:
368,44,149518,2,0,B|284:16|224:84,1,150,4|0,0:0|0:0,0:0:0:0:
172,144,150004,2,0,B|128:152|96:124,1,75,8|0,0:0|0:0,0:0:0:0:
24,96,150328,2,0,L|28:192,1,75,10|10,0:0|0:0,0:0:0:0:
36,256,150653,2,0,L|128:244,1,75,10|10,0:0|0:0,0:0:0:0:
148,240,150896,5,8,0:0:0:0:
148,240,150977,2,0,B|216:228|304:224,2,150,4|8|0,0:0|0:0|0:0,0:0:0:0:
168,320,151788,2,0,B|212:320|256:312,1,75,0|8,0:0|0:0,0:0:0:0:
328,312,152112,2,0,B|412:280|480:344,1,150,4|0,0:0|0:0,0:0:0:0:
468,334,152599,1,8,0:0:0:0:
448,240,152761,2,0,B|424:204|432:160,1,75,0|4,0:0|0:2,0:0:0:0:
440,72,153085,5,0,0:0:0:0:
512,124,153247,1,8,0:0:0:0:
440,72,153409,2,0,L|356:92,1,75,0|4,0:0|0:0,0:0:0:0:
288,112,153734,1,0,0:0:0:0:
200,76,153896,1,8,0:0:0:0:
288,112,154058,2,0,L|280:212,1,75,0|0,0:0|0:0,0:0:0:0:
312,268,154382,2,0,B|268:280|228:256,1,75,0|8,0:0|0:0,0:0:0:0:
192,192,154707,2,0,B|148:156|80:176|60:240,1,150,4|0,0:2|0:0,0:0:0:0:
16,296,155193,2,0,B|56:312|100:300,1,75,8|0,0:0|0:0,0:0:0:0:
172,348,155518,2,0,B|171:310|176:260,1,75,8|0,0:0|0:0,0:0:0:0:
256,312,155842,1,8,0:0:0:0:
344,320,156004,5,8,0:0:0:0:
344,320,156166,2,0,B|384:312|432:312,1,75,4|0,0:0|0:0,0:0:0:0:
504,328,156490,2,0,B|512:288|512:240,1,75,8|0,0:0|0:0,0:0:0:0:
464,164,156815,1,0,0:0:0:0:
464,164,156977,2,0,B|416:244|312:200,1,150,0|0,0:0|0:0,0:0:0:0:
264,156,157463,2,0,L|256:80,2,75,0|0|8,0:0|0:0|0:0,0:0:0:0:
208,224,157950,1,0,0:0:0:0:
208,224,158112,2,0,L|220:304,1,75,10|10,0:0|0:0,0:0:0:0:
308,320,158436,2,0,L|296:240,1,75,10|10,0:0|0:0,0:0:0:0:
380,264,158761,6,0,B|460:296|512:220,1,150,4|8,0:0|0:0,0:0:0:0:
428,192,159247,1,0,0:0:0:0:
336,184,159409,1,0,0:0:0:0:
336,184,159572,2,0,B|288:172|288:172|248:140|248:140|184:128,1,150
132,188,160058,2,0,B|168:204|220:208,1,75,0|0,0:0|0:0,0:0:0:0:
284,272,160382,2,0,B|248:284|200:280,1,75,8|0,0:0|0:0,0:0:0:0:
128,268,160707,2,0,B|84:260|32:256,1,75,10|10,0:0|0:0,0:0:0:0:
148,352,161031,2,0,B|192:360|244:364,1,75,10|10,0:0|0:0,0:0:0:0:
308,348,161355,6,0,L|400:356,1,75,4|0,0:0|0:0,0:0:0:0:
444,296,161680,1,8,0:0:0:0:
420,216,161842,1,0,0:0:0:0:
456,140,162004,1,0,0:0:0:0:
456,140,162166,2,0,B|464:96|456:56,2,75,0|8|0,0:0|0:0|0:0,0:0:0:0:
368,144,162653,2,0,L|272:156,1,75,0|0,0:0|0:0,0:0:0:0:
208,168,162977,1,8,0:0:0:0:
208,168,163139,2,0,B|144:108|48:148,1,150,0|10,0:0|0:0,0:0:0:0:
112,216,163626,1,10,0:0:0:0:
56,284,163788,1,10,0:0:0:0:
180,332,163950,6,0,L|276:324,1,75,4|0,0:0|0:0,0:0:0:0:
329,332,164274,2,0,L|233:324,1,75,8|0,0:0|0:0,0:0:0:0:
256,248,164599,1,0,0:0:0:0:
256,248,164761,2,0,L|256:156,1,75,0|8,0:0|0:0,0:0:0:0:
196,104,165085,2,0,B|144:120|132:192|176:232,1,150,4|0,0:0|0:0,0:0:0:0:
256,248,165572,1,8,0:0:0:0:
344,216,165734,1,0,0:0:0:0:
344,216,165815,1,0,0:0:0:0:
344,216,165896,2,0,L|360:172,4,37.5,0|0|0|0|4,0:0|0:0|0:0|0:0|0:2,0:0:0:0:
256,192,166382,12,12,167518,0:3:0:0:
144,112,167842,6,2,B|136:184|152:276,1,150,6|8,0:0|0:0,0:0:0:0:
368,272,168490,2,2,B|376:200|360:108,1,150,2|8,0:0|0:0,0:0:0:0:
72,48,169139,2,2,B|48:124|72:208,1,150,2|8,0:0|0:0,0:0:0:0:
136,148,169626,2,0,B|176:144|216:152,1,75,2|0,0:0|0:0,0:0:0:0:
284,200,169950,2,2,B|320:248|300:316|240:324,1,150,0|0,0:0|0:0,0:0:0:0:
176,272,170436,1,6,0:0:0:0:
384,188,170761,6,0,B|424:184|476:184,1,75,8|0,0:0|0:0,0:0:0:0:
412,92,171085,2,2,B|340:84|244:100,1,150,2|8,0:0|0:0,0:0:0:0:
104,172,171734,2,2,B|64:212|80:280|136:292,1,150,2|8,0:0|0:0,0:0:0:0:
212,252,172220,1,0,0:0:0:0:
292,296,172382,2,0,B|332:304|368:300,1,75,2|0,0:0|0:0,0:0:0:0:
372,176,172707,2,0,B|332:168|296:172,1,75,8|0,0:0|0:0,0:0:0:0:
180,96,173031,6,2,B|200:40|268:24|320:68,1,150,6|8,0:0|0:0,0:0:0:0:
332,284,173680,2,2,B|312:340|244:356|192:312,1,150,2|8,0:0|0:0,0:0:0:0:
52,128,174328,2,2,L|96:288,1,150,2|8,0:0|0:0,0:0:0:0:
152,208,174815,1,0,0:0:0:0:
228,172,174977,2,0,B|268:180|308:204,1,75,0|2,0:0|0:0,0:0:0:0:
380,168,175301,2,0,B|416:256|352:324,1,150,10|6,0:0|0:0,0:0:0:0:
364,309,175950,6,0,B|320:312|264:328,1,75,10|0,0:0|0:0,0:0:0:0:
200,344,176274,2,0,B|192:300|216:264,1,75,2|0,0:0|0:0,0:0:0:0:
296,224,176599,2,2,B|236:148|152:196,1,150,10|2,0:0|0:0,0:0:0:0:
96,244,177085,1,0,0:0:0:0:
96,244,177247,1,8,0:0:0:0:
8,260,177409,2,0,B|0:216|4:168,1,75,0|2,0:0|0:0,0:0:0:0:
56,116,177734,2,0,B|116:104|152:108,1,75,0|8,0:0|0:0,0:0:0:0:
212,128,178058,1,0,0:0:0:0:
296,148,178220,6,2,B|356:148|384:84|356:40,2,150,6|8|10,0:0|0:0|0:0,0:0:0:0:
236,80,179031,1,0,0:0:0:0:
152,72,179193,2,0,B|108:76|44:88,1,75,8|0,0:0|0:0,0:0:0:0:
12,140,179518,2,2,B|88:192|36:288,1,150,14|8,0:0|0:0,0:0:0:0:
4,344,180004,1,0,0:0:0:0:
88,344,180166,2,0,L|160:368,1,75,10|0,0:0|0:0,0:0:0:0:
228,320,180490,1,8,0:0:0:0:
316,304,180653,1,0,0:0:0:0:
388,352,180815,1,14,0:0:0:0:
280,144,181139,6,0,B|268:104|280:56,1,75,10|0,0:0|0:0,0:0:0:0:
348,24,181463,2,2,B|288:76|180:36,1,150,10|8,0:0|0:0,0:0:0:0:
205,44,181950,1,0,0:0:0:0:
184,128,182112,2,0,L|208:208,1,75,14|0,0:0|0:0,0:0:0:0:
116,272,182436,2,0,L|92:192,1,75,8|0,0:0|0:0,0:0:0:0:
205,199,182761,2,0,L|188:288,1,75,10|0,0:0|0:0,0:0:0:0:
94,200,183085,2,0,L|111:111,1,75,8|0,0:0|0:0,0:0:0:0:
232,76,183409,6,0,B|320:44|380:116,1,150,14|8,0:0|0:0,0:0:0:0:
288,144,183896,1,0,0:0:0:0:
348,212,184058,2,0,B|260:244|200:172,1,150,10|8,0:0|0:0,0:0:0:0:
210,183,184545,1,0,0:0:0:0:
192,272,184707,2,0,L|216:352,1,75,14|0,0:0|0:0,0:0:0:0:
124,328,185031,2,0,L|100:248,1,75,8|0,0:0|0:0,0:0:0:0:
116,182,185355,2,0,L|100:266,1,75,10|0,0:0|0:0,0:0:0:0:
32,192,185680,2,0,L|52:96,1,75,8|0,0:0|0:0,0:0:0:0:
136,96,186004,6,0,L|296:76,2,150,14|10|10,0:0|0:0|0:0,0:0:0:0:
144,176,186815,1,0,0:0:0:0:
144,176,186977,2,0,B|180:184|232:160,1,75,8|0,0:0|0:0,0:0:0:0:
288,216,187301,2,0,B|332:248|320:324|264:344,1,150,14|8,0:1|0:0,0:0:0:0:
208,288,187788,1,0,0:0:0:0:
208,288,187950,2,0,B|164:288|112:300,1,75,10|0,0:0|0:0,0:0:0:0:
56,328,188274,1,8,0:0:0:0:
24,240,188436,5,0,0:0:0:0:
24,240,188518,1,8,0:0:0:0:
24,240,188599,2,0,L|28:152,1,75,4|0,0:0|0:0,0:0:0:0:
128,208,188923,2,0,L|116:124,1,75,8|0,0:0|0:0,0:0:0:0:
220,200,189247,2,0,L|224:108,1,75,8|0,0:0|0:0,0:0:0:0:
332,212,189572,2,0,L|320:108,1,75,8|0,0:0|0:0,0:0:0:0:
304,40,189896,2,0,B|352:40|384:72,1,75,8|8,0:0|0:0,0:0:0:0:
432,124,190220,1,8,0:0:0:0:
416,204,190382,1,4,0:0:0:0:
256,192,190545,12,0,198653,2:0:0:0:
