osu file format v14

[General]
AudioFilename: audio.mp3
AudioLeadIn: 0
PreviewTime: 51576
Countdown: 0
SampleSet: Normal
StackLeniency: 0.7
Mode: 1
LetterboxInBreaks: 0
WidescreenStoryboard: 1

[Editor]
Bookmarks: 2341,15674,22341,35674,52237,75674,89008
DistanceSpacing: 1
BeatDivisor: 4
GridSize: 32
TimelineZoom: 4.015997

[Metadata]
Title:Kyuusei Argyros (TV Size)
TitleUnicode:救世Άργυρóϛ (TV Size)
Artist:Yousei Teikoku
ArtistUnicode:妖精帝國
Creator:Ulqui
Version:HiroK's Inner Oni
Source:東京ESP
Tags:Hades: The other world アルギュロス J-Rock JRock Metal Tokyo Anime ED Ending Short Ver. Version Lantis Japanese Skull_Kid HiroK
BeatmapID:2317766
BeatmapSetID:994975

[Difficulty]
HPDrainRate:6
CircleSize:5
OverallDifficulty:6.5
ApproachRate:6
SliderMultiplier:1.4
SliderTickRate:1

[Events]
//Background and Video events
0,0,"Konachan.com - 284685 sample.jpg",0,0
//Break Periods
//Storyboard Layer 0 (Background)
//Storyboard Layer 1 (Fail)
//Storyboard Layer 2 (Pass)
//Storyboard Layer 3 (Foreground)
//Storyboard Layer 4 (Overlay)
//Storyboard Sound Samples

[TimingPoints]
327,208.333333333333,4,1,0,90,1,0
327,-100,4,1,0,90,0,0
1993,-100,4,1,0,90,0,1
15326,-111.111111111111,4,1,0,90,0,0
15431,-125,4,1,0,90,0,0
34910,-83.3333333333333,4,1,0,90,0,0
35274,-111.111111111111,4,1,0,90,0,0
51108,-109.289617486339,4,1,0,90,0,0
51212,-107.52688172043,4,1,0,90,0,0
51316,-105.820105820106,4,1,0,90,0,0
51420,-104.166666666667,4,1,0,90,0,0
51524,-102.564102564103,4,1,0,90,0,0
51629,-101.010101010101,4,1,0,90,0,0
51889,-100,4,1,0,90,0,1
65326,-100,4,1,0,90,0,0
65431,-111.111111111111,4,1,0,90,0,0
75326,-100,4,1,0,90,0,1
88660,-100,4,1,0,90,0,0

[HitObjects]
108,257,327,5,8,0:0:0:0:
170,220,431,1,0,0:0:0:0:
201,201,483,1,0,0:0:0:0:
232,183,535,1,0,0:0:0:0:
263,166,587,1,0,0:0:0:0:
263,166,639,1,0,0:0:0:0:
263,166,743,1,8,0:0:0:0:
263,166,813,1,0,0:0:0:0:
263,166,882,1,0,0:0:0:0:
263,166,951,1,8,0:0:0:0:
263,166,1021,1,0,0:0:0:0:
263,166,1090,1,0,0:0:0:0:
263,166,1160,1,8,0:0:0:0:
263,166,1264,1,0,0:0:0:0:
263,166,1368,1,8,0:0:0:0:
263,166,1576,1,8,0:0:0:0:
263,166,1993,1,4,0:0:0:0:
263,166,2201,1,0,0:0:0:0:
263,166,2306,1,0,0:0:0:0:
263,166,2358,1,0,0:0:0:0:
263,166,2410,1,8,0:0:0:0:
263,166,2514,1,0,0:0:0:0:
263,166,2618,1,8,0:0:0:0:
263,166,2722,1,8,0:0:0:0:
263,166,2826,1,0,0:0:0:0:
263,166,2931,1,0,0:0:0:0:
263,166,3035,1,8,0:0:0:0:
288,140,3087,1,8,0:0:0:0:
263,166,3139,1,8,0:0:0:0:
263,166,3243,1,0,0:0:0:0:
263,166,3347,1,0,0:0:0:0:
263,166,3451,1,8,0:0:0:0:
263,166,3504,1,8,0:0:0:0:
263,166,3556,1,8,0:0:0:0:
263,166,3660,1,0,0:0:0:0:
263,166,3764,1,0,0:0:0:0:
297,175,3816,1,0,0:0:0:0:
263,166,3868,1,8,0:0:0:0:
263,166,3972,1,0,0:0:0:0:
263,166,4076,1,8,0:0:0:0:
263,166,4181,1,0,0:0:0:0:
263,166,4285,1,8,0:0:0:0:
263,166,4389,1,8,0:0:0:0:
263,166,4493,1,0,0:0:0:0:
263,166,4545,1,0,0:0:0:0:
263,166,4597,1,0,0:0:0:0:
263,166,4649,1,0,0:0:0:0:
263,166,4701,1,8,0:0:0:0:
263,166,4806,1,0,0:0:0:0:
263,166,4910,1,8,0:0:0:0:
263,166,4962,1,8,0:0:0:0:
291,188,5014,1,8,0:0:0:0:
263,166,5066,1,8,0:0:0:0:
263,166,5118,1,0,0:0:0:0:
263,166,5326,1,0,0:0:0:0:
263,166,5431,1,0,0:0:0:0:
263,166,5535,1,8,0:0:0:0:
204,124,5639,1,0,0:0:0:0:
233,144,5691,1,0,0:0:0:0:
262,165,5743,1,8,0:0:0:0:
262,165,5847,1,0,0:0:0:0:
262,165,5951,1,8,0:0:0:0:
262,165,6056,1,8,0:0:0:0:
262,165,6160,1,0,0:0:0:0:
262,165,6264,1,0,0:0:0:0:
262,165,6368,1,8,0:0:0:0:
262,165,6420,1,8,0:0:0:0:
262,165,6472,1,8,0:0:0:0:
262,165,6576,1,0,0:0:0:0:
262,165,6681,1,0,0:0:0:0:
262,165,6785,1,8,0:0:0:0:
262,165,6889,1,8,0:0:0:0:
262,165,6993,1,0,0:0:0:0:
262,165,7045,1,0,0:0:0:0:
262,165,7097,1,0,0:0:0:0:
262,165,7201,1,8,0:0:0:0:
262,165,7306,1,0,0:0:0:0:
262,165,7358,1,0,0:0:0:0:
262,165,7410,1,0,0:0:0:0:
262,165,7514,1,8,0:0:0:0:
262,165,7618,1,0,0:0:0:0:
262,165,7722,1,0,0:0:0:0:
262,165,7826,1,8,0:0:0:0:
262,165,7879,1,8,0:0:0:0:
262,165,7931,1,8,0:0:0:0:
262,165,8035,1,0,0:0:0:0:
262,165,8139,1,8,0:0:0:0:
262,165,8191,1,8,0:0:0:0:
262,165,8243,1,8,0:0:0:0:
262,165,8347,1,0,0:0:0:0:
262,165,8451,1,12,0:0:0:0:
262,165,8660,1,4,0:0:0:0:
262,165,8868,1,0,0:0:0:0:
262,165,8972,1,0,0:0:0:0:
262,165,9076,1,8,0:0:0:0:
262,165,9181,1,0,0:0:0:0:
262,165,9233,1,0,0:0:0:0:
262,165,9285,1,8,0:0:0:0:
262,165,9389,1,8,0:0:0:0:
262,165,9493,1,0,0:0:0:0:
262,165,9597,1,0,0:0:0:0:
262,165,9701,1,8,0:0:0:0:
262,165,9754,1,8,0:0:0:0:
262,165,9806,1,8,0:0:0:0:
262,165,9910,1,0,0:0:0:0:
262,165,10014,1,0,0:0:0:0:
262,165,10118,1,8,0:0:0:0:
262,165,10170,1,8,0:0:0:0:
262,165,10222,1,0,0:0:0:0:
262,165,10274,1,0,0:0:0:0:
262,165,10326,1,8,0:0:0:0:
262,165,10431,1,0,0:0:0:0:
262,165,10535,1,8,0:0:0:0:
262,165,10639,1,0,0:0:0:0:
262,165,10743,1,8,0:0:0:0:
262,165,10847,1,0,0:0:0:0:
298,175,10899,1,0,0:0:0:0:
298,175,10951,1,8,0:0:0:0:
262,165,11056,1,8,0:0:0:0:
262,165,11160,1,0,0:0:0:0:
262,165,11212,1,0,0:0:0:0:
262,165,11264,1,0,0:0:0:0:
262,165,11316,1,0,0:0:0:0:
262,165,11368,1,8,0:0:0:0:
262,165,11472,1,0,0:0:0:0:
262,165,11576,1,8,0:0:0:0:
262,165,11629,1,8,0:0:0:0:
262,165,11681,1,0,0:0:0:0:
262,165,11733,1,0,0:0:0:0:
262,165,11785,1,8,0:0:0:0:
262,165,11993,1,0,0:0:0:0:
262,165,12097,1,8,0:0:0:0:
262,165,12201,1,0,0:0:0:0:
262,165,12306,1,0,0:0:0:0:
262,165,12410,1,8,0:0:0:0:
262,165,12514,1,0,0:0:0:0:
262,165,12566,1,0,0:0:0:0:
262,165,12618,1,8,0:0:0:0:
262,165,12722,1,8,0:0:0:0:
262,165,12826,1,0,0:0:0:0:
262,165,12931,1,0,0:0:0:0:
262,165,13035,1,8,0:0:0:0:
262,165,13087,1,8,0:0:0:0:
262,165,13139,1,8,0:0:0:0:
262,165,13243,1,0,0:0:0:0:
262,165,13347,1,0,0:0:0:0:
262,165,13451,1,8,0:0:0:0:
262,165,13556,1,0,0:0:0:0:
262,165,13660,1,8,0:0:0:0:
262,165,13712,1,8,0:0:0:0:
262,165,13764,1,0,0:0:0:0:
262,165,13868,1,0,0:0:0:0:
262,165,13972,1,8,0:0:0:0:
262,165,14024,1,8,0:0:0:0:
262,165,14076,1,0,0:0:0:0:
262,165,14181,1,0,0:0:0:0:
262,165,14285,1,8,0:0:0:0:
262,165,14389,1,0,0:0:0:0:
197,137,14493,1,8,0:0:0:0:
229,150,14545,1,8,0:0:0:0:
229,150,14597,1,8,0:0:0:0:
229,150,14649,1,8,0:0:0:0:
229,150,14701,1,0,0:0:0:0:
262,165,14806,1,8,0:0:0:0:
262,165,14858,1,8,0:0:0:0:
262,165,14910,1,0,0:0:0:0:
262,165,15014,1,0,0:0:0:0:
262,165,15118,1,12,0:0:0:0:
262,165,15326,1,4,0:0:0:0:
262,165,15535,1,0,0:0:0:0:
262,165,15639,1,0,0:0:0:0:
262,165,15951,1,0,0:0:0:0:
262,165,16056,1,0,0:0:0:0:
262,165,16160,1,8,0:0:0:0:
262,165,16264,1,0,0:0:0:0:
262,165,16368,1,0,0:0:0:0:
262,165,16576,1,0,0:0:0:0:
262,165,16681,1,0,0:0:0:0:
262,165,16785,1,0,0:0:0:0:
262,165,16889,1,0,0:0:0:0:
262,165,17149,1,0,0:0:0:0:
262,165,17254,1,0,0:0:0:0:
262,165,17514,1,0,0:0:0:0:
262,165,17618,1,0,0:0:0:0:
262,165,17826,1,8,0:0:0:0:
262,165,17931,1,0,0:0:0:0:
262,165,18035,1,0,0:0:0:0:
262,165,18139,1,0,0:0:0:0:
262,165,18399,1,0,0:0:0:0:
262,165,18504,1,0,0:0:0:0:
262,165,18764,1,0,0:0:0:0:
262,165,18868,1,0,0:0:0:0:
262,165,19076,1,0,0:0:0:0:
262,165,19181,1,0,0:0:0:0:
262,165,19285,1,0,0:0:0:0:
262,165,19389,1,0,0:0:0:0:
262,165,19493,1,8,0:0:0:0:
262,165,19701,1,0,0:0:0:0:
262,165,19806,1,0,0:0:0:0:
262,165,20014,1,0,0:0:0:0:
262,165,20118,1,0,0:0:0:0:
262,165,20326,1,8,0:0:0:0:
262,165,20431,1,0,0:0:0:0:
262,165,20535,1,0,0:0:0:0:
262,165,20639,1,0,0:0:0:0:
262,165,20743,1,8,0:0:0:0:
262,165,20847,1,8,0:0:0:0:
262,165,20951,1,8,0:0:0:0:
262,165,21056,1,8,0:0:0:0:
262,165,21160,1,0,0:0:0:0:
262,165,21264,1,0,0:0:0:0:
262,165,21368,1,0,0:0:0:0:
262,165,21472,1,0,0:0:0:0:
262,165,21576,1,8,0:0:0:0:
262,165,21681,1,8,0:0:0:0:
262,165,21785,1,0,0:0:0:0:
262,165,21889,1,8,0:0:0:0:
262,165,21993,1,4,0:0:0:0:
262,165,22201,1,8,0:0:0:0:
262,165,22306,1,0,0:0:0:0:
262,165,22618,1,8,0:0:0:0:
262,165,22826,1,0,0:0:0:0:
262,165,22931,1,0,0:0:0:0:
262,165,23035,1,8,0:0:0:0:
262,165,23243,1,0,0:0:0:0:
262,165,23347,1,0,0:0:0:0:
262,165,23451,1,8,0:0:0:0:
262,165,23660,1,0,0:0:0:0:
262,165,23764,1,0,0:0:0:0:
262,165,23868,1,8,0:0:0:0:
262,165,23972,1,0,0:0:0:0:
262,165,24285,1,8,0:0:0:0:
262,165,24493,1,0,0:0:0:0:
262,165,24597,1,8,0:0:0:0:
262,165,24701,1,0,0:0:0:0:
262,165,24806,1,0,0:0:0:0:
262,165,24910,1,8,0:0:0:0:
262,165,25014,1,0,0:0:0:0:
262,165,25118,1,8,0:0:0:0:
262,165,25222,1,8,0:0:0:0:
262,165,25326,1,0,0:0:0:0:
262,165,25535,1,8,0:0:0:0:
262,165,25639,1,0,0:0:0:0:
262,165,25951,1,8,0:0:0:0:
262,165,26160,1,0,0:0:0:0:
262,165,26264,1,0,0:0:0:0:
262,165,26368,1,8,0:0:0:0:
262,165,26576,1,0,0:0:0:0:
262,165,26681,1,0,0:0:0:0:
262,165,26785,1,8,0:0:0:0:
262,165,26993,1,0,0:0:0:0:
262,165,27201,1,8,0:0:0:0:
262,165,27306,1,0,0:0:0:0:
262,165,27514,1,0,0:0:0:0:
262,165,27618,1,8,0:0:0:0:
262,165,27826,1,0,0:0:0:0:
262,165,28035,1,8,0:0:0:0:
317,173,28139,1,0,0:0:0:0:
262,165,28347,1,8,0:0:0:0:
262,165,28451,1,8,0:0:0:0:
262,165,28660,1,4,0:0:0:0:
262,165,28868,1,8,0:0:0:0:
262,165,28972,1,0,0:0:0:0:
262,165,29285,1,8,0:0:0:0:
262,165,29493,1,0,0:0:0:0:
262,165,29597,1,0,0:0:0:0:
262,165,29701,1,8,0:0:0:0:
262,165,29910,1,0,0:0:0:0:
262,165,30014,1,0,0:0:0:0:
262,165,30118,1,8,0:0:0:0:
262,165,30326,1,0,0:0:0:0:
262,165,30431,1,0,0:0:0:0:
262,165,30535,1,8,0:0:0:0:
262,165,30639,1,0,0:0:0:0:
262,165,30951,1,8,0:0:0:0:
262,165,31160,1,0,0:0:0:0:
262,165,31264,1,0,0:0:0:0:
262,165,31368,1,8,0:0:0:0:
262,165,31472,1,0,0:0:0:0:
262,165,31576,1,0,0:0:0:0:
262,165,31681,1,0,0:0:0:0:
262,165,31785,1,8,0:0:0:0:
262,165,31889,1,0,0:0:0:0:
262,165,31993,1,0,0:0:0:0:
262,165,32097,1,8,0:0:0:0:
262,165,32201,1,8,0:0:0:0:
262,165,32306,1,8,0:0:0:0:
262,165,32410,1,8,0:0:0:0:
262,165,32514,1,8,0:0:0:0:
262,165,32618,1,8,0:0:0:0:
262,165,32722,1,8,0:0:0:0:
262,165,32826,1,8,0:0:0:0:
262,165,32931,1,8,0:0:0:0:
262,165,33035,1,8,0:0:0:0:
262,165,33139,1,8,0:0:0:0:
262,165,33243,1,8,0:0:0:0:
262,165,33347,1,8,0:0:0:0:
262,165,33451,1,0,0:0:0:0:
262,165,33660,1,12,0:0:0:0:
262,165,33868,1,0,0:0:0:0:
262,165,33972,1,12,0:0:0:0:
262,165,34181,1,0,0:0:0:0:
262,165,34285,1,12,0:0:0:0:
262,165,34493,1,4,0:0:0:0:
262,165,34701,1,4,0:0:0:0:
256,192,34910,12,0,35222,0:0:0:0:
260,187,35326,5,4,0:0:0:0:
260,187,35535,1,0,0:0:0:0:
260,187,35639,1,0,0:0:0:0:
260,187,35951,1,0,0:0:0:0:
260,187,36056,1,0,0:0:0:0:
260,187,36160,1,8,0:0:0:0:
260,187,36264,1,0,0:0:0:0:
260,187,36368,1,0,0:0:0:0:
260,187,36576,1,0,0:0:0:0:
260,187,36681,1,0,0:0:0:0:
260,187,36785,1,0,0:0:0:0:
260,187,36889,1,0,0:0:0:0:
260,187,37201,1,0,0:0:0:0:
260,187,37306,1,0,0:0:0:0:
260,187,37514,1,0,0:0:0:0:
260,187,37618,1,0,0:0:0:0:
260,187,37826,1,8,0:0:0:0:
260,187,37931,1,0,0:0:0:0:
260,187,38035,1,0,0:0:0:0:
260,187,38139,1,0,0:0:0:0:
260,187,38451,1,0,0:0:0:0:
260,187,38556,1,0,0:0:0:0:
260,187,38764,1,0,0:0:0:0:
260,187,38868,1,0,0:0:0:0:
260,187,39076,1,0,0:0:0:0:
260,187,39181,1,0,0:0:0:0:
260,187,39285,1,0,0:0:0:0:
260,187,39389,1,0,0:0:0:0:
260,187,39493,1,8,0:0:0:0:
260,187,39701,1,0,0:0:0:0:
260,187,39806,1,0,0:0:0:0:
260,187,40014,1,0,0:0:0:0:
260,187,40118,1,0,0:0:0:0:
260,187,40326,1,0,0:0:0:0:
260,187,40431,1,0,0:0:0:0:
260,187,40535,1,0,0:0:0:0:
260,187,40639,1,8,0:0:0:0:
260,187,40743,1,0,0:0:0:0:
260,187,40847,1,8,0:0:0:0:
260,187,40951,1,8,0:0:0:0:
260,187,41056,1,8,0:0:0:0:
260,187,41160,1,0,0:0:0:0:
260,187,41264,1,8,0:0:0:0:
260,187,41368,1,0,0:0:0:0:
260,187,41472,1,0,0:0:0:0:
260,187,41576,1,8,0:0:0:0:
260,187,41681,1,8,0:0:0:0:
260,187,41785,1,0,0:0:0:0:
260,187,41889,1,8,0:0:0:0:
260,187,41993,1,4,0:0:0:0:
260,187,42201,1,0,0:0:0:0:
260,187,42306,1,0,0:0:0:0:
260,187,42618,1,0,0:0:0:0:
260,187,42722,1,0,0:0:0:0:
260,187,42826,1,8,0:0:0:0:
260,187,42931,1,0,0:0:0:0:
260,187,43035,1,0,0:0:0:0:
260,187,43243,1,0,0:0:0:0:
260,187,43347,1,0,0:0:0:0:
260,187,43451,1,0,0:0:0:0:
260,187,43556,1,0,0:0:0:0:
260,187,43868,1,0,0:0:0:0:
260,187,43972,1,0,0:0:0:0:
260,187,44181,1,0,0:0:0:0:
260,187,44285,1,0,0:0:0:0:
260,187,44493,1,8,0:0:0:0:
260,187,44597,1,8,0:0:0:0:
260,187,44701,1,0,0:0:0:0:
260,187,44806,1,0,0:0:0:0:
260,187,45118,1,0,0:0:0:0:
260,187,45222,1,0,0:0:0:0:
260,187,45431,1,0,0:0:0:0:
260,187,45535,1,0,0:0:0:0:
260,187,45743,1,0,0:0:0:0:
260,187,45847,1,0,0:0:0:0:
260,187,45951,1,0,0:0:0:0:
260,187,46056,1,0,0:0:0:0:
260,187,46160,1,8,0:0:0:0:
260,187,46368,1,0,0:0:0:0:
260,187,46472,1,0,0:0:0:0:
260,187,46681,1,0,0:0:0:0:
260,187,46785,1,0,0:0:0:0:
260,187,46993,1,8,0:0:0:0:
260,187,47097,1,8,0:0:0:0:
260,187,47201,1,8,0:0:0:0:
260,187,47306,1,8,0:0:0:0:
260,187,47410,1,8,0:0:0:0:
260,187,47514,1,8,0:0:0:0:
260,187,47618,1,0,0:0:0:0:
260,187,47722,1,0,0:0:0:0:
260,187,47826,1,8,0:0:0:0:
260,187,47931,1,8,0:0:0:0:
260,187,48035,1,0,0:0:0:0:
260,187,48139,1,0,0:0:0:0:
260,187,48243,1,8,0:0:0:0:
260,187,48347,1,0,0:0:0:0:
260,187,48451,1,0,0:0:0:0:
260,187,48556,1,8,0:0:0:0:
260,187,48660,1,4,0:0:0:0:
260,187,48868,1,0,0:0:0:0:
260,187,49076,1,0,0:0:0:0:
260,187,49285,1,0,0:0:0:0:
260,187,49493,1,0,0:0:0:0:
260,187,49701,1,0,0:0:0:0:
260,187,49910,1,0,0:0:0:0:
260,187,50118,1,0,0:0:0:0:
260,187,50326,1,0,0:0:0:0:
260,187,50535,1,0,0:0:0:0:
260,187,50743,1,0,0:0:0:0:
260,187,50951,1,0,0:0:0:0:
260,187,51160,1,8,0:0:0:0:
260,187,51264,1,8,0:0:0:0:
260,187,51368,1,8,0:0:0:0:
260,187,51472,1,8,0:0:0:0:
260,187,51576,1,0,0:0:0:0:
260,187,51681,1,8,0:0:0:0:
260,187,51889,1,4,0:0:0:0:
260,187,52097,1,0,0:0:0:0:
260,187,52201,1,8,0:0:0:0:
260,187,52306,1,0,0:0:0:0:
230,168,52358,1,0,0:0:0:0:
260,187,52410,1,8,0:0:0:0:
260,187,52514,1,0,0:0:0:0:
260,187,52618,1,8,0:0:0:0:
260,187,52722,1,0,0:0:0:0:
233,164,52774,1,0,0:0:0:0:
260,187,52826,1,0,0:0:0:0:
260,187,52931,1,0,0:0:0:0:
260,187,53035,1,8,0:0:0:0:
260,187,53139,1,0,0:0:0:0:
260,187,53243,1,8,0:0:0:0:
260,187,53347,1,8,0:0:0:0:
260,187,53556,1,4,0:0:0:0:
260,187,53764,1,0,0:0:0:0:
260,187,53868,1,8,0:0:0:0:
260,187,53972,1,0,0:0:0:0:
260,187,54024,1,0,0:0:0:0:
260,187,54076,1,8,0:0:0:0:
260,187,54181,1,0,0:0:0:0:
260,187,54285,1,0,0:0:0:0:
260,187,54389,1,8,0:0:0:0:
289,205,54441,1,8,0:0:0:0:
260,187,54493,1,0,0:0:0:0:
260,187,54597,1,0,0:0:0:0:
260,187,54701,1,8,0:0:0:0:
260,187,54754,1,8,0:0:0:0:
260,187,54806,1,8,0:0:0:0:
260,187,54910,1,0,0:0:0:0:
260,187,55014,1,0,0:0:0:0:
260,187,55118,1,8,0:0:0:0:
260,187,55222,1,4,0:0:0:0:
260,187,55431,1,0,0:0:0:0:
260,187,55535,1,8,0:0:0:0:
260,187,55639,1,0,0:0:0:0:
260,187,55691,1,0,0:0:0:0:
260,187,55743,1,8,0:0:0:0:
260,187,55847,1,0,0:0:0:0:
260,187,55951,1,8,0:0:0:0:
260,187,56056,1,0,0:0:0:0:
260,187,56108,1,0,0:0:0:0:
260,187,56160,1,8,0:0:0:0:
260,187,56212,1,8,0:0:0:0:
260,187,56264,1,0,0:0:0:0:
260,187,56368,1,8,0:0:0:0:
260,187,56472,1,8,0:0:0:0:
260,187,56576,1,0,0:0:0:0:
306,134,56785,1,8,0:0:0:0:
260,187,56889,1,4,0:0:0:0:
260,187,57097,1,0,0:0:0:0:
260,187,57201,1,8,0:0:0:0:
260,187,57410,1,0,0:0:0:0:
260,187,57514,1,0,0:0:0:0:
260,187,57618,1,0,0:0:0:0:
260,187,57722,1,12,0:0:0:0:
260,187,57931,1,0,0:0:0:0:
260,187,58035,1,8,0:0:0:0:
260,187,58243,1,8,0:0:0:0:
260,187,58347,1,8,0:0:0:0:
260,187,58556,1,4,0:0:0:0:
260,187,58764,1,0,0:0:0:0:
260,187,58868,1,8,0:0:0:0:
260,187,58972,1,0,0:0:0:0:
260,187,59024,1,0,0:0:0:0:
260,187,59076,1,8,0:0:0:0:
260,187,59181,1,0,0:0:0:0:
260,187,59285,1,8,0:0:0:0:
260,187,59389,1,8,0:0:0:0:
260,187,59493,1,0,0:0:0:0:
231,167,59545,1,0,0:0:0:0:
260,187,59597,1,0,0:0:0:0:
260,187,59701,1,8,0:0:0:0:
260,187,59806,1,0,0:0:0:0:
260,187,59910,1,8,0:0:0:0:
260,187,60014,1,8,0:0:0:0:
260,187,60222,1,4,0:0:0:0:
260,187,60431,1,0,0:0:0:0:
260,187,60535,1,8,0:0:0:0:
260,187,60639,1,0,0:0:0:0:
260,187,60691,1,0,0:0:0:0:
260,187,60743,1,8,0:0:0:0:
260,187,60847,1,0,0:0:0:0:
260,187,60951,1,8,0:0:0:0:
260,187,61056,1,8,0:0:0:0:
260,187,61160,1,0,0:0:0:0:
226,175,61212,1,0,0:0:0:0:
260,187,61264,1,0,0:0:0:0:
260,187,61316,1,0,0:0:0:0:
260,187,61368,1,8,0:0:0:0:
260,187,61472,1,0,0:0:0:0:
260,187,61576,1,8,0:0:0:0:
260,187,61681,1,0,0:0:0:0:
260,187,61889,1,4,0:0:0:0:
260,187,62097,1,0,0:0:0:0:
260,187,62201,1,8,0:0:0:0:
282,159,62306,1,0,0:0:0:0:
251,176,62358,1,0,0:0:0:0:
251,176,62410,1,8,0:0:0:0:
251,176,62514,1,0,0:0:0:0:
272,148,62618,1,8,0:0:0:0:
251,176,62722,1,0,0:0:0:0:
251,176,62774,1,0,0:0:0:0:
251,176,62826,1,8,0:0:0:0:
261,142,62879,1,8,0:0:0:0:
251,176,62931,1,0,0:0:0:0:
251,176,63035,1,8,0:0:0:0:
251,176,63139,1,8,0:0:0:0:
251,176,63243,1,0,0:0:0:0:
251,176,63347,1,0,0:0:0:0:
390,188,63556,1,4,0:0:0:0:
251,172,63764,1,0,0:0:0:0:
181,167,63868,1,8,0:0:0:0:
320,164,64076,1,0,0:0:0:0:
249,165,64181,1,0,0:0:0:0:
249,165,64285,1,0,0:0:0:0:
249,165,64389,1,12,0:0:0:0:
249,165,64597,1,8,0:0:0:0:
249,165,64701,1,8,0:0:0:0:
250,94,64806,1,8,0:0:0:0:
252,24,64910,1,0,0:0:0:0:
253,93,65014,1,0,0:0:0:0:
263,162,65118,1,0,0:0:0:0:
263,162,65222,1,8,0:0:0:0:
263,162,65326,1,4,0:0:0:0:
263,162,65639,1,0,0:0:0:0:
263,162,65743,1,8,0:0:0:0:
263,162,65951,1,0,0:0:0:0:
263,162,66056,1,0,0:0:0:0:
263,162,66264,1,0,0:0:0:0:
263,162,66368,1,0,0:0:0:0:
263,162,66576,1,8,0:0:0:0:
273,231,66681,5,0,0:0:0:0:
263,161,66785,1,0,0:0:0:0:
272,230,66889,1,0,0:0:0:0:
263,161,66993,1,8,0:0:0:0:
256,126,67097,1,8,0:0:0:0:
272,265,67306,1,0,0:0:0:0:
264,195,67410,1,8,0:0:0:0:
274,55,67618,1,8,0:0:0:0:
269,124,67722,1,8,0:0:0:0:
259,264,67931,1,8,0:0:0:0:
264,194,68035,1,8,0:0:0:0:
268,54,68243,1,8,0:0:0:0:
268,88,68451,1,8,0:0:0:0:
316,139,68556,1,8,0:0:0:0:
257,177,68660,1,0,0:0:0:0:
315,139,68764,1,0,0:0:0:0:
315,139,68972,1,0,0:0:0:0:
315,139,69076,1,8,0:0:0:0:
315,139,69285,1,0,0:0:0:0:
315,139,69389,1,0,0:0:0:0:
315,139,69597,1,0,0:0:0:0:
315,139,69701,1,0,0:0:0:0:
315,139,69910,1,8,0:0:0:0:
266,189,70014,1,0,0:0:0:0:
266,189,70118,1,0,0:0:0:0:
266,189,70222,1,0,0:0:0:0:
266,189,70326,1,8,0:0:0:0:
266,189,70431,1,8,0:0:0:0:
266,189,70639,1,0,0:0:0:0:
266,189,70743,1,8,0:0:0:0:
266,189,70951,1,8,0:0:0:0:
266,189,71056,1,8,0:0:0:0:
266,189,71264,1,8,0:0:0:0:
266,189,71368,1,0,0:0:0:0:
266,189,71576,1,8,0:0:0:0:
266,189,71681,1,8,0:0:0:0:
266,189,71785,1,8,0:0:0:0:
332,209,71889,1,8,0:0:0:0:
391,126,71993,1,4,0:0:0:0:
195,204,72306,1,0,0:0:0:0:
259,178,72410,1,8,0:0:0:0:
379,107,72618,1,0,0:0:0:0:
348,124,72722,1,0,0:0:0:0:
234,206,72931,1,0,0:0:0:0:
290,165,73035,1,0,0:0:0:0:
160,218,73243,1,8,0:0:0:0:
224,191,73347,1,8,0:0:0:0:
289,166,73451,1,0,0:0:0:0:
289,166,73556,1,8,0:0:0:0:
289,166,73660,1,4,0:0:0:0:
289,166,73868,1,8,0:0:0:0:
289,166,73920,1,8,0:0:0:0:
289,166,73972,1,0,0:0:0:0:
289,166,74076,1,8,0:0:0:0:
289,166,74129,1,8,0:0:0:0:
223,191,74181,1,0,0:0:0:0:
288,166,74285,1,8,0:0:0:0:
288,166,74389,1,0,0:0:0:0:
253,159,74441,1,0,0:0:0:0:
288,166,74493,1,0,0:0:0:0:
288,166,74597,1,0,0:0:0:0:
288,166,74701,1,12,0:0:0:0:
288,166,74910,1,0,0:0:0:0:
288,166,75014,1,8,0:0:0:0:
288,166,75118,1,0,0:0:0:0:
288,166,75326,1,4,0:0:0:0:
288,166,75535,1,0,0:0:0:0:
288,166,75639,1,0,0:0:0:0:
288,166,75691,1,0,0:0:0:0:
288,166,75743,1,8,0:0:0:0:
288,166,75847,1,0,0:0:0:0:
288,166,75951,1,8,0:0:0:0:
288,166,76056,1,8,0:0:0:0:
288,166,76160,1,0,0:0:0:0:
288,166,76264,1,0,0:0:0:0:
288,166,76368,1,8,0:0:0:0:
288,166,76420,1,8,0:0:0:0:
288,166,76472,1,8,0:0:0:0:
288,166,76524,1,8,0:0:0:0:
288,166,76576,1,0,0:0:0:0:
288,166,76681,1,0,0:0:0:0:
288,166,76785,1,8,0:0:0:0:
288,166,76837,1,8,0:0:0:0:
288,166,76889,1,8,0:0:0:0:
318,183,76993,1,0,0:0:0:0:
318,183,77097,1,0,0:0:0:0:
318,183,77201,1,8,0:0:0:0:
253,153,77306,1,0,0:0:0:0:
284,167,77358,1,0,0:0:0:0:
284,167,77410,1,8,0:0:0:0:
284,167,77514,1,0,0:0:0:0:
284,167,77618,1,8,0:0:0:0:
284,167,77722,1,8,0:0:0:0:
284,167,77826,1,0,0:0:0:0:
284,167,77879,1,0,0:0:0:0:
284,167,77931,1,0,0:0:0:0:
284,167,77983,1,0,0:0:0:0:
284,167,78035,1,8,0:0:0:0:
284,167,78139,1,0,0:0:0:0:
284,167,78243,1,8,0:0:0:0:
284,167,78295,1,8,0:0:0:0:
284,167,78347,1,8,0:0:0:0:
284,167,78399,1,8,0:0:0:0:
284,167,78451,1,0,0:0:0:0:
284,167,78556,1,8,0:0:0:0:
284,167,78660,1,0,0:0:0:0:
284,167,78764,1,0,0:0:0:0:
284,167,78868,1,8,0:0:0:0:
284,167,78972,1,0,0:0:0:0:
253,150,79024,1,0,0:0:0:0:
284,167,79076,1,8,0:0:0:0:
284,167,79181,1,0,0:0:0:0:
253,150,79285,1,8,0:0:0:0:
253,150,79389,1,8,0:0:0:0:
253,150,79493,1,0,0:0:0:0:
253,150,79597,1,0,0:0:0:0:
253,150,79701,1,8,0:0:0:0:
253,150,79754,1,8,0:0:0:0:
253,150,79806,1,8,0:0:0:0:
253,150,79858,1,8,0:0:0:0:
253,150,79910,1,0,0:0:0:0:
286,211,80014,1,0,0:0:0:0:
269,143,80118,1,8,0:0:0:0:
265,191,80222,1,0,0:0:0:0:
296,280,80326,1,8,0:0:0:0:
265,191,80431,1,0,0:0:0:0:
265,191,80483,1,0,0:0:0:0:
260,156,80535,1,0,0:0:0:0:
225,149,80587,1,0,0:0:0:0:
265,191,80639,1,8,0:0:0:0:
265,191,80743,1,0,0:0:0:0:
265,191,80795,1,0,0:0:0:0:
265,191,80847,1,0,0:0:0:0:
307,135,80951,1,0,0:0:0:0:
232,209,81160,1,12,0:0:0:0:
43,368,81368,1,0,0:0:0:0:
398,81,81472,1,12,0:0:0:0:
81,160,81681,1,0,0:0:0:0:
216,186,81785,1,12,0:0:0:0:
337,117,81993,1,4,0:0:0:0:
224,199,82201,1,0,0:0:0:0:
281,157,82306,1,0,0:0:0:0:
281,157,82358,1,0,0:0:0:0:
281,157,82410,1,8,0:0:0:0:
281,157,82514,1,0,0:0:0:0:
281,157,82618,1,8,0:0:0:0:
281,157,82722,1,8,0:0:0:0:
252,136,82774,1,8,0:0:0:0:
281,157,82826,1,0,0:0:0:0:
281,157,82931,1,0,0:0:0:0:
281,157,83035,1,8,0:0:0:0:
281,157,83087,1,8,0:0:0:0:
281,157,83139,1,0,0:0:0:0:
252,136,83191,1,0,0:0:0:0:
281,157,83243,1,0,0:0:0:0:
281,157,83347,1,0,0:0:0:0:
281,157,83451,1,8,0:0:0:0:
281,157,83556,1,0,0:0:0:0:
281,157,83608,1,0,0:0:0:0:
281,157,83660,1,8,0:0:0:0:
281,157,83764,1,0,0:0:0:0:
281,157,83868,1,8,0:0:0:0:
281,157,83972,1,0,0:0:0:0:
281,157,84024,1,0,0:0:0:0:
281,157,84076,1,8,0:0:0:0:
266,124,84129,1,8,0:0:0:0:
281,157,84181,1,0,0:0:0:0:
211,163,84285,1,8,0:0:0:0:
280,158,84389,1,8,0:0:0:0:
280,158,84493,1,0,0:0:0:0:
280,158,84545,1,0,0:0:0:0:
280,158,84597,1,0,0:0:0:0:
280,158,84649,1,0,0:0:0:0:
280,158,84701,1,8,0:0:0:0:
280,158,84806,1,0,0:0:0:0:
280,158,84910,1,8,0:0:0:0:
280,158,84962,1,8,0:0:0:0:
280,158,85014,1,8,0:0:0:0:
280,158,85066,1,8,0:0:0:0:
280,158,85118,1,0,0:0:0:0:
280,158,85222,1,8,0:0:0:0:
280,158,85326,1,0,0:0:0:0:
280,158,85431,1,0,0:0:0:0:
280,158,85535,1,8,0:0:0:0:
280,158,85639,1,0,0:0:0:0:
280,158,85691,1,0,0:0:0:0:
280,158,85743,1,8,0:0:0:0:
280,158,85847,1,0,0:0:0:0:
280,158,85951,1,8,0:0:0:0:
280,158,86056,1,8,0:0:0:0:
280,158,86160,1,0,0:0:0:0:
280,158,86264,1,8,0:0:0:0:
280,158,86316,1,8,0:0:0:0:
280,158,86368,1,0,0:0:0:0:
280,158,86472,1,0,0:0:0:0:
280,158,86576,1,8,0:0:0:0:
280,158,86629,1,0,0:0:0:0:
280,158,86681,1,0,0:0:0:0:
280,158,86733,1,0,0:0:0:0:
280,158,86785,1,8,0:0:0:0:
280,158,86889,1,0,0:0:0:0:
280,158,86993,1,8,0:0:0:0:
250,139,87045,1,8,0:0:0:0:
250,139,87097,1,8,0:0:0:0:
280,158,87201,1,0,0:0:0:0:
280,158,87306,1,8,0:0:0:0:
280,158,87358,1,8,0:0:0:0:
210,158,87410,5,8,0:0:0:0:
279,158,87514,1,0,0:0:0:0:
209,158,87618,1,8,0:0:0:0:
279,158,87722,1,0,0:0:0:0:
348,150,87826,1,8,0:0:0:0:
312,152,87879,1,8,0:0:0:0:
277,155,87931,1,0,0:0:0:0:
277,155,88035,1,0,0:0:0:0:
277,155,88139,1,8,0:0:0:0:
277,155,88191,1,8,0:0:0:0:
277,155,88243,1,0,0:0:0:0:
277,155,88347,1,0,0:0:0:0:
277,155,88451,1,8,0:0:0:0:
277,155,88660,1,4,0:0:0:0:
