osu file format v14

[General]
AudioFilename: audio.mp3
AudioLeadIn: 0
PreviewTime: 67143
Countdown: 0
SampleSet: Normal
StackLeniency: 0.7
Mode: 1
LetterboxInBreaks: 0
WidescreenStoryboard: 1

[Editor]
DistanceSpacing: 0.8
BeatDivisor: 2
GridSize: 32
TimelineZoom: 1.2

[Metadata]
Title:Kyouki Chinden
TitleUnicode:狂気沈殿
Artist:Yousei Teikoku
ArtistUnicode:妖精帝國
Creator:ler1211
Version:Kantan
Source:未来日記リダイヤル
Tags:rinze Mirai Nikki: Redial Future Diary Yōsei Yosei Teikoku itsuki yui 伊月 ゆい PAX VESANIA Das Feenreich japanese rock jrock j-rock metal jmetal j-metal anime ova opening
BeatmapID:4006320
BeatmapSetID:1938037

[Difficulty]
HPDrainRate:8
CircleSize:5
OverallDifficulty:3
ApproachRate:5
SliderMultiplier:0.7
SliderTickRate:1

[Events]
//Background and Video events
0,0,"yandere.jpg",0,-20
//Break Periods
2,189110,199710
//Storyboard Layer 0 (Background)
//Storyboard Layer 1 (Fail)
//Storyboard Layer 2 (Pass)
//Storyboard Layer 3 (Foreground)
//Storyboard Layer 4 (Overlay)
//Storyboard Sound Samples

[TimingPoints]
340,214.285714285714,1211,1,0,80,1,8
2054,214.285714285714,4,1,0,80,1,0
2054,-100,4,1,0,80,0,0
4678,-100,4,1,0,90,0,0
4786,-100,4,1,0,80,0,0
5214,-100,4,1,0,90,0,0
5375,-100,4,1,0,90,0,0
39071,-100,4,1,0,90,0,0
39286,-100,4,1,0,90,0,0
39500,-100,4,1,0,90,0,0
39768,-100,4,1,0,90,0,0
46518,-100,4,1,0,90,0,0
53696,-100,4,1,0,90,0,0
67196,-100,4,1,0,100,0,1
79196,-100,4,1,0,100,0,0
80911,-100,4,1,0,100,0,1
94625,-100,4,1,0,100,0,0
94893,-100,4,1,0,90,0,0
96339,214.285714285714,4,1,0,90,1,0
110160,-100,4,1,0,80,0,0
116106,-100,4,1,0,90,0,0
116910,-100,4,1,0,90,0,0
137481,-100,4,1,0,100,0,1
149481,-100,4,1,0,100,0,0
151196,-100,4,1,0,100,0,1
164910,-100,4,1,0,100,0,0
165017,-100,4,1,0,80,0,0
170803,-100,4,1,0,90,0,0
170908,-100,4,1,0,90,0,0
171015,-100,4,1,0,90,0,0
171122,-100,4,1,0,90,0,0
171229,-100,4,1,0,90,0,0
171337,-100,4,1,0,90,0,0
171444,-100,4,1,0,90,0,0
171551,-100,4,1,0,90,0,0
171658,-100,4,1,0,90,0,0
171765,-100,4,1,0,90,0,0
171767,-100,4,1,0,100,0,1
185481,-100,4,1,0,100,0,0
185588,-100,4,1,0,50,0,0
188803,-100,4,1,0,65,0,0
200910,214.285714285714,4,1,0,90,1,0
204338,-100,4,1,0,100,0,1
217195,-100,4,1,0,100,0,0
218052,-100,4,1,0,100,0,1
230052,-100,4,1,0,100,0,0
231767,-100,4,1,0,100,0,1
244945,-100,4,1,0,100,0,0

[HitObjects]
256,192,2054,5,0,0:0:0:0:
256,192,2911,1,0,0:0:0:0:
256,192,3768,1,0,0:0:0:0:
256,192,4732,1,12,0:0:0:0:
256,192,5482,1,4,0:0:0:0:
256,192,6339,1,8,0:0:0:0:
256,192,6768,1,8,0:0:0:0:
256,192,7196,1,0,0:0:0:0:
256,192,8053,1,0,0:0:0:0:
256,192,8482,1,8,0:0:0:0:
256,192,8911,1,4,0:0:0:0:
256,192,9768,1,8,0:0:0:0:
256,192,10196,1,8,0:0:0:0:
256,192,10625,8,0,11911,0:0:0:0:
256,192,12339,5,4,0:0:0:0:
256,192,13196,1,0,0:0:0:0:
256,192,13518,1,0,0:0:0:0:
256,192,14053,1,8,0:0:0:0:
256,192,14375,1,0,0:0:0:0:
256,192,14911,1,0,0:0:0:0:
256,192,15339,1,8,0:0:0:0:
256,192,15768,1,4,0:0:0:0:
256,192,16625,1,8,0:0:0:0:
256,192,16946,1,8,0:0:0:0:
256,192,17482,1,0,0:0:0:0:
256,192,17803,1,8,0:0:0:0:
256,192,18339,1,8,0:0:0:0:
256,192,18768,1,8,0:0:0:0:
256,192,19196,1,4,0:0:0:0:
256,192,20053,1,8,0:0:0:0:
256,192,20375,1,0,0:0:0:0:
256,192,20911,1,8,0:0:0:0:
256,192,21232,1,8,0:0:0:0:
256,192,21768,1,0,0:0:0:0:
256,192,22196,1,8,0:0:0:0:
256,192,22625,1,4,0:0:0:0:
256,192,23482,1,0,0:0:0:0:
256,192,23803,1,8,0:0:0:0:
256,192,24339,1,0,0:0:0:0:
256,192,24661,1,0,0:0:0:0:
256,192,25196,1,12,0:0:0:0:
256,192,26053,1,4,0:0:0:0:
256,192,26696,1,8,0:0:0:0:
256,192,27339,1,8,0:0:0:0:
256,192,27768,1,0,0:0:0:0:
256,192,28411,1,0,0:0:0:0:
256,192,29053,1,8,0:0:0:0:
256,192,29482,1,0,0:0:0:0:
256,192,30125,1,8,0:0:0:0:
256,192,30768,1,0,0:0:0:0:
256,192,31196,1,8,0:0:0:0:
256,192,31839,1,0,0:0:0:0:
256,192,32268,1,8,0:0:0:0:
256,192,32911,1,4,0:0:0:0:
256,192,33553,1,0,0:0:0:0:
256,192,34196,1,8,0:0:0:0:
256,192,34625,1,0,0:0:0:0:
256,192,35268,1,8,0:0:0:0:
256,192,35911,1,0,0:0:0:0:
256,192,36339,1,8,0:0:0:0:
256,192,36982,1,8,0:0:0:0:
256,192,37625,1,0,0:0:0:0:
256,192,38053,1,8,0:0:0:0:
256,192,38911,1,8,0:0:0:0:
256,192,39339,1,8,0:0:0:0:
256,192,39768,1,4,0:0:0:0:
256,192,40625,1,8,0:0:0:0:
256,192,41482,1,4,0:0:0:0:
256,192,42339,1,0,0:0:0:0:
256,192,43196,1,4,0:0:0:0:
256,192,44053,1,8,0:0:0:0:
256,192,44911,1,4,0:0:0:0:
256,192,45875,1,8,0:0:0:0:
256,192,46196,1,0,0:0:0:0:
256,192,46625,1,4,0:0:0:0:
256,192,47482,1,8,0:0:0:0:
256,192,48339,1,0,0:0:0:0:
256,192,48768,1,8,0:0:0:0:
256,192,49196,1,0,0:0:0:0:
256,192,50053,1,0,0:0:0:0:
256,192,50911,1,8,0:0:0:0:
256,192,51768,1,0,0:0:0:0:
256,192,52196,1,0,0:0:0:0:
256,192,52732,1,8,0:0:0:0:
256,192,53053,1,0,0:0:0:0:
256,192,53696,1,12,0:0:0:0:
256,192,54339,1,0,0:0:0:0:
256,192,54768,1,0,0:0:0:0:
256,192,55196,1,8,0:0:0:0:
256,192,56053,1,8,0:0:0:0:
256,192,56482,1,0,0:0:0:0:
256,192,57125,1,12,0:0:0:0:
256,192,57768,1,0,0:0:0:0:
256,192,58625,1,8,0:0:0:0:
256,192,58946,1,0,0:0:0:0:
256,192,59482,1,8,0:0:0:0:
256,192,60125,1,0,0:0:0:0:
256,192,60553,1,12,0:0:0:0:
256,192,61196,1,0,0:0:0:0:
256,192,61625,1,0,0:0:0:0:
256,192,62053,1,8,0:0:0:0:
256,192,62911,1,8,0:0:0:0:
256,192,63339,1,0,0:0:0:0:
256,192,63982,1,12,0:0:0:0:
256,192,64625,1,0,0:0:0:0:
256,192,65482,1,0,0:0:0:0:
256,192,65803,1,0,0:0:0:0:
256,192,66125,1,0,0:0:0:0:
256,192,66446,1,0,0:0:0:0:
256,192,66768,1,8,0:0:0:0:
256,192,67196,1,4,0:0:0:0:
256,192,67839,1,8,0:0:0:0:
256,192,68482,1,8,0:0:0:0:
256,192,68911,1,0,0:0:0:0:
256,192,69553,1,8,0:0:0:0:
256,192,70196,1,0,0:0:0:0:
256,192,70625,1,8,0:0:0:0:
256,192,71482,1,8,0:0:0:0:
256,192,71911,1,8,0:0:0:0:
256,192,72339,1,0,0:0:0:0:
256,192,73196,1,0,0:0:0:0:
256,192,73625,1,8,0:0:0:0:
256,192,74053,1,4,0:0:0:0:
256,192,74696,1,0,0:0:0:0:
256,192,75339,1,0,0:0:0:0:
256,192,75768,1,8,0:0:0:0:
256,192,76625,1,0,0:0:0:0:
256,192,76946,1,8,0:0:0:0:
256,192,77482,1,0,0:0:0:0:
256,192,78339,1,8,0:0:0:0:
256,192,78768,1,0,0:0:0:0:
256,192,79196,1,12,0:0:0:0:
256,192,79518,1,4,0:0:0:0:
256,192,80053,1,12,0:0:0:0:
256,192,80375,1,4,0:0:0:0:
256,192,80911,1,12,0:0:0:0:
256,192,81768,1,0,0:0:0:0:
256,192,82089,1,0,0:0:0:0:
256,192,82625,1,8,0:0:0:0:
256,192,82946,1,0,0:0:0:0:
256,192,83482,1,8,0:0:0:0:
256,192,83911,1,0,0:0:0:0:
256,192,84339,1,8,0:0:0:0:
256,192,85196,1,8,0:0:0:0:
256,192,85518,1,8,0:0:0:0:
256,192,86053,1,0,0:0:0:0:
256,192,86375,1,8,0:0:0:0:
256,192,86911,1,0,0:0:0:0:
256,192,87339,1,8,0:0:0:0:
256,192,87768,1,0,0:0:0:0:
256,192,88625,1,8,0:0:0:0:
256,192,88946,1,0,0:0:0:0:
256,192,89482,1,8,0:0:0:0:
256,192,89803,1,8,0:0:0:0:
256,192,90339,1,0,0:0:0:0:
256,192,90768,1,0,0:0:0:0:
256,192,91196,1,8,0:0:0:0:
256,192,92053,1,0,0:0:0:0:
256,192,92375,1,0,0:0:0:0:
256,192,92911,1,8,0:0:0:0:
256,192,93339,1,8,0:0:0:0:
256,192,93768,1,0,0:0:0:0:
256,192,94089,1,8,0:0:0:0:
256,192,94625,8,0,95911,0:0:0:0:
256,192,96339,5,4,0:0:0:0:
256,192,97196,1,0,0:0:0:0:
256,192,97517,1,0,0:0:0:0:
256,192,98053,1,8,0:0:0:0:
256,192,98374,1,0,0:0:0:0:
256,192,98910,1,0,0:0:0:0:
256,192,99339,1,8,0:0:0:0:
256,192,99767,1,4,0:0:0:0:
256,192,100624,1,8,0:0:0:0:
256,192,100946,1,8,0:0:0:0:
256,192,101481,1,0,0:0:0:0:
256,192,101803,1,8,0:0:0:0:
256,192,102338,1,8,0:0:0:0:
256,192,102767,1,8,0:0:0:0:
256,192,103196,1,4,0:0:0:0:
256,192,104053,1,8,0:0:0:0:
256,192,104374,1,0,0:0:0:0:
256,192,104910,1,8,0:0:0:0:
256,192,105231,1,8,0:0:0:0:
256,192,105767,1,0,0:0:0:0:
256,192,106196,1,8,0:0:0:0:
256,192,106624,1,4,0:0:0:0:
256,192,107481,1,0,0:0:0:0:
256,192,107803,1,8,0:0:0:0:
256,192,108338,1,0,0:0:0:0:
256,192,108660,1,0,0:0:0:0:
256,192,109196,1,12,0:0:0:0:
256,192,110053,1,4,0:0:0:0:
256,192,110910,1,8,0:0:0:0:
256,192,111767,1,4,0:0:0:0:
256,192,113481,1,4,0:0:0:0:
256,192,114338,1,8,0:0:0:0:
256,192,115196,1,4,0:0:0:0:
256,192,116160,1,8,0:0:0:0:
256,192,116481,1,0,0:0:0:0:
256,192,116910,1,4,0:0:0:0:
256,192,117767,1,8,0:0:0:0:
256,192,118624,1,0,0:0:0:0:
256,192,119053,1,0,0:0:0:0:
256,192,119481,1,8,0:0:0:0:
256,192,120338,1,0,0:0:0:0:
256,192,121196,1,0,0:0:0:0:
256,192,122053,1,8,0:0:0:0:
256,192,122481,1,0,0:0:0:0:
256,192,123017,1,8,0:0:0:0:
256,192,123338,1,0,0:0:0:0:
256,192,123981,1,12,0:0:0:0:
256,192,124624,1,0,0:0:0:0:
256,192,125053,1,0,0:0:0:0:
256,192,125481,1,8,0:0:0:0:
256,192,126338,1,0,0:0:0:0:
256,192,126767,1,8,0:0:0:0:
256,192,127410,1,12,0:0:0:0:
256,192,128053,1,0,0:0:0:0:
256,192,128910,1,8,0:0:0:0:
256,192,129231,1,8,0:0:0:0:
256,192,129767,1,0,0:0:0:0:
256,192,130410,1,0,0:0:0:0:
256,192,130838,1,12,0:0:0:0:
256,192,131481,1,0,0:0:0:0:
256,192,131910,1,8,0:0:0:0:
256,192,132338,1,0,0:0:0:0:
256,192,133196,1,0,0:0:0:0:
256,192,133624,1,8,0:0:0:0:
256,192,134267,1,12,0:0:0:0:
256,192,134910,1,0,0:0:0:0:
256,192,135767,1,0,0:0:0:0:
256,192,136088,1,0,0:0:0:0:
256,192,136410,1,0,0:0:0:0:
256,192,136731,1,0,0:0:0:0:
256,192,137053,1,8,0:0:0:0:
256,192,137481,1,4,0:0:0:0:
256,192,138124,1,0,0:0:0:0:
256,192,138767,1,0,0:0:0:0:
256,192,139196,1,8,0:0:0:0:
256,192,139838,1,0,0:0:0:0:
256,192,140481,1,0,0:0:0:0:
256,192,140910,1,8,0:0:0:0:
256,192,141767,1,8,0:0:0:0:
256,192,142196,1,0,0:0:0:0:
256,192,142624,1,8,0:0:0:0:
256,192,143481,1,8,0:0:0:0:
256,192,143910,1,8,0:0:0:0:
256,192,144338,1,4,0:0:0:0:
256,192,144981,1,0,0:0:0:0:
256,192,145624,1,8,0:0:0:0:
256,192,146053,1,0,0:0:0:0:
256,192,146910,1,8,0:0:0:0:
256,192,147231,1,8,0:0:0:0:
256,192,147767,1,0,0:0:0:0:
256,192,148624,1,8,0:0:0:0:
256,192,149053,1,0,0:0:0:0:
256,192,149481,1,12,0:0:0:0:
256,192,149803,1,4,0:0:0:0:
256,192,150338,1,12,0:0:0:0:
256,192,150660,1,4,0:0:0:0:
256,192,151196,1,12,0:0:0:0:
256,192,152053,1,0,0:0:0:0:
256,192,152374,1,0,0:0:0:0:
256,192,152910,1,8,0:0:0:0:
256,192,153231,1,0,0:0:0:0:
256,192,153767,1,8,0:0:0:0:
256,192,154196,1,0,0:0:0:0:
256,192,154624,1,8,0:0:0:0:
256,192,155481,1,8,0:0:0:0:
256,192,155803,1,8,0:0:0:0:
256,192,156338,1,0,0:0:0:0:
256,192,156660,1,8,0:0:0:0:
256,192,157196,1,0,0:0:0:0:
256,192,157624,1,8,0:0:0:0:
256,192,158053,1,0,0:0:0:0:
256,192,158910,1,8,0:0:0:0:
256,192,159231,1,0,0:0:0:0:
256,192,159767,1,8,0:0:0:0:
256,192,160088,1,8,0:0:0:0:
256,192,160624,1,0,0:0:0:0:
256,192,161053,1,0,0:0:0:0:
256,192,161481,1,8,0:0:0:0:
256,192,162338,1,0,0:0:0:0:
256,192,162660,1,0,0:0:0:0:
256,192,163196,1,8,0:0:0:0:
256,192,163624,1,8,0:0:0:0:
256,192,164053,1,0,0:0:0:0:
256,192,164374,1,8,0:0:0:0:
256,192,164910,1,4,0:0:0:0:
256,192,165767,1,0,0:0:0:0:
256,192,166196,1,8,0:0:0:0:
256,192,166624,1,0,0:0:0:0:
256,192,167481,1,8,0:0:0:0:
256,192,167803,1,8,0:0:0:0:
256,192,168338,1,4,0:0:0:0:
256,192,169196,1,8,0:0:0:0:
256,192,170053,1,4,0:0:0:0:
256,192,170910,1,8,0:0:0:0:
256,192,171338,1,8,0:0:0:0:
256,192,171767,1,4,0:0:0:0:
256,192,172624,1,8,0:0:0:0:
256,192,173053,1,0,0:0:0:0:
256,192,173481,1,8,0:0:0:0:
256,192,174338,1,8,0:0:0:0:
256,192,174660,1,8,0:0:0:0:
256,192,175196,1,4,0:0:0:0:
256,192,175624,1,8,0:0:0:0:
256,192,175946,1,0,0:0:0:0:
256,192,176481,1,8,0:0:0:0:
256,192,176803,1,0,0:0:0:0:
256,192,177767,1,8,0:0:0:0:
256,192,178196,1,8,0:0:0:0:
256,192,178624,1,4,0:0:0:0:
256,192,179267,1,0,0:0:0:0:
256,192,179910,1,0,0:0:0:0:
256,192,180338,1,8,0:0:0:0:
256,192,181196,1,8,0:0:0:0:
256,192,181517,1,8,0:0:0:0:
256,192,182053,1,4,0:0:0:0:
256,192,182910,1,0,0:0:0:0:
256,192,183338,1,8,0:0:0:0:
256,192,183767,1,0,0:0:0:0:
256,192,184624,1,8,0:0:0:0:
256,192,185053,1,8,0:0:0:0:
256,192,185481,1,4,0:0:0:0:
256,192,187196,1,0,0:0:0:0:
256,192,188053,1,8,0:0:0:0:
256,192,188910,1,0,0:0:0:0:
256,192,200910,5,0,0:0:0:0:
256,192,201231,1,0,0:0:0:0:
256,192,201552,1,0,0:0:0:0:
256,192,201874,1,0,0:0:0:0:
256,192,202624,1,8,0:0:0:0:
256,192,202945,1,8,0:0:0:0:
256,192,203267,1,8,0:0:0:0:
256,192,203588,1,8,0:0:0:0:
256,192,204338,1,4,0:0:0:0:
256,192,204981,1,8,0:0:0:0:
256,192,205624,1,8,0:0:0:0:
256,192,206052,1,0,0:0:0:0:
256,192,206695,1,8,0:0:0:0:
256,192,207338,1,0,0:0:0:0:
256,192,207767,1,8,0:0:0:0:
256,192,208624,1,8,0:0:0:0:
256,192,209052,1,8,0:0:0:0:
256,192,209481,1,0,0:0:0:0:
256,192,210338,1,0,0:0:0:0:
256,192,210767,1,8,0:0:0:0:
256,192,211195,1,4,0:0:0:0:
256,192,211838,1,0,0:0:0:0:
256,192,212481,1,0,0:0:0:0:
256,192,212909,1,8,0:0:0:0:
256,192,213767,1,0,0:0:0:0:
256,192,214088,1,8,0:0:0:0:
256,192,214624,1,0,0:0:0:0:
256,192,215481,1,8,0:0:0:0:
256,192,215909,1,0,0:0:0:0:
256,192,216338,1,8,0:0:0:0:
256,192,217195,1,0,0:0:0:0:
256,192,218052,1,4,0:0:0:0:
256,192,218695,1,0,0:0:0:0:
256,192,219338,1,0,0:0:0:0:
256,192,219767,1,8,0:0:0:0:
256,192,220409,1,0,0:0:0:0:
256,192,221052,1,0,0:0:0:0:
256,192,221481,1,8,0:0:0:0:
256,192,222338,1,8,0:0:0:0:
256,192,222767,1,0,0:0:0:0:
256,192,223195,1,8,0:0:0:0:
256,192,224052,1,8,0:0:0:0:
256,192,224481,1,8,0:0:0:0:
256,192,224909,1,4,0:0:0:0:
256,192,225552,1,0,0:0:0:0:
256,192,226195,1,8,0:0:0:0:
256,192,226624,1,0,0:0:0:0:
256,192,227481,1,8,0:0:0:0:
256,192,227802,1,8,0:0:0:0:
256,192,228338,1,0,0:0:0:0:
256,192,229195,1,8,0:0:0:0:
256,192,229624,1,0,0:0:0:0:
256,192,230052,1,12,0:0:0:0:
256,192,230374,1,4,0:0:0:0:
256,192,230909,1,12,0:0:0:0:
256,192,231231,1,4,0:0:0:0:
256,192,231767,1,12,0:0:0:0:
256,192,232624,1,0,0:0:0:0:
256,192,232945,1,0,0:0:0:0:
256,192,233481,1,8,0:0:0:0:
256,192,233802,1,0,0:0:0:0:
256,192,234338,1,8,0:0:0:0:
256,192,234767,1,0,0:0:0:0:
256,192,235195,1,8,0:0:0:0:
256,192,236052,1,8,0:0:0:0:
256,192,236374,1,8,0:0:0:0:
256,192,236909,1,0,0:0:0:0:
256,192,237231,1,8,0:0:0:0:
256,192,237767,1,0,0:0:0:0:
256,192,238195,1,8,0:0:0:0:
256,192,238624,1,4,0:0:0:0:
256,192,239481,1,8,0:0:0:0:
256,192,239802,1,0,0:0:0:0:
256,192,240338,1,8,0:0:0:0:
256,192,240659,1,8,0:0:0:0:
256,192,241195,1,0,0:0:0:0:
256,192,241624,1,0,0:0:0:0:
256,192,242052,1,12,0:0:0:0:
256,192,242909,1,0,0:0:0:0:
256,192,243231,1,0,0:0:0:0:
256,192,243767,1,8,0:0:0:0:
256,192,244195,1,8,0:0:0:0:
256,192,244624,1,0,0:0:0:0:
256,192,244945,1,12,0:0:0:0:
