osu file format v14

[General]
AudioFilename: audio.mp3
AudioLeadIn: 0
PreviewTime: 67143
Countdown: 0
SampleSet: Normal
StackLeniency: 0.7
Mode: 1
LetterboxInBreaks: 0
WidescreenStoryboard: 1

[Editor]
DistanceSpacing: 0.8
BeatDivisor: 4
GridSize: 32
TimelineZoom: 2

[Metadata]
Title:Kyouki Chinden
TitleUnicode:狂気沈殿
Artist:Yousei Teikoku
ArtistUnicode:妖精帝國
Creator:ler1211
Version:Inner Oni
Source:未来日記リダイヤル
Tags:rinze Mirai Nikki: Redial Future Diary Yōsei Yosei Teikoku itsuki yui 伊月 ゆい PAX VESANIA Das Feenreich japanese rock jrock j-rock metal jmetal j-metal anime ova opening
BeatmapID:4006319
BeatmapSetID:1938037

[Difficulty]
HPDrainRate:5.5
CircleSize:5
OverallDifficulty:6
ApproachRate:5
SliderMultiplier:0.7
SliderTickRate:1

[Events]
//Background and Video events
0,0,"yandere.jpg",0,-20
//Break Periods
2,189110,198853
//Storyboard Layer 0 (Background)
//Storyboard Layer 1 (Fail)
//Storyboard Layer 2 (Pass)
//Storyboard Layer 3 (Foreground)
//Storyboard Layer 4 (Overlay)
//Storyboard Sound Samples

[TimingPoints]
340,214.285714285714,1211,1,0,80,1,8
2054,214.285714285714,4,1,0,80,1,0
2054,-111.111111111111,4,1,0,80,0,0
4678,-111.111111111111,4,1,0,90,0,0
4786,-111.111111111111,4,1,0,80,0,0
5214,-111.111111111111,4,1,0,90,0,0
5375,-100,4,1,0,90,0,0
39071,-102.564102564103,4,1,0,90,0,0
39286,-105.263157894737,4,1,0,90,0,0
39500,-108.108108108108,4,1,0,90,0,0
39768,-111.111111111111,4,1,0,90,0,0
46518,-100,4,1,0,90,0,0
53696,-100,4,1,0,90,0,0
67196,-100,4,1,0,100,0,1
79196,-100,4,1,0,100,0,0
80911,-100,4,1,0,100,0,1
94625,-100,4,1,0,100,0,0
94893,-100,4,1,0,90,0,0
96339,214.285714285714,4,1,0,90,1,0
110160,-111.111111111111,4,1,0,80,0,0
116106,-111.111111111111,4,1,0,90,0,0
116910,-100,4,1,0,90,0,0
137481,-100,4,1,0,100,0,1
149481,-100,4,1,0,100,0,0
151196,-100,4,1,0,100,0,1
164910,-100,4,1,0,100,0,0
165017,-111.111111111111,4,1,0,80,0,0
170803,-111.111111111111,4,1,0,90,0,0
170908,-111.111111111111,4,1,0,90,0,0
171015,-109.657364596222,4,1,0,90,0,0
171122,-108.2226384917,4,1,0,90,0,0
171229,-106.806683939845,4,1,0,90,0,0
171337,-105.409255338946,4,1,0,90,0,0
171444,-104.030110300672,4,1,0,90,0,0
171551,-102.669009608034,4,1,0,90,0,0
171658,-101.325717173891,4,1,0,90,0,0
171765,-100,4,1,0,90,0,0
171767,-100,4,1,0,100,0,1
185481,-100,4,1,0,100,0,0
185588,-117.647058823529,4,1,0,50,0,0
188803,-117.647058823529,4,1,0,65,0,0
200910,214.285714285714,4,1,0,90,1,0
204338,-100,4,1,0,100,0,1
217195,-100,4,1,0,100,0,0
218052,-100,4,1,0,100,0,1
230052,-100,4,1,0,100,0,0
231767,-100,4,1,0,100,0,1
244945,-100,4,1,0,100,0,0

[HitObjects]
256,192,2054,5,0,0:0:0:0:
256,192,2268,1,8,0:0:0:0:
256,192,2375,1,0,0:0:0:0:
256,192,2589,1,0,0:0:0:0:
256,192,2696,1,8,0:0:0:0:
256,192,2911,1,0,0:0:0:0:
256,192,3125,1,8,0:0:0:0:
256,192,3232,1,8,0:0:0:0:
256,192,3446,1,0,0:0:0:0:
256,192,3553,1,8,0:0:0:0:
256,192,3768,1,0,0:0:0:0:
256,192,3875,1,0,0:0:0:0:
256,192,3982,1,8,0:0:0:0:
256,192,4089,1,0,0:0:0:0:
256,192,4303,1,0,0:0:0:0:
256,192,4411,1,8,0:0:0:0:
256,192,4518,1,0,0:0:0:0:
256,192,4732,1,12,0:0:0:0:
256,192,4946,1,0,0:0:0:0:
256,192,5053,1,0,0:0:0:0:
256,192,5268,1,12,0:0:0:0:
256,192,5482,1,0,0:0:0:0:
256,192,5589,1,8,0:0:0:0:
256,192,5696,1,8,0:0:0:0:
256,192,5803,1,8,0:0:0:0:
256,192,5911,1,0,0:0:0:0:
256,192,6018,1,0,0:0:0:0:
256,192,6125,1,8,0:0:0:0:
256,192,6339,1,8,0:0:0:0:
256,192,6446,1,8,0:0:0:0:
256,192,6553,1,0,0:0:0:0:
256,192,6661,1,8,0:0:0:0:
256,192,6768,1,0,0:0:0:0:
256,192,6875,1,0,0:0:0:0:
256,192,6982,1,8,0:0:0:0:
256,192,7196,1,0,0:0:0:0:
256,192,7303,1,8,0:0:0:0:
256,192,7411,1,8,0:0:0:0:
256,192,7518,1,8,0:0:0:0:
256,192,7625,1,0,0:0:0:0:
256,192,7732,1,0,0:0:0:0:
256,192,7839,1,8,0:0:0:0:
256,192,8053,1,8,0:0:0:0:
256,192,8161,1,0,0:0:0:0:
256,192,8268,1,8,0:0:0:0:
256,192,8375,1,8,0:0:0:0:
256,192,8482,1,0,0:0:0:0:
256,192,8589,1,0,0:0:0:0:
256,192,8696,1,8,0:0:0:0:
256,192,8911,1,4,0:0:0:0:
256,192,9125,1,8,0:0:0:0:
256,192,9232,1,8,0:0:0:0:
256,192,9339,1,0,0:0:0:0:
256,192,9446,1,0,0:0:0:0:
256,192,9553,1,8,0:0:0:0:
256,192,9661,1,0,0:0:0:0:
256,192,9768,1,8,0:0:0:0:
256,192,9982,1,8,0:0:0:0:
256,192,10089,1,0,0:0:0:0:
256,192,10196,1,0,0:0:0:0:
256,192,10303,1,0,0:0:0:0:
256,192,10411,1,8,0:0:0:0:
256,192,10625,1,0,0:0:0:0:
256,192,10732,1,0,0:0:0:0:
256,192,10839,1,8,0:0:0:0:
256,192,10946,1,8,0:0:0:0:
256,192,11053,1,0,0:0:0:0:
256,192,11161,1,0,0:0:0:0:
256,192,11268,1,8,0:0:0:0:
256,192,11375,1,0,0:0:0:0:
256,192,11589,1,12,0:0:0:0:
256,192,11803,1,0,0:0:0:0:
256,192,11911,1,8,0:0:0:0:
256,192,12018,1,8,0:0:0:0:
256,192,12125,1,8,0:0:0:0:
256,192,12339,1,4,0:0:0:0:
256,192,12553,1,8,0:0:0:0:
256,192,12661,1,8,0:0:0:0:
256,192,12768,1,0,0:0:0:0:
256,192,12875,1,0,0:0:0:0:
256,192,12982,1,8,0:0:0:0:
256,192,13089,1,8,0:0:0:0:
256,192,13196,1,0,0:0:0:0:
256,192,13303,1,0,0:0:0:0:
256,192,13411,1,8,0:0:0:0:
256,192,13518,1,0,0:0:0:0:
256,192,13625,1,0,0:0:0:0:
256,192,13732,1,0,0:0:0:0:
256,192,13839,1,8,0:0:0:0:
256,192,14053,1,8,0:0:0:0:
256,192,14161,1,0,0:0:0:0:
256,192,14268,1,0,0:0:0:0:
256,192,14375,1,8,0:0:0:0:
256,192,14482,1,0,0:0:0:0:
256,192,14589,1,0,0:0:0:0:
256,192,14696,1,8,0:0:0:0:
256,192,14803,1,0,0:0:0:0:
256,192,14911,1,8,0:0:0:0:
256,192,15018,1,8,0:0:0:0:
256,192,15125,1,0,0:0:0:0:
256,192,15232,1,0,0:0:0:0:
256,192,15339,1,8,0:0:0:0:
256,192,15446,1,0,0:0:0:0:
256,192,15553,1,8,0:0:0:0:
256,192,15768,1,4,0:0:0:0:
256,192,15982,1,8,0:0:0:0:
256,192,16089,1,8,0:0:0:0:
256,192,16196,1,0,0:0:0:0:
256,192,16303,1,8,0:0:0:0:
256,192,16411,1,0,0:0:0:0:
256,192,16518,1,0,0:0:0:0:
256,192,16625,1,8,0:0:0:0:
256,192,16732,1,0,0:0:0:0:
256,192,16839,1,8,0:0:0:0:
256,192,16946,1,8,0:0:0:0:
256,192,17053,1,0,0:0:0:0:
256,192,17161,1,0,0:0:0:0:
256,192,17268,1,8,0:0:0:0:
256,192,17482,1,8,0:0:0:0:
256,192,17589,1,8,0:0:0:0:
256,192,17696,1,0,0:0:0:0:
256,192,17803,1,8,0:0:0:0:
256,192,17911,1,8,0:0:0:0:
256,192,18018,1,8,0:0:0:0:
256,192,18125,1,0,0:0:0:0:
256,192,18339,1,12,0:0:0:0:
256,192,18553,1,12,0:0:0:0:
256,192,18768,1,12,0:0:0:0:
256,192,18982,1,12,0:0:0:0:
256,192,19196,1,4,0:0:0:0:
256,192,19411,1,8,0:0:0:0:
256,192,19518,1,8,0:0:0:0:
256,192,19625,1,8,0:0:0:0:
256,192,19732,1,8,0:0:0:0:
256,192,19839,1,0,0:0:0:0:
256,192,19946,1,0,0:0:0:0:
256,192,20053,1,8,0:0:0:0:
256,192,20161,1,8,0:0:0:0:
256,192,20268,1,0,0:0:0:0:
256,192,20375,1,8,0:0:0:0:
256,192,20482,1,0,0:0:0:0:
256,192,20589,1,0,0:0:0:0:
256,192,20696,1,8,0:0:0:0:
256,192,20911,1,0,0:0:0:0:
256,192,21018,1,8,0:0:0:0:
256,192,21125,1,8,0:0:0:0:
256,192,21232,1,0,0:0:0:0:
256,192,21339,1,8,0:0:0:0:
256,192,21446,1,8,0:0:0:0:
256,192,21553,1,0,0:0:0:0:
256,192,21661,1,0,0:0:0:0:
256,192,21768,1,8,0:0:0:0:
256,192,21875,1,8,0:0:0:0:
256,192,21982,1,8,0:0:0:0:
256,192,22089,1,8,0:0:0:0:
256,192,22196,1,0,0:0:0:0:
256,192,22303,1,0,0:0:0:0:
256,192,22411,1,8,0:0:0:0:
256,192,22625,1,4,0:0:0:0:
256,192,22839,1,8,0:0:0:0:
256,192,22946,1,0,0:0:0:0:
256,192,23053,1,0,0:0:0:0:
256,192,23161,1,0,0:0:0:0:
256,192,23268,1,8,0:0:0:0:
256,192,23375,1,8,0:0:0:0:
256,192,23482,1,0,0:0:0:0:
256,192,23589,1,0,0:0:0:0:
256,192,23696,1,8,0:0:0:0:
256,192,23803,1,8,0:0:0:0:
256,192,23911,1,8,0:0:0:0:
256,192,24018,1,8,0:0:0:0:
256,192,24125,1,0,0:0:0:0:
256,192,24339,1,8,0:0:0:0:
256,192,24446,1,0,0:0:0:0:
256,192,24553,1,0,0:0:0:0:
256,192,24661,1,8,0:0:0:0:
256,192,24768,1,8,0:0:0:0:
256,192,24875,1,8,0:0:0:0:
256,192,24982,1,0,0:0:0:0:
256,192,25196,1,12,0:0:0:0:
256,192,25411,1,0,0:0:0:0:
256,192,25482,1,0,0:0:0:0:
256,192,25553,1,0,0:0:0:0:
256,192,25625,1,8,0:0:0:0:
256,192,25839,1,8,0:0:0:0:
256,192,26053,1,4,0:0:0:0:
256,192,26268,1,8,0:0:0:0:
256,192,26375,1,0,0:0:0:0:
256,192,26482,1,8,0:0:0:0:
256,192,26589,1,8,0:0:0:0:
256,192,26696,1,0,0:0:0:0:
256,192,26803,1,0,0:0:0:0:
256,192,26911,1,8,0:0:0:0:
256,192,27018,1,0,0:0:0:0:
256,192,27125,1,0,0:0:0:0:
256,192,27232,1,0,0:0:0:0:
256,192,27339,1,8,0:0:0:0:
256,192,27446,1,8,0:0:0:0:
256,192,27553,1,0,0:0:0:0:
256,192,27661,1,8,0:0:0:0:
256,192,27768,1,0,0:0:0:0:
256,192,27875,1,0,0:0:0:0:
256,192,27982,1,8,0:0:0:0:
256,192,28089,1,0,0:0:0:0:
256,192,28196,1,0,0:0:0:0:
256,192,28303,1,0,0:0:0:0:
256,192,28411,1,8,0:0:0:0:
256,192,28518,1,8,0:0:0:0:
256,192,28625,1,0,0:0:0:0:
256,192,28732,1,8,0:0:0:0:
256,192,28839,1,0,0:0:0:0:
256,192,28946,1,0,0:0:0:0:
256,192,29053,1,8,0:0:0:0:
256,192,29268,1,0,0:0:0:0:
256,192,29482,1,8,0:0:0:0:
256,192,29589,1,8,0:0:0:0:
256,192,29696,1,0,0:0:0:0:
256,192,29803,1,8,0:0:0:0:
256,192,29911,1,0,0:0:0:0:
256,192,30018,1,0,0:0:0:0:
256,192,30125,1,8,0:0:0:0:
256,192,30232,1,8,0:0:0:0:
256,192,30339,1,0,0:0:0:0:
256,192,30446,1,8,0:0:0:0:
256,192,30553,1,8,0:0:0:0:
256,192,30661,1,0,0:0:0:0:
256,192,30768,1,8,0:0:0:0:
256,192,30875,1,0,0:0:0:0:
256,192,30982,1,8,0:0:0:0:
256,192,31089,1,8,0:0:0:0:
256,192,31196,1,0,0:0:0:0:
256,192,31303,1,0,0:0:0:0:
256,192,31411,1,8,0:0:0:0:
256,192,31518,1,0,0:0:0:0:
256,192,31625,1,0,0:0:0:0:
256,192,31732,1,0,0:0:0:0:
256,192,31839,1,8,0:0:0:0:
256,192,31946,1,8,0:0:0:0:
256,192,32053,1,0,0:0:0:0:
256,192,32268,1,12,0:0:0:0:
256,192,32482,1,12,0:0:0:0:
256,192,32696,1,12,0:0:0:0:
256,192,32911,1,4,0:0:0:0:
256,192,33125,1,8,0:0:0:0:
256,192,33232,1,0,0:0:0:0:
256,192,33339,1,8,0:0:0:0:
256,192,33446,1,8,0:0:0:0:
256,192,33553,1,0,0:0:0:0:
256,192,33661,1,0,0:0:0:0:
256,192,33768,1,8,0:0:0:0:
256,192,33875,1,0,0:0:0:0:
256,192,33982,1,0,0:0:0:0:
256,192,34089,1,0,0:0:0:0:
256,192,34196,1,8,0:0:0:0:
256,192,34303,1,8,0:0:0:0:
256,192,34411,1,0,0:0:0:0:
256,192,34518,1,0,0:0:0:0:
256,192,34625,1,8,0:0:0:0:
256,192,34732,1,0,0:0:0:0:
256,192,34839,1,0,0:0:0:0:
256,192,34946,1,8,0:0:0:0:
256,192,35053,1,0,0:0:0:0:
256,192,35161,1,0,0:0:0:0:
256,192,35268,1,8,0:0:0:0:
256,192,35375,1,8,0:0:0:0:
256,192,35482,1,0,0:0:0:0:
256,192,35589,1,8,0:0:0:0:
256,192,35696,1,0,0:0:0:0:
256,192,35803,1,0,0:0:0:0:
256,192,35911,1,8,0:0:0:0:
256,192,36125,1,0,0:0:0:0:
256,192,36339,1,8,0:0:0:0:
256,192,36446,1,8,0:0:0:0:
256,192,36553,1,0,0:0:0:0:
256,192,36661,1,8,0:0:0:0:
256,192,36768,1,0,0:0:0:0:
256,192,36875,1,0,0:0:0:0:
256,192,36982,1,8,0:0:0:0:
256,192,37089,1,8,0:0:0:0:
256,192,37196,1,0,0:0:0:0:
256,192,37303,1,8,0:0:0:0:
256,192,37411,1,8,0:0:0:0:
256,192,37518,1,0,0:0:0:0:
256,192,37625,1,8,0:0:0:0:
256,192,37732,1,8,0:0:0:0:
256,192,37839,1,0,0:0:0:0:
256,192,37946,1,0,0:0:0:0:
256,192,38053,1,8,0:0:0:0:
256,192,38161,1,8,0:0:0:0:
256,192,38268,1,0,0:0:0:0:
256,192,38375,1,8,0:0:0:0:
256,192,38482,1,8,0:0:0:0:
256,192,38589,1,8,0:0:0:0:
256,192,38696,1,0,0:0:0:0:
256,192,38911,1,12,0:0:0:0:
256,192,39125,1,12,0:0:0:0:
256,192,39339,1,12,0:0:0:0:
256,192,39553,1,12,0:0:0:0:
256,192,39768,1,4,0:0:0:0:
256,192,40196,1,0,0:0:0:0:
256,192,40411,1,8,0:0:0:0:
256,192,40625,1,0,0:0:0:0:
256,192,40839,1,8,0:0:0:0:
256,192,40946,1,0,0:0:0:0:
256,192,41161,1,0,0:0:0:0:
256,192,41268,1,8,0:0:0:0:
256,192,41482,1,4,0:0:0:0:
256,192,41696,1,8,0:0:0:0:
256,192,41911,1,0,0:0:0:0:
256,192,42018,1,0,0:0:0:0:
256,192,42125,1,8,0:0:0:0:
256,192,42339,1,0,0:0:0:0:
256,192,42553,1,8,0:0:0:0:
256,192,42661,1,0,0:0:0:0:
256,192,42875,1,0,0:0:0:0:
256,192,42982,1,8,0:0:0:0:
256,192,43196,1,4,0:0:0:0:
256,192,43411,1,8,0:0:0:0:
256,192,43625,1,0,0:0:0:0:
256,192,43732,1,0,0:0:0:0:
256,192,43839,1,8,0:0:0:0:
256,192,44053,1,0,0:0:0:0:
256,192,44268,1,8,0:0:0:0:
256,192,44375,1,0,0:0:0:0:
256,192,44589,1,0,0:0:0:0:
256,192,44696,1,8,0:0:0:0:
256,192,44911,1,4,0:0:0:0:
256,192,45125,1,8,0:0:0:0:
256,192,45339,1,0,0:0:0:0:
256,192,45446,1,0,0:0:0:0:
256,192,45553,1,8,0:0:0:0:
256,192,45875,1,12,0:0:0:0:
256,192,46196,1,4,0:0:0:0:
256,192,46625,1,4,0:0:0:0:
256,192,46839,1,8,0:0:0:0:
256,192,46946,1,8,0:0:0:0:
256,192,47053,1,0,0:0:0:0:
256,192,47268,1,0,0:0:0:0:
256,192,47375,1,0,0:0:0:0:
256,192,47482,1,8,0:0:0:0:
256,192,47696,1,8,0:0:0:0:
256,192,47911,1,0,0:0:0:0:
256,192,48018,1,0,0:0:0:0:
256,192,48125,1,8,0:0:0:0:
256,192,48232,1,8,0:0:0:0:
256,192,48339,1,0,0:0:0:0:
256,192,48553,1,8,0:0:0:0:
256,192,48768,1,0,0:0:0:0:
256,192,48982,1,8,0:0:0:0:
256,192,49089,1,8,0:0:0:0:
256,192,49196,1,0,0:0:0:0:
256,192,49625,1,8,0:0:0:0:
256,192,49839,1,0,0:0:0:0:
256,192,49946,1,0,0:0:0:0:
256,192,50053,1,8,0:0:0:0:
256,192,50268,1,0,0:0:0:0:
256,192,50482,1,8,0:0:0:0:
256,192,50589,1,8,0:0:0:0:
256,192,50696,1,0,0:0:0:0:
256,192,50803,1,0,0:0:0:0:
256,192,50911,1,8,0:0:0:0:
256,192,51125,1,0,0:0:0:0:
256,192,51232,1,8,0:0:0:0:
256,192,51339,1,0,0:0:0:0:
256,192,51553,1,0,0:0:0:0:
256,192,51768,1,8,0:0:0:0:
256,192,51982,1,0,0:0:0:0:
256,192,52089,1,0,0:0:0:0:
256,192,52196,1,8,0:0:0:0:
256,192,52411,1,8,0:0:0:0:
256,192,52518,1,0,0:0:0:0:
256,192,52732,1,12,0:0:0:0:
256,192,53053,1,4,0:0:0:0:
256,192,53696,1,12,0:0:0:0:
256,192,53911,1,8,0:0:0:0:
256,192,54125,1,0,0:0:0:0:
256,192,54232,1,8,0:0:0:0:
256,192,54339,1,0,0:0:0:0:
256,192,54553,1,0,0:0:0:0:
256,192,54768,1,8,0:0:0:0:
256,192,54875,1,0,0:0:0:0:
256,192,54982,1,8,0:0:0:0:
256,192,55089,1,8,0:0:0:0:
256,192,55196,1,0,0:0:0:0:
256,192,55411,1,0,0:0:0:0:
256,192,55625,1,8,0:0:0:0:
256,192,55839,1,8,0:0:0:0:
256,192,55946,1,8,0:0:0:0:
256,192,56053,1,0,0:0:0:0:
256,192,56268,1,8,0:0:0:0:
256,192,56482,1,0,0:0:0:0:
256,192,56589,1,0,0:0:0:0:
256,192,56696,1,8,0:0:0:0:
256,192,57125,1,12,0:0:0:0:
256,192,57339,1,0,0:0:0:0:
256,192,57446,1,0,0:0:0:0:
256,192,57553,1,8,0:0:0:0:
256,192,57768,1,8,0:0:0:0:
256,192,57875,1,0,0:0:0:0:
256,192,58089,1,0,0:0:0:0:
256,192,58196,1,8,0:0:0:0:
256,192,58411,1,8,0:0:0:0:
256,192,58625,1,0,0:0:0:0:
256,192,58732,1,0,0:0:0:0:
256,192,58839,1,0,0:0:0:0:
256,192,58946,1,8,0:0:0:0:
256,192,59053,1,0,0:0:0:0:
256,192,59268,1,0,0:0:0:0:
256,192,59482,1,8,0:0:0:0:
256,192,59589,1,0,0:0:0:0:
256,192,59696,1,8,0:0:0:0:
256,192,59803,1,8,0:0:0:0:
256,192,59911,1,0,0:0:0:0:
256,192,60018,1,0,0:0:0:0:
256,192,60125,1,8,0:0:0:0:
256,192,60553,1,12,0:0:0:0:
256,192,60768,1,0,0:0:0:0:
256,192,60982,1,8,0:0:0:0:
256,192,61089,1,0,0:0:0:0:
256,192,61196,1,8,0:0:0:0:
256,192,61411,1,8,0:0:0:0:
256,192,61625,1,0,0:0:0:0:
256,192,61732,1,8,0:0:0:0:
256,192,61839,1,0,0:0:0:0:
256,192,61946,1,0,0:0:0:0:
256,192,62053,1,8,0:0:0:0:
256,192,62268,1,8,0:0:0:0:
256,192,62375,1,8,0:0:0:0:
256,192,62482,1,0,0:0:0:0:
256,192,62696,1,8,0:0:0:0:
256,192,62911,1,0,0:0:0:0:
256,192,63018,1,0,0:0:0:0:
256,192,63125,1,8,0:0:0:0:
256,192,63232,1,0,0:0:0:0:
256,192,63339,1,8,0:0:0:0:
256,192,63446,1,8,0:0:0:0:
256,192,63553,1,0,0:0:0:0:
256,192,63982,1,12,0:0:0:0:
256,192,64196,1,0,0:0:0:0:
256,192,64303,1,0,0:0:0:0:
256,192,64411,1,8,0:0:0:0:
256,192,64625,1,0,0:0:0:0:
256,192,64732,1,8,0:0:0:0:
256,192,64946,1,8,0:0:0:0:
256,192,65053,1,0,0:0:0:0:
256,192,65161,1,0,0:0:0:0:
256,192,65268,1,8,0:0:0:0:
256,192,65482,1,4,0:0:0:0:
256,192,65803,1,4,0:0:0:0:
256,192,66125,1,4,0:0:0:0:
256,192,66446,1,4,0:0:0:0:
256,192,66768,1,8,0:0:0:0:
256,192,66875,1,8,0:0:0:0:
256,192,66982,1,8,0:0:0:0:
256,192,67196,1,4,0:0:0:0:
256,192,67411,1,8,0:0:0:0:
256,192,67518,1,8,0:0:0:0:
256,192,67625,1,0,0:0:0:0:
256,192,67839,1,0,0:0:0:0:
256,192,67946,1,0,0:0:0:0:
256,192,68053,1,8,0:0:0:0:
256,192,68268,1,0,0:0:0:0:
256,192,68375,1,0,0:0:0:0:
256,192,68482,1,8,0:0:0:0:
256,192,68589,1,8,0:0:0:0:
256,192,68696,1,0,0:0:0:0:
256,192,68911,1,8,0:0:0:0:
256,192,69018,1,0,0:0:0:0:
256,192,69232,1,0,0:0:0:0:
256,192,69339,1,8,0:0:0:0:
256,192,69553,1,8,0:0:0:0:
256,192,69661,1,8,0:0:0:0:
256,192,69768,1,0,0:0:0:0:
256,192,69982,1,8,0:0:0:0:
256,192,70089,1,8,0:0:0:0:
256,192,70196,1,0,0:0:0:0:
256,192,70303,1,8,0:0:0:0:
256,192,70411,1,0,0:0:0:0:
256,192,70518,1,0,0:0:0:0:
256,192,70625,1,8,0:0:0:0:
256,192,70839,1,0,0:0:0:0:
256,192,70946,1,0,0:0:0:0:
256,192,71053,1,8,0:0:0:0:
256,192,71268,1,8,0:0:0:0:
256,192,71375,1,8,0:0:0:0:
256,192,71482,1,0,0:0:0:0:
256,192,71696,1,0,0:0:0:0:
256,192,71911,1,8,0:0:0:0:
256,192,72018,1,0,0:0:0:0:
256,192,72125,1,0,0:0:0:0:
256,192,72232,1,0,0:0:0:0:
256,192,72339,1,8,0:0:0:0:
256,192,72553,1,0,0:0:0:0:
256,192,72661,1,0,0:0:0:0:
256,192,72768,1,8,0:0:0:0:
256,192,72875,1,8,0:0:0:0:
256,192,72982,1,0,0:0:0:0:
256,192,73089,1,0,0:0:0:0:
256,192,73196,1,8,0:0:0:0:
256,192,73411,1,0,0:0:0:0:
256,192,73625,1,8,0:0:0:0:
256,192,73732,1,0,0:0:0:0:
256,192,73839,1,8,0:0:0:0:
256,192,74053,1,4,0:0:0:0:
256,192,74268,1,0,0:0:0:0:
256,192,74375,1,0,0:0:0:0:
256,192,74482,1,8,0:0:0:0:
256,192,74696,1,8,0:0:0:0:
256,192,74803,1,8,0:0:0:0:
256,192,74911,1,0,0:0:0:0:
256,192,75018,1,0,0:0:0:0:
256,192,75125,1,0,0:0:0:0:
256,192,75232,1,0,0:0:0:0:
256,192,75339,1,8,0:0:0:0:
256,192,75553,1,0,0:0:0:0:
256,192,75768,1,8,0:0:0:0:
256,192,75875,1,0,0:0:0:0:
256,192,76089,1,0,0:0:0:0:
256,192,76196,1,8,0:0:0:0:
256,192,76303,1,0,0:0:0:0:
256,192,76411,1,0,0:0:0:0:
256,192,76625,1,8,0:0:0:0:
256,192,76732,1,8,0:0:0:0:
256,192,76839,1,0,0:0:0:0:
256,192,76946,1,8,0:0:0:0:
256,192,77053,1,0,0:0:0:0:
256,192,77161,1,0,0:0:0:0:
256,192,77268,1,8,0:0:0:0:
256,192,77482,1,0,0:0:0:0:
256,192,77696,1,8,0:0:0:0:
256,192,77803,1,8,0:0:0:0:
256,192,77911,1,0,0:0:0:0:
256,192,78125,1,0,0:0:0:0:
256,192,78232,1,0,0:0:0:0:
256,192,78339,1,8,0:0:0:0:
256,192,78553,1,8,0:0:0:0:
256,192,78768,1,0,0:0:0:0:
256,192,78875,1,8,0:0:0:0:
256,192,78982,1,0,0:0:0:0:
256,192,79196,1,12,0:0:0:0:
256,192,79518,1,4,0:0:0:0:
256,192,79839,1,4,0:0:0:0:
256,192,80053,1,12,0:0:0:0:
256,192,80375,1,4,0:0:0:0:
256,192,80696,1,4,0:0:0:0:
256,192,80911,1,8,0:0:0:0:
256,192,81018,1,8,0:0:0:0:
256,192,81125,1,0,0:0:0:0:
256,192,81232,1,8,0:0:0:0:
256,192,81339,1,0,0:0:0:0:
256,192,81446,1,0,0:0:0:0:
256,192,81553,1,8,0:0:0:0:
256,192,81661,1,0,0:0:0:0:
256,192,81768,1,8,0:0:0:0:
256,192,81875,1,0,0:0:0:0:
256,192,81982,1,0,0:0:0:0:
256,192,82089,1,8,0:0:0:0:
256,192,82196,1,0,0:0:0:0:
256,192,82303,1,0,0:0:0:0:
256,192,82411,1,8,0:0:0:0:
256,192,82518,1,0,0:0:0:0:
256,192,82625,1,8,0:0:0:0:
256,192,82732,1,8,0:0:0:0:
256,192,82839,1,0,0:0:0:0:
256,192,82946,1,8,0:0:0:0:
256,192,83053,1,8,0:0:0:0:
256,192,83161,1,8,0:0:0:0:
256,192,83268,1,0,0:0:0:0:
256,192,83375,1,0,0:0:0:0:
256,192,83482,1,8,0:0:0:0:
256,192,83696,1,0,0:0:0:0:
256,192,83803,1,8,0:0:0:0:
256,192,83911,1,0,0:0:0:0:
256,192,84125,1,0,0:0:0:0:
256,192,84339,1,8,0:0:0:0:
256,192,84446,1,8,0:0:0:0:
256,192,84553,1,0,0:0:0:0:
256,192,84661,1,8,0:0:0:0:
256,192,84768,1,0,0:0:0:0:
256,192,84875,1,0,0:0:0:0:
256,192,84982,1,8,0:0:0:0:
256,192,85089,1,8,0:0:0:0:
256,192,85196,1,0,0:0:0:0:
256,192,85303,1,0,0:0:0:0:
256,192,85411,1,8,0:0:0:0:
256,192,85518,1,0,0:0:0:0:
256,192,85625,1,0,0:0:0:0:
256,192,85732,1,0,0:0:0:0:
256,192,85839,1,8,0:0:0:0:
256,192,85946,1,8,0:0:0:0:
256,192,86053,1,0,0:0:0:0:
256,192,86161,1,0,0:0:0:0:
256,192,86268,1,8,0:0:0:0:
256,192,86375,1,0,0:0:0:0:
256,192,86482,1,8,0:0:0:0:
256,192,86589,1,8,0:0:0:0:
256,192,86696,1,8,0:0:0:0:
256,192,86803,1,8,0:0:0:0:
256,192,86911,1,0,0:0:0:0:
256,192,87125,1,0,0:0:0:0:
256,192,87232,1,0,0:0:0:0:
256,192,87339,1,8,0:0:0:0:
256,192,87553,1,8,0:0:0:0:
256,192,87768,1,0,0:0:0:0:
256,192,87875,1,0,0:0:0:0:
256,192,87982,1,8,0:0:0:0:
256,192,88089,1,0,0:0:0:0:
256,192,88196,1,8,0:0:0:0:
256,192,88303,1,8,0:0:0:0:
256,192,88411,1,8,0:0:0:0:
256,192,88518,1,8,0:0:0:0:
256,192,88625,1,0,0:0:0:0:
256,192,88732,1,0,0:0:0:0:
256,192,88839,1,8,0:0:0:0:
256,192,88946,1,0,0:0:0:0:
256,192,89053,1,0,0:0:0:0:
256,192,89161,1,0,0:0:0:0:
256,192,89268,1,8,0:0:0:0:
256,192,89375,1,8,0:0:0:0:
256,192,89482,1,0,0:0:0:0:
256,192,89589,1,0,0:0:0:0:
256,192,89696,1,8,0:0:0:0:
256,192,89803,1,0,0:0:0:0:
256,192,89911,1,8,0:0:0:0:
256,192,90018,1,8,0:0:0:0:
256,192,90125,1,0,0:0:0:0:
256,192,90232,1,0,0:0:0:0:
256,192,90339,1,8,0:0:0:0:
256,192,90553,1,0,0:0:0:0:
256,192,90661,1,0,0:0:0:0:
256,192,90768,1,8,0:0:0:0:
256,192,90982,1,0,0:0:0:0:
256,192,91196,1,8,0:0:0:0:
256,192,91303,1,8,0:0:0:0:
256,192,91411,1,0,0:0:0:0:
256,192,91518,1,8,0:0:0:0:
256,192,91625,1,0,0:0:0:0:
256,192,91732,1,0,0:0:0:0:
256,192,91839,1,8,0:0:0:0:
256,192,91946,1,0,0:0:0:0:
256,192,92053,1,8,0:0:0:0:
256,192,92161,1,8,0:0:0:0:
256,192,92268,1,0,0:0:0:0:
256,192,92375,1,8,0:0:0:0:
256,192,92482,1,8,0:0:0:0:
256,192,92589,1,8,0:0:0:0:
256,192,92696,1,0,0:0:0:0:
256,192,92911,1,12,0:0:0:0:
256,192,93125,1,12,0:0:0:0:
256,192,93339,1,12,0:0:0:0:
256,192,93553,1,12,0:0:0:0:
256,192,93768,1,0,0:0:0:0:
256,192,93982,1,0,0:0:0:0:
256,192,94089,1,8,0:0:0:0:
256,192,94303,1,0,0:0:0:0:
256,192,94411,1,8,0:0:0:0:
256,192,94625,1,4,0:0:0:0:
256,192,94946,1,8,0:0:0:0:
256,192,95268,1,8,0:0:0:0:
256,192,95482,1,8,0:0:0:0:
256,192,95911,1,8,0:0:0:0:
256,192,96339,1,4,0:0:0:0:
256,192,96553,1,8,0:0:0:0:
256,192,96661,1,8,0:0:0:0:
256,192,96768,1,0,0:0:0:0:
256,192,96875,1,0,0:0:0:0:
256,192,96982,1,8,0:0:0:0:
256,192,97089,1,8,0:0:0:0:
256,192,97196,1,0,0:0:0:0:
256,192,97303,1,0,0:0:0:0:
256,192,97411,1,8,0:0:0:0:
256,192,97518,1,0,0:0:0:0:
256,192,97625,1,0,0:0:0:0:
256,192,97732,1,0,0:0:0:0:
256,192,97839,1,8,0:0:0:0:
256,192,98053,1,8,0:0:0:0:
256,192,98161,1,0,0:0:0:0:
256,192,98268,1,0,0:0:0:0:
256,192,98375,1,8,0:0:0:0:
256,192,98482,1,0,0:0:0:0:
256,192,98589,1,0,0:0:0:0:
256,192,98696,1,8,0:0:0:0:
256,192,98803,1,0,0:0:0:0:
256,192,98911,1,8,0:0:0:0:
256,192,99018,1,8,0:0:0:0:
256,192,99125,1,0,0:0:0:0:
256,192,99232,1,0,0:0:0:0:
256,192,99339,1,8,0:0:0:0:
256,192,99446,1,0,0:0:0:0:
256,192,99553,1,8,0:0:0:0:
256,192,99768,1,4,0:0:0:0:
256,192,99982,1,8,0:0:0:0:
256,192,100089,1,8,0:0:0:0:
256,192,100196,1,0,0:0:0:0:
256,192,100303,1,8,0:0:0:0:
256,192,100411,1,0,0:0:0:0:
256,192,100518,1,0,0:0:0:0:
256,192,100625,1,8,0:0:0:0:
256,192,100732,1,0,0:0:0:0:
256,192,100839,1,8,0:0:0:0:
256,192,100946,1,8,0:0:0:0:
256,192,101053,1,0,0:0:0:0:
256,192,101161,1,0,0:0:0:0:
256,192,101268,1,8,0:0:0:0:
256,192,101482,1,8,0:0:0:0:
256,192,101589,1,8,0:0:0:0:
256,192,101696,1,0,0:0:0:0:
256,192,101803,1,8,0:0:0:0:
256,192,101911,1,8,0:0:0:0:
256,192,102018,1,8,0:0:0:0:
256,192,102125,1,0,0:0:0:0:
256,192,102339,1,12,0:0:0:0:
256,192,102553,1,12,0:0:0:0:
256,192,102768,1,12,0:0:0:0:
256,192,102982,1,12,0:0:0:0:
256,192,103196,1,4,0:0:0:0:
256,192,103411,1,8,0:0:0:0:
256,192,103518,1,8,0:0:0:0:
256,192,103625,1,8,0:0:0:0:
256,192,103732,1,8,0:0:0:0:
256,192,103839,1,0,0:0:0:0:
256,192,103946,1,0,0:0:0:0:
256,192,104053,1,8,0:0:0:0:
256,192,104161,1,8,0:0:0:0:
256,192,104268,1,0,0:0:0:0:
256,192,104375,1,8,0:0:0:0:
256,192,104482,1,0,0:0:0:0:
256,192,104589,1,0,0:0:0:0:
256,192,104696,1,8,0:0:0:0:
256,192,104911,1,0,0:0:0:0:
256,192,105018,1,8,0:0:0:0:
256,192,105125,1,8,0:0:0:0:
256,192,105232,1,0,0:0:0:0:
256,192,105339,1,8,0:0:0:0:
256,192,105446,1,8,0:0:0:0:
256,192,105553,1,0,0:0:0:0:
256,192,105661,1,0,0:0:0:0:
256,192,105768,1,8,0:0:0:0:
256,192,105875,1,8,0:0:0:0:
256,192,105982,1,8,0:0:0:0:
256,192,106089,1,8,0:0:0:0:
256,192,106196,1,0,0:0:0:0:
256,192,106303,1,0,0:0:0:0:
256,192,106411,1,8,0:0:0:0:
256,192,106625,1,4,0:0:0:0:
256,192,106839,1,8,0:0:0:0:
256,192,106946,1,0,0:0:0:0:
256,192,107053,1,0,0:0:0:0:
256,192,107161,1,0,0:0:0:0:
256,192,107268,1,8,0:0:0:0:
256,192,107375,1,8,0:0:0:0:
256,192,107482,1,0,0:0:0:0:
256,192,107589,1,0,0:0:0:0:
256,192,107696,1,8,0:0:0:0:
256,192,107803,1,8,0:0:0:0:
256,192,107911,1,8,0:0:0:0:
256,192,108018,1,8,0:0:0:0:
256,192,108125,1,0,0:0:0:0:
256,192,108339,1,8,0:0:0:0:
256,192,108446,1,0,0:0:0:0:
256,192,108553,1,0,0:0:0:0:
256,192,108661,1,8,0:0:0:0:
256,192,108768,1,8,0:0:0:0:
256,192,108875,1,8,0:0:0:0:
256,192,108982,1,0,0:0:0:0:
256,192,109196,1,12,0:0:0:0:
256,192,109411,1,0,0:0:0:0:
256,192,109482,1,0,0:0:0:0:
256,192,109553,1,0,0:0:0:0:
256,192,109625,1,8,0:0:0:0:
256,192,109839,1,8,0:0:0:0:
256,192,110053,1,4,0:0:0:0:
256,192,110481,1,0,0:0:0:0:
256,192,110696,1,0,0:0:0:0:
256,192,110910,1,0,0:0:0:0:
256,192,111124,1,0,0:0:0:0:
256,192,111338,1,0,0:0:0:0:
256,192,111553,1,8,0:0:0:0:
256,192,111767,1,4,0:0:0:0:
256,192,112088,1,8,0:0:0:0:
256,192,112196,1,0,0:0:0:0:
256,192,112410,1,0,0:0:0:0:
256,192,112624,1,0,0:0:0:0:
256,192,112838,1,0,0:0:0:0:
256,192,113053,1,0,0:0:0:0:
256,192,113267,1,0,0:0:0:0:
256,192,113481,1,4,0:0:0:0:
256,192,113803,1,8,0:0:0:0:
256,192,113910,1,0,0:0:0:0:
256,192,114124,1,0,0:0:0:0:
256,192,114338,1,0,0:0:0:0:
256,192,114553,1,0,0:0:0:0:
256,192,114767,1,0,0:0:0:0:
256,192,114981,1,8,0:0:0:0:
256,192,115196,1,4,0:0:0:0:
256,192,115517,1,8,0:0:0:0:
256,192,115624,1,0,0:0:0:0:
256,192,115838,1,0,0:0:0:0:
256,192,116160,1,12,0:0:0:0:
256,192,116481,1,4,0:0:0:0:
256,192,116910,1,4,0:0:0:0:
256,192,117124,1,0,0:0:0:0:
256,192,117338,1,8,0:0:0:0:
256,192,117553,1,0,0:0:0:0:
256,192,117660,1,0,0:0:0:0:
256,192,117767,1,8,0:0:0:0:
256,192,117981,1,0,0:0:0:0:
256,192,118196,1,8,0:0:0:0:
256,192,118303,1,8,0:0:0:0:
256,192,118410,1,0,0:0:0:0:
256,192,118517,1,0,0:0:0:0:
256,192,118624,1,8,0:0:0:0:
256,192,118838,1,0,0:0:0:0:
256,192,119053,1,8,0:0:0:0:
256,192,119267,1,0,0:0:0:0:
256,192,119374,1,8,0:0:0:0:
256,192,119481,1,0,0:0:0:0:
256,192,119910,1,0,0:0:0:0:
256,192,120124,1,8,0:0:0:0:
256,192,120231,1,8,0:0:0:0:
256,192,120338,1,0,0:0:0:0:
256,192,120553,1,8,0:0:0:0:
256,192,120767,1,0,0:0:0:0:
256,192,120874,1,0,0:0:0:0:
256,192,120981,1,8,0:0:0:0:
256,192,121088,1,0,0:0:0:0:
256,192,121196,1,8,0:0:0:0:
256,192,121410,1,8,0:0:0:0:
256,192,121624,1,0,0:0:0:0:
256,192,121731,1,0,0:0:0:0:
256,192,121838,1,0,0:0:0:0:
256,192,122053,1,8,0:0:0:0:
256,192,122267,1,8,0:0:0:0:
256,192,122481,1,0,0:0:0:0:
256,192,122696,1,8,0:0:0:0:
256,192,122803,1,0,0:0:0:0:
256,192,123017,1,12,0:0:0:0:
256,192,123338,1,4,0:0:0:0:
256,192,123981,1,12,0:0:0:0:
256,192,124196,1,8,0:0:0:0:
256,192,124410,1,0,0:0:0:0:
256,192,124517,1,0,0:0:0:0:
256,192,124624,1,8,0:0:0:0:
256,192,124838,1,0,0:0:0:0:
256,192,125053,1,8,0:0:0:0:
256,192,125160,1,8,0:0:0:0:
256,192,125267,1,0,0:0:0:0:
256,192,125374,1,8,0:0:0:0:
256,192,125481,1,0,0:0:0:0:
256,192,125696,1,0,0:0:0:0:
256,192,125910,1,8,0:0:0:0:
256,192,126124,1,8,0:0:0:0:
256,192,126231,1,8,0:0:0:0:
256,192,126338,1,0,0:0:0:0:
256,192,126553,1,8,0:0:0:0:
256,192,126767,1,0,0:0:0:0:
256,192,126874,1,0,0:0:0:0:
256,192,126981,1,8,0:0:0:0:
256,192,127410,1,12,0:0:0:0:
256,192,127624,1,0,0:0:0:0:
256,192,127731,1,0,0:0:0:0:
256,192,127838,1,8,0:0:0:0:
256,192,128053,1,0,0:0:0:0:
256,192,128160,1,8,0:0:0:0:
256,192,128374,1,8,0:0:0:0:
256,192,128481,1,0,0:0:0:0:
256,192,128696,1,8,0:0:0:0:
256,192,128910,1,0,0:0:0:0:
256,192,129017,1,8,0:0:0:0:
256,192,129124,1,8,0:0:0:0:
256,192,129231,1,0,0:0:0:0:
256,192,129338,1,8,0:0:0:0:
256,192,129553,1,0,0:0:0:0:
256,192,129767,1,8,0:0:0:0:
256,192,129874,1,0,0:0:0:0:
256,192,129981,1,8,0:0:0:0:
256,192,130088,1,8,0:0:0:0:
256,192,130196,1,0,0:0:0:0:
256,192,130303,1,0,0:0:0:0:
256,192,130410,1,8,0:0:0:0:
256,192,130838,1,12,0:0:0:0:
256,192,131053,1,0,0:0:0:0:
256,192,131267,1,8,0:0:0:0:
256,192,131374,1,0,0:0:0:0:
256,192,131481,1,8,0:0:0:0:
256,192,131696,1,8,0:0:0:0:
256,192,131910,1,0,0:0:0:0:
256,192,132124,1,0,0:0:0:0:
256,192,132231,1,0,0:0:0:0:
256,192,132338,1,8,0:0:0:0:
256,192,132553,1,8,0:0:0:0:
256,192,132660,1,8,0:0:0:0:
256,192,132767,1,0,0:0:0:0:
256,192,132981,1,8,0:0:0:0:
256,192,133196,1,0,0:0:0:0:
256,192,133303,1,0,0:0:0:0:
256,192,133410,1,8,0:0:0:0:
256,192,133517,1,0,0:0:0:0:
256,192,133624,1,8,0:0:0:0:
256,192,133731,1,8,0:0:0:0:
256,192,133838,1,0,0:0:0:0:
256,192,134267,1,12,0:0:0:0:
256,192,134481,1,0,0:0:0:0:
256,192,134588,1,0,0:0:0:0:
256,192,134696,1,8,0:0:0:0:
256,192,134910,1,0,0:0:0:0:
256,192,135017,1,8,0:0:0:0:
256,192,135231,1,8,0:0:0:0:
256,192,135338,1,0,0:0:0:0:
256,192,135446,1,0,0:0:0:0:
256,192,135553,1,8,0:0:0:0:
256,192,135767,1,4,0:0:0:0:
256,192,136088,1,4,0:0:0:0:
256,192,136410,1,4,0:0:0:0:
256,192,136731,1,4,0:0:0:0:
256,192,137053,1,8,0:0:0:0:
256,192,137160,1,8,0:0:0:0:
256,192,137267,1,8,0:0:0:0:
256,192,137481,1,4,0:0:0:0:
256,192,137696,1,8,0:0:0:0:
256,192,137910,1,0,0:0:0:0:
256,192,138124,1,8,0:0:0:0:
256,192,138231,1,8,0:0:0:0:
256,192,138338,1,0,0:0:0:0:
256,192,138553,1,0,0:0:0:0:
256,192,138660,1,0,0:0:0:0:
256,192,138767,1,8,0:0:0:0:
256,192,138874,1,8,0:0:0:0:
256,192,138981,1,0,0:0:0:0:
256,192,139196,1,8,0:0:0:0:
256,192,139303,1,0,0:0:0:0:
256,192,139517,1,0,0:0:0:0:
256,192,139624,1,8,0:0:0:0:
256,192,139731,1,8,0:0:0:0:
256,192,139838,1,0,0:0:0:0:
256,192,140053,1,8,0:0:0:0:
256,192,140267,1,0,0:0:0:0:
256,192,140374,1,0,0:0:0:0:
256,192,140481,1,8,0:0:0:0:
256,192,140588,1,8,0:0:0:0:
256,192,140696,1,0,0:0:0:0:
256,192,140803,1,8,0:0:0:0:
256,192,140910,1,0,0:0:0:0:
256,192,141124,1,0,0:0:0:0:
256,192,141231,1,0,0:0:0:0:
256,192,141338,1,8,0:0:0:0:
256,192,141553,1,8,0:0:0:0:
256,192,141660,1,8,0:0:0:0:
256,192,141767,1,0,0:0:0:0:
256,192,141981,1,0,0:0:0:0:
256,192,142196,1,8,0:0:0:0:
256,192,142303,1,8,0:0:0:0:
256,192,142410,1,0,0:0:0:0:
256,192,142517,1,0,0:0:0:0:
256,192,142624,1,8,0:0:0:0:
256,192,142838,1,0,0:0:0:0:
256,192,142946,1,8,0:0:0:0:
256,192,143053,1,0,0:0:0:0:
256,192,143160,1,0,0:0:0:0:
256,192,143267,1,8,0:0:0:0:
256,192,143374,1,8,0:0:0:0:
256,192,143481,1,0,0:0:0:0:
256,192,143696,1,0,0:0:0:0:
256,192,143910,1,8,0:0:0:0:
256,192,144017,1,8,0:0:0:0:
256,192,144124,1,8,0:0:0:0:
256,192,144338,1,4,0:0:0:0:
256,192,144553,1,8,0:0:0:0:
256,192,144660,1,8,0:0:0:0:
256,192,144767,1,0,0:0:0:0:
256,192,144874,1,0,0:0:0:0:
256,192,144981,1,8,0:0:0:0:
256,192,145088,1,0,0:0:0:0:
256,192,145196,1,8,0:0:0:0:
256,192,145410,1,0,0:0:0:0:
256,192,145517,1,0,0:0:0:0:
256,192,145624,1,8,0:0:0:0:
256,192,145838,1,0,0:0:0:0:
256,192,145946,1,0,0:0:0:0:
256,192,146053,1,8,0:0:0:0:
256,192,146160,1,0,0:0:0:0:
256,192,146374,1,0,0:0:0:0:
256,192,146481,1,8,0:0:0:0:
256,192,146696,1,0,0:0:0:0:
256,192,146910,1,8,0:0:0:0:
256,192,147017,1,0,0:0:0:0:
256,192,147124,1,0,0:0:0:0:
256,192,147231,1,8,0:0:0:0:
256,192,147338,1,0,0:0:0:0:
256,192,147446,1,0,0:0:0:0:
256,192,147553,1,8,0:0:0:0:
256,192,147767,1,0,0:0:0:0:
256,192,147874,1,0,0:0:0:0:
256,192,147981,1,8,0:0:0:0:
256,192,148088,1,8,0:0:0:0:
256,192,148196,1,0,0:0:0:0:
256,192,148410,1,0,0:0:0:0:
256,192,148517,1,0,0:0:0:0:
256,192,148624,1,8,0:0:0:0:
256,192,148838,1,0,0:0:0:0:
256,192,149053,1,8,0:0:0:0:
256,192,149160,1,8,0:0:0:0:
256,192,149267,1,0,0:0:0:0:
256,192,149481,1,12,0:0:0:0:
256,192,149803,1,12,0:0:0:0:
256,192,150124,1,12,0:0:0:0:
256,192,150338,1,4,0:0:0:0:
256,192,150660,1,4,0:0:0:0:
256,192,150981,1,4,0:0:0:0:
256,192,151196,1,8,0:0:0:0:
256,192,151303,1,8,0:0:0:0:
256,192,151410,1,0,0:0:0:0:
256,192,151517,1,8,0:0:0:0:
256,192,151624,1,0,0:0:0:0:
256,192,151731,1,0,0:0:0:0:
256,192,151838,1,8,0:0:0:0:
256,192,151946,1,8,0:0:0:0:
256,192,152053,1,0,0:0:0:0:
256,192,152160,1,0,0:0:0:0:
256,192,152267,1,8,0:0:0:0:
256,192,152374,1,0,0:0:0:0:
256,192,152481,1,0,0:0:0:0:
256,192,152588,1,0,0:0:0:0:
256,192,152696,1,8,0:0:0:0:
256,192,152803,1,8,0:0:0:0:
256,192,152910,1,0,0:0:0:0:
256,192,153017,1,0,0:0:0:0:
256,192,153124,1,8,0:0:0:0:
256,192,153231,1,0,0:0:0:0:
256,192,153338,1,8,0:0:0:0:
256,192,153446,1,8,0:0:0:0:
256,192,153553,1,0,0:0:0:0:
256,192,153660,1,0,0:0:0:0:
256,192,153767,1,8,0:0:0:0:
256,192,153981,1,0,0:0:0:0:
256,192,154088,1,8,0:0:0:0:
256,192,154196,1,0,0:0:0:0:
256,192,154410,1,0,0:0:0:0:
256,192,154624,1,8,0:0:0:0:
256,192,154731,1,8,0:0:0:0:
256,192,154838,1,0,0:0:0:0:
256,192,154946,1,8,0:0:0:0:
256,192,155053,1,0,0:0:0:0:
256,192,155160,1,0,0:0:0:0:
256,192,155267,1,8,0:0:0:0:
256,192,155374,1,0,0:0:0:0:
256,192,155481,1,8,0:0:0:0:
256,192,155588,1,8,0:0:0:0:
256,192,155696,1,0,0:0:0:0:
256,192,155803,1,8,0:0:0:0:
256,192,155910,1,8,0:0:0:0:
256,192,156017,1,0,0:0:0:0:
256,192,156124,1,8,0:0:0:0:
256,192,156231,1,0,0:0:0:0:
256,192,156338,1,8,0:0:0:0:
256,192,156446,1,8,0:0:0:0:
256,192,156553,1,0,0:0:0:0:
256,192,156660,1,8,0:0:0:0:
256,192,156767,1,0,0:0:0:0:
256,192,156874,1,0,0:0:0:0:
256,192,156981,1,8,0:0:0:0:
256,192,157088,1,8,0:0:0:0:
256,192,157196,1,0,0:0:0:0:
256,192,157410,1,0,0:0:0:0:
256,192,157517,1,0,0:0:0:0:
256,192,157624,1,8,0:0:0:0:
256,192,157838,1,8,0:0:0:0:
256,192,158053,1,0,0:0:0:0:
256,192,158160,1,0,0:0:0:0:
256,192,158267,1,8,0:0:0:0:
256,192,158374,1,0,0:0:0:0:
256,192,158481,1,8,0:0:0:0:
256,192,158588,1,8,0:0:0:0:
256,192,158696,1,8,0:0:0:0:
256,192,158803,1,8,0:0:0:0:
256,192,158910,1,0,0:0:0:0:
256,192,159017,1,0,0:0:0:0:
256,192,159124,1,8,0:0:0:0:
256,192,159231,1,0,0:0:0:0:
256,192,159338,1,0,0:0:0:0:
256,192,159446,1,0,0:0:0:0:
256,192,159553,1,8,0:0:0:0:
256,192,159660,1,8,0:0:0:0:
256,192,159767,1,0,0:0:0:0:
256,192,159874,1,0,0:0:0:0:
256,192,159981,1,8,0:0:0:0:
256,192,160088,1,0,0:0:0:0:
256,192,160196,1,8,0:0:0:0:
256,192,160303,1,8,0:0:0:0:
256,192,160410,1,0,0:0:0:0:
256,192,160517,1,0,0:0:0:0:
256,192,160624,1,8,0:0:0:0:
256,192,160838,1,0,0:0:0:0:
256,192,160946,1,0,0:0:0:0:
256,192,161053,1,8,0:0:0:0:
256,192,161267,1,0,0:0:0:0:
256,192,161481,1,8,0:0:0:0:
256,192,161588,1,8,0:0:0:0:
256,192,161696,1,0,0:0:0:0:
256,192,161803,1,8,0:0:0:0:
256,192,161910,1,0,0:0:0:0:
256,192,162017,1,0,0:0:0:0:
256,192,162124,1,8,0:0:0:0:
256,192,162231,1,0,0:0:0:0:
256,192,162338,1,8,0:0:0:0:
256,192,162446,1,8,0:0:0:0:
256,192,162553,1,0,0:0:0:0:
256,192,162660,1,8,0:0:0:0:
256,192,162767,1,8,0:0:0:0:
256,192,162874,1,8,0:0:0:0:
256,192,162981,1,0,0:0:0:0:
256,192,163196,1,12,0:0:0:0:
256,192,163410,1,12,0:0:0:0:
256,192,163624,1,12,0:0:0:0:
256,192,163838,1,12,0:0:0:0:
256,192,164053,1,0,0:0:0:0:
256,192,164160,1,0,0:0:0:0:
256,192,164267,1,8,0:0:0:0:
256,192,164374,1,0,0:0:0:0:
256,192,164481,1,0,0:0:0:0:
256,192,164588,1,0,0:0:0:0:
256,192,164696,1,8,0:0:0:0:
256,192,164910,1,4,0:0:0:0:
256,192,165338,1,8,0:0:0:0:
256,192,165660,1,8,0:0:0:0:
256,192,165767,1,0,0:0:0:0:
256,192,165981,1,8,0:0:0:0:
256,192,166196,1,0,0:0:0:0:
256,192,166303,1,0,0:0:0:0:
256,192,166517,1,8,0:0:0:0:
256,192,166624,1,0,0:0:0:0:
256,192,166731,1,0,0:0:0:0:
256,192,166946,1,8,0:0:0:0:
256,192,167053,1,0,0:0:0:0:
256,192,167267,1,0,0:0:0:0:
256,192,167481,1,12,0:0:0:0:
256,192,167803,1,12,0:0:0:0:
256,192,168124,1,12,0:0:0:0:
256,192,168338,1,4,0:0:0:0:
256,192,168767,1,8,0:0:0:0:
256,192,169088,1,0,0:0:0:0:
256,192,169196,1,8,0:0:0:0:
256,192,169410,1,8,0:0:0:0:
256,192,169624,1,0,0:0:0:0:
256,192,169731,1,8,0:0:0:0:
256,192,169838,1,0,0:0:0:0:
256,192,170053,1,12,0:0:0:0:
256,192,170267,1,0,0:0:0:0:
256,192,170374,1,0,0:0:0:0:
256,192,170481,1,8,0:0:0:0:
256,192,170588,1,8,0:0:0:0:
256,192,170696,1,0,0:0:0:0:
256,192,170910,1,8,0:0:0:0:
256,192,171017,1,8,0:0:0:0:
256,192,171124,1,8,0:0:0:0:
256,192,171231,1,8,0:0:0:0:
256,192,171338,1,0,0:0:0:0:
256,192,171446,1,0,0:0:0:0:
256,192,171553,1,8,0:0:0:0:
256,192,171767,1,4,0:0:0:0:
256,192,171981,1,0,0:0:0:0:
256,192,172196,1,8,0:0:0:0:
256,192,172267,1,8,0:0:0:0:
256,192,172338,1,8,0:0:0:0:
256,192,172410,1,0,0:0:0:0:
256,192,172624,1,8,0:0:0:0:
256,192,172731,1,8,0:0:0:0:
256,192,172838,1,0,0:0:0:0:
256,192,173053,1,8,0:0:0:0:
256,192,173124,1,8,0:0:0:0:
256,192,173196,1,8,0:0:0:0:
256,192,173267,1,0,0:0:0:0:
256,192,173481,1,8,0:0:0:0:
256,192,173696,1,0,0:0:0:0:
256,192,173803,1,0,0:0:0:0:
256,192,173910,1,8,0:0:0:0:
256,192,174017,1,8,0:0:0:0:
256,192,174124,1,0,0:0:0:0:
256,192,174338,1,12,0:0:0:0:
256,192,174660,1,12,0:0:0:0:
256,192,174981,1,12,0:0:0:0:
256,192,175196,1,4,0:0:0:0:
256,192,175410,1,0,0:0:0:0:
256,192,175481,1,0,0:0:0:0:
256,192,175553,1,0,0:0:0:0:
256,192,175624,1,8,0:0:0:0:
256,192,175838,1,0,0:0:0:0:
256,192,175946,1,0,0:0:0:0:
256,192,176053,1,8,0:0:0:0:
256,192,176267,1,0,0:0:0:0:
256,192,176338,1,0,0:0:0:0:
256,192,176410,1,0,0:0:0:0:
256,192,176481,1,8,0:0:0:0:
256,192,176696,1,0,0:0:0:0:
256,192,176803,1,0,0:0:0:0:
256,192,176910,1,8,0:0:0:0:
256,192,177124,1,0,0:0:0:0:
256,192,177338,1,8,0:0:0:0:
256,192,177410,1,8,0:0:0:0:
256,192,177481,1,8,0:0:0:0:
256,192,177553,1,0,0:0:0:0:
256,192,177767,1,12,0:0:0:0:
256,192,177981,1,12,0:0:0:0:
256,192,178196,1,12,0:0:0:0:
256,192,178410,1,12,0:0:0:0:
256,192,178624,1,4,0:0:0:0:
256,192,178838,1,8,0:0:0:0:
256,192,178946,1,8,0:0:0:0:
256,192,179053,1,0,0:0:0:0:
256,192,179160,1,8,0:0:0:0:
256,192,179267,1,8,0:0:0:0:
256,192,179374,1,0,0:0:0:0:
256,192,179481,1,8,0:0:0:0:
256,192,179588,1,0,0:0:0:0:
256,192,179696,1,0,0:0:0:0:
256,192,179803,1,8,0:0:0:0:
256,192,179910,1,0,0:0:0:0:
256,192,180017,1,0,0:0:0:0:
256,192,180124,1,8,0:0:0:0:
256,192,180231,1,0,0:0:0:0:
256,192,180338,1,8,0:0:0:0:
256,192,180446,1,8,0:0:0:0:
256,192,180553,1,0,0:0:0:0:
256,192,180660,1,0,0:0:0:0:
256,192,180767,1,8,0:0:0:0:
256,192,180874,1,8,0:0:0:0:
256,192,180981,1,0,0:0:0:0:
256,192,181196,1,12,0:0:0:0:
256,192,181517,1,12,0:0:0:0:
256,192,181838,1,12,0:0:0:0:
256,192,182053,1,0,0:0:0:0:
256,192,182124,1,0,0:0:0:0:
256,192,182196,1,0,0:0:0:0:
256,192,182267,1,8,0:0:0:0:
256,192,182481,1,0,0:0:0:0:
256,192,182588,1,0,0:0:0:0:
256,192,182696,1,8,0:0:0:0:
256,192,182910,1,0,0:0:0:0:
256,192,182981,1,0,0:0:0:0:
256,192,183053,1,0,0:0:0:0:
256,192,183124,1,8,0:0:0:0:
256,192,183338,1,0,0:0:0:0:
256,192,183446,1,0,0:0:0:0:
256,192,183553,1,8,0:0:0:0:
256,192,183767,1,0,0:0:0:0:
256,192,183874,1,0,0:0:0:0:
256,192,183981,1,8,0:0:0:0:
256,192,184088,1,0,0:0:0:0:
256,192,184196,1,8,0:0:0:0:
256,192,184303,1,8,0:0:0:0:
256,192,184410,1,0,0:0:0:0:
256,192,184624,1,8,0:0:0:0:
256,192,184731,1,8,0:0:0:0:
256,192,184838,1,8,0:0:0:0:
256,192,184946,1,8,0:0:0:0:
256,192,185053,1,0,0:0:0:0:
256,192,185160,1,0,0:0:0:0:
256,192,185267,1,8,0:0:0:0:
256,192,185481,1,4,0:0:0:0:
256,192,187196,1,0,0:0:0:0:
256,192,188053,1,8,0:0:0:0:
256,192,188910,1,0,0:0:0:0:
256,192,200053,5,8,0:0:0:0:
256,192,200267,1,8,0:0:0:0:
256,192,200481,1,8,0:0:0:0:
256,192,200696,1,8,0:0:0:0:
256,192,200910,1,4,0:0:0:0:
256,192,201231,1,4,0:0:0:0:
256,192,201552,1,4,0:0:0:0:
256,192,201874,1,4,0:0:0:0:
256,192,202195,1,8,0:0:0:0:
256,192,202410,1,8,0:0:0:0:
256,192,202624,1,4,0:0:0:0:
256,192,202945,1,4,0:0:0:0:
256,192,203267,1,4,0:0:0:0:
256,192,203588,1,4,0:0:0:0:
256,192,203910,1,12,0:0:0:0:
256,192,204338,1,4,0:0:0:0:
256,192,204552,1,8,0:0:0:0:
256,192,204660,1,8,0:0:0:0:
256,192,204767,1,0,0:0:0:0:
256,192,204981,1,0,0:0:0:0:
256,192,205088,1,0,0:0:0:0:
256,192,205195,1,8,0:0:0:0:
256,192,205410,1,0,0:0:0:0:
256,192,205517,1,0,0:0:0:0:
256,192,205624,1,8,0:0:0:0:
256,192,205731,1,8,0:0:0:0:
256,192,205838,1,0,0:0:0:0:
256,192,206052,1,8,0:0:0:0:
256,192,206160,1,0,0:0:0:0:
256,192,206374,1,0,0:0:0:0:
256,192,206481,1,8,0:0:0:0:
256,192,206695,1,8,0:0:0:0:
256,192,206802,1,8,0:0:0:0:
256,192,206910,1,0,0:0:0:0:
256,192,207124,1,8,0:0:0:0:
256,192,207231,1,8,0:0:0:0:
256,192,207338,1,0,0:0:0:0:
256,192,207445,1,8,0:0:0:0:
256,192,207552,1,0,0:0:0:0:
256,192,207660,1,0,0:0:0:0:
256,192,207767,1,8,0:0:0:0:
256,192,207981,1,0,0:0:0:0:
256,192,208088,1,0,0:0:0:0:
256,192,208195,1,8,0:0:0:0:
256,192,208410,1,8,0:0:0:0:
256,192,208517,1,8,0:0:0:0:
256,192,208624,1,0,0:0:0:0:
256,192,208838,1,0,0:0:0:0:
256,192,209052,1,8,0:0:0:0:
256,192,209160,1,0,0:0:0:0:
256,192,209267,1,0,0:0:0:0:
256,192,209374,1,0,0:0:0:0:
256,192,209481,1,8,0:0:0:0:
256,192,209695,1,0,0:0:0:0:
256,192,209802,1,0,0:0:0:0:
256,192,209910,1,8,0:0:0:0:
256,192,210017,1,8,0:0:0:0:
256,192,210124,1,0,0:0:0:0:
256,192,210231,1,0,0:0:0:0:
256,192,210338,1,8,0:0:0:0:
256,192,210552,1,0,0:0:0:0:
256,192,210767,1,8,0:0:0:0:
256,192,210874,1,0,0:0:0:0:
256,192,210981,1,8,0:0:0:0:
256,192,211195,1,4,0:0:0:0:
256,192,211410,1,0,0:0:0:0:
256,192,211517,1,0,0:0:0:0:
256,192,211624,1,8,0:0:0:0:
256,192,211838,1,8,0:0:0:0:
256,192,211945,1,8,0:0:0:0:
256,192,212052,1,0,0:0:0:0:
256,192,212160,1,0,0:0:0:0:
256,192,212267,1,0,0:0:0:0:
256,192,212374,1,0,0:0:0:0:
256,192,212481,1,8,0:0:0:0:
256,192,212695,1,0,0:0:0:0:
256,192,212909,1,8,0:0:0:0:
256,192,213017,1,0,0:0:0:0:
256,192,213231,1,0,0:0:0:0:
256,192,213338,1,8,0:0:0:0:
256,192,213445,1,0,0:0:0:0:
256,192,213552,1,0,0:0:0:0:
256,192,213767,1,8,0:0:0:0:
256,192,213874,1,8,0:0:0:0:
256,192,213981,1,0,0:0:0:0:
256,192,214088,1,8,0:0:0:0:
256,192,214195,1,0,0:0:0:0:
256,192,214302,1,0,0:0:0:0:
256,192,214409,1,8,0:0:0:0:
256,192,214624,1,0,0:0:0:0:
256,192,214838,1,8,0:0:0:0:
256,192,214945,1,8,0:0:0:0:
256,192,215052,1,0,0:0:0:0:
256,192,215267,1,0,0:0:0:0:
256,192,215374,1,0,0:0:0:0:
256,192,215481,1,8,0:0:0:0:
256,192,215695,1,8,0:0:0:0:
256,192,215909,1,0,0:0:0:0:
256,192,216017,1,8,0:0:0:0:
256,192,216124,1,0,0:0:0:0:
256,192,216338,1,8,0:0:0:0:
256,192,216445,1,8,0:0:0:0:
256,192,216552,1,0,0:0:0:0:
256,192,216659,1,0,0:0:0:0:
256,192,216767,1,8,0:0:0:0:
256,192,216874,1,8,0:0:0:0:
256,192,216981,1,0,0:0:0:0:
256,192,217195,1,8,0:0:0:0:
256,192,217267,1,8,0:0:0:0:
256,192,217338,1,8,0:0:0:0:
256,192,217409,1,0,0:0:0:0:
256,192,217624,1,0,0:0:0:0:
256,192,217838,1,12,0:0:0:0:
256,192,218052,1,4,0:0:0:0:
256,192,218267,1,8,0:0:0:0:
256,192,218481,1,0,0:0:0:0:
256,192,218695,1,8,0:0:0:0:
256,192,218802,1,8,0:0:0:0:
256,192,218909,1,0,0:0:0:0:
256,192,219124,1,0,0:0:0:0:
256,192,219231,1,0,0:0:0:0:
256,192,219338,1,8,0:0:0:0:
256,192,219445,1,8,0:0:0:0:
256,192,219552,1,0,0:0:0:0:
256,192,219767,1,8,0:0:0:0:
256,192,219874,1,0,0:0:0:0:
256,192,220088,1,0,0:0:0:0:
256,192,220195,1,8,0:0:0:0:
256,192,220302,1,8,0:0:0:0:
256,192,220409,1,0,0:0:0:0:
256,192,220624,1,8,0:0:0:0:
256,192,220838,1,0,0:0:0:0:
256,192,220945,1,0,0:0:0:0:
256,192,221052,1,8,0:0:0:0:
256,192,221159,1,8,0:0:0:0:
256,192,221267,1,0,0:0:0:0:
256,192,221374,1,8,0:0:0:0:
256,192,221481,1,0,0:0:0:0:
256,192,221695,1,0,0:0:0:0:
256,192,221802,1,0,0:0:0:0:
256,192,221909,1,8,0:0:0:0:
256,192,222124,1,8,0:0:0:0:
256,192,222231,1,8,0:0:0:0:
256,192,222338,1,0,0:0:0:0:
256,192,222552,1,0,0:0:0:0:
256,192,222767,1,8,0:0:0:0:
256,192,222874,1,8,0:0:0:0:
256,192,222981,1,0,0:0:0:0:
256,192,223088,1,0,0:0:0:0:
256,192,223195,1,8,0:0:0:0:
256,192,223409,1,0,0:0:0:0:
256,192,223517,1,8,0:0:0:0:
256,192,223624,1,0,0:0:0:0:
256,192,223731,1,0,0:0:0:0:
256,192,223838,1,8,0:0:0:0:
256,192,223945,1,8,0:0:0:0:
256,192,224052,1,0,0:0:0:0:
256,192,224267,1,0,0:0:0:0:
256,192,224481,1,8,0:0:0:0:
256,192,224588,1,8,0:0:0:0:
256,192,224695,1,8,0:0:0:0:
256,192,224909,1,4,0:0:0:0:
256,192,225124,1,8,0:0:0:0:
256,192,225231,1,8,0:0:0:0:
256,192,225338,1,0,0:0:0:0:
256,192,225445,1,0,0:0:0:0:
256,192,225552,1,8,0:0:0:0:
256,192,225659,1,0,0:0:0:0:
256,192,225767,1,8,0:0:0:0:
256,192,225981,1,0,0:0:0:0:
256,192,226088,1,0,0:0:0:0:
256,192,226195,1,8,0:0:0:0:
256,192,226409,1,0,0:0:0:0:
256,192,226517,1,0,0:0:0:0:
256,192,226624,1,8,0:0:0:0:
256,192,226731,1,0,0:0:0:0:
256,192,226945,1,0,0:0:0:0:
256,192,227052,1,8,0:0:0:0:
256,192,227267,1,0,0:0:0:0:
256,192,227481,1,8,0:0:0:0:
256,192,227588,1,0,0:0:0:0:
256,192,227695,1,0,0:0:0:0:
256,192,227802,1,8,0:0:0:0:
256,192,227909,1,0,0:0:0:0:
256,192,228017,1,0,0:0:0:0:
256,192,228124,1,8,0:0:0:0:
256,192,228338,1,0,0:0:0:0:
256,192,228445,1,0,0:0:0:0:
256,192,228552,1,8,0:0:0:0:
256,192,228659,1,8,0:0:0:0:
256,192,228767,1,0,0:0:0:0:
256,192,228981,1,0,0:0:0:0:
256,192,229088,1,0,0:0:0:0:
256,192,229195,1,8,0:0:0:0:
256,192,229409,1,0,0:0:0:0:
256,192,229624,1,8,0:0:0:0:
256,192,229731,1,8,0:0:0:0:
256,192,229838,1,0,0:0:0:0:
256,192,230052,1,12,0:0:0:0:
256,192,230374,1,12,0:0:0:0:
256,192,230695,1,12,0:0:0:0:
256,192,230909,1,4,0:0:0:0:
256,192,231231,1,4,0:0:0:0:
256,192,231552,1,4,0:0:0:0:
256,192,231767,1,8,0:0:0:0:
256,192,231874,1,8,0:0:0:0:
256,192,231981,1,0,0:0:0:0:
256,192,232088,1,8,0:0:0:0:
256,192,232195,1,0,0:0:0:0:
256,192,232302,1,0,0:0:0:0:
256,192,232409,1,8,0:0:0:0:
256,192,232517,1,0,0:0:0:0:
256,192,232624,1,8,0:0:0:0:
256,192,232731,1,0,0:0:0:0:
256,192,232838,1,0,0:0:0:0:
256,192,232945,1,8,0:0:0:0:
256,192,233052,1,0,0:0:0:0:
256,192,233159,1,0,0:0:0:0:
256,192,233267,1,8,0:0:0:0:
256,192,233374,1,0,0:0:0:0:
256,192,233481,1,8,0:0:0:0:
256,192,233588,1,8,0:0:0:0:
256,192,233695,1,0,0:0:0:0:
256,192,233802,1,8,0:0:0:0:
256,192,233909,1,8,0:0:0:0:
256,192,234017,1,8,0:0:0:0:
256,192,234124,1,0,0:0:0:0:
256,192,234231,1,0,0:0:0:0:
256,192,234338,1,8,0:0:0:0:
256,192,234552,1,0,0:0:0:0:
256,192,234659,1,8,0:0:0:0:
256,192,234767,1,0,0:0:0:0:
256,192,234981,1,0,0:0:0:0:
256,192,235195,1,8,0:0:0:0:
256,192,235302,1,8,0:0:0:0:
256,192,235409,1,0,0:0:0:0:
256,192,235517,1,8,0:0:0:0:
256,192,235624,1,0,0:0:0:0:
256,192,235731,1,0,0:0:0:0:
256,192,235838,1,8,0:0:0:0:
256,192,235945,1,0,0:0:0:0:
256,192,236052,1,8,0:0:0:0:
256,192,236159,1,0,0:0:0:0:
256,192,236267,1,0,0:0:0:0:
256,192,236374,1,8,0:0:0:0:
256,192,236481,1,0,0:0:0:0:
256,192,236588,1,0,0:0:0:0:
256,192,236695,1,8,0:0:0:0:
256,192,236802,1,8,0:0:0:0:
256,192,236909,1,0,0:0:0:0:
256,192,237017,1,0,0:0:0:0:
256,192,237124,1,8,0:0:0:0:
256,192,237231,1,0,0:0:0:0:
256,192,237338,1,8,0:0:0:0:
256,192,237445,1,8,0:0:0:0:
256,192,237552,1,8,0:0:0:0:
256,192,237659,1,8,0:0:0:0:
256,192,237767,1,0,0:0:0:0:
256,192,237981,1,0,0:0:0:0:
256,192,238088,1,0,0:0:0:0:
256,192,238195,1,8,0:0:0:0:
256,192,238409,1,0,0:0:0:0:
256,192,238624,1,8,0:0:0:0:
256,192,238731,1,8,0:0:0:0:
256,192,238838,1,0,0:0:0:0:
256,192,238945,1,0,0:0:0:0:
256,192,239052,1,8,0:0:0:0:
256,192,239159,1,8,0:0:0:0:
256,192,239267,1,8,0:0:0:0:
256,192,239374,1,8,0:0:0:0:
256,192,239481,1,0,0:0:0:0:
256,192,239588,1,0,0:0:0:0:
256,192,239695,1,8,0:0:0:0:
256,192,239802,1,8,0:0:0:0:
256,192,239909,1,8,0:0:0:0:
256,192,240017,1,0,0:0:0:0:
256,192,240124,1,8,0:0:0:0:
256,192,240231,1,8,0:0:0:0:
256,192,240338,1,0,0:0:0:0:
256,192,240445,1,0,0:0:0:0:
256,192,240552,1,8,0:0:0:0:
256,192,240659,1,0,0:0:0:0:
256,192,240767,1,8,0:0:0:0:
256,192,240874,1,8,0:0:0:0:
256,192,240981,1,0,0:0:0:0:
256,192,241088,1,0,0:0:0:0:
256,192,241195,1,8,0:0:0:0:
256,192,241302,1,8,0:0:0:0:
256,192,241409,1,8,0:0:0:0:
256,192,241517,1,8,0:0:0:0:
256,192,241624,1,0,0:0:0:0:
256,192,241838,1,0,0:0:0:0:
256,192,242052,1,8,0:0:0:0:
256,192,242159,1,0,0:0:0:0:
256,192,242267,1,0,0:0:0:0:
256,192,242374,1,0,0:0:0:0:
256,192,242481,1,8,0:0:0:0:
256,192,242588,1,8,0:0:0:0:
256,192,242695,1,0,0:0:0:0:
256,192,242802,1,0,0:0:0:0:
256,192,242909,1,8,0:0:0:0:
256,192,243017,1,0,0:0:0:0:
256,192,243124,1,8,0:0:0:0:
256,192,243231,1,8,0:0:0:0:
256,192,243338,1,0,0:0:0:0:
256,192,243445,1,8,0:0:0:0:
256,192,243552,1,0,0:0:0:0:
256,192,243659,1,0,0:0:0:0:
256,192,243767,1,8,0:0:0:0:
256,192,243874,1,0,0:0:0:0:
256,192,243981,1,8,0:0:0:0:
256,192,244088,1,0,0:0:0:0:
256,192,244195,1,8,0:0:0:0:
256,192,244302,1,8,0:0:0:0:
256,192,244409,1,8,0:0:0:0:
256,192,244517,1,8,0:0:0:0:
256,192,244624,1,0,0:0:0:0:
256,192,244945,1,12,0:0:0:0:
