osu file format v14

[General]
AudioFilename: audio.mp3
AudioLeadIn: 0
PreviewTime:189311
Countdown: 0
SampleSet: Drum
StackLeniency: 0.6
Mode: 0
LetterboxInBreaks: 0
WidescreenStoryboard: 1

[Editor]
Bookmarks: 8789,17137,26528,34876,43224,52615,53007,69311,77659,86007,95398,103746,112094,121485,138181,146528,163224,179920,190355,198702,215398,223746,232094
DistanceSpacing: 1
BeatDivisor: 4
GridSize: 8
TimelineZoom: 2.5

[Metadata]
Title:Kuusou Mesorogiwi
TitleUnicode:空想メソロギヰ
Artist:Yousei Teikoku
ArtistUnicode:妖精帝國
Creator:IsomirDiAngelo
Version:Normal
Source:未来日記
Tags:aistre alphabet venax mordred lasse shidoni uniform meiikyuu shirahane suou mirai nikki future diary fairy empire das feenreich gasai yuno yandere rock japanese anime opening 1 full version yui itsuki
BeatmapID:2633470
BeatmapSetID:1260852

[Difficulty]
HPDrainRate:3
CircleSize:3
OverallDifficulty:4.5
ApproachRate:6
SliderMultiplier:0.999999999999999
SliderTickRate:1

[Events]
//Background and Video events
0,0,"22693617_p0.jpg"
//Break Periods
2,4815,5652
2,77859,84957
2,146728,162174
//Storyboard Layer 0 (Background)
//Storyboard Layer 1 (Fail)
//Storyboard Layer 2 (Pass)
//Storyboard Layer 3 (Foreground)
//Storyboard Layer 4 (Overlay)
//Storyboard Sound Samples

[TimingPoints]
442,260.869565217391,4,2,0,50,1,0
1420,-100,4,2,0,5,0,0
1485,-100,4,2,0,50,0,0
7681,-100,4,2,0,5,0,0
7746,-100,4,2,0,50,0,0
7941,-100,4,2,0,5,0,0
8007,-100,4,2,0,50,0,0
8202,-100,4,2,0,5,0,0
8268,-100,4,2,0,50,0,0
8463,-100,4,2,0,5,0,0
8528,-100,4,2,0,50,0,0
8724,-100,4,2,0,5,0,0
8789,-100,4,1,1,70,0,0
10811,-100,4,1,1,5,0,0
10876,-100,4,1,1,70,0,0
12898,-100,4,1,1,5,0,0
12963,-100,4,1,1,70,0,0
14985,-100,4,1,1,5,0,0
15050,-100,4,1,1,70,0,0
17137,-100,4,3,2,70,0,0
21050,-100,4,3,2,70,0,0
21246,-100,4,3,2,5,0,0
21311,-100,4,3,2,70,0,0
26528,-100,4,3,2,60,0,0
32594,-100,4,3,1,50,0,0
32789,-100,4,3,2,60,0,0
34876,-100,4,3,2,70,0,0
43224,-100,4,2,1,60,0,0
43420,-100,4,2,1,5,0,0
43485,-100,4,2,1,60,0,0
47594,-100,4,2,1,5,0,0
47659,-100,4,2,1,60,0,0
51572,-100,4,1,1,70,0,0
52028,-100,4,1,1,5,0,0
52094,-100,4,1,1,70,0,0
52354,-100,4,1,1,60,0,0
52615,-100,4,1,1,70,0,1
54898,-100,4,1,1,5,0,1
54963,-100,4,1,1,70,0,1
68268,-100,4,1,1,70,0,0
69311,-100,4,1,1,70,0,1
72441,-100,4,1,1,70,0,0
73485,-100,4,1,1,70,0,1
76615,-100,4,1,1,70,0,0
85550,-100,4,1,1,40,0,0
85746,-100,4,1,1,70,0,0
85811,-100,4,1,1,50,0,0
86007,-100,4,3,2,70,0,0
89920,-100,4,3,2,70,0,0
90115,-100,4,3,2,5,0,0
90181,-100,4,3,2,70,0,0
101463,-100,4,3,1,70,0,0
101659,-100,4,3,2,70,0,0
112094,-100,4,2,1,70,0,0
112289,-100,4,2,1,5,0,0
112355,-100,4,2,1,70,0,0
118550,-100,4,2,1,5,0,0
118615,-100,4,2,1,70,0,0
120441,-100,4,1,1,70,0,0
120898,-100,4,1,1,5,0,0
120963,-100,4,1,1,70,0,0
121485,-100,4,1,1,70,0,1
123768,-100,4,1,1,5,0,1
123833,-100,4,1,1,70,0,1
137137,-100,4,1,1,70,0,0
138181,-100,4,1,1,70,0,1
141311,-100,4,1,1,70,0,0
142355,-100,4,1,1,70,0,1
145485,-100,4,1,1,70,0,0
146528,-100,4,3,2,70,0,0
154876,-100,4,2,1,70,0,0
171572,-90.9090909090909,4,2,1,70,0,0
175746,-100,4,2,1,70,0,0
178941,-100,4,2,1,40,0,0
179137,-100,4,2,1,70,0,0
179202,-100,4,2,1,50,0,0
179398,-100,4,2,1,70,0,0
179463,-100,4,2,1,60,0,0
179659,-100,4,2,1,70,0,0
198702,-100,4,1,1,70,0,1
214355,-100,4,1,1,70,0,0
215398,-100,4,1,1,70,0,1
218528,-100,4,1,1,70,0,0
219572,-100,4,1,1,70,0,1
222702,-100,4,1,1,70,0,0
223876,-100,4,1,1,80,0,1
225898,-100,4,1,1,5,0,1
225963,-100,4,1,1,80,0,1
227855,-100,4,1,1,5,0,1
227920,-100,4,1,1,80,0,1
229028,-100,4,1,1,5,0,1
229094,-100,4,1,1,80,0,1
232094,-100,4,3,1,80,0,0

[Colours]
Combo1 : 111,150,223
Combo2 : 237,126,234
Combo3 : 239,24,24

[HitObjects]
64,154,442,6,0,B|146:139|146:139|181:158|181:158|270:165,1,200,2|2,0:0|0:0,0:0:0:0:
393,17,1485,2,0,B|349:79|349:79|376:209,1,200,2|2,0:0|0:0,0:0:0:0:
462,247,2268,1,0,0:0:0:0:
406,330,2528,6,0,L|191:307,1,200,2|0,0:0|0:0,0:0:0:0:
11,354,3572,2,0,P|75:299|60:185,2,200,2|2|2,0:0|0:0|0:0,0:0:0:0:
299,140,6702,6,0,P|346:127|410:151,1,99.9999999999999,2|0,0:0|0:0,0:0:0:0:
349,229,7224,2,0,P|302:242|238:218,1,99.9999999999999,2|2,0:0|0:0,0:0:0:0:
203,142,7746,5,2,0:0:0:0:
130,73,8007,1,2,0:0:0:0:
41,118,8268,1,2,0:0:0:0:
59,215,8528,1,2,0:0:0:0:
158,227,8789,6,0,P|205:246|252:221,1,99.9999999999999,6|10,0:0|0:0,0:0:0:0:
340,278,9311,1,0,0:0:0:0:
340,278,9441,2,0,L|354:385,2,99.9999999999999,2|2|2,0:0|0:0|0:0,0:0:0:0:
411,206,10224,2,0,P|463:204|500:163,1,99.9999999999999,2|2,0:0|0:0,0:0:0:0:
475,128,10615,1,10,0:0:0:0:
402,59,10876,6,0,L|282:49,1,99.9999999999999,0|2,3:1|0:0,0:0:0:0:
255,141,11398,1,0,0:0:0:0:
255,141,11528,2,0,L|151:145,1,99.9999999999999,2|2,0:0|0:0,0:0:0:0:
131,189,11920,2,0,P|95:173|67:109,1,99.9999999999999,2|0,0:0|3:0,0:0:0:0:
22,99,12311,2,2,P|41:34|119:2,1,150,2|10,0:0|3:1,0:0:0:0:
215,1,12963,6,0,B|243:44|243:44|228:96,1,99.9999999999999,4|10,3:1|3:1,0:0:0:0:
320,133,13485,1,0,0:0:0:0:
320,133,13615,2,0,B|292:176|292:176|307:228,2,99.9999999999999,2|2|2,0:0|0:0|0:0,0:0:0:0:
342,35,14398,2,0,L|464:24,1,99.9999999999999,2|2,0:0|0:0,0:0:0:0:
475,63,14789,1,10,0:0:0:0:
507,157,15050,6,0,L|486:277,1,99.9999999999999,0|10,3:1|3:1,0:0:0:0:
476,358,15572,1,2,0:0:0:0:
476,358,15702,2,0,P|419:339|400:296,1,99.9999999999999,2|2,0:0|0:0,0:0:0:0:
354,325,16094,2,0,P|297:344|278:387,1,99.9999999999999,2|10,0:0|0:0,0:0:0:0:
230,365,16485,2,0,B|170:347|170:347|151:323|151:323|87:318,1,150,2|8,0:0|3:1,0:0:0:0:
23,248,17137,5,6,0:0:0:0:
7,149,17398,1,10,0:0:0:0:
106,135,17659,1,2,0:0:0:0:
126,232,17920,2,0,L|244:244,1,99.9999999999999,10|2,0:0|0:0,0:0:0:0:
262,276,18311,1,2,0:0:0:0:
350,229,18572,2,0,P|377:168|331:84,1,150,2|10,0:0|0:0,0:0:0:0:
246,95,19224,5,0,0:0:0:0:
284,7,19485,1,10,0:0:0:0:
379,0,19746,1,2,0:0:0:0:
445,74,20007,1,10,0:0:0:0:
459,173,20268,6,0,L|523:188,2,50,2|2|8,0:0|0:0|0:0,0:0:0:0:
396,251,20789,2,0,L|330:265,2,50,2|2|8,0:0|0:0|0:0,0:0:0:0:
451,334,21311,5,6,0:0:0:0:
357,369,21572,1,10,0:0:0:0:
270,318,21833,2,0,L|151:346,1,99.9999999999999,2|10,0:0|0:0,0:0:0:0:
96,284,22355,5,2,0:0:0:0:
96,284,22485,1,2,0:0:0:0:
174,229,22746,2,0,P|195:193|144:89,1,150,2|8,0:0|0:0,0:0:0:0:
259,69,23398,5,2,0:0:0:0:
351,30,23659,1,10,0:0:0:0:
415,106,23920,1,2,0:0:0:0:
325,150,24181,1,10,0:0:0:0:
379,233,24441,6,0,L|390:299,2,50,2|2|10,0:0|0:0|0:0,0:0:0:0:
466,184,24963,2,0,L|477:118,2,50,2|2|10,0:0|0:0|0:0,0:0:0:0:
256,192,25485,12,4,26528,0:0:0:0:
256,197,27572,6,0,P|196:205|143:181,2,99.9999999999999,2|2|10,0:0|0:0|0:0,0:0:0:0:
342,248,28355,1,10,0:0:0:0:
430,201,28615,6,0,P|454:157|441:92,1,99.9999999999999,6|2,0:0|0:0,0:0:0:0:
353,79,29137,2,0,L|347:21,2,50,2|0|10,0:0|0:0|0:0,0:0:0:0:
269,134,29659,2,0,L|263:192,2,50,0|0|8,0:0|0:0|0:0,0:0:0:0:
207,54,30181,2,0,L|91:46,1,99.9999999999999,0|8,0:0|0:0,0:0:0:0:
73,84,30572,2,0,L|62:147,1,50,8|4,0:0|0:0,0:0:0:0:
135,330,31746,6,0,B|71:340|71:340|23:311,2,99.9999999999999,2|2|10,0:0|0:0|0:0,0:0:0:0:
225,286,32528,2,0,L|286:298,1,50,10|8,0:0|0:0,0:0:0:0:
302,337,32789,6,0,P|359:318|387:270,1,99.9999999999999,6|2,0:0|0:0,0:0:0:0:
460,225,33311,2,0,L|526:215,2,50,2|0|8,0:0|0:0|0:0,0:0:0:0:
383,161,33833,2,0,L|317:151,2,50,0|0|8,0:0|0:0|0:0,0:0:0:0:
455,90,34355,2,0,L|521:80,2,50,0|0|8,0:0|0:0|0:0,0:0:0:0:
365,45,34876,6,0,B|309:57|309:57|271:50|271:50|198:69,1,150,14|2,0:0|0:0,0:0:0:0:
136,6,35528,2,0,B|110:52|110:52|127:111,1,99.9999999999999,2|2,0:0|0:0,0:0:0:0:
203,157,36050,2,0,B|229:203|229:203|212:262,1,99.9999999999999,2|0,0:0|0:0,0:0:0:0:
178,282,36441,1,2,0:0:0:0:
246,355,36702,1,10,0:0:0:0:
335,309,36963,6,0,B|366:262|366:262|346:150,1,150,10|2,0:0|0:0,0:0:0:0:
400,83,37615,2,0,L|504:64,2,99.9999999999999,2|0|0,0:0|0:0|0:0,0:0:0:0:
359,53,38268,1,10,0:0:0:0:
260,37,38528,1,2,0:0:0:0:
161,22,38789,2,0,L|101:42,1,50,8|8,0:0|0:0,0:0:0:0:
68,16,39050,5,14,0:0:0:0:
256,192,39115,12,6,42311,0:0:0:0:
282,237,43224,6,0,P|337:229|386:261,1,99.9999999999999,4|8,0:0|0:0,0:0:0:0:
474,233,43746,1,0,0:0:0:0:
478,133,44007,2,0,P|450:94|453:38,1,99.9999999999999,10|0,0:0|0:0,0:0:0:0:
351,28,44528,5,10,0:0:0:0:
256,61,44789,1,2,0:0:0:0:
229,157,45050,1,10,0:0:0:0:
129,166,45311,6,0,P|69:118|79:33,2,150,2|2|10,0:0|0:0|0:0,0:0:0:0:
229,157,46355,2,0,P|233:215|237:266,1,99.9999999999999,0|8,0:0|0:0,0:0:0:0:
189,345,46876,2,0,P|220:359|251:361,2,50,2|0|8,0:0|0:0|0:0,0:0:0:0:
91,367,47398,6,0,P|55:323|65:268,1,99.9999999999999,6|8,0:0|0:0,0:0:0:0:
123,206,47920,1,0,0:0:0:0:
25,185,48181,1,8,0:0:0:0:
94,114,48441,6,0,P|130:70|120:15,2,99.9999999999999,2|8|0,0:0|0:0|0:0,0:0:0:0:
123,206,49224,1,10,0:0:0:0:
206,261,49485,2,0,P|258:258|327:249,1,99.9999999999999,2|8,0:0|0:0,0:0:0:0:
394,299,50007,1,0,0:0:0:0:
472,237,50268,2,0,L|480:168,1,50,10|2,0:0|0:0,0:0:0:0:
449,146,50528,6,0,B|414:124|414:124|338:138,1,99.9999999999999,2|8,3:2|3:0,0:0:0:0:
283,65,51050,2,0,B|248:87|248:87|172:73,1,99.9999999999999,0|8,3:0|3:0,0:0:0:0:
111,13,51572,1,4,0:0:0:0:
41,200,52094,2,0,P|49:257|60:318,1,99.9999999999999,8|8,3:0|3:0,0:0:0:0:
153,321,52615,6,0,P|195:300|221:238,1,99.9999999999999,6|10,3:1|3:1,3:1:0:0:
268,243,53007,2,0,P|225:222|199:160,1,99.9999999999999,2|2,3:1|3:1,3:1:0:0:
163,144,53398,2,0,P|205:123|231:61,1,99.9999999999999,10|0,3:1|0:0,0:0:0:0:
318,31,53920,5,10,0:0:0:0:
407,75,54181,1,2,0:0:0:0:
322,128,54441,1,10,0:0:0:0:
409,176,54702,6,0,P|441:218|430:278,1,99.9999999999999,2|8,0:0|0:0,0:0:0:0:
397,293,55094,2,0,L|237:275,1,150,2|10,0:0|0:0,0:0:0:0:
154,240,55746,2,0,P|116:300|120:338,1,99.9999999999999,0|8,0:0|0:0,0:0:0:0:
21,294,56268,5,10,0:0:0:0:
0,193,56528,1,10,0:0:0:0:
67,118,56789,6,0,L|182:133,1,99.9999999999999,6|10,3:1|3:1,3:1:0:0:
194,88,57181,2,0,L|309:73,1,99.9999999999999,2|2,3:1|3:1,3:1:0:0:
325,113,57572,2,0,L|424:125,1,99.9999999999999,10|0,3:1|0:0,0:0:0:0:
442,224,58094,5,10,0:0:0:0:
410,319,58355,1,2,0:0:0:0:
315,351,58615,1,10,0:0:0:0:
229,299,58876,6,0,L|213:142,1,150,2|2,0:0|0:0,0:0:0:0:
167,60,59528,1,0,0:0:0:0:
167,60,59659,2,0,P|124:28|64:27,1,99.9999999999999,10|0,0:0|0:0,0:0:0:0:
6,93,60181,5,10,3:1:0:0:
93,140,60441,1,10,3:1:0:0:
11,197,60702,2,0,L|2:259,1,50,8|8,0:0|0:0,0:0:0:0:
41,279,60963,6,0,B|96:263|96:263|126:281|126:281|202:282,1,150,6|2,0:0|0:0,0:0:0:0:
218,317,61485,1,0,0:0:0:0:
314,289,61746,1,8,0:0:0:0:
314,289,61876,2,0,B|285:239|285:239|301:141,1,150,0|8,0:0|0:0,0:0:0:0:
267,53,62528,2,0,B|310:36|310:36|379:65,1,99.9999999999999,2|10,0:0|0:0,0:0:0:0:
454,23,63050,6,0,B|483:73|483:73|467:171,1,150,6|2,0:0|0:0,0:0:0:0:
423,187,63572,2,0,L|426:295,1,99.9999999999999,0|8,0:0|0:0,0:0:0:0:
393,325,63963,1,0,0:0:0:0:
307,372,64224,1,0,0:0:0:0:
307,372,64355,2,0,P|250:379|200:355,2,99.9999999999999,8|2|10,0:0|0:2|0:2,0:0:0:0:
267,279,65137,6,0,L|253:172,1,99.9999999999999,6|10,0:0|0:0,0:0:0:0:
289,144,65528,1,2,0:0:0:0:
208,83,65789,1,2,0:0:0:0:
208,83,65920,2,0,P|159:62|100:71,2,99.9999999999999,10|2|8,0:0|0:0|0:0,0:0:0:0:
247,51,66572,2,0,L|356:40,1,99.9999999999999,2|0,0:0|0:0,0:0:0:0:
383,75,66963,1,10,0:0:0:0:
475,37,67224,5,6,0:0:0:0:
501,133,67485,1,8,0:0:0:0:
448,217,67746,1,0,0:0:0:0:
471,314,68007,1,8,0:0:0:0:
374,341,68268,6,0,B|315:334|315:334|287:316|287:316|213:321,2,150,6|6|6,0:0|0:0|0:0,0:0:0:0:
471,314,69311,1,14,0:0:0:0:
256,192,69376,12,8,72181,0:0:0:0:
256,228,72963,6,0,L|256:114,1,99.9999999999999,12|0,0:0|3:0,0:0:0:0:
254,27,73485,1,0,0:0:0:0:
256,192,73550,12,6,77659,0:0:0:0:
266,229,86007,5,6,0:0:0:0:
167,244,86268,1,10,0:0:0:0:
106,164,86528,1,2,0:0:0:0:
203,145,86789,2,0,L|321:131,1,99.9999999999999,10|2,0:0|0:0,0:0:0:0:
340,166,87181,1,2,0:0:0:0:
427,117,87441,2,0,P|427:58|346:17,1,150,2|10,0:0|0:0,0:0:0:0:
261,51,88094,5,2,0:0:0:0:
166,17,88355,1,10,0:0:0:0:
70,46,88615,1,2,0:0:0:0:
56,145,88876,1,10,0:0:0:0:
126,216,89137,6,0,L|132:283,2,50,2|2|8,0:0|0:0|0:0,0:0:0:0:
213,167,89659,2,0,L|219:100,2,50,2|2|8,0:0|0:0|0:0,0:0:0:0:
289,226,90181,5,6,0:0:0:0:
383,258,90441,1,10,0:0:0:0:
444,179,90702,2,0,L|430:74,1,99.9999999999999,2|10,0:0|0:0,0:0:0:0:
338,53,91224,5,2,0:0:0:0:
338,53,91355,1,2,0:0:0:0:
244,17,91615,2,0,P|204:28|171:139,1,150,2|8,0:0|0:0,0:0:0:0:
201,213,92268,5,2,0:0:0:0:
145,296,92528,1,10,0:0:0:0:
47,272,92789,1,2,0:0:0:0:
44,171,93050,1,10,0:0:0:0:
136,132,93311,6,0,L|123:63,2,50,2|2|8,0:0|0:0|0:0,0:0:0:0:
228,92,93833,2,0,L|215:23,2,50,2|2|8,0:0|0:0|0:0,0:0:0:0:
256,192,94355,12,4,95398,0:0:0:0:
256,197,96441,6,0,P|316:205|369:181,2,99.9999999999999,2|2|10,0:0|0:0|0:0,0:0:0:0:
170,248,97224,1,10,0:0:0:0:
70,237,97485,6,0,P|46:193|59:128,1,99.9999999999999,6|2,0:0|0:0,0:0:0:0:
113,66,98007,2,0,L|119:8,2,50,2|0|10,0:0|0:0|0:0,0:0:0:0:
206,103,98528,2,0,L|212:161,2,50,0|0|8,0:0|0:0|0:0,0:0:0:0:
281,37,99050,2,0,P|331:48|397:29,1,99.9999999999999,0|8,0:0|0:0,0:0:0:0:
421,64,99441,2,0,L|432:127,1,50,8|4,0:0|0:0,0:0:0:0:
350,336,100615,6,0,B|414:346|414:346|462:317,2,99.9999999999999,2|2|10,0:0|0:0|0:0,0:0:0:0:
257,298,101398,2,0,L|252:236,1,50,10|8,0:0|0:0,0:0:0:0:
214,216,101659,6,0,P|157:197|129:149,1,99.9999999999999,6|2,0:0|0:0,0:0:0:0:
94,74,102181,2,0,L|32:84,2,50,2|0|8,0:0|0:0|0:0,0:0:0:0:
134,166,102702,2,0,L|197:172,2,50,0|0|8,0:0|0:0|0:0,0:0:0:0:
93,257,103224,2,0,L|27:247,2,50,0|0|8,0:0|0:0|0:0,0:0:0:0:
152,337,103746,6,0,B|204:323|204:323|242:330|242:330|298:318,1,150,14|2,0:0|0:0,0:0:0:0:
389,359,104398,2,0,B|363:313|363:313|380:254,1,99.9999999999999,2|2,0:0|0:0,0:0:0:0:
470,233,104920,2,0,B|496:187|496:187|479:128,1,99.9999999999999,2|0,0:0|0:0,0:0:0:0:
452,101,105311,1,2,0:0:0:0:
352,89,105572,1,10,0:0:0:0:
252,80,105833,6,0,B|221:127|221:127|241:239,1,150,10|2,0:0|0:0,0:0:0:0:
276,311,106485,2,0,L|380:330,2,99.9999999999999,2|0|0,0:0|0:0|0:0,0:0:0:0:
233,337,107137,1,10,0:0:0:0:
135,356,107398,1,2,0:0:0:0:
53,297,107659,2,0,L|64:230,1,50,8|8,0:0|0:0,0:0:0:0:
19,219,107920,5,14,0:0:0:0:
256,192,107985,12,6,111181,0:0:0:0:
123,157,112094,6,0,P|167:190|179:247,1,99.9999999999999,4|8,0:0|0:0,0:0:0:0:
261,289,112615,1,0,0:0:0:0:
335,222,112876,2,0,P|342:174|384:137,1,99.9999999999999,10|0,0:0|0:0,0:0:0:0:
340,47,113398,5,10,0:0:0:0:
239,50,113659,1,2,0:0:0:0:
139,59,113920,1,10,0:0:0:0:
123,157,114181,6,0,P|63:205|73:290,2,150,2|2|10,0:0|0:0|0:0,0:0:0:0:
189,232,115224,2,0,P|247:236|298:240,1,99.9999999999999,0|8,0:0|0:0,0:0:0:0:
367,300,115746,2,0,P|381:331|383:362,2,50,2|2|10,0:0|0:0|0:0,0:0:0:0:
436,227,116268,6,0,P|472:183|462:128,1,99.9999999999999,4|8,0:0|0:0,0:0:0:0:
399,70,116789,1,0,0:0:0:0:
305,104,117050,1,8,0:0:0:0:
207,84,117311,6,0,P|171:40|181:-15,2,99.9999999999999,2|8|0,0:0|0:0|0:0,0:0:0:0:
246,176,118094,1,10,0:0:0:0:
181,252,118355,2,0,P|184:304|193:373,1,99.9999999999999,0|8,0:0|0:0,0:0:0:0:
93,381,118876,1,0,0:0:0:0:
7,329,119137,2,0,L|15:260,1,50,10|2,0:0|0:0,0:0:0:0:
59,262,119398,6,0,B|81:227|81:227|67:151,1,99.9999999999999,2|8,0:0|3:0,0:0:0:0:
153,113,119920,2,0,B|188:135|188:135|264:121,1,99.9999999999999,0|8,3:0|3:0,0:0:0:0:
284,216,120441,1,4,3:1:0:0:
275,16,120963,2,0,P|332:24|393:35,1,99.9999999999999,8|8,0:0|0:0,0:0:0:0:
372,126,121485,6,0,P|414:147|440:209,1,99.9999999999999,6|10,3:1|3:1,3:1:0:0:
487,204,121876,2,0,P|444:225|418:287,1,99.9999999999999,2|2,3:1|3:1,0:0:0:0:
382,303,122268,2,0,P|424:324|450:386,1,99.9999999999999,10|0,3:1|0:0,0:0:0:0:
354,384,122789,5,10,0:0:0:0:
254,376,123050,1,2,0:0:0:0:
155,360,123311,1,10,0:0:0:0:
126,263,123572,6,0,P|94:221|105:161,1,99.9999999999999,2|8,0:0|0:0,0:0:0:0:
138,146,123963,2,0,L|298:164,1,150,2|10,0:0|0:0,0:0:0:0:
361,95,124615,2,0,P|323:35|327:-3,1,99.9999999999999,0|8,0:0|0:0,0:0:0:0:
424,11,125137,5,10,0:0:0:0:
465,101,125398,1,10,0:0:0:0:
411,185,125659,6,0,L|295:170,1,99.9999999999999,6|10,3:1|3:1,3:1:0:0:
273,205,126050,2,0,L|173:217,1,99.9999999999999,2|2,3:1|3:1,0:0:0:0:
146,175,126441,2,0,L|47:163,1,99.9999999999999,10|0,3:1|0:0,0:0:0:0:
5,254,126963,5,10,0:0:0:0:
31,350,127224,1,2,0:0:0:0:
130,360,127485,1,10,0:0:0:0:
228,299,127746,6,0,L|212:142,1,150,2|2,0:0|0:0,0:0:0:0:
262,64,128398,1,0,0:0:0:0:
262,64,128528,2,0,P|305:32|365:31,1,99.9999999999999,10|0,0:0|0:0,0:0:0:0:
399,114,129050,5,10,3:1:0:0:
486,161,129311,1,10,3:1:0:0:
404,218,129572,2,0,L|395:280,1,50,10|8,0:0|0:0,0:0:0:0:
415,313,129833,6,0,B|360:297|360:297|330:315|330:315|254:316,1,150,6|2,0:0|0:0,0:0:0:0:
238,352,130355,1,0,0:0:0:0:
148,321,130615,1,8,0:0:0:0:
148,321,130746,2,0,B|119:271|119:271|135:173,1,150,0|8,0:0|0:0,0:0:0:0:
78,96,131398,2,0,B|114:77|114:77|170:92,1,99.9999999999999,2|10,0:0|0:0,0:0:0:0:
258,42,131920,6,0,L|430:64,1,150,6|2,0:0|3:1,0:0:0:0:
453,42,132441,2,0,B|477:81|477:81|456:150,1,99.9999999999999,0|8,3:1|0:0,0:0:0:0:
490,173,132833,1,0,0:0:0:0:
416,239,133094,1,0,0:0:0:0:
416,239,133224,2,0,B|400:294|400:294|429:350,2,99.9999999999999,8|0|8,0:0|3:1|3:1,0:0:0:0:
339,174,134007,6,0,L|232:188,1,99.9999999999999,2|10,0:0|0:0,0:0:0:0:
212,228,134398,1,2,0:0:0:0:
131,178,134659,1,2,0:0:0:0:
131,178,134789,2,0,L|23:166,2,99.9999999999999,10|2|8,0:0|0:0|0:0,0:0:0:0:
149,131,135441,2,0,B|174:87|174:87|158:25,1,99.9999999999999,2|0,0:0|0:0,0:0:0:0:
209,22,135833,1,10,0:0:0:0:
308,31,136094,5,6,0:0:0:0:
283,127,136355,1,8,0:0:0:0:
319,220,136615,1,0,0:0:0:0:
275,310,136876,1,8,0:0:0:0:
362,358,137137,6,0,B|421:351|421:351|449:333|449:333|523:338,2,150,14|6|6,0:0|0:0|0:0,0:0:0:0:
275,310,138181,1,14,0:0:0:0:
256,192,138246,12,8,141050,0:0:0:0:
256,233,141833,6,0,L|256:117,1,99.9999999999999,12|0,0:0|3:0,0:0:0:0:
256,32,142355,1,0,0:0:0:0:
256,192,142420,12,4,146528,0:0:0:0:
51,324,163224,6,0,B|4:235|33:183|33:183|159:145|213:17|213:17|284:160|201:321,1,699.999999999999,2|8,0:0|0:0,0:0:0:0:
309,308,165311,2,0,B|234:163|305:20|305:20|359:148|485:186|485:186|514:238|467:327,1,699.999999999999,2|8,0:0|0:0,0:0:0:0:
398,254,167398,6,0,B|326:165|182:219|182:219|165:313|92:361|92:361|135:241|94:154|-3:108,1,699.999999999999,2|8,0:0|0:0,0:0:0:0:
105,129,169485,2,0,B|177:218|321:164|321:164|338:70|411:22|411:22|368:142|409:229|506:275,1,699.999999999999,2|8,0:0|0:0,0:0:0:0:
452,371,171572,6,0,B|396:375|349:357|349:357|459:192|352:85|257:57|140:84|44:187|142:355|142:355|103:378|31:374,2,879.999999999999,6|2|0,0:0|0:0|0:0,0:0:0:0:
256,192,175811,12,0,178876,0:0:0:0:
158,198,179920,6,0,P|150:143|182:94,1,99.9999999999999,4|8,0:0|0:0,0:0:0:0:
256,54,180441,1,0,0:0:0:0:
341,104,180702,2,0,P|361:148|352:197,1,99.9999999999999,10|0,0:0|0:0,0:0:0:0:
342,296,181224,5,10,0:0:0:0:
260,353,181485,1,2,0:0:0:0:
177,296,181746,1,10,0:0:0:0:
79,318,182007,6,0,P|65:253|53:148,2,150,2|2|8,0:0|0:0|0:0,0:0:0:0:
177,296,183050,2,0,P|230:293|267:246,1,99.9999999999999,0|8,0:0|0:0,0:0:0:0:
360,246,183572,2,0,P|393:252|427:255,2,50,2|2|10,0:0|0:0|0:0,0:0:0:0:
306,160,184094,6,0,P|295:113|291:48,1,99.9999999999999,6|8,0:0|0:0,0:0:0:0:
203,11,184615,1,0,0:0:0:0:
115,59,184876,1,8,0:0:0:0:
28,10,185137,6,0,P|17:57|13:122,1,99.9999999999999,2|8,0:0|0:0,0:0:0:0:
43,148,185528,2,0,P|112:165|137:245,1,150,2|10,0:0|0:0,0:0:0:0:
213,300,186181,2,0,P|265:297|334:288,1,99.9999999999999,2|8,0:0|0:0,0:0:0:0:
386,359,186702,1,0,0:0:0:0:
452,284,186963,2,0,L|460:215,1,50,10|2,0:0|0:0,0:0:0:0:
434,190,187224,6,0,B|399:212|399:212|341:201,1,99.9999999999999,2|8,0:0|3:0,0:0:0:0:
261,140,187746,2,0,B|203:129|203:129|168:151,1,99.9999999999999,0|8,3:0|3:0,0:0:0:0:
74,115,188268,6,0,P|16:200|214:350,1,400,4|2,3:1|0:0,0:0:0:0:
399,355,189833,1,2,0:0:0:0:
221,261,190355,5,6,0:0:0:0:
324,250,192441,1,6,0:0:0:0:
80,69,194528,5,6,0:0:0:0:
192,87,196615,2,0,B|238:69|238:69|270:93|270:93|347:100,2,150,6|6|6,3:0|3:0|3:0,0:0:0:0:
116,153,197659,6,0,P|88:200|93:246,1,99.9999999999999,2|2,2:0|2:0,2:0:0:0:
178,294,198181,2,0,P|204:335|202:384,1,99.9999999999999,2|2,2:0|2:0,0:0:0:0:
300,367,198702,6,0,L|322:251,1,99.9999999999999,6|10,3:1|3:1,0:0:0:0:
273,245,199094,2,0,L|251:129,1,99.9999999999999,2|2,3:1|3:1,0:0:0:0:
301,130,199485,2,0,L|323:14,1,99.9999999999999,10|0,3:1|0:0,0:0:0:0:
419,42,200007,5,10,0:0:0:0:
493,108,200268,1,2,0:0:0:0:
477,206,200528,1,8,0:0:0:0:
397,266,200789,6,0,P|344:258|310:208,1,99.9999999999999,2|8,0:0|0:0,0:0:0:0:
285,266,201181,2,0,L|125:284,1,150,2|10,0:0|0:0,0:0:0:0:
56,221,201833,2,0,P|18:161|22:123,1,99.9999999999999,0|8,0:0|0:0,0:0:0:0:
84,58,202355,5,10,0:0:0:0:
182,71,202615,1,10,0:0:0:0:
280,87,202876,6,0,B|301:128|301:128|284:202,1,99.9999999999999,6|10,3:1|3:1,0:0:0:0:
332,206,203268,2,0,B|357:167|357:167|429:145,1,99.9999999999999,2|2,3:1|3:1,0:0:0:0:
411,101,203659,2,0,B|364:98|364:98|309:46,1,99.9999999999999,10|0,3:1|0:0,0:0:0:0:
239,9,204181,5,10,0:0:0:0:
150,54,204441,1,2,0:0:0:0:
163,152,204702,1,10,0:0:0:0:
72,195,204963,6,0,L|56:352,1,150,2|2,0:0|0:0,0:0:0:0:
160,356,205615,1,0,0:0:0:0:
160,356,205746,2,0,B|199:375|199:375|268:354,1,99.9999999999999,10|0,0:0|0:0,0:0:0:0:
351,378,206268,5,10,3:1:0:0:
335,279,206528,1,10,3:1:0:0:
325,179,206789,2,0,L|313:107,1,50,10|8,0:0|0:0,0:0:0:0:
358,101,207050,6,0,B|303:85|303:85|273:103|273:103|197:104,1,150,6|2,0:0|0:0,0:0:0:0:
189,60,207572,1,0,0:0:0:0:
111,5,207833,1,8,0:0:0:0:
111,5,207963,2,0,B|82:55|82:55|98:153,1,150,0|8,0:0|0:0,0:0:0:0:
25,216,208615,2,0,B|61:197|61:197|117:212,1,99.9999999999999,2|8,0:0|0:0,0:0:0:0:
149,307,209137,6,0,L|321:329,1,150,6|2,0:0|0:0,0:0:0:0:
332,289,209659,2,0,B|356:250|356:250|335:181,1,99.9999999999999,0|8,0:0|0:0,0:0:0:0:
369,158,210050,1,0,0:0:0:0:
295,92,210311,1,0,0:0:0:0:
295,92,210441,2,0,B|279:37|279:37|308:-19,2,99.9999999999999,8|2|8,0:0|0:2|0:1,0:0:0:0:
237,174,211224,6,0,L|131:162,1,99.9999999999999,6|10,0:0|0:0,0:0:0:0:
102,198,211615,1,2,0:0:0:0:
41,125,211876,1,2,0:0:0:0:
41,125,212007,2,0,L|53:17,2,99.9999999999999,10|2|8,0:0|0:0|0:0,0:0:0:0:
3,158,212659,2,0,L|12:277,1,99.9999999999999,2|0,0:0|0:0,0:0:0:0:
45,294,213050,1,10,0:0:0:0:
138,330,213311,5,6,0:0:0:0:
229,290,213572,1,8,0:0:0:0:
317,336,213833,1,0,0:0:0:0:
408,296,214094,1,8,0:0:0:0:
332,230,214355,6,0,B|325:171|325:171|307:143|307:143|312:69,2,150,6|6|6,0:0|0:0|0:0,0:0:0:0:
408,296,215398,1,14,0:0:0:0:
256,192,215463,12,8,218268,0:0:0:0:
256,232,219050,6,0,L|256:118,1,99.9999999999999,12|0,0:0|3:0,0:0:0:0:
256,31,219572,1,0,0:0:0:0:
256,192,219637,12,12,222702,3:1:0:0:
193,256,223746,5,4,0:0:0:0:
193,256,223876,2,0,B|127:267|127:267|84:246,2,99.9999999999999,2|2|2,0:0|0:0|0:0,0:0:0:0:
276,311,224659,5,2,0:0:0:0:
367,270,224920,1,2,0:0:0:0:
291,204,225181,1,2,0:0:0:0:
385,172,225441,2,0,L|450:165,2,50,2|8|0,0:0|0:0|0:0,0:0:0:0:
311,104,225963,6,0,L|192:87,1,99.9999999999999,2|2,0:0|0:0,0:0:0:0:
177,52,226355,1,2,0:0:0:0:
131,72,226485,2,0,P|91:124|100:172,1,99.9999999999999,2|2,0:0|0:0,0:0:0:0:
57,190,226876,6,0,L|71:302,1,99.9999999999999,2|10,0:0|0:0,0:0:0:0:
112,316,227268,1,2,0:0:0:0:
209,286,227528,1,2,0:0:0:0:
209,286,227659,2,0,L|325:292,1,99.9999999999999,8|4,0:0|0:0,0:0:0:0:
348,321,228050,5,2,0:0:0:0:
413,245,228311,2,0,L|470:239,2,50,2|2|2,0:0|0:0|0:0,0:0:0:0:
333,183,228833,2,0,B|305:152|305:152|314:81,1,99.9999999999999,2|2,0:0|0:0,0:0:0:0:
284,52,229224,2,0,L|168:44,1,99.9999999999999,10|2,0:0|0:0,0:0:0:0:
145,76,229615,2,0,L|35:92,1,99.9999999999999,2|0,0:0|0:0,0:0:0:0:
43,190,230137,6,0,B|27:232|27:232|54:305,1,99.9999999999999,2|2,0:0|0:0,0:0:0:0:
34,332,230528,1,2,0:0:0:0:
75,359,230659,2,0,L|189:362,1,99.9999999999999,2|2,0:0|0:0,0:0:0:0:
202,319,231050,6,0,L|210:200,1,99.9999999999999,2|10,0:0|0:0,0:0:0:0:
177,179,231441,1,2,0:0:0:0:
233,96,231702,1,2,3:1:0:0:
233,96,231833,2,0,L|221:36,1,50,2|2,3:1|3:1,0:0:0:0:
265,20,232094,5,6,3:1:0:0:
