osu file format v14

[General]
AudioFilename: audio.mp3
AudioLeadIn: 0
PreviewTime: 51763
Countdown: 0
SampleSet: None
StackLeniency: 0.7
Mode: 0
LetterboxInBreaks: 0
WidescreenStoryboard: 1

[Editor]
Bookmarks: 6437,8524,12698,16872,25220,34611,42959,51307,52350,60698,69046,73220,76350,77394,85742
DistanceSpacing: 3
BeatDivisor: 4
GridSize: 16
TimelineZoom: 2.2

[Metadata]
Title:Kuuso Mesorogiwi (Tv Size)
TitleUnicode:Kuuso Mesorogiwi (Tv Size)
Artist:Yousei Teikoku
ArtistUnicode:Yousei Teikoku
Creator:Yonoshix
Version:Dead End
Source:未来日記
Tags:Yousei Teikoku Kuuso Mesorogiwi Tv Size opening Anime japanese eins zwei drei
BeatmapID:1984203
BeatmapSetID:950108

[Difficulty]
HPDrainRate:5.5
CircleSize:4.1
OverallDifficulty:9
ApproachRate:9.9
SliderMultiplier:1.9
SliderTickRate:1

[Events]
//Background and Video events
0,0,"eins zwei drei vier es klingelt an der tuer.png",0,0
//Break Periods
//Storyboard Layer 0 (Background)
//Storyboard Layer 1 (Fail)
//Storyboard Layer 2 (Pass)
//Storyboard Layer 3 (Foreground)
//Storyboard Sound Samples

[TimingPoints]
180,260.869565217391,4,3,2,30,1,0
701,-142.857142857143,4,3,2,30,0,0
1223,-76.9230769230769,4,3,2,36,0,0
1745,-100,4,3,2,25,0,0
1875,-100,4,3,2,27,0,0
2006,-100,4,3,2,29,0,0
2136,-100,4,3,2,31,0,0
2266,-151.515151515152,4,3,2,34,0,0
3049,-100,4,3,2,30,0,0
3310,-129.87012987013,4,3,2,38,0,0
3832,-142.857142857143,4,3,2,40,0,0
4353,-100,4,3,2,36,0,0
4484,-100,4,3,2,28,0,0
4614,-100,4,3,2,35,0,0
4745,-100,4,3,2,25,0,0
4875,-100,4,3,2,35,0,0
5006,-100,4,3,2,25,0,0
5136,-100,4,3,2,35,0,0
5266,-100,4,3,2,25,0,0
5397,-100,4,3,2,35,0,0
5527,-100,4,3,2,22,0,0
5658,-100,4,3,2,32,0,0
5788,-100,4,3,2,19,0,0
5919,-100,4,3,2,29,0,0
6049,-100,4,3,2,16,0,0
6179,-100,4,3,2,26,0,0
6310,-100,4,3,2,5,0,0
6440,-303.030303030303,4,3,2,30,0,0
6962,-200,4,3,2,35,0,0
7484,-142.857142857143,4,3,2,50,0,0
8006,-125,4,3,2,55,0,0
8527,-100,4,3,2,80,0,0
12701,-80,4,3,2,80,0,0
13353,-100,4,3,2,80,0,0
16875,-90.9090909090909,4,3,2,84,0,0
18310,-76.9230769230769,4,3,2,84,0,0
18701,-90.9090909090909,4,3,2,84,0,0
25223,-100,4,3,2,75,0,0
26266,-142.857142857143,4,3,2,70,0,0
28353,-113.636363636364,4,3,2,77,0,0
30440,-142.857142857143,4,3,2,70,0,0
31484,-113.636363636364,4,3,2,70,0,0
32527,-113.636363636364,4,3,2,77,0,0
34614,-100,4,3,2,88,0,0
35658,-100,4,3,2,80,0,0
36701,-100,4,3,2,88,0,0
37745,-100,4,3,2,80,0,0
38788,-100,4,3,2,84,0,0
42962,-111.111111111111,4,3,2,77,0,0
43745,-125,4,3,2,77,0,0
46614,-151.515151515152,4,3,2,77,0,0
47136,-113.636363636364,4,3,2,80,0,0
48179,-100,4,3,2,84,0,0
49223,-100,4,3,2,80,0,0
51310,-303.030303030303,4,3,2,60,0,0
52353,-81.9672131147541,4,3,2,90,0,1
59919,-80,4,3,2,90,0,1
60701,-100,4,3,2,95,0,0
62006,-100,4,3,2,85,0,0
62788,-100,4,3,2,95,0,0
64353,-100,4,3,2,85,0,0
64875,-100,4,3,2,90,0,0
68006,-100,4,3,2,93,0,0
68397,-100,4,3,2,96,0,0
68788,-100,4,3,2,99,0,0
69049,-100,4,3,2,100,0,1
70093,-76.9230769230769,4,3,2,100,0,1
70614,-100,4,3,2,100,0,1
72179,-100,4,3,2,93,0,0
73223,-100,4,3,2,95,0,1
74266,-83.3333333333333,4,3,2,95,0,1
76353,-90.9090909090909,4,3,2,95,0,1
76875,-100,4,3,2,95,0,1
77397,-100,4,3,2,95,0,0
80527,-100,4,3,2,100,0,0
81571,-100,4,3,2,95,0,0
84701,-100,4,3,2,100,0,0

[Colours]
Combo1 : 0,3,117
Combo2 : 143,5,5
Combo3 : 250,118,247

[HitObjects]
192,160,180,5,0,0:0:0:0:
192,192,310,1,0,0:0:0:0:
192,224,440,1,0,0:0:0:0:
192,256,571,1,0,0:0:0:0:
192,288,701,6,0,B|192:192|192:192|224:128|224:128|224:32,1,232.749992897034,0|0,0:0|0:0,0:0:0:0:
224,0,1223,2,0,P|173:40|334:44,1,432.249980213166,0|0,0:0|0:0,0:0:0:0:
324,21,1745,5,0,0:0:0:0:
370,27,1875,1,0,0:0:0:0:
418,72,2006,1,0,0:0:0:0:
435,145,2136,1,0,0:0:0:0:
365,208,2266,6,0,P|320:268|309:333,2,125.39999961731,0|0|0,0:0|0:0|0:0,0:0:0:0:
256,384,3049,1,0,0:0:0:0:
256,384,3310,2,0,P|162:254|70:287,1,256.024994921379,0|0,0:0|0:0,0:0:0:0:
102,344,3832,2,0,P|33:320|102:198,1,232.749992897034,0|0,0:0|0:0,0:0:0:0:
94,192,4353,1,0,0:0:0:0:
256,192,4419,12,0,6310,0:0:0:0:
272,102,6440,6,0,L|154:102,1,109.724999665146,0|0,0:0|0:0,0:0:0:0:
101,144,6962,6,0,P|121:163|159:178,1,47.5,0|0,0:0|0:0,0:0:0:0:
112,267,7223,2,0,P|140:266|177:250,1,47.5,0|0,0:0|0:0,0:0:0:0:
272,368,7484,6,0,L|253:278,1,66.4999979705811,0|0,0:0|0:0,0:0:0:0:
354,209,7745,2,0,L|373:119,1,66.4999979705811,0|0,0:0|0:0,0:0:0:0:
317,2,8006,6,0,P|306:57|271:101,1,114,0|0,0:0|0:0,0:0:0:0:
232,126,8266,2,0,L|342:59,1,114,0|0,0:0|0:0,0:0:0:0:
413,21,8527,6,0,P|432:76|439:146,1,95,10|0,0:0|0:0,0:0:0:0:
437,290,8788,1,8,0:0:0:0:
512,171,8919,1,0,0:0:0:0:
354,209,9049,1,2,0:0:0:0:
512,340,9179,6,0,P|453:342|414:326,1,95,0|4,0:0|0:0,0:0:0:0:
281,215,9440,2,0,P|236:200|189:204,1,95,0|2,0:0|0:0,0:0:0:0:
62,351,9701,6,0,L|26:234,1,95,0|4,0:0|0:0,0:0:0:0:
145,111,9962,2,0,L|117:201,1,95,2|0,0:0|0:0,0:0:0:0:
145,355,10223,5,2,0:0:0:0:
37,120,10353,1,4,0:0:0:0:
195,280,10484,1,0,0:0:0:0:
232,126,10614,5,2,0:0:0:0:
237,107,10679,1,2,0:0:0:0:
243,88,10745,2,0,L|267:4,1,47.5,2|0,0:0|0:0,0:0:0:0:
512,94,10875,1,4,0:0:0:0:
354,209,11006,1,0,0:0:0:0:
417,24,11136,5,2,0:0:0:0:
512,222,11266,1,0,0:0:0:0:
364,240,11397,1,4,0:0:0:0:
446,384,11527,5,0,0:0:0:0:
281,215,11658,2,0,P|215:185|166:194,1,95,2|0,0:0|0:0,0:0:0:0:
125,375,11919,1,4,0:0:0:0:
89,185,12049,2,0,P|126:124|166:100,1,95,2|2,0:0|0:0,0:0:0:0:
191,47,12245,5,0,0:0:0:0:
153,37,12310,1,2,0:0:0:0:
116,40,12375,1,0,0:0:0:0:
81,55,12440,6,0,L|7:124,1,95,4|0,0:0|0:0,0:0:0:0:
279,330,12701,2,0,P|291:259|272:198,1,118.75,2|0,0:0|0:0,0:0:0:0:
48,251,12962,1,4,0:0:0:0:
211,384,13093,1,0,0:0:0:0:
194,185,13223,1,2,0:0:0:0:
385,313,13353,6,0,P|463:327|502:319,1,95,0|4,0:0|0:0,0:0:0:0:
335,100,13614,2,0,P|257:86|218:94,1,95,0|2,0:0|0:0,0:0:0:0:
99,313,13875,6,0,P|21:327|-18:319,1,95,0|4,0:0|0:0,0:0:0:0:
149,100,14136,2,0,P|227:86|266:94,1,95,2|0,0:0|0:0,0:0:0:0:
236,276,14397,5,2,0:0:0:0:
256,16,14527,1,4,0:0:0:0:
353,202,14658,1,0,0:0:0:0:
125,202,14788,5,2,0:0:0:0:
107,194,14853,1,2,0:0:0:0:
89,185,14919,2,0,P|55:166|29:144,1,47.5,2|0,0:0|0:0,0:0:0:0:
185,0,15049,1,4,0:0:0:0:
285,159,15179,1,0,0:0:0:0:
426,0,15310,5,2,0:0:0:0:
353,202,15440,1,0,0:0:0:0:
339,22,15571,1,4,0:0:0:0:
472,230,15701,5,0,0:0:0:0:
236,276,15832,2,0,P|164:231|151:217,1,95,2|0,0:0|0:0,0:0:0:0:
99,37,16093,1,4,0:0:0:0:
48,251,16223,2,0,P|72:300|114:350,1,95,2|2,0:0|0:0,0:0:0:0:
173,355,16419,5,0,0:0:0:0:
196,355,16484,1,2,0:0:0:0:
220,355,16549,1,0,0:0:0:0:
244,355,16614,5,2,0:0:0:0:
289,346,16679,1,2,0:0:0:0:
319,311,16744,1,2,0:0:0:0:
319,264,16809,1,2,0:0:0:0:
289,229,16875,6,0,P|243:190|215:153,1,104.500003189087,2|0,0:0|0:0,0:0:0:0:
470,135,17136,2,0,P|474:195|468:241,1,104.500003189087,4|4,0:0|0:0,0:0:0:0:
328,42,17397,5,0,0:0:0:0:
394,294,17527,1,2,0:0:0:0:
443,33,17658,1,4,0:0:0:0:
390,324,17788,1,0,0:0:0:0:
254,15,17919,5,2,0:0:0:0:
157,224,18049,2,0,B|140:300|82:261|54:334,1,156.750004783631,2|0,0:0|0:0,0:0:0:0:
0,384,18310,2,0,L|112:384,1,61.7499971733095,2|0,0:0|0:0,0:0:0:0:
196,355,18440,1,2,0:0:0:0:
86,213,18571,1,2,0:0:0:0:
287,314,18701,6,0,P|383:325|417:316,1,104.500003189087,4|0,0:0|0:0,0:0:0:0:
392,83,18962,5,2,0:0:0:0:
473,311,19093,1,2,0:0:0:0:
304,62,19223,5,4,0:0:0:0:
223,290,19354,1,4,0:0:0:0:
396,72,19484,5,0,0:0:0:0:
485,323,19615,1,2,0:0:0:0:
299,49,19745,1,4,0:0:0:0:
210,300,19876,1,0,0:0:0:0:
138,0,20006,5,2,0:0:0:0:
100,272,20136,2,0,P|64:316|19:350,2,104.500003189087,2|4|4,0:0|0:0|0:0,0:0:0:0:
251,0,20527,5,2,0:0:0:0:
289,272,20657,2,0,P|325:316|370:350,2,104.500003189087,2|4|0,0:0|0:0|0:0,0:0:0:0:
72,162,21049,5,2,0:0:0:0:
210,300,21179,1,0,0:0:0:0:
101,91,21310,1,4,0:0:0:0:
145,332,21440,1,4,0:0:0:0:
314,157,21571,5,0,0:0:0:0:
289,377,21701,1,2,0:0:0:0:
477,159,21832,1,4,0:0:0:0:
512,384,21962,1,0,0:0:0:0:
299,49,22093,5,2,0:0:0:0:
362,345,22223,1,2,0:0:0:0:
199,186,22353,1,4,0:0:0:0:
464,79,22484,6,0,B|498:46|480:10|501:-16,2,104.500003189087,4|2|2,0:0|0:0|0:0,0:0:0:0:
185,167,22875,2,0,P|202:117|235:77,1,104.500003189087,4|0,0:0|0:0,0:0:0:0:
67,343,23136,5,2,0:0:0:0:
75,139,23266,1,2,0:0:0:0:
225,299,23397,5,4,0:0:0:0:
21,177,23527,1,4,0:0:0:0:
62,358,23658,5,0,0:0:0:0:
71,123,23788,1,2,0:0:0:0:
244,308,23919,5,4,0:0:0:0:
9,167,24049,1,0,0:0:0:0:
309,49,24179,5,2,0:0:0:0:
268,326,24310,2,0,P|219:355|168:360,2,104.500003189087,2|4|4,0:0|0:0|0:0,0:0:0:0:
227,49,24701,5,2,0:0:0:0:
268,326,24832,2,0,P|317:355|368:360,2,104.500003189087,2|4|2,0:0|0:0|0:0,0:0:0:0:
386,153,25223,5,2,0:0:0:0:
429,280,25353,1,2,0:0:0:0:
477,159,25484,1,4,0:0:0:0:
477,140,25549,1,0,0:0:0:0:
477,121,25614,1,2,0:0:0:0:
477,102,25679,1,0,0:0:0:0:
477,82,25745,6,0,L|477:23,3,47.5,2|0|2|0,0:0|0:0|0:0|0:0,0:0:0:0:
333,222,26006,2,0,L|333:274,1,47.5,4|4,0:0|0:0,0:0:0:0:
227,96,26136,2,0,L|227:44,1,47.5,4|4,0:0|0:0,0:0:0:0:
183,260,26266,6,0,P|132:299|53:300,2,132.999995941162,2|2|4,0:0|0:0|0:0,0:0:0:0:
86,184,26919,1,2,0:0:0:0:
86,184,27049,2,0,P|67:137|66:88,1,99.7499969558717,2|0,0:0|0:0,0:0:0:0:
103,24,27310,5,2,0:0:0:0:
103,24,27440,1,2,0:0:0:0:
145,129,27571,1,2,0:0:0:0:
145,129,27701,1,2,0:0:0:0:
226,7,27832,5,4,0:0:0:0:
259,146,27962,1,2,0:0:0:0:
308,0,28093,1,4,0:0:0:0:
344,152,28223,1,2,0:0:0:0:
481,0,28353,6,0,P|510:39|504:133,1,125.400003826904,2|0,0:0|0:0,0:0:0:0:
460,166,28614,2,0,P|431:205|437:299,1,125.400003826904,4|0,0:0|0:0,0:0:0:0:
479,331,28875,2,0,L|331:288,1,125.400003826904,2|0,0:0|0:0,0:0:0:0:
288,257,29136,2,0,L|167:291,1,125.400003826904,4|0,0:0|0:0,0:0:0:0:
96,320,29397,5,2,0:0:0:0:
15,299,29527,1,2,0:0:0:0:
83,193,29658,5,4,0:0:0:0:
164,214,29788,1,4,0:0:0:0:
82,319,29919,5,2,0:0:0:0:
7,282,30049,1,2,0:0:0:0:
96,193,30179,5,4,0:0:0:0:
139,103,30309,1,4,0:0:0:0:
263,103,30440,6,0,P|309:60|324:-16,1,132.999995941162,2|2,0:0|0:0,0:0:0:0:
352,165,30962,2,0,P|366:101|414:55,1,132.999995941162,4|2,0:0|0:0,0:0:0:0:
244,27,31484,5,2,0:0:0:0:
227,27,31614,1,2,0:0:0:0:
263,103,31745,5,2,0:0:0:0:
280,103,31875,1,2,0:0:0:0:
164,214,32006,5,4,0:0:0:0:
309,221,32136,1,2,0:0:0:0:
157,300,32266,1,4,0:0:0:0:
317,308,32396,1,2,0:0:0:0:
83,369,32527,6,0,P|23:332|15:244,1,125.400003826904,2|0,0:0|0:0,0:0:0:0:
49,219,32788,2,0,P|67:151|46:74,1,125.400003826904,4|0,0:0|0:0,0:0:0:0:
11,32,33049,2,0,P|82:18|147:33,1,125.400003826904,2|0,0:0|0:0,0:0:0:0:
196,75,33310,2,0,P|287:54|334:70,1,125.400003826904,4|0,0:0|0:0,0:0:0:0:
276,133,33571,5,2,0:0:0:0:
196,156,33701,1,2,0:0:0:0:
285,245,33832,5,4,0:0:0:0:
373,220,33962,1,4,0:0:0:0:
287,132,34093,5,2,0:0:0:0:
204,138,34223,1,2,0:0:0:0:
273,244,34353,6,0,L|374:244,1,83.6000025512696,4|4,0:0|0:0,0:0:0:0:
512,113,34614,5,4,0:0:0:0:
452,319,34745,1,2,0:0:0:0:
495,70,34875,5,4,0:0:0:0:
480,284,35006,1,2,0:0:0:0:
471,32,35136,5,4,0:0:0:0:
500,244,35267,1,2,0:0:0:0:
439,0,35397,5,4,0:0:0:0:
512,201,35528,1,2,0:0:0:0:
276,133,35658,6,0,P|207:123|165:134,1,95,2|0,0:0|0:0,0:0:0:0:
128,287,35919,1,4,0:0:0:0:
239,214,36049,1,0,0:0:0:0:
193,364,36179,6,0,P|258:375|296:364,1,95,2|2,0:0|0:0,0:0:0:0:
358,208,36440,2,0,P|294:225|264:251,1,95,4|0,0:0|0:0,0:0:0:0:
77,365,36701,5,4,0:0:0:0:
44,185,36832,1,2,0:0:0:0:
43,332,36962,5,4,0:0:0:0:
48,149,37093,1,2,0:0:0:0:
17,294,37223,5,4,0:0:0:0:
60,116,37354,1,2,0:0:0:0:
0,251,37484,5,4,0:0:0:0:
79,86,37615,1,2,0:0:0:0:
241,308,37745,6,0,P|302:299|343:284,1,95,2|0,0:0|0:0,0:0:0:0:
439,117,38006,2,0,P|378:126|337:141,1,95,4|0,0:0|0:0,0:0:0:0:
413,303,38266,1,2,0:0:0:0:
285,206,38397,1,2,0:0:0:0:
173,354,38527,5,4,0:0:0:0:
142,367,38592,1,4,0:0:0:0:
110,371,38657,1,4,0:0:0:0:
77,365,38722,1,4,0:0:0:0:
48,350,38787,5,2,0:0:0:0:
136,261,38919,1,2,0:0:0:0:
48,173,39049,1,4,0:0:0:0:
135,85,39179,2,0,P|194:37|230:22,1,95,2|2,0:0|0:0,0:0:0:0:
210,219,39440,5,2,0:0:0:0:
311,117,39571,1,2,0:0:0:0:
311,277,39701,2,0,L|312:383,1,95,2|2,0:0|0:0,0:0:0:0:
136,167,39962,5,4,0:0:0:0:
422,167,40093,1,2,0:0:0:0:
142,167,40223,1,2,0:0:0:0:
400,34,40353,6,0,P|469:10|503:8,1,95,2|4,0:0|0:0,0:0:0:0:
311,117,40614,2,0,P|245:85|219:62,1,95,2|2,0:0|0:0,0:0:0:0:
142,167,40875,5,2,0:0:0:0:
40,268,41006,1,2,0:0:0:0:
140,368,41136,1,4,0:0:0:0:
240,267,41266,2,0,P|306:211|354:202,1,95,2|2,0:0|0:0,0:0:0:0:
386,383,41527,5,2,0:0:0:0:
405,220,41658,1,2,0:0:0:0:
265,356,41788,2,0,P|186:361|157:359,1,95,2|2,0:0|0:0,0:0:0:0:
48,144,42049,5,4,0:0:0:0:
48,368,42179,1,2,0:0:0:0:
48,150,42310,1,2,0:0:0:0:
312,208,42440,6,0,P|376:222|429:215,1,95,2|2,0:0|0:0,0:0:0:0:
311,117,42701,1,2,0:0:0:0:
299,117,42832,1,2,0:0:0:0:
426,128,42962,6,0,P|307:119|269:107,1,128.249996086121,2|0,0:0|0:0,0:0:0:0:
286,115,43223,1,4,0:0:0:0:
157,282,43353,1,2,0:0:0:0:
81,77,43484,1,0,0:0:0:0:
172,172,43614,1,2,0:0:0:0:
284,32,43745,6,0,B|339:-2|390:70|429:32,1,152,4|2,0:0|0:0,0:0:0:0:
497,183,44136,1,2,0:0:0:0:
497,183,44266,2,0,P|483:232|464:263,1,76,4|2,0:0|0:0,0:0:0:0:
265,356,44527,2,0,P|298:373|335:382,1,76,2|2,0:0|0:0,0:0:0:0:
397,109,44788,2,0,P|393:163|380:200,1,76,4|0,0:0|0:0,0:0:0:0:
190,343,45049,6,0,P|131:351|112:227,1,190,2|0,0:0|0:0,0:0:0:0:
124,187,45440,2,0,P|56:216|19:200,1,114,2|0,0:0|0:0,0:0:0:0:
64,143,45701,2,0,P|122:77|226:82,1,190,2|0,0:0|0:0,0:0:0:0:
265,195,46093,6,0,L|296:106,1,76,2|2,0:0|0:0,0:0:0:0:
219,273,46353,2,0,L|188:184,1,76,4|2,0:0|0:0,0:0:0:0:
335,382,46614,6,0,P|357:318|473:370,1,219.449999330292,2|0,0:0|0:0,0:0:0:0:
403,372,47136,2,0,P|427:244|392:188,1,167.200005102539,2|4,0:0|0:0,0:0:0:0:
292,287,47527,5,2,0:0:0:0:
362,155,47658,2,0,L|412:88,1,83.6000025512696,0|2,0:0|0:0,0:0:0:0:
194,201,47919,2,0,L|144:133,1,83.6000025512696,4|0,0:0|0:0,0:0:0:0:
256,0,48179,5,2,0:0:0:0:
275,212,48310,1,2,0:0:0:0:
153,39,48440,2,0,P|107:22|27:22,1,95,4|2,0:0|0:0,0:0:0:0:
55,216,48701,1,0,0:0:0:0:
0,76,48832,1,2,0:0:0:0:
0,281,48962,6,0,P|25:324|68:366,1,95,4|0,0:0|0:0,0:0:0:0:
229,368,49223,2,0,P|195:313|112:286,1,142.5,2|0,0:0|0:0,0:0:0:0:
89,286,49484,5,4,0:0:0:0:
229,222,49614,1,2,0:0:0:0:
344,375,49745,2,0,P|399:383|441:373,1,95,0|2,0:0|0:0,0:0:0:0:
229,190,50006,5,4,0:0:0:0:
229,368,50136,1,0,0:0:0:0:
378,211,50266,5,2,0:0:0:0:
378,163,50397,1,2,0:0:0:0:
378,125,50527,5,4,0:0:0:0:
378,96,50658,1,4,0:0:0:0:
378,77,50788,5,2,0:0:0:0:
378,57,50919,1,2,0:0:0:0:
378,47,51049,5,4,0:0:0:0:
378,94,51114,1,2,0:0:0:0:
378,142,51179,1,2,0:0:0:0:
378,189,51244,1,2,0:0:0:0:
378,237,51310,6,0,L|378:349,1,109.724999665146,2|0,0:0|0:0,0:0:0:0:
382,377,51832,5,4,0:0:0:0:
382,362,51897,1,2,0:0:0:0:
378,346,51962,1,2,0:0:0:0:
372,332,52027,1,2,0:0:0:0:
364,319,52093,5,2,0:0:0:0:
351,307,52158,1,2,0:0:0:0:
340,294,52223,1,2,0:0:0:0:
331,279,52288,1,2,0:0:0:0:
325,263,52353,6,0,P|268:201|233:179,1,115.899995225067,2|0,0:0|0:0,0:0:0:0:
132,381,52614,5,4,0:0:0:0:
55,216,52745,2,0,P|101:131|147:107,1,115.899995225067,0|2,0:0|0:0,0:0:0:0:
378,189,53006,5,2,0:0:0:0:
261,16,53136,1,4,0:0:0:0:
170,204,53266,1,2,0:0:0:0:
104,20,53397,5,0,0:0:0:0:
0,152,53527,1,2,0:0:0:0:
190,198,53658,6,0,P|246:150|262:98,1,115.899995225067,4|0,0:0|0:0,0:0:0:0:
4,266,53919,2,0,P|-12:321|0:377,1,115.899995225067,2|2,0:0|0:0,0:0:0:0:
205,314,54179,2,0,P|260:327|303:365,1,115.899995225067,4|0,0:0|0:0,0:0:0:0:
71,311,54440,5,2,0:0:0:0:
271,239,54571,1,0,0:0:0:0:
80,302,54701,1,4,0:0:0:0:
474,332,54832,5,0,0:0:0:0:
312,172,54962,1,2,0:0:0:0:
465,323,55093,1,0,0:0:0:0:
428,67,55223,5,4,0:0:0:0:
190,198,55353,1,2,0:0:0:0:
334,0,55484,1,0,0:0:0:0:
442,201,55614,1,2,0:0:0:0:
226,54,55745,1,4,0:0:0:0:
340,257,55875,1,0,0:0:0:0:
114,156,56006,6,0,P|38:146|-17:156,1,115.899995225067,2|2,0:0|0:0,0:0:0:0:
189,361,56266,2,0,P|265:371|320:361,1,115.899995225067,4|0,0:0|0:0,0:0:0:0:
472,89,56527,6,0,P|446:166|441:219,1,115.899995225067,2|0,0:0|0:0,0:0:0:0:
380,373,56788,5,4,0:0:0:0:
328,121,56919,2,0,P|392:54|458:48,1,115.899995225067,0|2,0:0|0:0,0:0:0:0:
241,304,57179,5,2,0:0:0:0:
180,105,57309,1,4,0:0:0:0:
37,258,57440,1,2,0:0:0:0:
0,71,57571,5,0,0:0:0:0:
38,273,57701,1,2,0:0:0:0:
187,23,57832,6,0,P|249:70|272:111,1,115.899995225067,4|0,0:0|0:0,0:0:0:0:
322,382,58093,2,0,P|259:334|236:293,1,115.899995225067,2|2,0:0|0:0,0:0:0:0:
512,195,58353,2,0,P|485:278|456:306,1,115.899995225067,4|0,0:0|0:0,0:0:0:0:
237,165,58614,5,2,0:0:0:0:
381,308,58745,1,0,0:0:0:0:
242,171,58875,1,4,0:0:0:0:
141,363,59006,5,0,0:0:0:0:
135,143,59136,1,2,0:0:0:0:
141,354,59266,1,0,0:0:0:0:
19,90,59397,5,4,0:0:0:0:
141,342,59527,1,2,0:0:0:0:
237,95,59658,1,0,0:0:0:0:
431,231,59788,1,2,0:0:0:0:
183,30,59919,6,0,P|247:16|330:56,1,118.75,4|0,0:0|0:0,0:0:0:0:
443,231,60179,6,0,P|412:281|362:311,1,118.75,2|2,0:0|0:0,0:0:0:0:
54,223,60440,6,0,P|84:172|134:142,1,118.75,4|0,0:0|0:0,0:0:0:0:
499,189,60701,6,0,B|482:146|482:146|442:128|430:65,1,142.5,2|0,0:0|0:0,0:0:0:0:
420,0,60962,1,4,0:0:0:0:
340,202,61093,1,0,0:0:0:0:
456,38,61223,5,2,0:0:0:0:
336,219,61354,1,0,0:0:0:0:
483,83,61484,1,4,0:0:0:0:
328,235,61615,1,2,0:0:0:0:
501,133,61745,1,2,0:0:0:0:
318,249,61876,1,2,0:0:0:0:
508,185,62006,1,4,0:0:0:0:
304,261,62137,1,0,0:0:0:0:
512,384,62266,6,0,P|509:314|487:273,1,95,2|0,0:0|0:0,0:0:0:0:
315,150,62527,2,0,P|300:194|302:242,1,95,4|0,0:0|0:0,0:0:0:0:
151,384,62788,6,0,B|86:329|135:305|85:262,1,142.5,2|0,0:0|0:0,0:0:0:0:
29,217,63049,1,4,0:0:0:0:
201,309,63179,1,0,0:0:0:0:
28,169,63310,5,2,0:0:0:0:
177,295,63440,1,2,0:0:0:0:
38,122,63571,1,4,0:0:0:0:
158,276,63701,1,2,0:0:0:0:
57,78,63832,1,2,0:0:0:0:
142,254,63962,1,2,0:0:0:0:
85,40,64093,1,4,0:0:0:0:
132,229,64223,1,0,0:0:0:0:
120,7,64353,5,2,0:0:0:0:
127,202,64483,1,2,0:0:0:0:
207,56,64614,2,0,P|255:34|313:31,1,95,4|0,0:0|0:0,0:0:0:0:
329,296,64875,5,2,0:0:0:0:
390,77,65006,1,0,0:0:0:0:
257,221,65136,1,4,0:0:0:0:
429,147,65266,2,0,P|504:116|532:113,1,95,0|2,0:0|0:0,0:0:0:0:
480,327,65527,5,2,0:0:0:0:
394,208,65658,1,4,0:0:0:0:
346,384,65788,1,2,0:0:0:0:
241,238,65919,2,0,B|133:197|148:269|59:209,1,190,2|4,0:0|0:0,0:0:0:0:
176,49,66310,6,0,B|116:138|188:123|147:230,1,190,0|2,0:0|0:0,0:0:0:0:
225,109,66701,2,0,P|267:66|321:50,1,95,4|0,0:0|0:0,0:0:0:0:
394,208,66962,2,0,P|333:208|284:181,1,95,2|0,0:0|0:0,0:0:0:0:
449,59,67223,5,4,0:0:0:0:
423,277,67353,1,2,0:0:0:0:
468,45,67484,5,2,0:0:0:0:
439,285,67614,1,2,0:0:0:0:
489,31,67745,5,4,0:0:0:0:
458,294,67875,1,2,0:0:0:0:
256,0,68006,5,8,0:0:0:0:
96,352,68397,5,8,0:0:0:0:
416,352,68788,5,8,0:0:0:0:
96,48,69049,5,4,0:0:0:0:
96,336,69179,1,2,0:0:0:0:
160,0,69310,5,4,0:0:0:0:
52,267,69440,1,2,0:0:0:0:
348,112,69571,5,4,0:0:0:0:
190,348,69701,1,2,0:0:0:0:
468,163,69832,5,4,0:0:0:0:
245,339,69962,1,2,0:0:0:0:
261,61,70093,6,0,P|202:10|141:0,1,123.499994346619,4|2,0:0|0:0,0:0:0:0:
143,277,70353,6,0,P|202:328|263:338,1,123.499994346619,4|2,0:0|0:0,0:0:0:0:
46,98,70614,5,4,0:0:0:0:
345,211,70745,1,2,0:0:0:0:
46,286,70875,5,4,0:0:0:0:
345,173,71006,1,2,0:0:0:0:
0,384,71136,5,4,0:0:0:0:
291,126,71266,1,2,0:0:0:0:
151,384,71397,5,4,0:0:0:0:
179,83,71527,1,2,0:0:0:0:
344,384,71658,5,4,0:0:0:0:
412,113,71788,1,2,0:0:0:0:
510,383,71919,5,4,0:0:0:0:
438,113,72049,1,2,0:0:0:0:
251,384,72179,6,0,L|231:262,1,95,4|2,0:0|0:0,0:0:0:0:
61,4,72440,2,0,L|45:97,1,95,4|2,0:0|0:0,0:0:0:0:
151,384,72701,5,4,0:0:0:0:
179,83,72832,1,2,0:0:0:0:
58,276,72962,5,2,0:0:0:0:
43,294,73027,1,2,0:0:0:0:
29,313,73092,1,2,0:0:0:0:
15,332,73157,1,2,0:0:0:0:
0,351,73222,5,4,0:0:0:0:
230,210,73353,1,2,0:0:0:0:
0,236,73484,5,4,0:0:0:0:
254,145,73615,1,2,0:0:0:0:
0,47,73745,5,4,0:0:0:0:
269,57,73876,1,2,0:0:0:0:
0,165,74006,5,4,0:0:0:0:
267,128,74137,1,2,0:0:0:0:
89,321,74266,6,0,P|46:342|-24:351,1,113.999996520996,4|2,0:0|0:0,0:0:0:0:
161,87,74527,6,0,P|204:66|274:57,1,113.999996520996,4|2,0:0|0:0,0:0:0:0:
294,322,74788,5,4,0:0:0:0:
388,87,74919,1,2,0:0:0:0:
294,382,75049,5,4,0:0:0:0:
200,147,75180,1,2,0:0:0:0:
465,379,75310,5,4,0:0:0:0:
464,119,75440,1,2,0:0:0:0:
294,382,75571,5,4,0:0:0:0:
347,127,75701,1,2,0:0:0:0:
169,372,75832,5,4,0:0:0:0:
273,133,75962,1,2,0:0:0:0:
10,300,76093,5,4,0:0:0:0:
161,87,76223,1,2,0:0:0:0:
244,342,76353,5,4,0:0:0:0:
308,113,76484,2,0,L|315:-2,2,104.500003189087,2|2|2,0:0|0:0|0:0,0:0:0:0:
181,243,76875,5,4,0:0:0:0:
403,187,77006,2,0,L|518:180,2,95,2|2|2,0:0|0:0|0:0,0:0:0:0:
244,342,77397,5,2,0:0:0:0:
115,215,77527,2,0,P|63:207|-7:222,1,95,0|4,0:0|0:0,0:0:0:0:
150,361,77788,2,0,P|202:369|272:354,1,95,0|2,0:0|0:0,0:0:0:0:
211,79,78049,6,0,P|167:143|165:178,1,95,2|4,0:0|0:0,0:0:0:0:
319,355,78310,2,0,P|363:291|365:256,1,95,0|2,0:0|0:0,0:0:0:0:
341,24,78571,6,0,L|299:136,1,95,0|4,0:0|0:0,0:0:0:0:
295,260,78832,2,0,L|253:148,1,95,2|0,0:0|0:0,0:0:0:0:
141,68,79093,2,0,P|149:129|183:180,2,95,2|4|0,0:0|0:0|0:0,0:0:0:0:
127,284,79484,5,2,0:0:0:0:
127,284,79614,1,0,0:0:0:0:
80,150,79745,1,4,0:0:0:0:
59,348,79875,1,0,0:0:0:0:
243,125,80006,5,2,0:0:0:0:
212,328,80136,1,2,0:0:0:0:
331,112,80266,5,4,0:0:0:0:
296,344,80396,1,0,0:0:0:0:
443,82,80527,5,2,0:0:0:0:
270,227,80658,1,0,0:0:0:0:
482,322,80788,1,4,0:0:0:0:
373,51,80919,1,2,0:0:0:0:
403,243,81049,1,0,0:0:0:0:
208,62,81179,5,2,0:0:0:0:
127,284,81310,2,0,P|67:343|34:355,1,95,4|0,0:0|0:0,0:0:0:0:
270,132,81571,6,0,L|235:249,1,95,2|0,0:0|0:0,0:0:0:0:
404,335,81832,2,0,P|411:269|391:223,1,95,4|0,0:0|0:0,0:0:0:0:
271,368,82093,5,2,0:0:0:0:
118,184,82223,2,0,B|87:127|121:113|92:45,1,142.5,2|0,0:0|0:0,0:0:0:0:
39,1,82484,2,0,P|27:74|63:119,1,95,0|2,0:0|0:0,0:0:0:0:
178,136,82745,5,0,0:0:0:0:
1,177,82875,1,4,0:0:0:0:
206,58,83006,1,2,0:0:0:0:
46,289,83136,1,0,0:0:0:0:
147,0,83266,6,0,P|193:-14|254:-10,1,95,2|4,0:0|0:0,0:0:0:0:
329,186,83527,1,0,0:0:0:0:
426,7,83658,1,2,0:0:0:0:
413,273,83788,5,0,0:0:0:0:
332,92,83919,1,4,0:0:0:0:
247,252,84049,1,0,0:0:0:0:
446,166,84179,1,2,0:0:0:0:
268,325,84310,2,0,P|203:348|161:347,1,95,2|4,0:0|0:0,0:0:0:0:
178,183,84571,6,0,L|178:135,1,47.5,0|0,0:0|0:0,0:0:0:0:
0,384,84701,1,2,0:0:0:0:
34,90,84832,1,0,0:0:0:0:
247,252,84962,5,4,0:0:0:0:
129,70,85093,2,0,P|71:56|21:58,1,95,2|2,0:0|0:0,0:0:0:0:
84,334,85353,2,0,P|142:348|192:346,1,95,2|2,0:0|0:0,0:0:0:0:
329,186,85614,5,2,0:0:0:0:
0,384,85745,1,12,0:0:0:0:
