osu file format v14

[General]
AudioFilename: Kokou no Sousei.mp3
AudioLeadIn: 0
PreviewTime: -1
Countdown: 1
SampleSet: Soft
StackLeniency: 0.7
Mode: 0
LetterboxInBreaks: 0
WidescreenStoryboard: 0

[Editor]
DistanceSpacing: 2.1
BeatDivisor: 4
GridSize: 4
TimelineZoom: 2.6

[Metadata]
Title:Kokou no sousei
TitleUnicode:孤高の創世
Artist:Yousei Teikoku
ArtistUnicode:Yousei Teikoku
Creator:Nelissa
Version:Feels
Source:
Tags:
BeatmapID:1090493
BeatmapSetID:513187

[Difficulty]
HPDrainRate:6
CircleSize:4
OverallDifficulty:8.5
ApproachRate:10
SliderMultiplier:2
SliderTickRate:1

[Events]
//Background and Video events
0,0,"thumb-1920-675064.jpg",0,0
//Break Periods
//Storyboard Layer 0 (Background)
//Storyboard Layer 1 (Fail)
//Storyboard Layer 2 (Pass)
//Storyboard Layer 3 (Foreground)
//Storyboard Sound Samples

[TimingPoints]
657,250,4,2,1,80,1,0
15657,-76.9230769230769,4,2,1,80,0,0
16657,-76.9230769230769,4,2,1,100,0,1
32657,-100,4,2,1,100,0,0
48157,-76.9230769230769,4,2,1,60,0,0
48657,-76.9230769230769,4,2,1,100,0,0
56657,-100,4,2,1,80,0,0
72657,-133.333333333333,4,2,1,80,0,0
76657,-76.9230769230769,4,2,1,100,0,0
80657,-133.333333333333,4,2,1,80,0,0
84657,-76.9230769230769,4,2,1,100,0,0
100657,-100,4,2,1,80,0,0
116157,-50,4,2,1,60,0,0
116657,-76.9230769230769,4,2,1,100,0,1
132657,-76.9230769230769,4,2,1,50,0,0
148657,-100,4,2,1,80,0,0
164657,-133.333333333333,4,2,1,80,0,0
168657,-76.9230769230769,4,2,1,100,0,0
172657,-133.333333333333,4,2,1,80,0,0
176657,-76.9230769230769,4,2,1,100,0,0
192657,-100,4,2,1,80,0,0
208157,-50,4,2,1,50,0,0
208657,-76.9230769230769,4,2,1,100,0,1
216407,-76.9230769230769,4,2,1,60,0,1
216657,-76.9230769230769,4,2,1,100,0,1
224657,-76.9230769230769,4,2,1,50,0,1
226157,-76.9230769230769,4,2,1,80,0,0
240657,-100,4,2,1,80,0,1
240657,-100,4,2,2,50,0,1
241094,-100,4,2,2,80,0,1
241219,-100,4,2,1,50,0,1
242094,-100,4,2,2,80,0,1
242219,-100,4,2,1,50,0,1
243094,-100,4,2,2,80,0,1
243219,-100,4,2,1,50,0,1
244094,-100,4,2,2,80,0,1
244219,-100,4,2,1,50,0,1
245094,-100,4,2,2,60,0,1
245219,-100,4,2,1,50,0,1
246094,-100,4,2,2,60,0,1
246219,-100,4,2,1,50,0,1
247094,-100,4,2,2,50,0,1
247219,-100,4,2,1,50,0,1
248625,-100,4,2,1,80,0,0
248657,-100,4,2,2,80,0,1
249094,-100,4,2,2,100,0,1
249219,-100,4,2,2,80,0,1
250094,-100,4,2,2,100,0,1
250219,-100,4,2,2,80,0,1
251094,-100,4,2,2,100,0,1
251219,-100,4,2,2,80,0,1
252094,-100,4,2,2,100,0,1
252219,-100,4,2,2,80,0,1
253094,-100,4,2,2,100,0,1
253219,-100,4,2,2,80,0,1
254094,-100,4,2,2,100,0,1
254219,-100,4,2,2,80,0,1
255094,-100,4,2,2,100,0,1
255219,-100,4,2,2,80,0,1
256094,-100,4,2,2,100,0,1
256219,-100,4,2,2,80,0,1
256657,-133.333333333333,4,2,1,80,0,0
258157,-50,4,2,1,80,0,0
258657,-76.9230769230769,4,2,1,100,0,1
272657,-76.9230769230769,4,2,2,100,0,1
274657,-76.9230769230769,4,2,1,50,0,0
276532,-76.9230769230769,4,2,1,80,0,0
280907,-76.9230769230769,4,2,1,100,0,0
290657,-133.333333333333,4,2,1,80,0,0
290907,-133.333333333333,4,2,2,80,0,0
298594,-133.333333333333,4,2,2,80,0,0

[HitObjects]
116,136,657,6,0,L|304:64,1,200
402,53,1032,1,0,0:0:0:0:
451,174,1157,1,0,0:0:0:0:
342,91,1282,1,0,0:0:0:0:
464,100,1407,1,0,0:0:0:0:
251,150,1532,1,0,0:0:0:0:
251,150,1657,6,0,L|305:58,1,100
402,53,1907,1,0,0:0:0:0:
451,174,2032,1,0,0:0:0:0:
302,64,2157,1,0,0:0:0:0:
362,227,2282,1,0,0:0:0:0:
464,100,2407,1,0,0:0:0:0:
431,285,2532,1,0,0:0:0:0:
431,285,2657,6,0,L|351:355,1,100
256,334,2907,1,0,0:0:0:0:
167,287,3032,1,0,0:0:0:0:
92,220,3157,1,0,0:0:0:0:
239,256,3282,1,0,0:0:0:0:
198,164,3407,1,0,0:0:0:0:
183,65,3532,1,0,0:0:0:0:
92,220,3657,6,0,P|134:267|200:296,1,100
270,331,3907,1,0,0:0:0:0:
270,331,4032,1,0,0:0:0:0:
198,164,4157,2,0,P|164:111|125:80,1,100
296,149,4407,6,0,P|346:116|396:113,1,100
255,221,4657,6,0,P|217:264|160:295,1,100
77,151,4907,1,0,0:0:0:0:
193,26,5032,1,0,0:0:0:0:
183,195,5157,1,0,0:0:0:0:
89,52,5282,1,0,0:0:0:0:
238,110,5407,1,0,0:0:0:0:
109,220,5532,5,0,0:0:0:0:
109,220,5657,2,0,P|147:269|195:293,1,100
298,302,5907,1,0,0:0:0:0:
399,149,6032,1,0,0:0:0:0:
298,302,6157,1,0,0:0:0:0:
311,132,6282,1,0,0:0:0:0:
388,323,6407,1,0,0:0:0:0:
271,231,6532,5,0,0:0:0:0:
271,231,6657,2,0,P|348:208|395:212,1,100
257,78,6907,1,0,0:0:0:0:
177,228,7032,1,0,0:0:0:0:
196,28,7157,1,0,0:0:0:0:
244,273,7282,1,0,0:0:0:0:
115,119,7407,1,0,0:0:0:0:
278,164,7532,1,0,0:0:0:0:
88,184,7657,6,0,B|113:217|154:201|189:238,1,100
196,28,7907,1,0,0:0:0:0:
196,28,8032,1,0,0:0:0:0:
278,164,8157,2,0,L|364:86,1,100
264,188,8407,6,0,L|401:151,1,100
253,212,8657,6,0,L|379:228,1,100
207,314,8907,1,0,0:0:0:0:
376,305,9032,1,0,0:0:0:0:
212,255,9157,1,0,0:0:0:0:
376,305,9282,1,0,0:0:0:0:
256,211,9407,1,0,0:0:0:0:
390,315,9532,1,0,0:0:0:0:
207,314,9657,6,0,P|213:251|171:201,1,100
305,70,9907,2,0,P|299:133|341:183,1,100
145,167,10157,1,0,0:0:0:0:
314,167,10282,1,0,0:0:0:0:
196,220,10407,1,0,0:0:0:0:
305,70,10532,1,0,0:0:0:0:
207,314,10657,6,0,P|201:251|243:201,1,100
54,148,10907,2,0,P|60:211|18:261,1,100
207,314,11157,1,0,0:0:0:0:
172,183,11282,1,0,0:0:0:0:
302,148,11407,1,0,0:0:0:0:
337,279,11532,1,0,0:0:0:0:
383,115,11657,6,0,P|437:160|507:149,1,100
337,279,11907,1,0,0:0:0:0:
337,279,12032,1,0,0:0:0:0:
205,171,12157,2,0,B|173:131|211:108|177:62,1,100
121,213,12407,6,0,P|163:248|235:258,1,100
122,115,12657,6,0,P|81:146|31:154,1,100
170,33,12907,1,0,0:0:0:0:
312,115,13032,1,0,0:0:0:0:
170,198,13157,1,0,0:0:0:0:
265,33,13282,1,0,0:0:0:0:
265,198,13407,1,0,0:0:0:0:
122,115,13532,1,0,0:0:0:0:
265,33,13657,2,0,B|317:38|317:38|365:60,1,100
361,181,13907,2,0,B|308:180|308:180|245:206,1,100
114,278,14157,1,0,0:0:0:0:
224,176,14282,1,0,0:0:0:0:
76,149,14407,1,0,0:0:0:0:
226,72,14532,1,0,0:0:0:0:
226,72,14657,6,0,P|178:92|129:88,1,100
293,167,14907,2,0,P|303:113|339:64,1,100
215,242,15157,2,0,P|185:187|141:155,1,100
158,22,15407,2,0,P|229:57|349:17,1,200
437,95,15782,5,0,0:0:0:0:
385,276,15907,1,0,0:0:0:0:
320,130,16032,1,0,0:0:0:0:
492,219,16157,1,0,0:0:0:0:
291,222,16282,1,0,0:0:0:0:
437,95,16407,1,0,0:0:0:0:
223,270,16532,5,0,0:0:0:0:
223,270,16657,2,0,B|216:214|166:211|155:161,1,129.999994049073
368,12,16907,2,0,B|375:68|425:71|436:121,1,129.999994049073
392,272,17157,1,0,0:0:0:0:
308,140,17282,1,0,0:0:0:0:
368,12,17407,1,0,0:0:0:0:
308,140,17532,1,0,0:0:0:0:
392,272,17657,1,0,0:0:0:0:
392,272,17719,1,0,0:0:0:0:
392,272,17782,2,0,P|320:264|256:272,1,129.999994049073
229,64,18032,1,0,0:0:0:0:
91,247,18157,6,0,L|182:121,1,129.999994049073
78,218,18407,2,0,L|131:80,1,129.999994049073
63,183,18657,2,0,L|76:32,1,129.999994049073
229,64,18907,1,0,0:0:0:0:
358,150,19032,1,0,0:0:0:0:
156,110,19157,1,0,0:0:0:0:
310,89,19282,1,0,0:0:0:0:
144,188,19407,1,0,0:0:0:0:
229,64,19532,1,0,0:0:0:0:
358,150,19657,5,0,0:0:0:0:
358,150,19719,1,0,0:0:0:0:
358,150,19782,1,0,0:0:0:0:
330,251,19907,2,0,P|410:222|501:258,1,129.999994049073
254,189,20157,2,0,P|252:126|220:50,2,129.999994049073
268,320,20532,1,0,0:0:0:0:
148,298,20657,5,0,0:0:0:0:
227,241,20782,1,0,0:0:0:0:
114,203,20907,1,0,0:0:0:0:
266,179,21032,1,0,0:0:0:0:
88,115,21157,1,0,0:0:0:0:
244,55,21282,5,0,0:0:0:0:
244,55,21344,1,0,0:0:0:0:
244,55,21407,2,0,P|301:121|359:152,1,129.999994049073
456,248,21657,2,0,P|404:284|336:300,1,129.999994049073
56,136,21907,2,0,P|108:100|176:84,1,129.999994049073
443,125,22157,6,0,P|467:197|439:273,1,129.999994049073
68,258,22407,2,0,P|44:186|72:110,1,129.999994049073
159,16,22657,1,0,0:0:0:0:
131,169,22782,1,0,0:0:0:0:
62,28,22907,1,0,0:0:0:0:
195,108,23032,1,0,0:0:0:0:
55,135,23157,1,0,0:0:0:0:
195,108,23282,1,0,0:0:0:0:
210,260,23407,5,0,0:0:0:0:
210,260,23469,1,0,0:0:0:0:
210,260,23532,2,0,P|276:219|302:174,1,129.999994049073
326,63,23782,1,0,0:0:0:0:
407,9,23907,1,0,0:0:0:0:
412,107,24032,1,0,0:0:0:0:
301,161,24157,5,0,0:0:0:0:
275,171,24219,1,0,0:0:0:0:
250,182,24282,1,0,0:0:0:0:
225,192,24344,1,0,0:0:0:0:
200,203,24407,1,0,0:0:0:0:
102,81,24532,5,0,0:0:0:0:
102,81,24657,2,0,B|99:16|99:16|144:62,1,129.999994049073
225,192,24907,1,0,0:0:0:0:
257,48,25032,1,0,0:0:0:0:
225,192,25157,2,0,P|292:222|377:211,1,129.999994049073
410,81,25407,1,0,0:0:0:0:
410,81,25532,1,0,0:0:0:0:
286,192,25657,6,0,P|219:223|134:212,1,129.999994049073
226,113,25907,2,0,B|275:60|275:60|353:31,1,129.999994049073
285,271,26157,2,0,B|236:324|236:324|158:353,1,129.999994049073
40,205,26407,2,0,B|86:216|86:216|121:189|121:189|164:195,1,129.999994049073
317,188,26657,5,0,0:0:0:0:
213,70,26782,1,0,0:0:0:0:
251,221,26907,1,0,0:0:0:0:
280,110,27032,1,0,0:0:0:0:
180,229,27157,1,0,0:0:0:0:
135,79,27282,1,0,0:0:0:0:
264,166,27407,1,0,0:0:0:0:
110,219,27532,1,0,0:0:0:0:
213,70,27657,2,0,L|346:25,1,129.999994049073
329,122,27907,2,0,L|471:110,1,129.999994049073
315,216,28157,5,0,0:0:0:0:
341,220,28219,1,0,0:0:0:0:
368,225,28282,1,0,0:0:0:0:
395,230,28344,1,0,0:0:0:0:
422,235,28407,1,0,0:0:0:0:
458,111,28532,5,0,0:0:0:0:
458,111,28657,2,0,P|443:179|422:238,1,129.999994049073
329,122,28907,1,0,0:0:0:0:
315,216,29032,1,0,0:0:0:0:
303,306,29157,2,0,P|221:285|155:292,1,129.999994049073
135,182,29407,2,0,P|188:131|225:68,1,129.999994049073
329,122,29657,2,0,P|360:177|405:227,1,129.999994049073
303,306,29907,5,0,0:0:0:0:
303,306,29969,1,0,0:0:0:0:
303,306,30032,2,0,B|348:257|348:257|411:223,1,129.999994049073
401,56,30282,1,0,0:0:0:0:
346,202,30407,1,0,0:0:0:0:
234,92,30532,1,0,0:0:0:0:
228,187,30657,6,0,L|210:256,1,64.9999970245363
136,142,30782,2,0,L|119:79,1,64.9999970245363
233,91,30907,2,0,L|252:29,1,64.9999970245363
316,144,31032,2,0,L|351:213,1,64.9999970245363
406,96,31157,2,0,L|423:31,1,64.9999970245363
421,199,31282,2,0,L|376:286,1,64.9999970245363
273,248,31407,2,0,L|302:305,1,64.9999970245363
179,195,31532,2,0,L|129:277,1,64.9999970245363
102,316,31657,1,0,0:0:0:0:
67,163,31782,6,0,L|86:249,1,64.9999970245363
102,316,31907,1,0,0:0:0:0:
67,163,32032,1,0,0:0:0:0:
157,107,32157,5,0,0:0:0:0:
162,129,32219,1,0,0:0:0:0:
168,151,32282,1,0,0:0:0:0:
173,173,32344,1,0,0:0:0:0:
179,195,32407,1,0,0:0:0:0:
277,50,32657,6,0,P|308:149|382:205,1,200
432,314,33032,1,0,0:0:0:0:
432,314,33157,2,0,P|331:292|236:311,1,200
146,231,33532,2,0,P|96:199|57:191,1,100
456,190,33907,1,0,0:0:0:0:
56,190,34157,1,0,0:0:0:0:
146,231,34657,6,0,P|185:137|264:83,1,200
384,83,35032,1,0,0:0:0:0:
384,83,35157,2,0,P|348:179|389:271,1,200
263,264,35532,1,0,0:0:0:0:
263,264,35657,1,0,0:0:0:0:
56,49,35907,1,0,0:0:0:0:
427,183,36157,1,0,0:0:0:0:
427,183,36657,6,0,P|346:126|326:28,1,200
300,37,37032,1,0,0:0:0:0:
300,37,37157,2,0,P|278:132|198:188,1,200
214,205,37532,1,0,0:0:0:0:
214,205,37657,2,0,P|264:192|311:207,1,100
327,334,37907,1,0,0:0:0:0:
185,50,38157,1,0,0:0:0:0:
355,52,38657,6,0,P|332:150|355:248,1,200
233,245,39032,1,0,0:0:0:0:
233,245,39157,2,0,P|131:254|41:295,1,200
74,178,39532,1,0,0:0:0:0:
173,325,39657,2,0,L|251:219,1,100
133,97,39907,2,0,L|55:203,1,100
318,176,40157,2,0,P|293:126|253:87,1,100
411,73,40657,5,0,0:0:0:0:
411,73,40907,1,0,0:0:0:0:
411,73,41157,2,0,B|351:84|377:236|207:139|224:256|200:280,1,300
104,124,41657,1,0,0:0:0:0:
396,220,41907,1,0,0:0:0:0:
201,278,42157,2,0,B|223:255|206:138|376:235|350:83|410:72,1,300
200,36,42657,6,0,B|164:66|164:66|152:118,1,100
201,278,42907,2,0,B|236:247|236:247|248:195,1,100
252,96,43157,2,0,P|340:128|448:116,1,200
444,117,43532,1,0,0:0:0:0:
348,276,43657,2,0,P|320:232|284:200,1,100
138,115,43907,1,0,0:0:0:0:
138,115,44032,2,0,L|206:27,2,100
357,154,44657,5,0,0:0:0:0:
286,224,44907,1,0,0:0:0:0:
214,153,45157,2,0,B|158:126|158:126|108:157|108:157|1:107|55:279,1,300
214,153,45657,1,0,0:0:0:0:
214,153,45907,1,0,0:0:0:0:
336,27,46157,2,0,B|336:148|294:177|294:177|327:207|327:207|245:274,1,300
150,294,46657,1,0,0:0:0:0:
276,35,46907,1,0,0:0:0:0:
123,127,47157,6,0,B|197:161|197:161|260:115|339:130|339:130|386:61,1,300
339,234,47657,2,0,L|443:176,1,100
179,52,47907,2,0,L|285:95,1,100
156,212,48157,5,0,0:0:0:0:
186,205,48219,1,0,0:0:0:0:
216,197,48282,1,0,0:0:0:0:
245,186,48344,1,0,0:0:0:0:
273,172,48407,1,0,0:0:0:0:
300,155,48469,1,0,0:0:0:0:
325,137,48532,1,0,0:0:0:0:
348,116,48594,1,0,0:0:0:0:
369,92,48657,6,0,P|415:144|486:189,1,129.999994049073
312,239,48907,2,0,P|238:255|187:279,1,129.999994049073
91,312,49157,1,0,0:0:0:0:
192,193,49282,1,0,0:0:0:0:
255,335,49407,1,0,0:0:0:0:
150,96,49532,1,0,0:0:0:0:
313,239,49657,2,0,P|352:186|378:117,1,129.999994049073
150,96,49907,2,0,P|111:149|85:218,1,129.999994049073
346,340,50157,2,0,P|385:287|411:218,1,129.999994049073
108,28,50407,2,0,P|69:81|43:150,1,129.999994049073
145,276,50657,5,0,0:0:0:0:
246,140,50782,1,0,0:0:0:0:
295,301,50907,1,0,0:0:0:0:
169,187,51032,1,0,0:0:0:0:
211,350,51157,1,0,0:0:0:0:
303,208,51282,1,0,0:0:0:0:
45,140,51407,6,0,B|92:88|92:88|147:58,1,129.999994049073
161,54,51594,1,0,0:0:0:0:
180,50,51657,1,0,0:0:0:0:
169,187,51782,1,0,0:0:0:0:
292,71,51907,2,0,L|427:2,1,129.999994049073
471,48,52157,2,0,L|466:230,1,129.999994049073
401,216,52407,2,0,L|257:122,1,129.999994049073
161,54,52657,5,0,0:0:0:0:
161,54,52719,1,0,0:0:0:0:
161,54,52782,1,0,0:0:0:0:
125,137,52907,1,0,0:0:0:0:
85,219,53032,2,0,L|30:344,1,129.999994049073
205,164,53282,2,0,L|252:289,1,129.999994049073
359,49,53532,1,0,0:0:0:0:
190,57,53657,1,0,0:0:0:0:
190,57,53719,1,0,0:0:0:0:
190,57,53782,1,0,0:0:0:0:
334,144,53907,5,0,0:0:0:0:
456,28,54032,1,0,0:0:0:0:
287,31,54157,1,0,0:0:0:0:
372,248,54282,1,0,0:0:0:0:
474,113,54407,1,0,0:0:0:0:
243,154,54532,1,0,0:0:0:0:
365,353,54657,2,0,P|415:310|451:258,1,129.999994049073
236,25,54907,2,0,P|231:90|242:152,1,129.999994049073
95,307,55157,2,0,P|160:303|221:285,1,129.999994049073
316,242,55407,5,0,0:0:0:0:
216,157,55532,1,0,0:0:0:0:
395,233,55657,1,0,0:0:0:0:
140,180,55782,1,0,0:0:0:0:
352,81,55907,1,0,0:0:0:0:
221,284,56032,1,0,0:0:0:0:
192,35,56157,1,0,0:0:0:0:
198,65,56219,1,0,0:0:0:0:
204,96,56282,1,0,0:0:0:0:
210,126,56344,1,0,0:0:0:0:
216,157,56407,1,0,0:0:0:0:
352,81,56532,1,0,0:0:0:0:
312,322,56657,5,0,0:0:0:0:
48,68,56907,2,0,B|72:120|48:156|88:184,1,100
148,104,57157,1,0,0:0:0:0:
320,68,57407,2,0,L|368:28,1,50
232,128,57532,2,0,L|176:200,1,50
336,164,57657,2,0,L|376:214,1,50
104,308,57907,1,0,0:0:0:0:
320,68,58157,1,0,0:0:0:0:
320,68,58657,6,0,B|320:128|320:128|296:160,1,100
80,112,58907,2,0,L|48:72,1,50
144,40,59032,2,0,L|176:-12,1,50
234,112,59157,1,0,0:0:0:0:
234,112,59407,2,0,B|294:68|294:68|354:68,1,100
436,196,59657,2,0,B|376:152|376:152|316:152,1,100
240,276,59907,2,0,P|272:236|280:188,1,100
158,52,60157,2,0,P|188:92|236:112,1,100
264,116,60657,5,0,0:0:0:0:
92,96,60907,1,0,0:0:0:0:
92,96,61032,1,0,0:0:0:0:
92,96,61157,2,0,B|90:151|90:151|139:210,1,100
205,196,61407,1,0,0:0:0:0:
118,185,61532,1,0,0:0:0:0:
290,205,61657,2,0,B|292:150|292:150|243:91,1,100
134,264,61907,2,0,P|177:233|208:187,1,100
368,53,62157,1,0,0:0:0:0:
100,108,62657,6,0,L|212:108,1,100
296,179,62907,1,0,0:0:0:0:
383,97,63032,1,0,0:0:0:0:
200,212,63157,2,0,L|88:212,1,100
148,321,63407,1,0,0:0:0:0:
232,128,63532,1,0,0:0:0:0:
296,279,63657,2,0,L|296:174,1,100
74,112,63907,2,0,P|126:109|176:91,1,100
393,160,64157,2,0,P|341:163|291:181,1,100
116,35,64657,5,0,0:0:0:0:
141,115,64907,1,0,0:0:0:0:
167,194,65157,2,0,B|239:182|239:182|228:130|246:100|221:76|179:38|179:38|102:34,1,300
56,114,65657,5,0,0:0:0:0:
337,125,65907,1,0,0:0:0:0:
144,278,66157,2,0,B|163:211|123:142|255:128|224:46|46:23|259:65,1,300
262,73,66657,1,0,0:0:0:0:
67,212,66907,1,0,0:0:0:0:
254,246,67157,2,0,B|235:171|235:171|186:197|186:197|194:104|194:104|95:114|80:132,1,300
314,72,67657,6,0,L|441:127,1,100
334,162,67907,2,0,L|404:253,1,100
296,233,68157,2,0,L|323:348,1,100
100,81,68657,6,0,B|127:128|127:128|137:206,1,100
208,272,68907,2,0,B|257:266|257:266|297:231,1,100
331,49,69157,2,0,B|235:67|235:67|239:150|134:170|92:63,1,300
66,103,69657,5,0,0:0:0:0:
85,247,69907,2,0,P|108:210|161:179,1,100
332,65,70157,2,0,B|279:93|324:136|236:188|181:93|181:93|152:190,1,300
172,216,70657,6,0,P|251:223|288:253,1,100
419,47,70907,2,0,B|372:75|372:75|342:114,1,100
355,303,71157,2,0,B|334:241|334:241|275:208|275:208|313:176|206:137|212:61,1,300
111,133,71657,5,0,0:0:0:0:
394,75,71907,1,0,0:0:0:0:
110,37,72157,1,0,0:0:0:0:
110,37,72282,2,0,B|165:58|222:39|222:39|211:145,1,200
197,170,72657,6,0,B|243:198|243:198|282:155|374:170|374:170|395:243|395:243|327:272|328:350|328:350|235:249,1,525.000020027161
141,247,73657,2,0,B|138:199|138:199|205:204|207:128|207:128|143:104|239:59|239:59|299:88|313:22|313:22|406:78|406:78|381:136,1,525.000020027161
393,218,74657,2,0,B|393:113|393:113|346:79|303:126|303:126|255:83|202:125|202:125|208:27|208:27|293:3|313:40,1,525.000020027161
300,73,75657,2,0,B|245:118|245:118|290:181|193:202|193:202|264:261|264:261|332:234|363:187|385:151|385:151|395:242,1,525.000020027161
