osu file format v14

[General]
AudioFilename: audio.mp3
AudioLeadIn: 0
PreviewTime: -1
Countdown: 1
SampleSet: None
StackLeniency: 0.2
Mode: 0
LetterboxInBreaks: 0
WidescreenStoryboard: 0

[Editor]
DistanceSpacing: 1.2
BeatDivisor: 4
GridSize: 4
TimelineZoom: 2.599999

[Metadata]
Title:Kokou no Sousei
TitleUnicode:Kokou no Sousei
Artist:Yousei Teikoku
ArtistUnicode:Yousei Teikoku
Creator:Paski
Version:Really Stream Intense
Source:
Tags:yui mirai nikki people just cant stream over 200 BPM lmao
BeatmapID:1477836
BeatmapSetID:697682

[Difficulty]
HPDrainRate:3
CircleSize:3.8
OverallDifficulty:10
ApproachRate:10
SliderMultiplier:1.7
SliderTickRate:4

[Events]
//Background and Video events
0,0,"fantasy_landscape_castle_wallpaper_free_hd.jpg",0,0
//Break Periods
//Storyboard Layer 0 (Background)
//Storyboard Layer 1 (Fail)
//Storyboard Layer 2 (Pass)
//Storyboard Layer 3 (Foreground)
//Storyboard Sound Samples

[TimingPoints]
657,250,4,3,0,50,1,0
16657,-100,4,3,0,50,0,1
32657,-100,4,3,0,50,0,0
48657,-100,4,3,0,50,0,1
56907,-100,4,3,0,50,0,0
116657,-100,4,3,0,50,0,1
136657,-100,4,3,0,50,0,0

[HitObjects]
60,52,657,6,4,L|96:116,3,42.5,12|4|4|4,3:3|3:3|3:3|3:3,3:3:0:0:
108,124,907,2,4,L|144:60,3,42.5,4|4|4|4,3:3|3:3|3:3|3:3,3:3:0:0:
136,44,1157,1,4,3:3:0:0:
167,62,1219,1,4,3:3:0:0:
201,75,1282,1,4,3:3:0:0:
236,82,1344,1,4,3:3:0:0:
273,84,1407,1,4,3:3:0:0:
309,79,1469,1,4,3:3:0:0:
343,68,1532,1,4,3:3:0:0:
376,51,1594,1,4,3:3:0:0:
409,37,1657,6,0,L|445:101,3,42.5,8|0|0|0,3:3|3:3|3:3|3:3,3:3:0:0:
448,104,1907,1,4,3:3:0:0:
440,123,1969,1,4,3:3:0:0:
432,143,2032,1,4,3:3:0:0:
425,163,2094,1,4,3:3:0:0:
416,184,2157,5,4,3:3:0:0:
372,205,2219,1,4,3:3:0:0:
325,215,2282,1,4,3:3:0:0:
276,214,2344,1,4,3:3:0:0:
232,192,2407,1,4,3:3:0:0:
183,192,2469,1,4,3:3:0:0:
141,215,2532,1,4,3:3:0:0:
115,256,2594,1,4,3:3:0:0:
108,304,2657,6,0,L|144:368,3,42.5,8|0|0|0,3:3|3:3|3:3|3:3,3:3:0:0:
168,344,2907,5,4,3:3:0:0:
193,332,2969,1,4,3:3:0:0:
219,320,3032,1,4,3:3:0:0:
245,309,3094,1,4,3:3:0:0:
280,360,3157,5,4,3:3:0:0:
305,348,3219,1,4,3:3:0:0:
331,336,3282,1,4,3:3:0:0:
357,325,3344,1,4,3:3:0:0:
385,313,3407,1,0,3:3:0:0:
429,352,3469,1,0,3:3:0:0:
482,324,3532,1,0,3:3:0:0:
474,265,3594,1,0,3:3:0:0:
415,252,3657,2,8,L|355:224,1,42.5,8|0,3:3|3:3,3:3:0:0:
276,184,3907,1,0,3:3:0:0:
144,132,4157,5,0,3:3:0:0:
92,240,4282,1,0,3:3:0:0:
56,152,4407,1,0,3:3:0:0:
176,216,4532,1,0,3:3:0:0:
144,132,4657,1,0,3:3:0:0:
174,123,4719,1,0,3:3:0:0:
205,114,4782,1,0,3:3:0:0:
236,106,4844,1,0,3:3:0:0:
266,97,4907,1,0,3:3:0:0:
291,84,4969,1,0,3:3:0:0:
296,41,5032,1,0,3:3:0:0:
263,16,5094,1,0,3:3:0:0:
223,32,5157,1,0,3:3:0:0:
217,74,5219,1,0,3:3:0:0:
252,100,5282,5,0,3:3:0:0:
302,120,5344,1,0,3:3:0:0:
309,176,5407,1,0,3:3:0:0:
266,209,5469,1,0,3:3:0:0:
214,188,5532,1,0,3:3:0:0:
160,200,5594,1,0,3:3:0:0:
127,245,5657,6,0,P|115:271|120:323,2,42.5,0|0|0,3:3|3:3|3:3,3:3:0:0:
176,348,5907,6,0,P|155:343|136:333,1,42.5,0|0,3:3|3:3,3:3:0:0:
73,270,6032,2,0,P|93:274|112:284,1,42.5,0|0,3:3|3:3,3:3:0:0:
230,323,6157,6,0,P|209:318|190:308,1,42.5,0|0,3:3|3:3,3:3:0:0:
127,245,6282,2,0,P|147:249|166:259,1,42.5,0|0,3:3|3:3,3:3:0:0:
284,300,6407,6,0,P|263:295|244:285,1,42.5,0|0,3:3|3:3,3:3:0:0:
181,222,6532,2,0,P|201:226|220:236,1,42.5,0|0,3:3|3:3,3:3:0:0:
332,272,6657,5,0,3:3:0:0:
352,277,6719,1,0,3:3:0:0:
373,278,6782,1,0,3:3:0:0:
394,275,6844,1,0,3:3:0:0:
414,268,6907,1,0,3:3:0:0:
432,257,6969,1,0,3:3:0:0:
448,243,7032,1,0,3:3:0:0:
461,226,7094,1,0,3:3:0:0:
470,206,7157,1,0,3:3:0:0:
476,186,7219,1,0,3:3:0:0:
477,165,7282,1,0,3:3:0:0:
474,144,7344,1,0,3:3:0:0:
467,124,7407,1,0,3:3:0:0:
456,105,7469,1,0,3:3:0:0:
442,89,7532,1,0,3:3:0:0:
425,77,7594,1,0,3:3:0:0:
406,67,7657,1,0,3:3:0:0:
336,32,7907,5,0,3:3:0:0:
305,62,7969,1,0,3:3:0:0:
275,92,8032,1,0,3:3:0:0:
245,122,8094,1,0,3:3:0:0:
216,84,8157,5,0,3:3:0:0:
185,114,8219,1,0,3:3:0:0:
155,144,8282,1,0,3:3:0:0:
125,174,8344,1,0,3:3:0:0:
160,208,8407,5,0,3:3:0:0:
129,238,8469,1,0,3:3:0:0:
99,268,8532,1,0,3:3:0:0:
69,298,8594,1,0,3:3:0:0:
104,324,8657,5,0,3:3:0:0:
103,311,8719,1,0,3:3:0:0:
102,299,8782,1,0,3:3:0:0:
102,287,8844,1,0,3:3:0:0:
101,275,8907,1,0,3:3:0:0:
101,263,8969,1,0,3:3:0:0:
100,251,9032,1,0,3:3:0:0:
132,228,9094,1,0,3:3:0:0:
168,200,9157,5,0,3:3:0:0:
167,187,9219,1,0,3:3:0:0:
166,175,9282,1,0,3:3:0:0:
166,163,9344,1,0,3:3:0:0:
165,151,9407,1,0,3:3:0:0:
165,139,9469,1,0,3:3:0:0:
164,127,9532,1,0,3:3:0:0:
192,92,9594,1,0,3:3:0:0:
228,64,9657,5,0,3:3:0:0:
251,59,9719,1,0,3:3:0:0:
274,66,9782,1,0,3:3:0:0:
292,82,9844,1,0,3:3:0:0:
301,104,9907,1,0,3:3:0:0:
299,128,9969,1,0,3:3:0:0:
286,149,10032,1,0,3:3:0:0:
266,162,10094,1,0,3:3:0:0:
248,176,10157,6,0,P|216:192|180:188,3,42.5,0|0|0|0,3:3|3:3|3:3|3:3,3:3:0:0:
168,224,10407,6,0,P|200:240|236:236,3,42.5,0|0|0|0,3:3|3:3|3:3|3:3,3:3:0:0:
252,248,10657,5,0,3:3:0:0:
336,248,10782,1,0,3:3:0:0:
420,248,10907,1,0,3:3:0:0:
476,184,11032,1,0,3:3:0:0:
376,180,11157,5,0,3:3:0:0:
275,180,11282,1,0,3:3:0:0:
174,180,11407,1,0,3:3:0:0:
107,103,11532,1,0,3:3:0:0:
208,104,11657,5,0,3:3:0:0:
328,104,11782,1,0,3:3:0:0:
327,223,11907,1,0,3:3:0:0:
208,223,12032,1,0,3:3:0:0:
264,164,12157,5,0,3:3:0:0:
365,265,12282,1,0,3:3:0:0:
264,365,12407,1,0,3:3:0:0:
163,264,12532,1,0,3:3:0:0:
264,164,12657,5,0,3:3:0:0:
284,185,12719,1,0,3:3:0:0:
305,206,12782,1,0,3:3:0:0:
326,227,12844,1,0,3:3:0:0:
347,248,12907,1,0,3:3:0:0:
368,270,12969,1,0,3:3:0:0:
351,290,13032,1,0,3:3:0:0:
329,309,13094,1,0,3:3:0:0:
307,329,13157,1,0,3:3:0:0:
284,349,13219,1,0,3:3:0:0:
262,369,13282,1,0,3:3:0:0:
244,384,13344,1,0,3:3:0:0:
224,361,13407,1,0,3:3:0:0:
205,339,13469,1,0,3:3:0:0:
186,316,13532,1,0,3:3:0:0:
166,294,13594,1,0,3:3:0:0:
150,269,13657,5,0,3:3:0:0:
161,241,13719,1,0,3:3:0:0:
166,212,13782,1,0,3:3:0:0:
164,182,13844,1,0,3:3:0:0:
156,154,13907,1,0,3:3:0:0:
142,127,13969,1,0,3:3:0:0:
124,104,14032,1,0,3:3:0:0:
98,89,14094,1,0,3:3:0:0:
124,88,14157,5,0,3:3:0:0:
153,88,14220,1,0,3:3:0:0:
183,88,14282,1,0,3:3:0:0:
212,88,14345,1,0,3:3:0:0:
248,136,14407,5,0,3:3:0:0:
277,136,14469,1,0,3:3:0:0:
307,136,14532,1,0,3:3:0:0:
336,136,14595,1,0,3:3:0:0:
374,181,14657,6,0,L|422:181,7,42.5,0|0|0|0|0|0|0|0,3:3|3:3|3:3|3:3|3:3|3:3|3:3|3:3,3:3:0:0:
464,188,15157,6,0,L|430:221,7,42.5,0|0|0|0|0|0|0|0,3:3|3:3|3:3|3:3|3:3|3:3|3:3|3:3,3:3:0:0:
392,264,15657,5,0,3:3:0:0:
302,330,15782,1,0,3:3:0:0:
191,331,15907,1,0,3:3:0:0:
99,267,16032,1,0,3:3:0:0:
96,120,16157,5,0,3:3:0:0:
186,54,16282,1,0,3:3:0:0:
389,117,16407,1,0,3:3:0:0:
297,53,16532,1,0,3:3:0:0:
186,54,16657,6,0,L|160:88,7,42.5000016212464,0|0|0|0|0|0|0|0,3:3|3:3|3:3|3:3|3:3|3:3|3:3|3:3,3:3:0:0:
144,116,17157,1,0,3:3:0:0:
127,138,17219,1,0,3:3:0:0:
110,161,17282,1,0,3:3:0:0:
94,184,17344,1,0,3:3:0:0:
76,212,17407,5,0,3:3:0:0:
96,188,17469,1,0,3:3:0:0:
120,169,17532,1,0,3:3:0:0:
146,153,17594,1,0,3:3:0:0:
175,143,17657,1,0,3:3:0:0:
206,138,17719,1,0,3:3:0:0:
237,138,17782,1,0,3:3:0:0:
267,143,17844,1,0,3:3:0:0:
296,154,17907,1,0,3:3:0:0:
323,169,17969,1,0,3:3:0:0:
347,189,18032,2,0,P|361:204|383:242,1,42.5,0|0,3:3|3:3,3:3:0:0:
428,308,18157,5,0,3:3:0:0:
401,339,18219,1,0,3:3:0:0:
360,346,18282,2,0,P|341:337|307:309,1,42.5,0|0,3:3|3:3,3:3:0:0:
269,238,18407,5,0,3:3:0:0:
296,207,18469,1,0,3:3:0:0:
337,200,18532,2,0,P|356:209|390:240,1,42.5,0|0,3:3|3:3,3:3:0:0:
428,308,18657,6,0,L|396:340,7,42.5,0|0|0|0|0|0|0|0,3:3|3:3|3:3|3:3|3:3|3:3|3:3|3:3,3:3:0:0:
372,360,19157,5,0,3:3:0:0:
347,360,19219,1,0,3:3:0:0:
323,360,19282,1,0,3:3:0:0:
299,360,19344,1,0,3:3:0:0:
274,360,19407,1,0,3:3:0:0:
250,360,19469,1,0,3:3:0:0:
226,360,19532,1,0,3:3:0:0:
202,360,19594,1,0,3:3:0:0:
226,360,19657,5,0,3:3:0:0:
251,360,19719,1,0,3:3:0:0:
275,360,19782,1,0,3:3:0:0:
299,360,19844,1,0,3:3:0:0:
324,360,19907,1,0,3:3:0:0:
348,360,19969,1,0,3:3:0:0:
372,360,20032,1,0,3:3:0:0:
396,360,20094,1,0,3:3:0:0:
416,360,20157,5,2,3:3:0:0:
454,305,20240,5,2,3:3:0:0:
421,246,20323,5,2,3:3:0:0:
360,212,20407,5,2,3:3:0:0:
322,157,20490,5,2,3:3:0:0:
355,98,20573,5,2,3:3:0:0:
424,112,20657,5,0,3:3:0:0:
414,127,20719,1,0,3:3:0:0:
404,142,20782,1,0,3:3:0:0:
395,158,20844,1,0,3:3:0:0:
385,173,20907,1,0,3:3:0:0:
375,189,20969,1,0,3:3:0:0:
366,204,21032,1,0,3:3:0:0:
356,220,21094,1,0,3:3:0:0:
344,240,21157,5,0,3:3:0:0:
172,152,21282,1,0,3:3:0:0:
356,189,21407,5,0,3:3:0:0:
163,199,21532,1,0,3:3:0:0:
341,139,21657,5,0,3:3:0:0:
179,244,21782,1,0,3:3:0:0:
304,104,21907,5,0,3:3:0:0:
216,276,22032,1,0,3:3:0:0:
304,104,22157,5,0,3:3:0:0:
216,276,22282,1,0,3:3:0:0:
304,104,22407,5,0,3:3:0:0:
216,276,22532,1,0,3:3:0:0:
304,104,22657,5,0,3:3:0:0:
287,81,22719,1,0,3:3:0:0:
270,58,22782,1,0,3:3:0:0:
253,35,22844,1,0,3:3:0:0:
236,12,22907,5,0,3:3:0:0:
264,12,22969,1,0,3:3:0:0:
293,13,23032,1,0,3:3:0:0:
322,13,23094,1,0,3:3:0:0:
352,16,23157,6,0,L|352:76,3,42.5,0|0|0|0,3:3|3:3|3:3|3:3,3:3:0:0:
400,96,23407,6,0,L|400:156,3,42.5,0|0|0|0,3:3|3:3|3:3|3:3,3:3:0:0:
400,168,23657,1,0,3:3:0:0:
329,207,23782,1,0,3:3:0:0:
258,163,23907,1,0,3:3:0:0:
188,125,24032,1,0,3:3:0:0:
118,165,24157,5,0,3:3:0:0:
160,200,24240,5,0,3:3:0:0:
216,199,24323,5,0,3:3:0:0:
258,163,24406,5,0,3:3:0:0:
301,127,24490,5,0,3:3:0:0:
357,126,24573,5,0,3:3:0:0:
400,162,24657,5,0,3:3:0:0:
414,181,24719,1,0,3:3:0:0:
422,204,24782,1,0,3:3:0:0:
421,228,24844,1,0,3:3:0:0:
412,250,24907,1,0,3:3:0:0:
396,268,24969,1,0,3:3:0:0:
374,279,25032,1,0,3:3:0:0:
350,283,25094,1,0,3:3:0:0:
324,284,25157,5,0,3:3:0:0:
331,293,25219,1,0,3:3:0:0:
338,303,25282,1,0,3:3:0:0:
346,312,25344,1,0,3:3:0:0:
353,322,25407,1,0,3:3:0:0:
361,332,25469,1,0,3:3:0:0:
368,341,25532,1,0,3:3:0:0:
375,351,25594,1,0,3:3:0:0:
384,360,25657,5,0,3:3:0:0:
347,360,25719,1,0,3:3:0:0:
311,360,25782,1,0,3:3:0:0:
274,360,25844,1,0,3:3:0:0:
238,360,25907,1,0,3:3:0:0:
201,360,25969,1,0,3:3:0:0:
165,360,26032,1,0,3:3:0:0:
129,360,26094,1,0,3:3:0:0:
92,360,26157,6,0,L|52:324,1,42.5,0|0,3:3|3:3,3:3:0:0:
48,256,26282,6,0,L|88:220,1,42.5,0|0,3:3|3:3,3:3:0:0:
80,144,26407,6,0,L|40:108,1,42.5,0|0,3:3|3:3,3:3:0:0:
60,40,26532,6,0,L|100:4,1,42.5,0|0,3:3|3:3,3:3:0:0:
168,5,26657,5,0,3:3:0:0:
279,5,26782,1,0,3:3:0:0:
313,111,26907,1,0,3:3:0:0:
224,176,27032,1,0,3:3:0:0:
134,241,27157,5,0,3:3:0:0:
168,347,27282,1,0,3:3:0:0:
279,347,27407,1,0,3:3:0:0:
313,241,27532,1,0,3:3:0:0:
384,160,27657,5,0,3:3:0:0:
436,192,27740,5,0,3:3:0:0:
456,247,27823,5,0,3:3:0:0:
431,317,27907,5,0,3:3:0:0:
379,285,27990,5,0,3:3:0:0:
359,230,28073,5,0,3:3:0:0:
384,162,28157,5,0,3:3:0:0:
341,99,28240,5,0,3:3:0:0:
267,95,28323,5,0,3:3:0:0:
216,148,28407,5,0,3:3:0:0:
228,220,28490,5,0,3:3:0:0:
291,257,28573,5,0,3:3:0:0:
359,230,28657,5,0,3:3:0:0:
330,230,28719,1,0,3:3:0:0:
302,230,28782,1,0,3:3:0:0:
274,230,28844,1,0,3:3:0:0:
240,176,28907,5,0,3:3:0:0:
211,176,28969,1,0,3:3:0:0:
183,176,29032,1,0,3:3:0:0:
155,176,29094,1,0,3:3:0:0:
128,176,29157,6,0,L|96:208,3,42.5,0|0|0|0,3:3|3:3|3:3|3:3,3:3:0:0:
96,272,29407,2,0,L|128:240,3,42.5,0|0|0|0,3:3|3:3|3:3|3:3,3:3:0:0:
155,176,29657,5,0,3:3:0:0:
183,176,29719,1,0,3:3:0:0:
211,176,29782,1,0,3:3:0:0:
240,176,29844,1,0,3:3:0:0:
274,122,29907,5,0,3:3:0:0:
303,122,29969,1,0,3:3:0:0:
331,122,30032,1,0,3:3:0:0:
359,122,30094,1,0,3:3:0:0:
387,122,30157,6,0,L|419:90,3,42.5,0|0|0|0,3:3|3:3|3:3|3:3,3:3:0:0:
419,26,30407,2,0,L|387:58,3,42.5,0|0|0|0,3:3|3:3|3:3|3:3,3:3:0:0:
359,122,30657,5,0,3:3:0:0:
349,121,30719,1,0,3:3:0:0:
340,121,30782,1,0,3:3:0:0:
331,121,30844,1,0,3:3:0:0:
322,121,30907,1,0,3:3:0:0:
312,121,30969,1,0,3:3:0:0:
303,121,31032,1,0,3:3:0:0:
294,121,31094,1,0,3:3:0:0:
285,121,31157,5,0,3:3:0:0:
275,121,31219,1,0,3:3:0:0:
266,121,31282,1,0,3:3:0:0:
257,121,31344,1,0,3:3:0:0:
248,121,31407,1,0,3:3:0:0:
238,121,31469,1,0,3:3:0:0:
229,120,31532,1,0,3:3:0:0:
220,120,31594,1,0,3:3:0:0:
211,120,31657,5,0,3:3:0:0:
201,120,31719,1,0,3:3:0:0:
192,120,31782,1,0,3:3:0:0:
183,120,31844,1,0,3:3:0:0:
174,120,31907,1,0,3:3:0:0:
164,120,31969,1,0,3:3:0:0:
155,120,32032,1,0,3:3:0:0:
146,120,32094,1,0,3:3:0:0:
84,120,32157,5,0,3:3:0:0:
17,168,32240,5,0,3:3:0:0:
11,250,32323,5,0,3:3:0:0:
80,296,32406,5,0,3:3:0:0:
156,256,32490,5,0,3:3:0:0:
236,228,32573,5,0,3:3:0:0:
312,260,32656,5,0,3:3:0:0:
292,336,32907,5,0,3:3:0:0:
263,322,32969,1,0,3:3:0:0:
243,298,33032,1,0,3:3:0:0:
234,267,33094,1,0,3:3:0:0:
238,236,33157,1,0,3:3:0:0:
312,260,33407,5,0,3:3:0:0:
318,229,33469,1,0,3:3:0:0:
310,198,33532,1,0,3:3:0:0:
291,172,33594,1,0,3:3:0:0:
268,148,33657,2,0,L|226:123,3,42.5,0|0|0|0,3:3|3:3|3:3|3:3,3:3:0:0:
200,128,33907,2,0,L|163:149,3,42.5,0|0|0|0,3:3|3:3|3:3|3:3,3:3:0:0:
124,132,34157,1,0,3:3:0:0:
116,253,34407,5,0,3:3:0:0:
102,213,34469,1,0,3:3:0:0:
109,172,34532,1,0,3:3:0:0:
124,132,34594,1,0,3:3:0:0:
111,93,34657,1,0,3:3:0:0:
152,12,34907,5,0,3:3:0:0:
183,39,34969,1,0,3:3:0:0:
224,49,35032,1,0,3:3:0:0:
265,40,35094,1,0,3:3:0:0:
297,13,35157,1,0,3:3:0:0:
352,144,35407,5,0,3:3:0:0:
343,141,35469,1,0,3:3:0:0:
343,132,35532,1,0,3:3:0:0:
352,130,35594,1,0,3:3:0:0:
356,137,35657,2,0,L|392:176,3,42.5,0|0|0|0,3:3|3:3|3:3|3:3,3:3:0:0:
408,192,35907,5,0,3:3:0:0:
405,213,35969,1,0,3:3:0:0:
402,234,36032,1,0,3:3:0:0:
399,255,36094,1,0,3:3:0:0:
352,272,36157,5,0,3:3:0:0:
354,293,36219,1,0,3:3:0:0:
357,314,36282,1,0,3:3:0:0:
360,335,36344,1,0,3:3:0:0:
394,372,36407,1,0,3:3:0:0:
352,374,36469,1,0,3:3:0:0:
316,353,36532,1,0,3:3:0:0:
297,315,36594,1,0,3:3:0:0:
303,274,36657,6,0,L|320:224,7,42.5,0|0|0|0|0|0|0|0,3:3|3:3|3:3|3:3|3:3|3:3|3:3|3:3,3:3:0:0:
316,233,37157,2,0,L|299:182,7,42.5,0|0|0|0|0|0|0|0,3:3|3:3|3:3|3:3|3:3|3:3|3:3|3:3,3:3:0:0:
302,192,37657,2,0,L|251:175,1,42.5,0|0,3:3|3:3,3:3:0:0:
261,178,37907,2,0,L|210:194,3,42.5,0|0|0|0,3:3|3:3|3:3|3:3,3:3:0:0:
200,200,38157,5,0,3:3:0:0:
52,264,38282,1,0,3:3:0:0:
200,200,38407,1,0,3:3:0:0:
52,264,38532,1,0,3:3:0:0:
262,179,38657,6,0,L|290:147,7,42.5,0|0|0|0|0|0|0|0,3:3|3:3|3:3|3:3|3:3|3:3|3:3|3:3,3:3:0:0:
316,128,39157,1,0,3:3:0:0:
331,115,39219,1,0,3:3:0:0:
349,105,39282,1,0,3:3:0:0:
369,99,39344,1,0,3:3:0:0:
389,98,39407,1,0,3:3:0:0:
409,100,39469,1,0,3:3:0:0:
428,107,39532,1,0,3:3:0:0:
446,117,39594,1,0,3:3:0:0:
461,130,39657,1,0,3:3:0:0:
473,147,39719,1,0,3:3:0:0:
481,165,39782,1,0,3:3:0:0:
486,185,39844,1,0,3:3:0:0:
487,205,39907,1,0,3:3:0:0:
483,225,39969,1,0,3:3:0:0:
475,244,40032,1,0,3:3:0:0:
464,261,40094,1,0,3:3:0:0:
452,276,40157,6,0,L|416:300,3,42.5,0|0|0|0,3:3|3:3|3:3|3:3,3:3:0:0:
392,316,40407,1,0,3:3:0:0:
256,332,40657,5,0,3:3:0:0:
239,309,40719,1,0,3:3:0:0:
214,296,40782,1,0,3:3:0:0:
168,344,40907,1,0,3:3:0:0:
140,345,40969,1,0,3:3:0:0:
114,333,41032,1,0,3:3:0:0:
108,256,41157,5,0,3:3:0:0:
99,228,41219,1,0,3:3:0:0:
91,201,41282,1,0,3:3:0:0:
156,148,41407,5,0,3:3:0:0:
164,120,41469,1,0,3:3:0:0:
172,93,41532,1,0,3:3:0:0:
244,48,41657,5,0,3:3:0:0:
266,30,41719,1,0,3:3:0:0:
293,23,41782,1,0,3:3:0:0:
304,72,41907,5,0,3:3:0:0:
281,89,41969,1,0,3:3:0:0:
254,96,42032,1,0,3:3:0:0:
172,93,42157,5,0,3:3:0:0:
164,120,42220,1,0,3:3:0:0:
156,148,42282,1,0,3:3:0:0:
216,216,42407,5,0,3:3:0:0:
243,224,42470,1,0,3:3:0:0:
271,232,42532,1,0,3:3:0:0:
368,272,42657,5,0,3:3:0:0:
363,276,42719,1,0,3:3:0:0:
359,281,42782,1,0,3:3:0:0:
355,285,42844,1,0,3:3:0:0:
351,290,42907,1,0,3:3:0:0:
347,294,42969,1,0,3:3:0:0:
343,299,43032,1,0,3:3:0:0:
339,303,43094,1,0,3:3:0:0:
320,324,43157,5,0,3:3:0:0:
313,322,43219,1,0,3:3:0:0:
307,320,43282,1,0,3:3:0:0:
301,319,43344,1,0,3:3:0:0:
295,317,43407,1,0,3:3:0:0:
289,316,43469,1,0,3:3:0:0:
283,314,43532,1,0,3:3:0:0:
278,312,43594,1,0,3:3:0:0:
228,304,43657,5,0,3:3:0:0:
209,341,43719,1,0,3:3:0:0:
170,354,43782,1,0,3:3:0:0:
156,276,43907,5,0,3:3:0:0:
116,289,43970,1,0,3:3:0:0:
98,326,44032,1,0,3:3:0:0:
36,296,44157,5,0,3:3:0:0:
19,230,44240,5,0,3:3:0:0:
32,164,44323,5,0,3:3:0:0:
73,110,44407,5,0,3:3:0:0:
133,80,44490,5,0,3:3:0:0:
200,78,44573,5,0,3:3:0:0:
264,104,44657,6,0,P|200:80|200:64,1,85,0|0,3:3|3:3,3:3:0:0:
133,80,44907,2,0,P|80:88|76:124,1,85,0|0,3:3|3:3,3:3:0:0:
200,78,45157,5,0,3:3:0:0:
211,59,45219,1,0,3:3:0:0:
226,45,45282,1,0,3:3:0:0:
245,36,45344,1,0,3:3:0:0:
266,33,45407,1,0,3:3:0:0:
287,37,45469,1,0,3:3:0:0:
306,46,45532,1,0,3:3:0:0:
321,61,45594,1,0,3:3:0:0:
330,80,45657,5,0,3:3:0:0:
264,108,45907,1,0,3:3:0:0:
200,136,46157,5,0,3:3:0:0:
210,154,46219,1,0,3:3:0:0:
225,168,46282,1,0,3:3:0:0:
244,177,46344,1,0,3:3:0:0:
265,180,46407,1,0,3:3:0:0:
286,177,46469,1,0,3:3:0:0:
305,167,46532,1,0,3:3:0:0:
320,152,46594,1,0,3:3:0:0:
330,133,46657,5,0,3:3:0:0:
200,136,46907,1,0,3:3:0:0:
332,80,47157,2,0,L|376:56,3,42.5,0|0|0|0,3:3|3:3|3:3|3:3,3:3:0:0:
400,48,47407,2,0,L|437:68,3,42.5,0|0|0|0,3:3|3:3|3:3|3:3,3:3:0:0:
484,92,47657,5,0,3:3:0:0:
459,105,47719,1,0,3:3:0:0:
434,118,47782,1,0,3:3:0:0:
409,132,47844,1,0,3:3:0:0:
384,148,47907,5,0,3:3:0:0:
408,161,47969,1,0,3:3:0:0:
433,174,48032,1,0,3:3:0:0:
458,188,48094,1,0,3:3:0:0:
488,204,48157,6,0,L|488:260,3,42.5,0|0|0|0,3:3|3:3|3:3|3:3,3:3:0:0:
484,276,48407,5,0,3:3:0:0:
460,311,48469,1,0,3:3:0:0:
427,337,48532,2,0,P|391:355|360:348,1,42.5,0|0,3:3|3:3,3:3:0:0:
300,352,48657,5,0,3:3:0:0:
325,326,48719,1,0,3:3:0:0:
344,295,48782,1,0,3:3:0:0:
355,260,48844,1,0,3:3:0:0:
356,224,48907,1,0,3:3:0:0:
349,188,48969,1,0,3:3:0:0:
332,156,49032,1,0,3:3:0:0:
309,128,49094,1,0,3:3:0:0:
280,104,49157,1,0,3:3:0:0:
278,134,49219,1,0,3:3:0:0:
262,159,49282,1,0,3:3:0:0:
236,174,49344,1,0,3:3:0:0:
206,175,49407,1,0,3:3:0:0:
179,161,49469,1,0,3:3:0:0:
162,137,49532,1,0,3:3:0:0:
159,107,49594,1,0,3:3:0:0:
168,80,49657,5,0,3:3:0:0:
141,70,49719,1,0,3:3:0:0:
113,63,49782,1,0,3:3:0:0:
48,116,49907,5,0,3:3:0:0:
74,125,49969,1,0,3:3:0:0:
102,132,50032,1,0,3:3:0:0:
128,196,50157,5,0,3:3:0:0:
260,134,50282,1,0,3:3:0:0:
124,278,50407,1,0,3:3:0:0:
256,216,50532,1,0,3:3:0:0:
372,192,50657,5,0,3:3:0:0:
375,197,50719,1,0,3:3:0:0:
378,202,50782,1,0,3:3:0:0:
381,207,50844,1,0,3:3:0:0:
384,212,50907,1,0,3:3:0:0:
387,218,50969,1,0,3:3:0:0:
390,223,51032,1,0,3:3:0:0:
393,228,51094,1,0,3:3:0:0:
397,236,51157,1,0,3:3:0:0:
411,247,51219,1,0,3:3:0:0:
428,252,51282,1,0,3:3:0:0:
447,251,51344,1,0,3:3:0:0:
463,244,51407,1,0,3:3:0:0:
476,232,51469,1,0,3:3:0:0:
484,215,51532,1,0,3:3:0:0:
485,197,51594,1,0,3:3:0:0:
480,180,51657,6,0,L|448:128,1,42.5,0|0,3:3|3:3,3:3:0:0:
376,56,51782,2,0,L|408:108,1,42.5,0|0,3:3|3:3,3:3:0:0:
464,180,51907,6,0,L|432:128,1,42.5,0|0,3:3|3:3,3:3:0:0:
360,56,52032,2,0,L|392:108,1,42.5,0|0,3:3|3:3,3:3:0:0:
312,144,52157,6,0,L|364:113,1,42.5,0|0,3:3|3:3,3:3:0:0:
462,83,52282,2,0,L|409:113,1,42.5,0|0,3:3|3:3,3:3:0:0:
326,151,52407,6,0,L|378:120,1,42.5,0|0,3:3|3:3,3:3:0:0:
476,90,52532,2,0,L|423:120,1,42.5,0|0,3:3|3:3,3:3:0:0:
340,160,52657,5,0,3:3:0:0:
321,160,52719,1,0,3:3:0:0:
303,160,52782,1,0,3:3:0:0:
285,160,52844,1,0,3:3:0:0:
267,160,52907,1,0,3:3:0:0:
248,160,52969,1,0,3:3:0:0:
230,160,53032,1,0,3:3:0:0:
212,160,53094,1,0,3:3:0:0:
196,160,53157,5,0,3:3:0:0:
160,128,53219,1,0,3:3:0:0:
113,130,53282,1,0,3:3:0:0:
79,164,53344,1,0,3:3:0:0:
79,211,53407,1,0,3:3:0:0:
111,246,53469,1,0,3:3:0:0:
158,249,53532,1,0,3:3:0:0:
195,218,53594,1,0,3:3:0:0:
228,252,53657,5,0,3:3:0:0:
252,266,53719,1,0,3:3:0:0:
276,280,53782,1,0,3:3:0:0:
301,294,53844,1,0,3:3:0:0:
344,348,53907,5,0,3:3:0:0:
368,333,53969,1,0,3:3:0:0:
392,319,54032,1,0,3:3:0:0:
417,305,54094,1,0,3:3:0:0:
472,296,54157,5,0,3:3:0:0:
494,304,54219,1,0,3:3:0:0:
505,325,54282,1,0,3:3:0:0:
500,348,54344,1,0,3:3:0:0:
481,362,54407,1,0,3:3:0:0:
457,361,54469,1,0,3:3:0:0:
440,344,54532,1,0,3:3:0:0:
439,320,54594,1,0,3:3:0:0:
444,284,54657,2,0,L|452:232,7,42.5,0|0|0|0|0|0|0|0,3:3|3:3|3:3|3:3|3:3|3:3|3:3|3:3,3:3:0:0:
454,188,55157,2,0,L|426:136,7,42.5,0|0|0|0|0|0|0|0,3:3|3:3|3:3|3:3|3:3|3:3|3:3|3:3,3:3:0:0:
416,108,55657,5,0,3:3:0:0:
379,77,55719,1,0,3:3:0:0:
333,81,55782,1,0,3:3:0:0:
302,116,55844,1,0,3:3:0:0:
268,148,55907,1,0,3:3:0:0:
232,179,55969,1,0,3:3:0:0:
185,175,56032,1,0,3:3:0:0:
156,140,56094,1,0,3:3:0:0:
158,94,56157,5,0,3:3:0:0:
195,63,56219,1,0,3:3:0:0:
241,67,56282,1,0,3:3:0:0:
276,96,56344,1,0,3:3:0:0:
300,136,56407,1,0,3:3:0:0:
308,180,56469,1,0,3:3:0:0:
300,228,56532,1,0,3:3:0:0:
276,264,56594,1,0,3:3:0:0:
240,296,56657,1,0,3:3:0:0:
52,108,56907,5,0,3:3:0:0:
52,200,57032,1,0,3:3:0:0:
52,296,57157,1,0,3:3:0:0:
52,108,57407,1,0,3:3:0:0:
144,108,57532,1,0,3:3:0:0:
52,200,57657,1,0,3:3:0:0:
52,296,57907,1,0,3:3:0:0:
52,108,58157,1,0,3:3:0:0:
240,108,58657,5,0,3:3:0:0:
52,108,58907,1,0,3:3:0:0:
144,108,59032,1,0,3:3:0:0:
144,200,59157,1,0,3:3:0:0:
52,200,59407,1,0,3:3:0:0:
144,108,59532,1,0,3:3:0:0:
144,200,59657,1,0,3:3:0:0:
240,108,59907,1,0,3:3:0:0:
144,200,60157,1,0,3:3:0:0:
144,200,60282,1,0,3:3:0:0:
240,108,60657,6,0,L|296:108,3,42.5,0|0|0|0,3:3|3:3|3:3|3:3,3:3:0:0:
320,108,60907,5,0,3:3:0:0:
296,142,60969,1,0,3:3:0:0:
257,155,61032,1,0,3:3:0:0:
218,141,61094,1,0,3:3:0:0:
196,105,61157,1,0,3:3:0:0:
160,108,61407,5,0,3:3:0:0:
194,160,61469,1,0,3:3:0:0:
254,179,61532,1,0,3:3:0:0:
312,157,61594,1,0,3:3:0:0:
345,104,61657,1,0,3:3:0:0:
396,104,61907,5,0,3:3:0:0:
346,183,61969,1,0,3:3:0:0:
258,214,62032,1,0,3:3:0:0:
169,185,62094,1,0,3:3:0:0:
117,107,62157,1,0,3:3:0:0:
258,214,62657,2,0,L|192:192,3,42.5,0|0|0|0,3:3|3:3|3:3|3:3,3:3:0:0:
168,184,62907,1,0,3:3:0:0:
206,220,62969,1,0,3:3:0:0:
257,233,63032,1,0,3:3:0:0:
307,219,63094,1,0,3:3:0:0:
345,183,63157,1,0,3:3:0:0:
345,183,63219,1,0,3:3:0:0:
345,178,63282,1,0,3:3:0:0:
348,180,63344,1,0,3:3:0:0:
348,180,63407,5,0,3:3:0:0:
307,146,63469,1,0,3:3:0:0:
256,134,63532,1,0,3:3:0:0:
205,148,63594,1,0,3:3:0:0:
167,184,63657,1,0,3:3:0:0:
167,184,63719,1,0,3:3:0:0:
167,179,63782,1,0,3:3:0:0:
170,181,63844,1,0,3:3:0:0:
167,184,63907,1,0,3:3:0:0:
175,212,63969,1,0,3:3:0:0:
182,239,64032,1,0,3:3:0:0:
190,266,64094,1,0,3:3:0:0:
196,292,64157,5,0,3:3:0:0:
249,267,64240,5,0,3:3:0:0:
262,212,64323,5,0,3:3:0:0:
235,159,64407,5,0,3:3:0:0:
237,103,64490,5,0,3:3:0:0:
282,65,64573,5,0,3:3:0:0:
340,64,64656,5,0,3:3:0:0:
311,64,64718,1,0,3:3:0:0:
283,64,64781,1,0,3:3:0:0:
255,64,64843,1,0,3:3:0:0:
237,103,64907,5,0,3:3:0:0:
209,103,64969,1,0,3:3:0:0:
180,103,65032,1,0,3:3:0:0:
152,103,65094,1,0,3:3:0:0:
128,104,65157,1,0,3:3:0:0:
158,107,65219,1,0,3:3:0:0:
186,117,65282,1,0,3:3:0:0:
212,132,65344,1,0,3:3:0:0:
234,153,65407,1,0,3:3:0:0:
251,178,65469,1,0,3:3:0:0:
262,206,65532,1,0,3:3:0:0:
267,236,65594,1,0,3:3:0:0:
256,264,65657,5,0,3:3:0:0:
219,283,65719,1,0,3:3:0:0:
179,270,65782,2,0,P|140:252|132:240,1,42.5,0|0,3:3|3:3,3:3:0:0:
92,180,65907,5,0,3:3:0:0:
129,161,65969,1,0,3:3:0:0:
168,174,66032,2,0,P|188:178|205:190,1,42.5,0|0,3:3|3:3,3:3:0:0:
256,264,66157,5,0,3:3:0:0:
256,245,66219,1,0,3:3:0:0:
256,227,66282,1,0,3:3:0:0:
256,209,66344,1,0,3:3:0:0:
256,191,66407,1,0,3:3:0:0:
256,172,66469,1,0,3:3:0:0:
256,154,66532,1,0,3:3:0:0:
256,136,66594,1,0,3:3:0:0:
256,120,66657,5,0,3:3:0:0:
266,79,66719,1,0,3:3:0:0:
303,58,66782,2,0,P|342:41|356:43,1,42.5,0|0,3:3|3:3,3:3:0:0:
428,54,66907,5,0,3:3:0:0:
417,94,66969,1,0,3:3:0:0:
381,114,67032,2,0,P|363:126|343:130,1,42.5,0|0,3:3|3:3,3:3:0:0:
256,120,67157,5,0,3:3:0:0:
256,136,67220,1,0,3:3:0:0:
256,154,67282,1,0,3:3:0:0:
256,172,67345,1,0,3:3:0:0:
256,191,67407,1,0,3:3:0:0:
256,209,67470,1,0,3:3:0:0:
256,227,67532,1,0,3:3:0:0:
256,245,67595,1,0,3:3:0:0:
256,264,67657,6,0,L|256:312,2,42.5,0|0|0,3:3|3:3|3:3,3:3:0:0:
256,324,67907,5,0,3:3:0:0:
118,294,68032,1,0,3:3:0:0:
212,189,68157,1,0,3:3:0:0:
256,324,68282,5,0,3:3:0:0:
212,189,68407,1,0,3:3:0:0:
350,219,68532,1,0,3:3:0:0:
256,324,68657,5,0,3:3:0:0:
284,324,68719,1,0,3:3:0:0:
312,324,68782,1,0,3:3:0:0:
341,324,68844,1,0,3:3:0:0:
380,324,68907,5,0,3:3:0:0:
365,299,68969,1,0,3:3:0:0:
351,274,69032,1,0,3:3:0:0:
337,250,69094,1,0,3:3:0:0:
316,220,69157,5,0,3:3:0:0:
306,266,69219,1,0,3:3:0:0:
329,308,69282,1,0,3:3:0:0:
374,323,69344,1,0,3:3:0:0:
418,306,69407,1,0,3:3:0:0:
440,264,69469,1,0,3:3:0:0:
428,217,69532,1,0,3:3:0:0:
389,190,69594,1,0,3:3:0:0:
368,156,69657,5,0,3:3:0:0:
350,149,69719,1,0,3:3:0:0:
332,142,69782,1,0,3:3:0:0:
315,135,69844,1,0,3:3:0:0:
288,168,69907,5,0,3:3:0:0:
271,175,69969,1,0,3:3:0:0:
253,182,70032,1,0,3:3:0:0:
235,189,70094,1,0,3:3:0:0:
196,208,70157,5,0,3:3:0:0:
240,223,70219,1,0,3:3:0:0:
285,205,70282,1,0,3:3:0:0:
304,161,70344,1,0,3:3:0:0:
292,116,70407,1,0,3:3:0:0:
252,90,70469,1,0,3:3:0:0:
204,97,70532,1,0,3:3:0:0:
174,133,70594,1,0,3:3:0:0:
156,176,70657,5,0,3:3:0:0:
132,160,70719,1,0,3:3:0:0:
108,144,70782,1,0,3:3:0:0:
85,128,70844,1,0,3:3:0:0:
52,96,70907,5,0,3:3:0:0:
75,80,70969,1,0,3:3:0:0:
99,64,71032,1,0,3:3:0:0:
122,48,71094,1,0,3:3:0:0:
148,32,71157,5,0,3:3:0:0:
148,49,71219,1,0,3:3:0:0:
148,66,71282,1,0,3:3:0:0:
148,83,71344,1,0,3:3:0:0:
148,100,71407,1,0,3:3:0:0:
148,117,71469,1,0,3:3:0:0:
148,134,71532,1,0,3:3:0:0:
148,151,71594,1,0,3:3:0:0:
148,168,71657,1,0,3:3:0:0:
148,185,71719,1,0,3:3:0:0:
148,202,71782,1,0,3:3:0:0:
148,219,71844,1,0,3:3:0:0:
148,236,71907,1,0,3:3:0:0:
148,253,71969,1,0,3:3:0:0:
148,270,72032,1,0,3:3:0:0:
148,287,72094,1,0,3:3:0:0:
148,304,72157,5,0,3:3:0:0:
194,251,72240,5,0,3:3:0:0:
260,231,72323,5,0,3:3:0:0:
321,265,72406,5,0,3:3:0:0:
382,299,72490,5,0,3:3:0:0:
447,280,72573,5,0,3:3:0:0:
491,225,72656,5,0,3:3:0:0:
447,280,72907,1,0,3:3:0:0:
382,299,73157,1,0,3:3:0:0:
321,265,73407,1,0,3:3:0:0:
382,299,73657,1,0,3:3:0:0:
321,265,73907,1,0,3:3:0:0:
260,232,74157,1,0,3:3:0:0:
194,251,74407,1,0,3:3:0:0:
148,304,74657,5,0,3:3:0:0:
194,251,74907,1,0,3:3:0:0:
180,184,75157,1,0,3:3:0:0:
140,128,75407,1,0,3:3:0:0:
148,304,75657,5,0,3:3:0:0:
194,251,75782,1,0,3:3:0:0:
180,184,75907,1,0,3:3:0:0:
140,128,76032,1,0,3:3:0:0:
148,304,76157,5,0,3:3:0:0:
194,251,76219,1,0,3:3:0:0:
180,184,76282,1,0,3:3:0:0:
194,251,76407,5,0,3:3:0:0:
180,184,76470,1,0,3:3:0:0:
140,128,76532,1,0,3:3:0:0:
180,184,76657,5,0,3:3:0:0:
195,173,76719,1,0,3:3:0:0:
211,163,76782,1,0,3:3:0:0:
227,152,76844,1,0,3:3:0:0:
256,180,76907,5,0,3:3:0:0:
271,169,76969,1,0,3:3:0:0:
287,159,77032,1,0,3:3:0:0:
303,148,77094,1,0,3:3:0:0:
344,148,77157,5,0,3:3:0:0:
358,132,77219,1,0,3:3:0:0:
341,119,77282,1,0,3:3:0:0:
328,135,77344,1,0,3:3:0:0:
344,148,77407,1,0,3:3:0:0:
358,132,77469,1,0,3:3:0:0:
341,119,77532,1,0,3:3:0:0:
328,135,77594,1,0,3:3:0:0:
344,148,77657,5,0,3:3:0:0:
344,162,77719,1,0,3:3:0:0:
344,176,77782,1,0,3:3:0:0:
344,190,77844,1,0,3:3:0:0:
344,204,77907,1,0,3:3:0:0:
342,234,77969,1,0,3:3:0:0:
331,262,78032,1,0,3:3:0:0:
312,285,78094,1,0,3:3:0:0:
286,301,78157,1,0,3:3:0:0:
256,307,78219,1,0,3:3:0:0:
226,304,78282,1,0,3:3:0:0:
199,291,78344,1,0,3:3:0:0:
176,268,78407,1,0,3:3:0:0:
160,244,78469,1,0,3:3:0:0:
148,216,78532,1,0,3:3:0:0:
144,184,78594,1,0,3:3:0:0:
136,152,78657,5,0,3:3:0:0:
125,178,78719,1,0,3:3:0:0:
114,204,78782,1,0,3:3:0:0:
104,230,78844,1,0,3:3:0:0:
96,256,78907,5,0,3:3:0:0:
85,229,78969,1,0,3:3:0:0:
74,203,79032,1,0,3:3:0:0:
64,177,79094,1,0,3:3:0:0:
56,148,79157,1,0,3:3:0:0:
92,99,79219,1,0,3:3:0:0:
141,63,79282,1,0,3:3:0:0:
198,43,79344,1,0,3:3:0:0:
258,40,79407,1,0,3:3:0:0:
317,55,79469,1,0,3:3:0:0:
369,86,79532,1,0,3:3:0:0:
409,131,79594,1,0,3:3:0:0:
428,192,79657,5,0,3:3:0:0:
408,212,79719,1,0,3:3:0:0:
388,232,79782,1,0,3:3:0:0:
369,253,79844,1,0,3:3:0:0:
352,272,79907,1,0,3:3:0:0:
312,258,79969,1,0,3:3:0:0:
294,221,80032,1,0,3:3:0:0:
307,182,80094,1,0,3:3:0:0:
324,144,80157,1,0,3:3:0:0:
293,172,80219,1,0,3:3:0:0:
273,210,80282,1,0,3:3:0:0:
266,252,80344,1,0,3:3:0:0:
273,293,80407,1,0,3:3:0:0:
293,331,80469,1,0,3:3:0:0:
324,359,80532,1,0,3:3:0:0:
363,377,80594,1,0,3:3:0:0:
405,381,80657,5,0,3:3:0:0:
324,359,80907,1,0,3:3:0:0:
273,293,81157,1,0,3:3:0:0:
273,210,81407,1,0,3:3:0:0:
324,144,81657,5,0,3:3:0:0:
273,210,81907,1,0,3:3:0:0:
190,210,82157,1,0,3:3:0:0:
139,144,82407,1,0,3:3:0:0:
190,210,82657,5,0,3:3:0:0:
190,210,82907,1,0,3:3:0:0:
273,210,83157,5,0,3:3:0:0:
273,210,83407,1,0,3:3:0:0:
324,144,83657,5,0,3:3:0:0:
324,144,83907,1,0,3:3:0:0:
324,144,84157,5,0,3:3:0:0:
302,195,84219,1,0,3:3:0:0:
250,216,84282,1,0,3:3:0:0:
200,195,84344,1,0,3:3:0:0:
178,144,84407,1,0,3:3:0:0:
199,93,84469,1,0,3:3:0:0:
251,71,84532,1,0,3:3:0:0:
302,93,84594,1,0,3:3:0:0:
324,144,84657,5,0,3:3:0:0:
302,144,84719,1,0,3:3:0:0:
281,144,84782,1,0,3:3:0:0:
260,144,84844,1,0,3:3:0:0:
239,144,84907,1,0,3:3:0:0:
217,144,84969,1,0,3:3:0:0:
196,144,85032,1,0,3:3:0:0:
175,144,85094,1,0,3:3:0:0:
152,144,85157,5,0,3:3:0:0:
131,163,85219,1,0,3:3:0:0:
117,187,85282,1,0,3:3:0:0:
111,215,85344,1,0,3:3:0:0:
108,244,85407,5,0,3:3:0:0:
116,268,85469,1,0,3:3:0:0:
136,288,85532,1,0,3:3:0:0:
160,300,85594,1,0,3:3:0:0:
188,296,85657,1,0,3:3:0:0:
212,261,85719,1,0,3:3:0:0:
251,249,85782,1,0,3:3:0:0:
291,263,85844,1,0,3:3:0:0:
313,298,85907,1,0,3:3:0:0:
300,336,85969,1,0,3:3:0:0:
264,356,86032,5,0,3:3:0:0:
264,327,86094,1,0,3:3:0:0:
264,299,86157,1,0,3:3:0:0:
264,271,86219,1,0,3:3:0:0:
264,242,86282,1,0,3:3:0:0:
264,214,86344,1,0,3:3:0:0:
264,186,86407,1,0,3:3:0:0:
264,157,86469,1,0,3:3:0:0:
264,129,86532,1,0,3:3:0:0:
264,101,86594,1,0,3:3:0:0:
264,76,86657,5,0,3:3:0:0:
300,52,86719,1,0,3:3:0:0:
330,77,86782,1,0,3:3:0:0:
316,118,86844,1,0,3:3:0:0:
275,115,86907,1,0,3:3:0:0:
232,116,86969,1,0,3:3:0:0:
188,124,87032,2,0,P|164:132|137:163,1,42.5,0|0,3:3|3:3,3:3:0:0:
96,208,87157,5,0,3:3:0:0:
83,256,87219,1,0,3:3:0:0:
128,280,87282,1,0,3:3:0:0:
166,244,87344,1,0,3:3:0:0:
156,193,87407,1,0,3:3:0:0:
119,152,87469,1,0,3:3:0:0:
96,104,87532,2,0,P|115:70|142:53,1,42.5,0|0,3:3|3:3,3:3:0:0:
244,40,87657,5,0,3:3:0:0:
305,53,87719,1,0,3:3:0:0:
350,98,87782,1,0,3:3:0:0:
364,159,87844,1,0,3:3:0:0:
331,169,87907,5,0,3:3:0:0:
321,126,87969,1,0,3:3:0:0:
290,95,88032,1,0,3:3:0:0:
247,85,88094,1,0,3:3:0:0:
250,117,88157,5,0,3:3:0:0:
280,124,88219,1,0,3:3:0:0:
301,146,88282,1,0,3:3:0:0:
308,176,88344,1,0,3:3:0:0:
292,180,88407,5,0,3:3:0:0:
288,159,88469,1,0,3:3:0:0:
272,144,88532,1,0,3:3:0:0:
251,140,88594,1,0,3:3:0:0:
253,155,88657,5,0,3:3:0:0:
256,240,88907,1,0,3:3:0:0:
172,240,89157,1,0,3:3:0:0:
170,156,89407,1,0,3:3:0:0:
253,155,89657,5,0,3:3:0:0:
172,240,89907,1,0,3:3:0:0:
256,324,90157,1,0,3:3:0:0:
338,240,90407,1,0,3:3:0:0:
253,155,90657,1,0,3:3:0:0:
304,51,90907,1,0,3:3:0:0:
417,69,91157,1,0,3:3:0:0:
434,184,91407,1,0,3:3:0:0:
336,240,91657,5,0,3:3:0:0:
434,184,91782,1,0,3:3:0:0:
417,69,91907,1,0,3:3:0:0:
304,51,92032,1,0,3:3:0:0:
240,136,92157,1,0,3:3:0:0:
176,221,92282,1,0,3:3:0:0:
240,136,92407,1,0,3:3:0:0:
176,221,92532,1,0,3:3:0:0:
256,155,92657,5,0,3:3:0:0:
273,181,92719,1,0,3:3:0:0:
289,207,92782,1,0,3:3:0:0:
308,233,92844,1,0,3:3:0:0:
324,268,92907,5,0,3:3:0:0:
292,268,92969,1,0,3:3:0:0:
261,268,93032,2,0,L|212:268,1,42.5,0|0,3:3|3:3,3:3:0:0:
104,272,93157,1,0,3:3:0:0:
72,257,93219,1,0,3:3:0:0:
54,227,93282,1,0,3:3:0:0:
57,192,93344,1,0,3:3:0:0:
79,165,93407,1,0,3:3:0:0:
112,155,93469,1,0,3:3:0:0:
146,167,93532,2,0,L|186:191,1,42.5,0|0,3:3|3:3,3:3:0:0:
292,268,93657,5,0,3:3:0:0:
320,295,93719,1,0,3:3:0:0:
356,311,93782,1,0,3:3:0:0:
395,314,93844,1,0,3:3:0:0:
434,304,93907,1,0,3:3:0:0:
466,281,93969,1,0,3:3:0:0:
489,249,94032,1,0,3:3:0:0:
500,211,94094,1,0,3:3:0:0:
497,172,94157,1,0,3:3:0:0:
482,135,94219,1,0,3:3:0:0:
455,106,94282,1,0,3:3:0:0:
420,88,94344,1,0,3:3:0:0:
381,83,94407,1,0,3:3:0:0:
342,91,94469,1,0,3:3:0:0:
309,111,94532,2,0,L|264:142,1,42.5,0|0,3:3|3:3,3:3:0:0:
144,168,94657,5,0,3:3:0:0:
103,154,94719,1,0,3:3:0:0:
103,112,94782,1,0,3:3:0:0:
144,99,94844,1,0,3:3:0:0:
168,133,94907,1,0,3:3:0:0:
141,97,94969,1,0,3:3:0:0:
166,63,95032,1,0,3:3:0:0:
207,76,95094,1,0,3:3:0:0:
207,117,95157,1,0,3:3:0:0:
236,148,95219,1,0,3:3:0:0:
263,180,95282,1,0,3:3:0:0:
279,218,95344,1,0,3:3:0:0:
280,260,95407,1,0,3:3:0:0:
240,263,95469,1,0,3:3:0:0:
203,244,95532,1,0,3:3:0:0:
175,212,95594,1,0,3:3:0:0:
152,176,95657,5,0,3:3:0:0:
125,185,95719,1,0,3:3:0:0:
104,203,95782,1,0,3:3:0:0:
88,291,95907,5,0,3:3:0:0:
114,282,95970,1,0,3:3:0:0:
136,264,96032,1,0,3:3:0:0:
152,176,96157,5,0,3:3:0:0:
125,185,96219,1,0,3:3:0:0:
104,203,96282,1,0,3:3:0:0:
88,291,96407,5,0,3:3:0:0:
114,282,96470,1,0,3:3:0:0:
136,264,96532,1,0,3:3:0:0:
220,192,96657,5,0,3:3:0:0:
304,192,96907,1,0,3:3:0:0:
390,192,97157,2,0,L|214:192,1,170,0|0,3:3|3:3,3:3:0:0:
304,192,97657,1,0,3:3:0:0:
219,192,97907,2,0,L|320:192,1,85,0|0,3:3|3:3,3:3:0:0:
304,192,98657,6,0,L|212:192,1,85,0|0,3:3|3:3,3:3:0:0:
389,192,98907,2,0,L|297:192,1,85,0|0,3:3|3:3,3:3:0:0:
304,192,99157,1,0,3:3:0:0:
219,192,99282,2,0,L|304:192,1,85,0|0,3:3|3:3,3:3:0:0:
388,192,99532,1,0,3:3:0:0:
388,108,99657,2,0,L|388:200,1,85,0|0,3:3|3:3,3:3:0:0:
388,278,99907,1,0,3:3:0:0:
388,192,100032,1,0,3:3:0:0:
48,192,100657,6,0,B|72:136|100:128|100:128,5,56.6666666666667,0|0|0|0|0|0,3:3|3:3|3:3|3:3|3:3|3:3,3:3:0:0:
136,104,101157,5,0,3:3:0:0:
204,84,101240,5,0,3:3:0:0:
272,84,101323,5,0,3:3:0:0:
340,100,101407,5,0,3:3:0:0:
400,136,101490,6,0,P|438:172|459:211,1,56.6666666666667,0|0,3:3|3:3,3:3:0:0:
440,312,101657,5,0,3:3:0:0:
396,364,101740,6,0,P|370:375|342:376,1,56.6666666666667,0|0,3:3|3:3,3:3:0:0:
276,348,101907,5,0,3:3:0:0:
320,296,101990,6,0,P|345:284|373:283,1,56.6666666666667,0|0,3:3|3:3,3:3:0:0:
440,312,102157,5,0,3:3:0:0:
470,250,102240,5,0,3:3:0:0:
444,188,102323,5,0,3:3:0:0:
400,136,102407,5,0,3:3:0:0:
340,100,102490,6,0,L|268:84,1,56.6666666666667,0|0,3:3|3:3,3:3:0:0:
184,64,102657,5,0,3:3:0:0:
165,85,102719,1,0,3:3:0:0:
147,107,102782,1,0,3:3:0:0:
128,128,102844,1,0,3:3:0:0:
112,152,102907,1,0,3:3:0:0:
135,136,102969,1,0,3:3:0:0:
163,135,103032,1,0,3:3:0:0:
188,148,103094,1,0,3:3:0:0:
203,172,103157,1,0,3:3:0:0:
203,201,103219,1,0,3:3:0:0:
189,225,103282,1,0,3:3:0:0:
165,239,103344,1,0,3:3:0:0:
137,239,103407,1,0,3:3:0:0:
36,192,103782,5,0,3:3:0:0:
96,100,104032,1,0,3:3:0:0:
200,64,104157,1,0,3:3:0:0:
124,192,104657,5,0,3:3:0:0:
128,205,104740,5,0,3:3:0:0:
132,218,104823,5,0,3:3:0:0:
137,232,104907,5,0,3:3:0:0:
140,244,104990,5,0,3:3:0:0:
175,267,105073,5,0,3:3:0:0:
216,273,105157,5,0,3:3:0:0:
256,257,105240,5,0,3:3:0:0:
295,240,105323,5,0,3:3:0:0:
337,236,105407,5,0,3:3:0:0:
378,246,105490,5,0,3:3:0:0:
416,265,105573,5,0,3:3:0:0:
446,295,105657,5,0,3:3:0:0:
429,261,105740,5,0,3:3:0:0:
412,227,105823,5,0,3:3:0:0:
396,193,105907,5,0,3:3:0:0:
434,171,105990,5,0,3:3:0:0:
451,129,106073,5,0,3:3:0:0:
437,87,106156,5,0,3:3:0:0:
399,63,106240,5,0,3:3:0:0:
355,68,106323,5,0,3:3:0:0:
324,99,106407,5,0,3:3:0:0:
293,129,106490,5,0,3:3:0:0:
262,159,106573,5,0,3:3:0:0:
232,192,106657,6,0,L|200:228,7,42.5,0|0|0|0|0|0|0|0,3:3|3:3|3:3|3:3|3:3|3:3|3:3|3:3,3:3:0:0:
184,248,107157,1,0,3:3:0:0:
151,262,107219,1,0,3:3:0:0:
115,259,107282,1,0,3:3:0:0:
86,237,107344,1,0,3:3:0:0:
71,205,107407,1,0,3:3:0:0:
74,169,107469,1,0,3:3:0:0:
95,140,107532,1,0,3:3:0:0:
128,124,107594,1,0,3:3:0:0:
164,124,107657,5,0,3:3:0:0:
164,138,107719,1,0,3:3:0:0:
164,152,107782,1,0,3:3:0:0:
164,166,107844,1,0,3:3:0:0:
164,180,107907,1,0,3:3:0:0:
164,194,107969,1,0,3:3:0:0:
164,209,108032,1,0,3:3:0:0:
164,223,108094,1,0,3:3:0:0:
164,237,108157,1,0,3:3:0:0:
164,251,108219,1,0,3:3:0:0:
164,265,108282,1,0,3:3:0:0:
164,279,108344,1,0,3:3:0:0:
164,294,108407,1,0,3:3:0:0:
164,308,108469,1,0,3:3:0:0:
164,322,108532,1,0,3:3:0:0:
164,336,108594,1,0,3:3:0:0:
164,352,108657,6,0,P|196:348|232:372,5,56.6666666666667,0|0|0|0|0|0,3:3|3:3|3:3|3:3|3:3|3:3,3:3:0:0:
240,372,109157,5,0,3:3:0:0:
277,374,109240,5,0,3:3:0:0:
312,361,109323,5,0,3:3:0:0:
337,333,109406,5,0,3:3:0:0:
347,297,109490,5,0,3:3:0:0:
341,260,109573,5,0,3:3:0:0:
319,230,109656,5,0,3:3:0:0:
356,236,109740,5,0,3:3:0:0:
393,233,109823,5,0,3:3:0:0:
425,213,109906,5,0,3:3:0:0:
445,181,109990,5,0,3:3:0:0:
449,144,110073,5,0,3:3:0:0:
432,112,110157,5,0,3:3:0:0:
405,122,110240,5,0,3:3:0:0:
379,132,110323,5,0,3:3:0:0:
318,107,110407,5,0,3:3:0:0:
292,117,110490,5,0,3:3:0:0:
265,127,110573,5,0,3:3:0:0:
232,192,110657,6,0,L|177:217,5,56.6666666666667,0|0|0|0|0|0,3:3|3:3|3:3|3:3|3:3|3:3,3:3:0:0:
144,224,111157,2,0,P|121:257|120:288,6,42.5,0|0|0|0|0|0|0,3:3|3:3|3:3|3:3|3:3|3:3|3:3,3:3:0:0:
224,300,111782,1,0,3:3:0:0:
144,224,112032,1,0,3:3:0:0:
232,192,112157,1,0,3:3:0:0:
360,348,112657,5,0,3:3:0:0:
374,307,112740,5,0,3:3:0:0:
388,267,112823,5,0,3:3:0:0:
400,228,112907,5,0,3:3:0:0:
444,227,112990,5,0,3:3:0:0:
477,198,113073,5,0,3:3:0:0:
483,154,113156,5,0,3:3:0:0:
458,117,113240,5,0,3:3:0:0:
415,106,113323,5,0,3:3:0:0:
372,112,113407,5,0,3:3:0:0:
372,123,113490,5,0,3:3:0:0:
362,117,113573,5,0,3:3:0:0:
372,112,113657,5,0,3:3:0:0:
372,124,113740,5,0,3:3:0:0:
361,118,113823,5,0,3:3:0:0:
372,112,113907,5,0,3:3:0:0:
372,123,113990,5,0,3:3:0:0:
362,117,114073,5,0,3:3:0:0:
320,116,114157,5,0,3:3:0:0:
294,128,114240,5,0,3:3:0:0:
269,141,114323,5,0,3:3:0:0:
268,204,114407,5,0,3:3:0:0:
294,216,114490,5,0,3:3:0:0:
319,229,114573,5,0,3:3:0:0:
380,216,114657,6,0,L|380:128,5,56.6666666666667,0|0|0|0|0|0,3:3|3:3|3:3|3:3|3:3|3:3,3:3:0:0:
380,96,115157,5,0,3:3:0:0:
256,52,115407,5,0,3:3:0:0:
256,124,115532,2,0,B|267:189|267:237|181:215|161:306|260:375|355:359|331:221,1,382.5,0|0,3:3|3:3,3:3:0:0:
332,200,116157,5,0,3:3:0:0:
330,168,116219,1,0,3:3:0:0:
342,139,116282,1,0,3:3:0:0:
365,117,116344,1,0,3:3:0:0:
395,108,116407,1,0,3:3:0:0:
426,113,116469,1,0,3:3:0:0:
453,130,116532,1,0,3:3:0:0:
469,157,116594,1,0,3:3:0:0:
472,189,116657,2,0,L|464:236,5,42.5,0|0|0|0|0|0,3:3|3:3|3:3|3:3|3:3|3:3,3:3:0:0:
452,260,117032,2,0,L|460:307,5,42.5,0|0|0|0|0|0,3:3|3:3|3:3|3:3|3:3|3:3,3:3:0:0:
428,308,117407,5,0,3:3:0:0:
391,296,117469,1,0,3:3:0:0:
391,257,117532,1,0,3:3:0:0:
428,246,117594,1,0,3:3:0:0:
450,277,117657,2,0,L|424:316,5,42.5,0|0|0|0|0|0,3:3|3:3|3:3|3:3|3:3|3:3,3:3:0:0:
391,296,118032,2,0,L|388:244,3,42.5,0|0|0|0,3:3|3:3|3:3|3:3,3:3:0:0:
384,200,118282,5,0,3:3:0:0:
336,108,118407,1,0,3:3:0:0:
252,52,118532,1,0,3:3:0:0:
152,32,118657,5,0,3:3:0:0:
148,48,118719,1,0,3:3:0:0:
144,65,118782,1,0,3:3:0:0:
140,81,118844,1,0,3:3:0:0:
136,98,118907,1,0,3:3:0:0:
132,114,118969,1,0,3:3:0:0:
144,132,119032,5,0,3:3:0:0:
148,148,119094,1,0,3:3:0:0:
152,165,119157,1,0,3:3:0:0:
156,181,119219,1,0,3:3:0:0:
160,198,119282,1,0,3:3:0:0:
164,214,119344,1,0,3:3:0:0:
168,236,119407,2,0,L|216:268,1,42.5,0|0,3:3|3:3,3:3:0:0:
328,288,119532,2,0,L|376:256,1,42.5,0|0,3:3|3:3,3:3:0:0:
376,256,119657,5,0,3:3:0:0:
379,239,119719,1,0,3:3:0:0:
383,222,119782,1,0,3:3:0:0:
387,206,119844,1,0,3:3:0:0:
391,189,119907,1,0,3:3:0:0:
395,173,119969,1,0,3:3:0:0:
384,156,120032,5,0,3:3:0:0:
380,140,120094,1,0,3:3:0:0:
376,123,120157,1,0,3:3:0:0:
372,107,120219,1,0,3:3:0:0:
368,90,120282,1,0,3:3:0:0:
272,124,120407,1,0,3:3:0:0:
228,216,120532,1,0,3:3:0:0:
204,316,120657,5,0,3:3:0:0:
190,346,120719,1,0,3:3:0:0:
162,365,120782,1,0,3:3:0:0:
129,368,120844,1,0,3:3:0:0:
99,352,120907,1,0,3:3:0:0:
82,323,120969,1,0,3:3:0:0:
64,296,121032,5,0,3:3:0:0:
92,278,121094,1,0,3:3:0:0:
108,248,121157,1,0,3:3:0:0:
105,215,121219,1,0,3:3:0:0:
86,187,121282,1,0,3:3:0:0:
56,174,121344,1,0,3:3:0:0:
48,240,121407,5,0,3:3:0:0:
140,304,121532,1,0,3:3:0:0:
105,215,121657,5,0,3:3:0:0:
104,198,121719,1,0,3:3:0:0:
104,181,121782,1,0,3:3:0:0:
104,164,121844,1,0,3:3:0:0:
104,147,121907,1,0,3:3:0:0:
104,130,121969,1,0,3:3:0:0:
104,112,122032,1,0,3:3:0:0:
176,48,122282,5,0,3:3:0:0:
248,48,122407,1,0,3:3:0:0:
320,48,122532,2,0,P|328:96|384:120,1,85,0|0,3:3|3:3,3:3:0:0:
176,124,122782,1,0,3:3:0:0:
248,124,122907,2,0,P|240:172|184:196,1,85,0|0,3:3|3:3,3:3:0:0:
380,232,123407,2,0,B|308:273|308:273|384:332,1,170,0|0,3:3|3:3,3:3:0:0:
432,288,123907,1,0,3:3:0:0:
380,232,124157,2,0,L|357:245,12,21.25,0|0|0|0|0|0|0|0|0|0|0|0|0,3:3|3:3|3:3|3:3|3:3|3:3|3:3|3:3|3:3|3:3|3:3|3:3|3:3,3:3:0:0:
452,188,124657,5,0,3:3:0:0:
442,174,124719,1,0,3:3:0:0:
432,160,124782,1,0,3:3:0:0:
422,146,124844,1,0,3:3:0:0:
412,132,124907,1,0,3:3:0:0:
402,118,124969,1,0,3:3:0:0:
392,108,125032,5,0,3:3:0:0:
382,121,125094,1,0,3:3:0:0:
372,135,125157,1,0,3:3:0:0:
362,149,125219,1,0,3:3:0:0:
352,163,125282,1,0,3:3:0:0:
342,177,125344,1,0,3:3:0:0:
332,192,125407,5,0,3:3:0:0:
288,264,125532,1,0,3:3:0:0:
224,208,125657,5,0,3:3:0:0:
255,195,125719,1,0,3:3:0:0:
273,167,125782,1,0,3:3:0:0:
273,134,125844,1,0,3:3:0:0:
255,106,125907,1,0,3:3:0:0:
223,94,125969,1,0,3:3:0:0:
188,92,126032,1,0,3:3:0:0:
213,92,126094,1,0,3:3:0:0:
239,92,126157,1,0,3:3:0:0:
264,92,126219,1,0,3:3:0:0:
290,92,126282,1,0,3:3:0:0:
315,92,126344,1,0,3:3:0:0:
348,92,126407,6,0,L|384:144,1,42.5,0|0,3:3|3:3,3:3:0:0:
348,200,126532,2,0,L|384:252,1,42.5,0|0,3:3|3:3,3:3:0:0:
348,308,126657,5,0,3:3:0:0:
361,322,126719,1,0,3:3:0:0:
377,331,126782,1,0,3:3:0:0:
396,336,126844,1,0,3:3:0:0:
415,335,126907,1,0,3:3:0:0:
433,329,126969,1,0,3:3:0:0:
449,317,127032,5,0,3:3:0:0:
460,302,127094,1,0,3:3:0:0:
467,284,127157,1,0,3:3:0:0:
468,265,127219,1,0,3:3:0:0:
464,246,127282,1,0,3:3:0:0:
454,229,127344,1,0,3:3:0:0:
440,216,127407,5,0,3:3:0:0:
411,216,127469,1,0,3:3:0:0:
383,216,127532,1,0,3:3:0:0:
355,216,127594,1,0,3:3:0:0:
328,216,127657,2,0,L|268:216,5,42.5,0|0|0|0|0|0,3:3|3:3|3:3|3:3|3:3|3:3,3:3:0:0:
256,216,128032,2,0,L|256:156,5,42.5,0|0|0|0|0|0,3:3|3:3|3:3|3:3|3:3|3:3,3:3:0:0:
256,144,128407,1,0,3:3:0:0:
256,288,128532,1,0,3:3:0:0:
256,144,128657,5,0,3:3:0:0:
225,128,128719,1,0,3:3:0:0:
195,112,128782,1,0,3:3:0:0:
165,96,128844,1,0,3:3:0:0:
135,80,128907,1,0,3:3:0:0:
105,65,128969,1,0,3:3:0:0:
76,48,129032,5,0,3:3:0:0:
59,52,129094,1,0,3:3:0:0:
46,62,129157,1,0,3:3:0:0:
37,77,129219,1,0,3:3:0:0:
33,93,129282,1,0,3:3:0:0:
35,110,129344,1,0,3:3:0:0:
44,128,129407,1,0,3:3:0:0:
165,96,129532,1,0,3:3:0:0:
120,216,129657,5,0,3:3:0:0:
113,246,129719,1,0,3:3:0:0:
117,278,129782,1,0,3:3:0:0:
133,305,129844,1,0,3:3:0:0:
158,325,129907,2,0,P|201:345|236:340,1,42.5,0|0,3:3|3:3,3:3:0:0:
296,312,130032,5,0,3:3:0:0:
283,282,130094,1,0,3:3:0:0:
270,253,130157,1,0,3:3:0:0:
257,224,130219,1,0,3:3:0:0:
244,195,130282,2,0,L|224:156,1,42.5,0|0,3:3|3:3,3:3:0:0:
176,56,130407,5,0,3:3:0:0:
278,56,130532,1,0,3:3:0:0:
380,60,130657,1,0,3:3:0:0:
380,260,130907,1,0,3:3:0:0:
380,158,131032,1,0,3:3:0:0:
380,360,131407,5,0,3:3:0:0:
160,360,131657,1,0,3:3:0:0:
160,60,131907,1,0,3:3:0:0:
380,60,132157,1,0,3:3:0:0:
157,260,132407,1,0,3:3:0:0:
158,38,132657,5,0,3:3:0:0:
165,47,132719,1,0,3:3:0:0:
172,56,132782,1,0,3:3:0:0:
179,66,132844,1,0,3:3:0:0:
187,75,132907,1,0,3:3:0:0:
194,85,132969,1,0,3:3:0:0:
201,94,133032,1,0,3:3:0:0:
209,104,133094,1,0,3:3:0:0:
216,113,133157,1,0,3:3:0:0:
223,123,133219,1,0,3:3:0:0:
231,132,133282,1,0,3:3:0:0:
238,141,133344,1,0,3:3:0:0:
245,151,133407,1,0,3:3:0:0:
253,160,133469,1,0,3:3:0:0:
260,170,133532,1,0,3:3:0:0:
267,179,133594,1,0,3:3:0:0:
275,189,133657,1,0,3:3:0:0:
282,198,133719,1,0,3:3:0:0:
289,208,133782,1,0,3:3:0:0:
297,217,133844,1,0,3:3:0:0:
304,226,133907,1,0,3:3:0:0:
311,236,133969,1,0,3:3:0:0:
319,245,134032,1,0,3:3:0:0:
326,255,134094,1,0,3:3:0:0:
333,264,134157,1,0,3:3:0:0:
341,274,134219,1,0,3:3:0:0:
348,283,134282,1,0,3:3:0:0:
355,293,134344,1,0,3:3:0:0:
362,302,134407,1,0,3:3:0:0:
370,312,134469,1,0,3:3:0:0:
377,321,134532,1,0,3:3:0:0:
384,330,134594,1,0,3:3:0:0:
392,340,134657,1,0,3:3:0:0:
256,192,134782,12,0,136657,3:3:0:0:
