osu file format v14

[General]
AudioFilename: audio.mp3
AudioLeadIn: 0
PreviewTime: 319538
Countdown: 1
SampleSet: Soft
StackLeniency: 0.7
Mode: 0
LetterboxInBreaks: 0
WidescreenStoryboard: 1

[Editor]
DistanceSpacing: 1
BeatDivisor: 4
GridSize: 4
TimelineZoom: 1

[Metadata]
Title:Ira
TitleUnicode:Ira
Artist:Yousei Teikoku
ArtistUnicode:妖精帝國
Creator:anthem_666
Version:Propaganda AR10
Source:
Tags:Gothic lolita propaganda gothic dark wave darkwave jump practice
BeatmapID:1157771
BeatmapSetID:457282

[Difficulty]
HPDrainRate:6
CircleSize:4.2
OverallDifficulty:8.2
ApproachRate:10
SliderMultiplier:1.6
SliderTickRate:1

[Events]
//Background and Video events
0,0,"irabg.jpg",0,0
//Break Periods
//Storyboard Layer 0 (Background)
//Storyboard Layer 1 (Fail)
//Storyboard Layer 2 (Pass)
//Storyboard Layer 3 (Foreground)
//Storyboard Sound Samples

[TimingPoints]
36110.3667735147,285.714285714286,4,2,0,100,1,0
54396,-83.3333333333333,4,1,0,80,0,0
72681,-100,4,2,0,70,0,0
90967,-83.3333333333333,4,1,0,80,0,0
109253,-100,4,2,0,70,0,0
127538,-90.9090909090909,4,3,0,80,0,0
132110,-90.9090909090909,4,1,0,85,0,0
136681,-90.9090909090909,4,3,0,80,0,0
145824,-76.9230769230769,4,1,0,75,0,1
173110,-100,4,2,0,80,0,1
182396,-83.3333333333333,4,1,0,80,0,0
200681,-100,4,2,0,70,0,0
218967,-90.9090909090909,4,3,0,80,0,0
223538,-90.9090909090909,4,1,0,85,0,0
228110,-90.9090909090909,4,3,0,80,0,0
237253,-76.9230769230769,4,1,0,75,0,1
264681,-100,4,2,0,80,0,1
273824,-83.3333333333333,4,1,0,80,0,0
292110,-83.3333333333333,4,2,0,80,0,0
301253,-76.9230769230769,4,1,0,85,0,0
310396,-125,4,3,0,65,0,0
314967,-100,4,3,0,70,0,0
319538,-76.9230769230769,4,1,0,75,0,1
346967,-100,4,1,0,80,0,1
356110,-83.3333333333333,4,1,0,80,0,0
374396,-83.3333333333333,4,1,0,85,0,0

[HitObjects]
308,96,36110,5,4,0:0:0:0:
372,172,36253,5,0,0:0:0:0:
336,264,36395,1,0,0:0:0:0:
236,280,36538,5,0,0:0:0:0:
168,204,36681,1,0,0:0:0:0:
184,112,36824,5,0,0:0:0:0:
268,88,36967,1,0,0:0:0:0:
348,156,37110,5,0,0:0:0:0:
292,236,37253,1,0,0:0:0:0:
216,172,37395,5,0,0:0:0:0:
276,100,37538,1,0,0:0:0:0:
336,200,37681,5,0,0:0:0:0:
244,196,37824,1,0,0:0:0:0:
244,100,37967,5,0,0:0:0:0:
336,96,38110,1,0,0:0:0:0:
416,192,38253,6,0,P|384:252|356:272,1,80
264,216,38538,2,0,P|284:160|320:132,1,80
196,88,38824,6,0,P|160:144|160:184,1,80
48,124,39110,2,0,P|64:56|80:36,1,80
256,56,39395,6,0,L|336:104,7,80
352,184,40538,5,0,0:0:0:0:
280,248,40681,1,0,0:0:0:0:
188,236,40824,1,0,0:0:0:0:
120,160,40967,1,0,0:0:0:0:
256,172,41110,5,0,0:0:0:0:
348,136,41253,1,0,0:0:0:0:
420,88,41395,1,0,0:0:0:0:
480,24,41538,1,0,0:0:0:0:
312,40,41681,6,0,P|240:64|216:84,1,80
152,148,41967,2,0,P|168:228|176:236,1,80
264,240,42253,5,0,0:0:0:0:
320,116,42395,1,0,0:0:0:0:
224,196,42538,5,0,0:0:0:0:
332,200,42681,1,0,0:0:0:0:
244,112,42824,5,0,0:0:0:0:
164,204,42967,1,0,0:0:0:0:
104,88,43110,5,0,0:0:0:0:
212,148,43253,1,0,0:0:0:0:
316,200,43395,5,0,0:0:0:0:
364,96,43538,1,0,0:0:0:0:
244,104,43681,5,0,0:0:0:0:
336,152,43824,1,0,0:0:0:0:
408,228,43967,5,0,0:0:0:0:
320,292,44110,1,0,0:0:0:0:
208,272,44253,5,0,0:0:0:0:
168,176,44395,1,0,0:0:0:0:
216,96,44538,5,0,0:0:0:0:
256,184,44681,1,0,0:0:0:0:
256,96,45253,5,4,0:0:0:0:
180,168,45396,1,0,0:0:0:0:
264,224,45538,5,0,0:0:0:0:
320,132,45681,1,0,0:0:0:0:
188,120,45824,5,0,0:0:0:0:
268,60,45967,1,0,0:0:0:0:
336,128,46110,5,0,0:0:0:0:
256,192,46253,1,0,0:0:0:0:
196,108,46396,6,0,P|156:144|156:184,1,80
280,152,46681,2,0,P|312:184|352:168,1,80
312,64,46967,6,0,P|344:24|336:0,1,80
216,40,47253,2,0,B|176:16|136:24|136:24|132:24,1,80
152,128,47538,5,0,0:0:0:0:
216,200,47681,1,0,0:0:0:0:
304,224,47824,5,0,0:0:0:0:
388,192,47967,1,0,0:0:0:0:
284,132,48110,5,0,0:0:0:0:
184,108,48253,1,0,0:0:0:0:
96,144,48396,5,0,0:0:0:0:
28,208,48538,1,0,0:0:0:0:
120,272,48681,6,0,P|172:296|204:292,1,80
288,244,48967,2,0,P|316:208|328:156,1,80
232,100,49253,5,0,0:0:0:0:
176,172,49396,1,0,0:0:0:0:
268,224,49538,5,0,0:0:0:0:
312,124,49681,1,0,0:0:0:0:
212,84,49824,6,0,P|156:64|132:44,1,80
200,184,50110,2,0,P|124:168|108:160,1,80
252,256,50396,6,0,P|248:300|240:344,1,80
344,256,50681,2,0,P|352:316|344:352,1,80
424,248,50967,5,0,0:0:0:0:
368,172,51110,1,0,0:0:0:0:
304,104,51253,5,0,0:0:0:0:
224,52,51396,1,0,0:0:0:0:
148,112,51538,5,0,0:0:0:0:
224,176,51681,1,0,0:0:0:0:
288,92,51824,5,0,0:0:0:0:
372,152,51967,1,0,0:0:0:0:
312,240,52110,5,0,0:0:0:0:
220,164,52253,1,0,0:0:0:0:
276,76,52396,6,0,B|392:72|448:88|448:88,1,160
268,156,52967,2,0,P|392:164|432:176,1,160
332,280,53538,5,0,0:0:0:0:
252,192,53681,1,0,0:0:0:0:
180,276,53824,1,0,0:0:0:0:
256,76,54110,5,0,0:0:0:0:
256,160,54253,5,0,0:0:0:0:
256,184,54324,1,0,0:0:0:0:
256,208,54396,5,4,0:0:0:0:
120,112,54538,5,0,0:0:0:0:
332,156,54681,1,0,0:0:0:0:
152,224,54824,1,0,0:0:0:0:
252,56,54967,1,0,0:0:0:0:
280,248,55110,1,0,0:0:0:0:
344,88,55253,1,0,0:0:0:0:
168,168,55396,1,0,0:0:0:0:
288,68,55538,6,0,P|320:128|328:168,1,95.9999970703126
216,80,55824,2,0,P|184:152|192:192,1,95.9999970703126
340,40,56110,2,0,P|396:64|436:108,1,95.9999970703126
228,36,56396,2,0,B|172:56|152:104|140:92,1,95.9999970703126
300,168,56681,5,4,0:0:0:0:
108,272,56824,1,0,0:0:0:0:
208,44,56967,1,0,0:0:0:0:
232,272,57110,1,0,0:0:0:0:
160,196,57253,1,0,0:0:0:0:
376,120,57396,1,0,0:0:0:0:
172,76,57538,1,0,0:0:0:0:
328,232,57681,1,0,0:0:0:0:
184,176,57824,6,0,P|116:140|96:88,1,95.9999970703126
356,140,58110,2,0,B|428:160|472:192|472:192,1,95.9999970703126
220,260,58396,2,0,P|188:324|152:348,1,95.9999970703126
244,76,58681,2,0,P|280:16|316:8,1,95.9999970703126
168,152,58967,6,0,P|80:152|56:172,1,95.9999970703126,4|0,0:0|0:0,0:0:0:0:
300,300,59253,1,0,0:0:0:0:
256,48,59396,1,0,0:0:0:0:
164,304,59538,1,0,0:0:0:0:
376,136,59681,1,0,0:0:0:0:
176,80,59824,2,0,P|104:96|72:136,1,95.9999970703126
304,256,60110,6,0,P|416:256|424:248,1,95.9999970703126
316,88,60396,1,0,0:0:0:0:
124,272,60538,1,0,0:0:0:0:
376,240,60681,1,0,0:0:0:0:
112,152,60824,1,0,0:0:0:0:
344,132,60967,1,0,0:0:0:0:
128,288,61110,1,0,0:0:0:0:
328,220,61253,6,4,P|392:256|436:236,1,95.9999970703126
296,96,61538,2,0,P|360:64|364:4,1,95.9999970703126
144,112,61824,2,0,P|112:44|60:56,1,95.9999970703126
184,256,62110,2,0,P|148:296|168:344,1,95.9999970703126
380,212,62396,5,0,0:0:0:0:
120,96,62538,1,0,0:0:0:0:
392,124,62681,1,0,0:0:0:0:
188,292,62824,1,0,0:0:0:0:
252,56,62967,1,0,0:0:0:0:
256,188,63253,5,0,0:0:0:0:
256,188,63396,1,0,0:0:0:0:
408,300,63538,5,4,0:0:0:0:
284,88,63681,1,0,0:0:0:0:
188,300,63824,1,0,0:0:0:0:
400,168,63967,1,0,0:0:0:0:
144,72,64110,1,0,0:0:0:0:
260,328,64253,1,0,0:0:0:0:
144,68,64396,1,0,0:0:0:0:
392,144,64538,1,0,0:0:0:0:
136,196,64681,6,0,P|84:248|48:264,2,95.9999970703126
360,84,65110,1,0,0:0:0:0:
216,292,65253,1,0,0:0:0:0:
360,80,65396,1,0,0:0:0:0:
124,196,65538,1,0,0:0:0:0:
360,80,65681,1,0,0:0:0:0:
292,292,65824,6,0,P|220:328|204:312,1,95.9999970703126,4|0,0:0|0:0,0:0:0:0:
220,112,66110,2,0,P|264:60|312:56,1,95.9999970703126
400,244,66396,1,0,0:0:0:0:
160,128,66538,1,0,0:0:0:0:
396,76,66681,2,0,P|416:140|400:176,1,95.9999970703126
128,40,66967,5,0,0:0:0:0:
272,320,67110,1,0,0:0:0:0:
208,32,67253,1,0,0:0:0:0:
292,320,67396,1,0,0:0:0:0:
292,28,67538,1,0,0:0:0:0:
316,320,67681,1,0,0:0:0:0:
376,32,67824,1,0,0:0:0:0:
340,320,67967,1,0,0:0:0:0:
148,168,68110,6,0,P|84:144|28:124,1,95.9999970703126,4|0,0:0|0:0,0:0:0:0:
284,104,68396,2,0,P|316:40|336:0,1,95.9999970703126
340,232,68681,2,0,L|444:304,1,95.9999970703126
208,272,68967,2,0,L|160:360,1,95.9999970703126
192,64,69253,5,0,0:0:0:0:
320,312,69396,1,0,0:0:0:0:
280,64,69538,1,0,0:0:0:0:
248,324,69681,1,0,0:0:0:0:
384,120,69824,5,0,0:0:0:0:
132,248,69967,1,0,0:0:0:0:
428,192,70110,1,0,0:0:0:0:
132,160,70253,1,0,0:0:0:0:
256,52,70396,6,0,L|372:52,1,95.9999970703126,4|0,0:0|0:0,0:0:0:0:
256,312,70681,2,0,L|152:312,1,95.9999970703126
432,192,70967,2,0,B|432:300|432:300|428:300,1,95.9999970703126
96,192,71253,2,0,L|96:64,1,95.9999970703126
348,88,71538,5,0,0:0:0:0:
344,300,71681,1,0,0:0:0:0:
132,304,71824,1,0,0:0:0:0:
136,100,71967,1,0,0:0:0:0:
332,92,72110,1,0,0:0:0:0:
264,152,72396,5,0,0:0:0:0:
280,164,72467,1,0,0:0:0:0:
296,176,72538,1,0,0:0:0:0:
180,292,72681,6,0,P|108:236|96:160,1,160,4|0,0:0|0:0,0:0:0:0:
256,76,73253,1,0,0:0:0:0:
256,288,73538,2,0,L|192:208,1,80
144,152,73824,1,0,0:0:0:0:
344,152,74110,2,0,L|440:152,1,80
252,256,74396,1,0,0:0:0:0:
108,112,74681,1,0,0:0:0:0:
332,60,74967,6,0,P|388:108|460:180,1,160
272,228,75538,1,0,0:0:0:0:
128,68,75824,2,0,L|128:152,1,80
136,264,76110,1,0,0:0:0:0:
264,84,76396,2,0,P|332:56|436:60,1,160
248,280,77253,6,0,P|152:264|124:200,1,160
344,96,77824,1,0,0:0:0:0:
296,264,78110,2,0,L|216:204,1,80
72,100,78396,1,0,0:0:0:0:
316,80,78681,1,0,0:0:0:0:
196,200,78967,2,0,P|148:260|228:304,1,160
336,276,79396,1,0,0:0:0:0:
236,80,79538,2,0,L|156:120,1,80
308,60,79967,6,0,L|368:116,1,80
240,264,80396,2,0,L|172:188,1,80
352,60,80681,6,0,P|436:120|436:196,1,160
428,256,81110,1,0,0:0:0:0:
312,312,81253,1,0,0:0:0:0:
192,256,81396,1,0,0:0:0:0:
144,148,81538,1,0,0:0:0:0:
304,96,81824,6,0,P|212:68|144:84,1,160
176,224,82396,1,0,0:0:0:0:
332,248,82681,2,0,L|264:192,1,80
140,88,82967,1,0,0:0:0:0:
304,88,83253,1,0,0:0:0:0:
244,224,83538,1,0,0:0:0:0:
140,128,83824,1,0,0:0:0:0:
276,72,84110,6,0,P|384:124|424:180,1,160
320,264,84681,1,0,0:0:0:0:
140,100,84967,1,0,0:0:0:0:
356,92,85253,1,0,0:0:0:0:
168,264,85538,1,0,0:0:0:0:
192,88,85824,2,0,P|248:56|236:88,1,160
404,136,86396,6,0,P|432:232|388:284,1,160
216,232,86967,1,0,0:0:0:0:
312,72,87253,1,0,0:0:0:0:
76,216,87538,1,0,0:0:0:0:
288,136,87824,1,0,0:0:0:0:
104,92,88110,1,0,0:0:0:0:
264,276,88396,5,0,0:0:0:0:
356,204,88538,1,0,0:0:0:0:
380,88,88681,1,0,0:0:0:0:
232,72,89110,6,0,P|172:80|148:92,1,80
312,272,89538,2,0,P|332:212|324:184,1,80
232,64,89824,6,0,P|128:128|112:180,1,160
280,208,90253,1,0,0:0:0:0:
364,152,90396,1,0,0:0:0:0:
336,56,90538,1,0,0:0:0:0:
224,44,90681,1,0,0:0:0:0:
192,60,90753,1,0,0:0:0:0:
168,88,90824,1,0,0:0:0:0:
152,120,90896,1,0,0:0:0:0:
148,160,90967,5,0,0:0:0:0:
320,276,91110,1,0,0:0:0:0:
264,72,91253,1,0,0:0:0:0:
184,284,91396,1,0,0:0:0:0:
328,84,91538,1,0,0:0:0:0:
284,288,91681,1,0,0:0:0:0:
188,48,91824,1,0,0:0:0:0:
384,152,91967,1,0,0:0:0:0:
144,144,92110,6,0,L|80:248,1,95.9999970703126
208,184,92396,2,0,L|176:292,1,95.9999970703126
276,216,92681,2,0,L|264:340,1,95.9999970703126
356,228,92967,2,0,L|368:344,1,95.9999970703126
240,132,93253,5,0,0:0:0:0:
480,52,93396,1,0,0:0:0:0:
380,236,93538,1,0,0:0:0:0:
128,68,93681,1,0,0:0:0:0:
368,76,93824,1,0,0:0:0:0:
240,228,93967,1,0,0:0:0:0:
52,96,94110,1,0,0:0:0:0:
292,144,94253,1,0,0:0:0:0:
112,184,94396,6,0,P|64:148|52:104,1,95.9999970703126
272,100,94681,1,0,0:0:0:0:
368,296,94824,1,0,0:0:0:0:
120,260,94967,2,0,P|80:216|76:172,1,95.9999970703126
292,56,95253,1,0,0:0:0:0:
420,296,95396,1,0,0:0:0:0:
108,84,95538,6,0,P|196:96|208:120,1,95.9999970703126
416,264,95824,2,0,B|352:240|308:260|308:260,1,95.9999970703126
72,224,96110,2,0,P|144:264|176:256,1,95.9999970703126
416,88,96396,2,0,P|328:88|300:76,1,95.9999970703126
248,300,96681,5,0,0:0:0:0:
160,40,96824,1,0,0:0:0:0:
368,204,96967,1,0,0:0:0:0:
80,216,97110,1,0,0:0:0:0:
296,60,97253,1,0,0:0:0:0:
240,296,97396,1,0,0:0:0:0:
132,52,97538,1,0,0:0:0:0:
352,200,97681,1,0,0:0:0:0:
124,60,97824,6,0,P|88:116|100:152,1,95.9999970703126
284,320,98110,1,0,0:0:0:0:
212,64,98253,1,0,0:0:0:0:
392,244,98396,1,0,0:0:0:0:
104,256,98538,1,0,0:0:0:0:
308,40,98681,1,0,0:0:0:0:
80,136,98824,1,0,0:0:0:0:
260,260,98967,6,0,P|372:328|372:328,1,95.9999970703126
248,80,99253,2,0,L|344:32,1,95.9999970703126
176,168,99538,1,0,0:0:0:0:
348,92,99824,5,0,0:0:0:0:
184,256,99967,1,0,0:0:0:0:
256,32,100110,5,0,0:0:0:0:
416,192,100253,1,0,0:0:0:0:
256,352,100396,1,0,0:0:0:0:
96,192,100538,1,0,0:0:0:0:
128,64,100681,1,0,0:0:0:0:
128,320,100824,1,0,0:0:0:0:
384,320,100967,1,0,0:0:0:0:
384,64,101110,1,0,0:0:0:0:
168,152,101253,5,0,0:0:0:0:
116,256,101396,1,0,0:0:0:0:
256,160,101538,1,0,0:0:0:0:
224,280,101681,1,0,0:0:0:0:
336,160,101824,1,0,0:0:0:0:
344,288,101967,1,0,0:0:0:0:
424,140,102110,1,0,0:0:0:0:
484,248,102253,1,0,0:0:0:0:
88,88,102396,6,0,P|160:96|184:112,1,95.9999970703126
428,292,102681,2,0,B|344:292|324:272|324:272|324:276,1,95.9999970703126
216,32,102967,2,0,P|284:104|280:128,1,95.9999970703126
268,340,103253,2,0,P|216:292|220:268,1,95.9999970703126
48,208,103538,5,0,0:0:0:0:
216,56,103681,1,0,0:0:0:0:
320,216,103824,1,0,0:0:0:0:
72,176,103967,1,0,0:0:0:0:
232,56,104110,1,0,0:0:0:0:
312,280,104253,1,0,0:0:0:0:
136,220,104396,1,0,0:0:0:0:
372,116,104538,1,0,0:0:0:0:
124,116,104681,6,0,P|96:176|112:204,1,95.9999970703126
284,300,104967,1,0,0:0:0:0:
176,120,105110,1,0,0:0:0:0:
376,216,105253,1,0,0:0:0:0:
128,208,105396,1,0,0:0:0:0:
296,60,105538,2,0,P|340:104|348:144,1,95.9999970703126
100,144,105824,5,0,0:0:0:0:
200,268,105967,1,0,0:0:0:0:
336,296,106110,1,0,0:0:0:0:
464,192,106253,1,0,0:0:0:0:
380,52,106396,1,0,0:0:0:0:
216,52,106538,1,0,0:0:0:0:
76,128,106681,1,0,0:0:0:0:
132,264,106824,1,0,0:0:0:0:
356,144,106967,6,0,P|308:200|268:212,1,95.9999970703126
80,124,107253,1,0,0:0:0:0:
280,64,107396,1,0,0:0:0:0:
124,280,107538,1,0,0:0:0:0:
204,48,107681,1,0,0:0:0:0:
268,272,107824,1,0,0:0:0:0:
76,112,107967,1,0,0:0:0:0:
316,112,108110,5,0,0:0:0:0:
304,304,108253,1,0,0:0:0:0:
104,296,108396,1,0,0:0:0:0:
120,104,108538,1,0,0:0:0:0:
304,280,108681,1,0,0:0:0:0:
332,256,108753,1,0,0:0:0:0:
352,224,108824,1,0,0:0:0:0:
360,188,108896,1,0,0:0:0:0:
368,152,108967,1,0,0:0:0:0:
104,136,109253,6,0,P|184:108|260:124,1,160
368,272,109824,1,0,0:0:0:0:
112,252,110110,1,0,0:0:0:0:
272,76,110396,1,0,0:0:0:0:
232,224,110681,2,0,L|152:264,1,80
140,116,110967,1,0,0:0:0:0:
336,156,111253,1,0,0:0:0:0:
272,280,111538,6,0,P|172:272|164:200,1,160
184,84,112110,1,0,0:0:0:0:
356,196,112396,1,0,0:0:0:0:
232,220,112538,2,0,L|132:184,1,80
276,48,112967,1,0,0:0:0:0:
380,236,113253,2,0,P|300:264|220:256,1,160
92,84,113824,6,0,P|180:104|248:140,1,160
240,304,114396,1,0,0:0:0:0:
412,224,114681,1,0,0:0:0:0:
216,104,114967,2,0,L|64:160,1,160
200,256,115396,1,0,0:0:0:0:
376,248,115824,1,0,0:0:0:0:
304,132,115967,1,0,0:0:0:0:
172,72,116110,6,0,P|88:76|64:168,1,160
232,264,116681,1,0,0:0:0:0:
364,96,116967,1,0,0:0:0:0:
232,264,117253,2,0,P|172:288|124:192,1,160
184,132,117824,1,0,0:0:0:0:
344,136,118110,1,0,0:0:0:0:
348,144,118181,1,0,0:0:0:0:
352,152,118253,1,0,0:0:0:0:
360,160,118324,1,0,0:0:0:0:
368,168,118396,6,0,P|392:224|304:292,1,160
112,228,118967,1,0,0:0:0:0:
276,88,119253,1,0,0:0:0:0:
272,272,119538,1,0,0:0:0:0:
168,84,119824,1,0,0:0:0:0:
240,180,119967,2,0,B|280:208|300:248|296:288|296:288|248:288|200:276|176:256,1,240
168,72,120681,6,0,L|344:72,1,160
260,240,121253,1,0,0:0:0:0:
112,76,121538,1,0,0:0:0:0:
344,80,121824,1,0,0:0:0:0:
220,248,122110,1,0,0:0:0:0:
124,120,122396,2,0,P|192:80|284:76,1,160
400,308,122967,6,0,B|356:244|288:248|260:184,1,160
80,276,123538,1,0,0:0:0:0:
120,64,123824,1,0,0:0:0:0:
304,96,124110,1,0,0:0:0:0:
260,284,124396,2,0,L|192:216,1,80
128,104,124681,1,0,0:0:0:0:
352,128,124967,1,0,0:0:0:0:
384,248,125110,1,0,0:0:0:0:
256,316,125253,6,0,P|176:300|112:216,1,160
124,116,125824,1,0,0:0:0:0:
360,120,126110,1,0,0:0:0:0:
348,272,126396,1,0,0:0:0:0:
136,268,126681,1,0,0:0:0:0:
252,80,126967,1,0,0:0:0:0:
304,236,127253,1,0,0:0:0:0:
272,256,127324,1,0,0:0:0:0:
228,260,127396,1,0,0:0:0:0:
192,244,127467,1,0,0:0:0:0:
160,216,127538,6,0,B|80:144|16:140|16:140|48:104|80:88|172:80|264:92|344:112|480:216,1,660.000020141602
432,272,128681,2,0,B|368:344|64:228|64:228|296:152|296:152|392:196,1,704.000021484376
340,220,130253,2,0,P|232:256|104:168,1,264.000008056641
264,96,130967,1,0,0:0:0:0:
316,276,131253,1,0,0:0:0:0:
112,200,131538,1,0,0:0:0:0:
312,72,131681,1,0,0:0:0:0:
304,252,132110,6,0,P|248:284|180:204,1,176.000005371094
284,60,132681,1,0,0:0:0:0:
236,280,132967,1,0,0:0:0:0:
124,204,133110,2,0,P|96:104|232:48,1,264.000008056641
312,216,133824,1,0,0:0:0:0:
112,248,134110,1,0,0:0:0:0:
240,68,134396,6,0,P|344:68|376:152,1,176.000005371094
332,272,134967,1,0,0:0:0:0:
128,240,135253,1,0,0:0:0:0:
140,132,135396,2,0,B|192:72|380:120|380:120|268:292,1,440.000013427735
152,176,136396,1,0,0:0:0:0:
244,72,136681,6,0,B|348:32|416:68|416:68|120:224|120:224|216:264|296:216,1,660.000020141602
320,280,137824,2,0,B|408:160|320:32|320:32|108:168|108:168|276:260,1,704.000021484376
440,164,139396,1,0,0:0:0:0:
152,56,139824,1,0,0:0:0:0:
112,168,140110,2,0,B|276:280|276:280|272:112,1,352.000010742188
144,64,140824,1,0,0:0:0:0:
364,112,141253,6,0,P|360:196|252:240,1,176.000005371094
104,124,141824,1,0,0:0:0:0:
328,92,142110,2,0,L|364:192,1,88.000002685547
160,252,142396,1,0,0:0:0:0:
272,36,142681,1,0,0:0:0:0:
296,276,142967,1,0,0:0:0:0:
96,140,143253,1,0,0:0:0:0:
308,76,143396,1,0,0:0:0:0:
296,248,143538,5,0,0:0:0:0:
152,64,143681,1,0,0:0:0:0:
120,236,143967,5,0,0:0:0:0:
268,64,144110,1,0,0:0:0:0:
340,172,144396,5,0,0:0:0:0:
116,176,144538,1,0,0:0:0:0:
260,60,144824,5,0,0:0:0:0:
192,296,144967,1,0,0:0:0:0:
360,168,145253,5,0,0:0:0:0:
140,88,145538,5,0,0:0:0:0:
120,116,145610,1,0,0:0:0:0:
112,152,145681,1,0,0:0:0:0:
112,188,145753,1,0,0:0:0:0:
112,220,145824,6,0,P|204:284|320:300,1,207.999990478516
136,48,146396,1,0,0:0:0:0:
360,232,146538,1,0,0:0:0:0:
112,288,146681,1,0,0:0:0:0:
304,88,146824,2,0,L|152:248,1,207.999990478516
416,120,147253,1,0,0:0:0:0:
188,296,147538,2,0,P|136:284|116:224,1,103.999995239258
344,112,147824,5,0,0:0:0:0:
152,272,147967,1,0,0:0:0:0:
356,72,148110,2,0,B|444:156|444:156|372:228,1,207.999990478516
120,280,148681,1,0,0:0:0:0:
252,40,148824,1,0,0:0:0:0:
328,292,148967,1,0,0:0:0:0:
140,76,149110,2,0,B|184:160|296:192|296:192|308:192,1,207.999990478516
64,132,149538,5,0,0:0:0:0:
312,72,149681,1,0,0:0:0:0:
216,320,149824,1,0,0:0:0:0:
200,40,149967,1,0,0:0:0:0:
360,300,150110,1,0,0:0:0:0:
52,76,150253,6,0,B|100:152|200:72|176:184|264:88|300:232|324:116|372:160,1,311.999985717774
56,76,150967,1,0,0:0:0:0:
308,272,151110,1,0,0:0:0:0:
72,72,151253,1,0,0:0:0:0:
304,264,151396,2,0,P|404:232|328:76,1,311.999985717774
344,76,152110,1,0,0:0:0:0:
144,136,152253,1,0,0:0:0:0:
304,280,152396,1,0,0:0:0:0:
324,100,152538,6,0,B|236:72|136:112|104:208|124:288,1,311.999985717774
328,100,153253,1,0,0:0:0:0:
116,260,153396,1,0,0:0:0:0:
412,228,153681,1,0,0:0:0:0:
152,120,153967,1,0,0:0:0:0:
412,232,154110,1,0,0:0:0:0:
272,40,154396,1,0,0:0:0:0:
92,172,154538,1,0,0:0:0:0:
224,340,154681,1,0,0:0:0:0:
392,192,154824,6,0,B|368:112|340:92|340:92|160:196,1,311.999985717774
356,100,155538,1,0,0:0:0:0:
156,312,155681,1,0,0:0:0:0:
452,324,155824,1,0,0:0:0:0:
360,96,155967,2,0,B|256:72|152:88|152:88|212:164|264:156,1,311.999985717774
372,328,156681,1,0,0:0:0:0:
80,260,156824,1,0,0:0:0:0:
332,64,156967,1,0,0:0:0:0:
356,272,157110,6,0,B|272:308|228:272|140:312|148:336|56:296|96:252,1,311.999985717774
344,64,157824,1,0,0:0:0:0:
96,252,157967,1,0,0:0:0:0:
344,64,158110,1,0,0:0:0:0:
100,172,158253,1,0,0:0:0:0:
352,164,158538,1,0,0:0:0:0:
116,104,158681,1,0,0:0:0:0:
212,300,158967,1,0,0:0:0:0:
320,92,159110,1,0,0:0:0:0:
100,220,159253,1,0,0:0:0:0:
276,272,159396,6,0,B|364:228|332:96|332:96|268:148|248:192,1,311.999985717774
336,300,160110,1,0,0:0:0:0:
112,120,160253,1,0,0:0:0:0:
192,336,160396,1,0,0:0:0:0:
392,104,160538,2,0,B|328:68|192:80|192:80|128:40|84:40,1,311.999985717774
348,288,161253,1,0,0:0:0:0:
104,112,161396,1,0,0:0:0:0:
368,304,161538,1,0,0:0:0:0:
104,112,161681,6,0,B|68:184|68:216|68:216|128:268|164:280|164:280|260:260|260:260,1,311.999985717774
272,248,162396,1,0,0:0:0:0:
272,248,162538,1,0,0:0:0:0:
60,56,162681,1,0,0:0:0:0:
272,248,162824,1,0,0:0:0:0:
96,76,163110,1,0,0:0:0:0:
308,276,163253,1,0,0:0:0:0:
336,72,163538,1,0,0:0:0:0:
288,120,163610,1,0,0:0:0:0:
240,168,163681,1,0,0:0:0:0:
192,220,163753,1,0,0:0:0:0:
144,272,163824,1,0,0:0:0:0:
336,72,163967,6,0,L|120:300,1,311.999985717774
336,72,164681,1,0,0:0:0:0:
120,300,164824,1,0,0:0:0:0:
368,176,164967,1,0,0:0:0:0:
88,168,165110,2,0,P|160:72|156:136,1,311.999985717774
316,308,165824,1,0,0:0:0:0:
216,44,165967,1,0,0:0:0:0:
160,304,166110,1,0,0:0:0:0:
360,168,166253,6,0,B|372:64|372:64|240:72|192:160,1,311.999985717774
336,304,166967,1,0,0:0:0:0:
156,76,167110,1,0,0:0:0:0:
104,236,167253,1,0,0:0:0:0:
292,68,167396,1,0,0:0:0:0:
292,68,167824,1,0,0:0:0:0:
240,296,168110,1,0,0:0:0:0:
172,64,168253,1,0,0:0:0:0:
340,236,168396,1,0,0:0:0:0:
88,152,168538,6,0,P|184:84|380:104,1,311.999985717774
124,288,169253,1,0,0:0:0:0:
132,84,169396,1,0,0:0:0:0:
332,88,169538,1,0,0:0:0:0:
328,296,169681,1,0,0:0:0:0:
132,88,169967,1,0,0:0:0:0:
332,88,170110,1,0,0:0:0:0:
140,280,170396,1,0,0:0:0:0:
300,68,170538,1,0,0:0:0:0:
412,304,170681,1,0,0:0:0:0:
128,288,170824,6,0,B|0:192|0:192|124:72,1,311.999985717774
328,192,171538,1,0,0:0:0:0:
72,192,171681,1,0,0:0:0:0:
400,192,171824,1,0,0:0:0:0:
76,192,171967,2,0,L|408:204,1,311.999985717774
76,260,172681,2,0,L|76:136,1,103.999995239258
244,72,172967,1,0,0:0:0:0:
292,53,173038,1,0,0:0:0:0:
343,56,173109,1,0,0:0:0:0:
388,81,173181,1,0,0:0:0:0:
424,116,173253,6,0,B|456:164|332:288|332:288|320:208|268:144|268:144|232:200|224:284|224:284|176:260|148:144,1,640
88,72,174681,1,0,0:0:0:0:
88,304,174967,1,0,0:0:0:0:
352,312,175253,1,0,0:0:0:0:
360,68,175396,6,0,B|132:12|48:64|4:88|28:288|64:316|136:328|212:332|276:304|304:204|256:184,1,720
96,72,176967,1,0,0:0:0:0:
92,304,177253,1,0,0:0:0:0:
344,312,177538,1,0,0:0:0:0:
168,144,177681,6,0,B|152:232|212:304|292:240|376:72|244:32|160:20|92:16|64:96|24:164|136:308,1,680
356,288,179253,1,0,0:0:0:0:
360,72,179538,1,0,0:0:0:0:
140,68,179824,1,0,0:0:0:0:
128,296,179967,6,0,B|468:300|468:300|380:200|320:124|132:240,1,720
416,76,181396,1,0,0:0:0:0:
160,160,181538,1,0,0:0:0:0:
352,108,181824,2,0,L|384:68,1,40
152,128,181967,2,0,L|120:96,1,40
196,300,182110,2,0,L|156:332,1,40
364,260,182253,2,0,L|396:288,1,40
240,88,182396,6,0,B|188:64|124:56|124:56|128:56,1,95.9999970703126
224,292,182681,1,0,0:0:0:0:
400,64,182824,1,0,0:0:0:0:
228,72,182967,1,0,0:0:0:0:
380,300,183110,1,0,0:0:0:0:
116,192,183253,1,0,0:0:0:0:
348,68,183396,1,0,0:0:0:0:
344,280,183538,5,0,0:0:0:0:
140,276,183681,1,0,0:0:0:0:
184,92,183824,1,0,0:0:0:0:
368,144,183967,1,0,0:0:0:0:
276,332,184110,1,0,0:0:0:0:
136,196,184253,1,0,0:0:0:0:
288,80,184396,1,0,0:0:0:0:
408,224,184538,1,0,0:0:0:0:
148,252,184681,6,0,P|92:276|56:260,1,95.9999970703126
336,100,184967,2,0,P|400:68|452:96,1,95.9999970703126
148,100,185253,2,0,P|72:88|52:48,1,95.9999970703126
328,260,185538,2,0,P|404:268|424:316,1,95.9999970703126
128,60,185824,5,0,0:0:0:0:
48,304,185967,1,0,0:0:0:0:
204,68,186110,5,0,0:0:0:0:
172,312,186253,1,0,0:0:0:0:
284,60,186396,5,0,0:0:0:0:
288,312,186538,1,0,0:0:0:0:
360,40,186681,5,0,0:0:0:0:
436,296,186824,1,0,0:0:0:0:
168,212,186967,6,0,B|104:176|96:144|96:144,1,95.9999970703126
372,88,187253,1,0,0:0:0:0:
232,320,187396,1,0,0:0:0:0:
208,40,187538,1,0,0:0:0:0:
376,268,187681,1,0,0:0:0:0:
92,216,187824,1,0,0:0:0:0:
376,72,187967,1,0,0:0:0:0:
128,320,188110,6,0,P|192:352|224:320,1,95.9999970703126
384,320,188396,2,0,P|416:256|384:224,1,95.9999970703126
384,64,188681,2,0,P|320:32|288:64,1,95.9999970703126
128,64,188967,2,0,P|96:128|128:160,1,95.9999970703126
376,96,189253,5,0,0:0:0:0:
100,88,189396,1,0,0:0:0:0:
248,340,189538,1,0,0:0:0:0:
236,44,189681,1,0,0:0:0:0:
444,228,189824,1,0,0:0:0:0:
100,296,189967,1,0,0:0:0:0:
352,68,190110,1,0,0:0:0:0:
80,152,190253,1,0,0:0:0:0:
288,240,190396,6,0,B|368:252|384:212|384:212|380:212,1,95.9999970703126
200,52,190681,1,0,0:0:0:0:
140,276,190824,1,0,0:0:0:0:
364,104,190967,1,0,0:0:0:0:
112,140,191110,1,0,0:0:0:0:
352,284,191253,1,0,0:0:0:0:
368,240,191324,1,0,0:0:0:0:
376,188,191396,1,0,0:0:0:0:
372,140,191467,1,0,0:0:0:0:
352,96,191538,5,0,0:0:0:0:
144,264,191681,1,0,0:0:0:0:
216,36,191824,1,0,0:0:0:0:
288,284,191967,1,0,0:0:0:0:
308,136,192110,1,0,0:0:0:0:
116,276,192253,1,0,0:0:0:0:
392,220,192396,1,0,0:0:0:0:
176,88,192538,1,0,0:0:0:0:
252,264,192681,6,0,L|336:324,1,95.9999970703126
272,200,192967,2,0,B|388:232|388:232|384:232,1,95.9999970703126
280,132,193253,2,0,L|384:124,1,95.9999970703126
252,68,193538,2,0,P|356:12|356:12,1,95.9999970703126
124,208,193824,5,0,0:0:0:0:
272,316,193967,1,0,0:0:0:0:
384,84,194110,2,0,P|312:44|272:36,1,95.9999970703126
104,96,194396,1,0,0:0:0:0:
108,268,194538,1,0,0:0:0:0:
316,220,194681,2,0,B|320:152|300:124|300:124,1,95.9999970703126
188,248,194967,5,0,0:0:0:0:
312,128,195110,1,0,0:0:0:0:
116,268,195253,1,0,0:0:0:0:
384,104,195396,1,0,0:0:0:0:
116,344,195538,1,0,0:0:0:0:
384,28,195681,1,0,0:0:0:0:
156,280,195824,1,0,0:0:0:0:
328,80,195967,1,0,0:0:0:0:
88,140,196110,6,0,P|76:196|100:224,1,95.9999970703126
292,72,196396,1,0,0:0:0:0:
352,296,196538,1,0,0:0:0:0:
160,176,196681,1,0,0:0:0:0:
400,168,196824,1,0,0:0:0:0:
252,284,196967,1,0,0:0:0:0:
184,92,197110,1,0,0:0:0:0:
120,272,197253,5,0,0:0:0:0:
320,240,197396,1,0,0:0:0:0:
116,64,197538,1,0,0:0:0:0:
176,300,197681,1,0,0:0:0:0:
368,156,197824,2,0,P|328:92|284:80,1,95.9999970703126
92,216,198110,1,0,0:0:0:0:
432,228,198253,1,0,0:0:0:0:
272,60,198396,6,0,P|196:60|164:68,1,95.9999970703126
176,328,198681,2,0,B|256:328|284:316|284:316,1,95.9999970703126
64,128,198967,1,0,0:0:0:0:
312,268,199110,1,0,0:0:0:0:
140,84,199253,1,0,0:0:0:0:
188,288,199396,1,0,0:0:0:0:
256,48,199538,6,0,P|336:64|348:96,1,95.9999970703126
324,296,199824,1,0,0:0:0:0:
448,128,199967,1,0,0:0:0:0:
192,72,200110,1,0,0:0:0:0:
168,92,200181,1,0,0:0:0:0:
156,120,200253,1,0,0:0:0:0:
156,152,200324,1,0,0:0:0:0:
168,180,200396,5,0,0:0:0:0:
428,160,200538,1,0,0:0:0:0:
192,68,200681,6,0,P|108:72|96:148,1,160
332,312,201253,1,0,0:0:0:0:
292,40,201538,1,0,0:0:0:0:
156,260,201824,1,0,0:0:0:0:
364,72,202110,2,0,L|308:140,1,80
128,232,202396,1,0,0:0:0:0:
296,64,202681,2,0,L|216:40,1,80
88,224,202967,6,0,P|112:276|220:288,1,160
344,64,203538,1,0,0:0:0:0:
132,180,203824,2,0,P|72:200|48:196,2,80
324,260,204396,2,0,L|408:256,1,80
300,76,204681,1,0,0:0:0:0:
224,300,204824,1,0,0:0:0:0:
84,80,204967,2,0,P|104:136|124:144,1,80
340,284,205253,6,0,P|380:232|344:144,1,160
104,204,205824,1,0,0:0:0:0:
392,224,206110,1,0,0:0:0:0:
184,44,206396,1,0,0:0:0:0:
296,304,206681,2,0,L|240:216,1,80
412,152,207253,1,0,0:0:0:0:
232,68,207396,1,0,0:0:0:0:
48,184,207538,6,0,P|52:244|144:304,1,160
304,268,207967,2,0,P|336:208|324:176,1,80
128,80,208396,2,0,P|80:120|76:148,1,80
292,304,208681,1,0,0:0:0:0:
432,184,208967,1,0,0:0:0:0:
300,56,209110,2,0,P|252:64|220:76,1,80
186,93,209324,1,0,0:0:0:0:
150,110,209395,1,0,0:0:0:0:
115,130,209467,1,0,0:0:0:0:
83,154,209538,1,0,0:0:0:0:
54,181,209610,1,0,0:0:0:0:
87,192,209681,1,0,0:0:0:0:
127,198,209753,1,0,0:0:0:0:
164,204,209824,6,0,P|228:204|328:168,1,160
120,68,210396,1,0,0:0:0:0:
240,304,210681,1,0,0:0:0:0:
340,44,210967,1,0,0:0:0:0:
108,264,211253,2,0,L|172:176,1,80
272,52,211538,1,0,0:0:0:0:
244,288,211824,1,0,0:0:0:0:
264,48,212110,6,0,P|188:48|108:76,1,160
200,292,212681,1,0,0:0:0:0:
408,64,212967,1,0,0:0:0:0:
188,64,213110,1,0,0:0:0:0:
44,232,213253,1,0,0:0:0:0:
336,272,213538,1,0,0:0:0:0:
356,112,213681,1,0,0:0:0:0:
172,96,213824,1,0,0:0:0:0:
160,256,213967,2,0,P|212:300|336:292,1,160
96,84,214396,6,0,P|64:152|72:256,1,160
348,260,214967,1,0,0:0:0:0:
160,88,215253,1,0,0:0:0:0:
332,88,215538,1,0,0:0:0:0:
152,272,215824,2,0,L|220:224,1,80
400,88,216110,1,0,0:0:0:0:
136,96,216396,2,0,L|60:64,2,80
256,204,216824,6,0,L|360:228,1,80
224,56,217253,1,0,0:0:0:0:
160,256,217538,2,0,L|256:256,1,80
400,116,217824,5,0,0:0:0:0:
96,84,218253,1,0,0:0:0:0:
252,268,218396,1,0,0:0:0:0:
240,56,218538,1,0,0:0:0:0:
96,192,218681,1,0,0:0:0:0:
118,225,218752,1,0,0:0:0:0:
145,254,218823,1,0,0:0:0:0:
177,277,218895,1,0,0:0:0:0:
212,288,218967,6,0,B|272:264|480:184|480:184|344:136|92:76,1,660.000020141602
60,68,220110,2,0,B|64:188|68:336|72:336|72:336|416:132,1,660.000020141602
352,152,221253,1,0,0:0:0:0:
100,88,221824,1,0,0:0:0:0:
296,280,222110,1,0,0:0:0:0:
260,48,222396,1,0,0:0:0:0:
144,240,222681,1,0,0:0:0:0:
336,176,222967,2,0,P|364:124|372:72,1,88.000002685547
128,76,223538,6,0,B|72:112|56:184|56:184|112:176,1,176.000005371094
296,80,224110,1,0,0:0:0:0:
184,296,224396,1,0,0:0:0:0:
320,256,224538,2,0,B|372:204|336:60|264:32|220:24,1,264.000008056641
64,176,225253,1,0,0:0:0:0:
284,296,225538,1,0,0:0:0:0:
312,72,225824,6,0,B|204:76|204:76|132:120,1,176.000005371094
320,296,226396,1,0,0:0:0:0:
208,56,226681,1,0,0:0:0:0:
112,116,226824,2,0,B|88:184|52:216|8:228|8:224|12:224|12:228|88:248|156:292|112:328,1,264.000008056641
236,224,227538,1,0,0:0:0:0:
340,72,227681,1,0,0:0:0:0:
184,72,227824,1,0,0:0:0:0:
352,204,227967,1,0,0:0:0:0:
160,320,228110,6,0,B|48:304|32:252|32:252|116:236|292:208|292:208|272:156|464:248|492:320,1,660.000020141602
424,336,229253,2,0,B|348:336|148:8|148:8|400:136,1,704.000021484376
336,108,230824,1,0,0:0:0:0:
76,128,231253,1,0,0:0:0:0:
240,272,231538,1,0,0:0:0:0:
380,96,231824,1,0,0:0:0:0:
180,40,232110,2,0,L|116:112,1,88.000002685547
276,292,232681,6,0,P|384:240|420:180,1,176.000005371094
120,84,233253,1,0,0:0:0:0:
272,304,233538,2,0,L|344:224,1,88.000002685547
424,80,233824,1,0,0:0:0:0:
200,56,234110,1,0,0:0:0:0:
128,256,234396,1,0,0:0:0:0:
376,112,234681,1,0,0:0:0:0:
312,276,234824,1,0,0:0:0:0:
100,60,234967,5,0,0:0:0:0:
380,60,235110,1,0,0:0:0:0:
368,284,235396,5,0,0:0:0:0:
72,288,235538,1,0,0:0:0:0:
236,40,235824,5,0,0:0:0:0:
372,240,235967,1,0,0:0:0:0:
196,332,236253,5,0,0:0:0:0:
52,128,236396,1,0,0:0:0:0:
332,152,236681,5,0,0:0:0:0:
184,280,236967,5,0,0:0:0:0:
184,280,237038,1,0,0:0:0:0:
184,280,237110,1,0,0:0:0:0:
184,280,237181,1,0,0:0:0:0:
184,280,237253,6,0,P|284:284|384:228,1,207.999990478516
108,260,237824,1,0,0:0:0:0:
416,136,237967,1,0,0:0:0:0:
108,260,238110,1,0,0:0:0:0:
132,88,238253,2,0,B|113:137|177:221|273:225|273:225|216:132,1,311.999985717774
136,84,238967,1,0,0:0:0:0:
376,304,239110,1,0,0:0:0:0:
272,48,239253,1,0,0:0:0:0:
112,200,239396,6,0,B|188:260|232:260|232:260|216:216|188:176|152:152|112:128,1,311.999985717774
112,228,240110,1,0,0:0:0:0:
384,96,240253,1,0,0:0:0:0:
180,72,240538,1,0,0:0:0:0:
360,260,240824,1,0,0:0:0:0:
152,104,240967,1,0,0:0:0:0:
364,104,241253,1,0,0:0:0:0:
104,220,241396,1,0,0:0:0:0:
392,200,241538,1,0,0:0:0:0:
120,216,241681,6,0,B|56:140|84:116|84:116|132:76|196:152|200:272,1,311.999985717774
420,72,242396,2,0,P|344:68|304:76,1,103.999995239258
100,172,242681,1,0,0:0:0:0:
112,188,242753,1,0,0:0:0:0:
124,204,242824,2,0,B|188:244|240:252|240:252|240:200|152:104|132:84,1,311.999985717774
392,272,243538,1,0,0:0:0:0:
144,96,243681,1,0,0:0:0:0:
400,152,243824,1,0,0:0:0:0:
164,288,243967,6,0,B|100:248|80:200|84:196|84:196|216:232|260:268,1,311.999985717774
168,288,244681,1,0,0:0:0:0:
432,112,244824,1,0,0:0:0:0:
172,88,245110,1,0,0:0:0:0:
392,84,245396,1,0,0:0:0:0:
148,272,245538,1,0,0:0:0:0:
148,272,245824,1,0,0:0:0:0:
300,28,245967,1,0,0:0:0:0:
280,304,246110,1,0,0:0:0:0:
252,48,246253,6,0,B|168:56|116:80|120:120|136:148|164:160|216:176|252:184|272:208|268:232,1,311.999985717774
272,216,246967,1,0,0:0:0:0:
252,48,247110,1,0,0:0:0:0:
144,196,247396,2,0,B|112:240|152:292|216:304|272:272|308:200|292:112|208:168,1,311.999985717774
144,196,248110,1,0,0:0:0:0:
448,148,248253,1,0,0:0:0:0:
144,84,248396,1,0,0:0:0:0:
424,232,248538,6,0,B|368:272|296:280|296:280|336:188|336:188|248:200,1,311.999985717774
56,52,249253,1,0,0:0:0:0:
156,352,249396,1,0,0:0:0:0:
344,88,249681,1,0,0:0:0:0:
124,56,249967,1,0,0:0:0:0:
40,320,250110,1,0,0:0:0:0:
256,36,250396,1,0,0:0:0:0:
96,188,250538,1,0,0:0:0:0:
256,344,250681,1,0,0:0:0:0:
448,192,250824,6,0,B|404:140|368:128|296:160|264:200|228:220|176:196|144:172,1,311.999985717774
444,192,251538,1,0,0:0:0:0:
120,180,251681,1,0,0:0:0:0:
320,48,251824,1,0,0:0:0:0:
296,48,251896,1,0,0:0:0:0:
272,48,251967,2,0,B|216:40|160:44|108:80|76:112|60:176|76:232,1,311.999985717774
312,288,252681,1,0,0:0:0:0:
164,80,252824,1,0,0:0:0:0:
424,200,252967,1,0,0:0:0:0:
220,316,253110,6,0,P|156:248|8:80,1,311.999985717774
316,240,253824,1,0,0:0:0:0:
80,24,253967,1,0,0:0:0:0:
376,76,254253,1,0,0:0:0:0:
184,64,254538,1,0,0:0:0:0:
192,308,254681,1,0,0:0:0:0:
400,76,254967,1,0,0:0:0:0:
132,136,255110,1,0,0:0:0:0:
368,204,255253,1,0,0:0:0:0:
160,304,255396,6,0,B|80:260|64:176|76:112|112:68|168:40,1,311.999985717774
328,244,256110,1,0,0:0:0:0:
140,120,256253,1,0,0:0:0:0:
364,68,256396,1,0,0:0:0:0:
248,288,256538,2,0,B|136:256|120:252|152:200|152:200|60:144|112:80,1,311.999985717774
320,236,257253,1,0,0:0:0:0:
160,32,257396,1,0,0:0:0:0:
144,288,257538,1,0,0:0:0:0:
356,204,257681,6,0,B|392:120|352:64|352:64|280:220,1,311.999985717774
120,76,258396,1,0,0:0:0:0:
336,272,258538,1,0,0:0:0:0:
100,232,258681,1,0,0:0:0:0:
324,212,258824,2,0,B|392:176|336:84|300:80|272:76|224:96|180:216,1,311.999985717774
404,160,259538,1,0,0:0:0:0:
164,232,259681,1,0,0:0:0:0:
344,64,259967,6,0,B|296:192|288:224|288:224|256:192|156:88,1,311.999985717774
180,312,260681,1,0,0:0:0:0:
272,128,260824,1,0,0:0:0:0:
392,320,260967,1,0,0:0:0:0:
176,308,261110,2,0,B|104:272|72:224|72:224|160:204|160:204|244:264,1,311.999985717774
328,64,261824,1,0,0:0:0:0:
132,96,261967,1,0,0:0:0:0:
332,216,262110,1,0,0:0:0:0:
112,224,262253,6,0,B|136:284|212:304|268:304|312:300|312:300|240:244,1,311.999985717774
400,144,262967,1,0,0:0:0:0:
96,148,263110,1,0,0:0:0:0:
272,44,263253,1,0,0:0:0:0:
208,232,263396,2,0,B|104:288|80:312|100:328|152:336|220:304|320:276,1,311.999985717774
296,80,264110,2,0,L|180:88,1,103.999995239258
152,272,264396,1,0,0:0:0:0:
336,296,264538,1,0,0:0:0:0:
256,176,264681,2,0,B|292:152|296:120|224:92|168:132|144:160|144:176|156:228|168:260|228:292|292:300|284:276|296:272|360:240|388:192|380:140|372:104|352:120|328:112|336:96|356:80|316:72|304:52|276:48|232:40|192:60,1,640
116,268,266110,5,0,0:0:0:0:
384,212,266396,1,0,0:0:0:0:
252,44,266681,1,0,0:0:0:0:
72,144,266824,2,0,B|60:228|76:304|136:328|184:344|232:352|280:352|328:344|352:344|408:324|456:288|484:244|500:188|460:144|424:116|376:92,1,720
156,80,268396,5,0,0:0:0:0:
220,332,268681,1,0,0:0:0:0:
352,56,268967,1,0,0:0:0:0:
360,288,269110,2,0,B|292:320|204:328|108:304|60:280|48:260|48:260|88:232|120:216|168:204|224:192|272:188|336:184|376:184|440:192,1,720
180,92,270681,5,0,0:0:0:0:
360,312,270967,1,0,0:0:0:0:
104,276,271253,1,0,0:0:0:0:
200,148,271396,2,0,B|248:92|296:64|300:64|300:64|328:112|344:176|324:224|296:296|256:352|256:352|220:292|212:256|176:212|136:192|80:192|80:192|52:176,1,720
388,196,272824,1,0,0:0:0:0:
104,76,272967,1,0,0:0:0:0:
188,296,273253,1,0,0:0:0:0:
226,285,273324,1,0,0:0:0:0:
263,269,273395,1,0,0:0:0:0:
292,248,273467,2,0,L|316:208,1,40
319,184,273610,1,0,0:0:0:0:
303,147,273681,1,0,0:0:0:0:
298,108,273753,1,0,0:0:0:0:
303,68,273824,5,0,0:0:0:0:
124,200,273967,1,0,0:0:0:0:
384,200,274110,1,0,0:0:0:0:
176,88,274253,1,0,0:0:0:0:
184,312,274396,1,0,0:0:0:0:
392,176,274538,1,0,0:0:0:0:
92,116,274681,1,0,0:0:0:0:
280,304,274824,1,0,0:0:0:0:
216,96,274967,6,0,P|144:56|96:56,1,95.9999970703126
136,288,275253,1,0,0:0:0:0:
352,184,275396,1,0,0:0:0:0:
120,120,275538,1,0,0:0:0:0:
328,72,275681,1,0,0:0:0:0:
316,288,275824,2,0,P|240:316|208:316,1,95.9999970703126
144,112,276110,5,0,0:0:0:0:
276,292,276253,1,0,0:0:0:0:
344,160,276396,1,0,0:0:0:0:
104,296,276538,1,0,0:0:0:0:
212,56,276681,1,0,0:0:0:0:
224,216,276824,1,0,0:0:0:0:
392,104,276967,1,0,0:0:0:0:
144,64,277110,1,0,0:0:0:0:
144,240,277253,6,0,L|52:292,1,95.9999970703126
376,164,277538,2,0,P|424:120|448:80,1,95.9999970703126
88,104,277824,2,0,L|132:204,1,95.9999970703126
368,180,278110,2,0,L|304:276,1,95.9999970703126
124,124,278396,5,0,0:0:0:0:
364,72,278538,1,0,0:0:0:0:
208,288,278681,1,0,0:0:0:0:
232,56,278824,1,0,0:0:0:0:
364,236,278967,1,0,0:0:0:0:
136,64,279110,1,0,0:0:0:0:
128,244,279253,1,0,0:0:0:0:
284,40,279396,1,0,0:0:0:0:
208,260,279538,6,0,P|132:304|104:296,1,95.9999970703126
420,312,279824,1,0,0:0:0:0:
320,224,279967,1,0,0:0:0:0:
32,128,280110,1,0,0:0:0:0:
104,292,280253,1,0,0:0:0:0:
264,48,280396,1,0,0:0:0:0:
256,240,280538,1,0,0:0:0:0:
72,104,280681,5,0,0:0:0:0:
328,96,280824,1,0,0:0:0:0:
144,276,280967,2,0,L|64:340,1,95.9999970703126
120,104,281253,1,0,0:0:0:0:
324,284,281396,1,0,0:0:0:0:
224,48,281538,1,0,0:0:0:0:
396,192,281681,1,0,0:0:0:0:
168,256,281824,6,0,P|96:264|72:248,1,95.9999970703126
232,80,282110,1,0,0:0:0:0:
252,312,282253,1,0,0:0:0:0:
392,56,282396,1,0,0:0:0:0:
112,224,282538,1,0,0:0:0:0:
344,188,282681,1,0,0:0:0:0:
352,141,282752,1,0,0:0:0:0:
333,98,282823,1,0,0:0:0:0:
290,79,282895,1,0,0:0:0:0:
242,85,282966,5,0,0:0:0:0:
112,296,283110,1,0,0:0:0:0:
380,196,283253,1,0,0:0:0:0:
120,104,283396,1,0,0:0:0:0:
232,312,283538,1,0,0:0:0:0:
284,92,283681,1,0,0:0:0:0:
48,184,283824,1,0,0:0:0:0:
300,264,283967,1,0,0:0:0:0:
124,64,284110,6,0,L|164:156,1,95.9999970703126
400,112,284396,2,0,L|360:212,1,95.9999970703126
116,204,284681,2,0,L|156:300,1,95.9999970703126
412,260,284967,2,0,L|356:360,1,95.9999970703126
132,144,285253,5,0,0:0:0:0:
240,264,285396,1,0,0:0:0:0:
352,144,285538,1,0,0:0:0:0:
232,40,285681,1,0,0:0:0:0:
176,224,285824,1,0,0:0:0:0:
40,112,285967,1,0,0:0:0:0:
164,12,286110,1,0,0:0:0:0:
264,168,286253,1,0,0:0:0:0:
104,236,286396,6,0,P|64:280|88:324,1,95.9999970703126
364,320,286681,1,0,0:0:0:0:
144,156,286824,1,0,0:0:0:0:
312,204,286967,5,0,0:0:0:0:
312,164,287038,1,0,0:0:0:0:
300,124,287110,1,0,0:0:0:0:
88,108,287253,1,0,0:0:0:0:
280,324,287396,1,0,0:0:0:0:
228,80,287538,6,0,P|160:96|116:112,1,95.9999970703126
212,304,287824,1,0,0:0:0:0:
308,64,287967,1,0,0:0:0:0:
72,164,288110,1,0,0:0:0:0:
344,280,288253,1,0,0:0:0:0:
300,68,288396,2,0,P|216:80|188:96,1,95.9999970703126
184,268,288681,6,0,P|132:312|104:328,3,95.9999970703126
372,72,289253,2,0,P|428:24|456:8,3,95.9999970703126
104,160,289824,5,0,0:0:0:0:
192,332,289967,1,0,0:0:0:0:
296,152,290110,1,0,0:0:0:0:
100,56,290253,1,0,0:0:0:0:
324,184,290396,1,0,0:0:0:0:
28,172,290538,1,0,0:0:0:0:
352,84,290681,1,0,0:0:0:0:
264,292,290824,1,0,0:0:0:0:
224,64,290967,6,0,L|152:152,1,95.9999970703126
328,280,291253,1,0,0:0:0:0:
128,104,291396,1,0,0:0:0:0:
344,100,291538,1,0,0:0:0:0:
184,264,291824,5,0,0:0:0:0:
480,32,292110,5,0,0:0:0:0:
480,352,292396,1,0,0:0:0:0:
32,352,292681,1,0,0:0:0:0:
32,32,292967,1,0,0:0:0:0:
256,32,293253,1,0,0:0:0:0:
32,192,293538,1,0,0:0:0:0:
256,352,293824,1,0,0:0:0:0:
480,192,294110,1,0,0:0:0:0:
256,32,294396,5,0,0:0:0:0:
32,352,294681,1,0,0:0:0:0:
256,352,294967,1,0,0:0:0:0:
480,32,295253,1,0,0:0:0:0:
64,64,295538,1,0,0:0:0:0:
448,320,295824,1,0,0:0:0:0:
64,320,296110,1,0,0:0:0:0:
448,64,296396,1,0,0:0:0:0:
256,32,296681,5,0,0:0:0:0:
256,352,296967,1,0,0:0:0:0:
32,192,297253,1,0,0:0:0:0:
480,192,297538,1,0,0:0:0:0:
64,320,297824,1,0,0:0:0:0:
448,64,298110,1,0,0:0:0:0:
256,352,298396,1,0,0:0:0:0:
256,32,298681,1,0,0:0:0:0:
64,64,298967,5,0,0:0:0:0:
448,64,299253,1,0,0:0:0:0:
64,192,299538,1,0,0:0:0:0:
448,192,299824,1,0,0:0:0:0:
64,320,300110,1,0,0:0:0:0:
448,320,300396,1,0,0:0:0:0:
144,244,300681,1,0,0:0:0:0:
112,208,300752,1,0,0:0:0:0:
97,163,300823,1,0,0:0:0:0:
240,72,300967,2,0,P|324:96|344:120,1,95.9999970703126
208,296,301253,6,0,P|132:280|104:244,1,103.999995239258
332,88,301538,1,0,0:0:0:0:
48,188,301681,1,0,0:0:0:0:
400,224,301824,1,0,0:0:0:0:
200,48,301967,1,0,0:0:0:0:
188,264,302110,2,0,P|160:312|104:304,1,103.999995239258
344,56,302396,1,0,0:0:0:0:
332,280,302538,1,0,0:0:0:0:
88,196,302681,1,0,0:0:0:0:
292,80,302824,1,0,0:0:0:0:
232,292,302967,2,0,P|160:296|108:264,1,103.999995239258
296,52,303253,2,0,P|356:40|408:40,1,103.999995239258
88,220,303538,5,0,0:0:0:0:
288,64,303681,1,0,0:0:0:0:
84,84,303824,1,0,0:0:0:0:
224,308,303967,1,0,0:0:0:0:
360,112,304110,1,0,0:0:0:0:
104,112,304253,1,0,0:0:0:0:
220,288,304396,1,0,0:0:0:0:
328,56,304538,1,0,0:0:0:0:
88,216,304681,1,0,0:0:0:0:
272,256,304824,2,0,P|320:188|300:128,1,103.999995239258
136,56,305110,1,0,0:0:0:0:
260,304,305253,2,0,P|332:280|352:244,1,103.999995239258
164,64,305538,2,0,P|96:80|84:120,1,103.999995239258
356,252,305824,5,0,0:0:0:0:
96,180,305967,1,0,0:0:0:0:
328,72,306110,1,0,0:0:0:0:
280,276,306253,1,0,0:0:0:0:
68,116,306396,1,0,0:0:0:0:
332,88,306538,1,0,0:0:0:0:
144,264,306681,1,0,0:0:0:0:
412,160,306824,1,0,0:0:0:0:
168,80,306967,1,0,0:0:0:0:
288,284,307110,2,0,P|208:288|176:280,1,103.999995239258
320,64,307396,1,0,0:0:0:0:
64,184,307538,2,0,P|40:244|52:284,1,103.999995239258
368,196,307824,2,0,P|384:128|368:80,1,103.999995239258
136,100,308110,5,0,0:0:0:0:
240,320,308253,1,0,0:0:0:0:
288,72,308396,1,0,0:0:0:0:
36,248,308538,1,0,0:0:0:0:
296,256,308681,2,0,P|372:232|400:204,1,103.999995239258
120,64,308967,1,0,0:0:0:0:
164,288,309110,1,0,0:0:0:0:
352,140,309253,2,0,P|368:68|344:48,1,103.999995239258
112,72,309538,1,0,0:0:0:0:
392,112,309681,1,0,0:0:0:0:
112,124,309824,5,0,0:0:0:0:
144,164,309895,1,0,0:0:0:0:
188,190,309966,1,0,0:0:0:0:
236,212,310038,2,0,L|292:208,1,51.999997619629
332,196,310181,1,0,0:0:0:0:
380,176,310252,1,0,0:0:0:0:
423,148,310323,1,0,0:0:0:0:
388,104,310396,6,0,B|344:88|224:68|120:68|120:68|64:72|32:100|20:152|40:232,1,480
56,284,311538,2,0,B|136:320|220:328|280:320|392:292|460:240|476:196|476:196|400:176,1,512
112,88,312967,1,0,0:0:0:0:
72,212,313110,2,0,B|100:264|184:284|244:280,1,192
372,224,313824,2,0,P|400:184|408:144,1,64
264,96,314110,1,0,0:0:0:0:
140,216,314253,1,0,0:0:0:0:
312,220,314396,1,0,0:0:0:0:
192,96,314538,1,0,0:0:0:0:
364,104,314681,1,0,0:0:0:0:
220,248,314824,1,0,0:0:0:0:
200,48,314967,6,0,P|136:84|88:172,1,160
228,296,315538,1,0,0:0:0:0:
400,192,315824,1,0,0:0:0:0:
208,72,316110,1,0,0:0:0:0:
228,304,316396,1,0,0:0:0:0:
324,60,316681,1,0,0:0:0:0:
96,140,316967,1,0,0:0:0:0:
324,60,317253,5,0,0:0:0:0:
216,308,317396,1,0,0:0:0:0:
208,56,317681,5,0,0:0:0:0:
320,304,317824,1,0,0:0:0:0:
320,56,318110,5,0,0:0:0:0:
184,304,318253,1,0,0:0:0:0:
172,56,318538,5,0,0:0:0:0:
336,312,318681,1,0,0:0:0:0:
252,184,318967,5,0,0:0:0:0:
132,112,319253,5,0,0:0:0:0:
142,121,319324,1,0,0:0:0:0:
152,131,319395,1,0,0:0:0:0:
162,140,319467,1,0,0:0:0:0:
176,152,319538,6,0,P|236:208|360:248,1,207.999990478516
156,68,320110,1,0,0:0:0:0:
332,264,320253,1,0,0:0:0:0:
280,56,320396,1,0,0:0:0:0:
124,124,320538,2,0,B|68:208|72:248|72:248|156:256|256:228,1,311.999985717774
436,56,321253,1,0,0:0:0:0:
144,200,321396,1,0,0:0:0:0:
440,216,321538,1,0,0:0:0:0:
248,56,321681,6,0,B|160:40|132:32|132:32|168:120|204:200|200:232,1,311.999985717774
408,280,322396,1,0,0:0:0:0:
188,96,322538,1,0,0:0:0:0:
244,336,322681,1,0,0:0:0:0:
348,96,322824,1,0,0:0:0:0:
88,168,322967,1,0,0:0:0:0:
388,232,323110,1,0,0:0:0:0:
212,40,323253,1,0,0:0:0:0:
284,264,323396,1,0,0:0:0:0:
280,52,323538,1,0,0:0:0:0:
136,256,323681,1,0,0:0:0:0:
356,104,323824,1,0,0:0:0:0:
120,84,323967,6,0,B|8:120|8:120|88:192|88:192|36:256|88:276,1,311.999985717774
120,84,324681,1,0,0:0:0:0:
332,304,324824,1,0,0:0:0:0:
284,44,324967,1,0,0:0:0:0:
104,288,325110,2,0,B|188:252|304:172|304:172|240:152|224:128,1,311.999985717774
104,288,325824,1,0,0:0:0:0:
356,104,325967,1,0,0:0:0:0:
80,192,326110,1,0,0:0:0:0:
336,288,326253,6,0,B|408:248|384:144|308:120|308:120|312:44|280:32,1,311.999985717774
116,184,326967,1,0,0:0:0:0:
416,180,327110,1,0,0:0:0:0:
152,56,327253,1,0,0:0:0:0:
344,304,327396,1,0,0:0:0:0:
296,52,327681,1,0,0:0:0:0:
188,288,327824,1,0,0:0:0:0:
336,80,328110,1,0,0:0:0:0:
128,84,328253,1,0,0:0:0:0:
340,228,328396,1,0,0:0:0:0:
152,224,328538,6,0,P|64:300|108:220,1,311.999985717774
124,280,329253,1,0,0:0:0:0:
352,80,329396,1,0,0:0:0:0:
64,108,329538,1,0,0:0:0:0:
300,292,329681,2,0,B|384:280|416:224|416:224|352:192|328:200|328:200|300:148|316:104,1,311.999985717774
296,292,330396,1,0,0:0:0:0:
72,168,330538,1,0,0:0:0:0:
348,72,330681,1,0,0:0:0:0:
224,320,330824,6,0,B|196:268|224:236|200:196|224:152|196:112|236:64|280:112|320:76,1,311.999985717774
224,316,331538,1,0,0:0:0:0:
48,120,331681,1,0,0:0:0:0:
320,124,331824,1,0,0:0:0:0:
84,296,331967,1,0,0:0:0:0:
256,48,332253,1,0,0:0:0:0:
224,312,332396,1,0,0:0:0:0:
364,192,332681,1,0,0:0:0:0:
256,72,332824,1,0,0:0:0:0:
124,196,332967,1,0,0:0:0:0:
416,196,333110,6,0,B|368:284|224:328|132:280,1,311.999985717774
332,104,333824,1,0,0:0:0:0:
68,240,333967,1,0,0:0:0:0:
328,280,334110,1,0,0:0:0:0:
336,56,334253,2,0,B|236:56|156:88|156:88|172:136|208:176|208:176|216:208,1,311.999985717774
432,316,334967,1,0,0:0:0:0:
168,112,335110,1,0,0:0:0:0:
396,124,335253,1,0,0:0:0:0:
204,292,335396,6,0,B|104:288|100:208|100:208|172:180|224:144|140:56,1,311.999985717774
400,108,336110,1,0,0:0:0:0:
128,104,336253,1,0,0:0:0:0:
304,304,336396,1,0,0:0:0:0:
296,44,336538,1,0,0:0:0:0:
152,276,336824,1,0,0:0:0:0:
276,64,336967,1,0,0:0:0:0:
296,288,337253,1,0,0:0:0:0:
347,287,337324,1,0,0:0:0:0:
393,265,337395,1,0,0:0:0:0:
425,224,337467,1,0,0:0:0:0:
435,174,337538,1,0,0:0:0:0:
248,80,337681,6,0,B|164:128|104:212|104:248|104:248|208:216,1,311.999985717774
352,240,338396,1,0,0:0:0:0:
200,48,338538,1,0,0:0:0:0:
128,264,338681,1,0,0:0:0:0:
384,84,338824,2,0,B|292:24|292:24|316:124|288:196|184:140,1,311.999985717774
368,304,339538,1,0,0:0:0:0:
116,212,339681,1,0,0:0:0:0:
360,72,339824,1,0,0:0:0:0:
264,308,339967,6,0,B|168:260|168:236|168:236|248:188|248:188|156:160,1,311.999985717774
376,96,340681,1,0,0:0:0:0:
304,320,340824,1,0,0:0:0:0:
152,144,340967,1,0,0:0:0:0:
340,92,341110,2,0,P|432:160|360:328,1,311.999985717774
136,252,341681,1,0,0:0:0:0:
336,128,341824,1,0,0:0:0:0:
112,88,341967,1,0,0:0:0:0:
264,288,342110,1,0,0:0:0:0:
392,124,342253,6,0,B|276:52|220:48|220:48|176:56|108:132,1,311.999985717774
336,264,342967,1,0,0:0:0:0:
112,132,343110,1,0,0:0:0:0:
204,320,343253,1,0,0:0:0:0:
288,88,343396,2,0,P|360:40|312:156,1,311.999985717774
232,312,344110,1,0,0:0:0:0:
96,144,344253,1,0,0:0:0:0:
352,104,344396,1,0,0:0:0:0:
232,316,344538,6,0,B|136:276|136:276|108:184|196:64,1,311.999985717774
352,84,345253,1,0,0:0:0:0:
252,300,345396,1,0,0:0:0:0:
176,64,345538,1,0,0:0:0:0:
384,184,345681,1,0,0:0:0:0:
124,264,345967,1,0,0:0:0:0:
296,32,346110,1,0,0:0:0:0:
136,84,346396,2,0,P|104:172|148:236,1,155.999992858887
172,256,346681,1,0,0:0:0:0:
222,267,346752,1,0,0:0:0:0:
272,258,346823,1,0,0:0:0:0:
315,229,346895,1,0,0:0:0:0:
341,179,346967,6,0,B|216:139|289:42|289:42|212:136|127:41|127:41|208:139|41:189|158:307,1,640
380,184,348396,5,0,0:0:0:0:
96,96,348681,1,0,0:0:0:0:
220,292,348967,1,0,0:0:0:0:
212,148,349110,2,0,B|212:40|212:40|320:20|412:40|444:80|460:120|468:176|460:224|420:304|400:336|308:336|212:336,1,720
108,144,350681,5,0,0:0:0:0:
360,296,350967,1,0,0:0:0:0:
232,64,351253,1,0,0:0:0:0:
200,252,351396,2,0,B|240:312|408:292|408:292|208:156|156:136|128:136|96:132|68:136|68:136|116:80|172:60,1,720
384,104,352967,5,0,0:0:0:0:
152,316,353253,1,0,0:0:0:0:
228,40,353538,1,0,0:0:0:0:
296,212,353681,2,0,B|252:180|240:160|220:152|200:156|152:164|148:180|144:224|168:256|208:292|236:304|248:304|264:304|280:304|312:344|356:328|376:304|412:280|416:260|436:236|424:204|408:184|404:136|356:136|284:160|256:132|360:88|368:88|384:84|392:80|408:76|416:80|436:88|440:92|448:96|460:108|468:120|476:144|476:148|480:160|476:176|472:184|472:156|472:156,1,720
92,180,355110,5,0,0:0:0:0:
284,100,355253,1,0,0:0:0:0:
96,216,355538,1,0,0:0:0:0:
146,254,355609,1,0,0:0:0:0:
204,284,355681,2,0,L|272:300,1,40
308,296,355823,1,0,0:0:0:0:
370,284,355895,1,0,0:0:0:0:
329,235,355967,1,0,0:0:0:0:
277,199,356038,1,0,0:0:0:0:
217,175,356109,5,0,0:0:0:0:
416,84,356253,1,0,0:0:0:0:
80,128,356396,1,0,0:0:0:0:
412,192,356538,1,0,0:0:0:0:
80,208,356681,1,0,0:0:0:0:
400,268,356824,1,0,0:0:0:0:
72,292,356967,1,0,0:0:0:0:
384,344,357110,1,0,0:0:0:0:
60,76,357253,6,0,L|152:128,1,95.9999970703126
144,276,357538,2,0,L|256:216,1,95.9999970703126
240,96,357824,2,0,L|344:160,1,95.9999970703126
328,220,358110,2,0,L|436:184,1,95.9999970703126
224,56,358396,5,0,0:0:0:0:
104,184,358538,1,0,0:0:0:0:
320,80,358681,1,0,0:0:0:0:
132,264,358824,1,0,0:0:0:0:
404,72,358967,1,0,0:0:0:0:
164,344,359110,1,0,0:0:0:0:
436,132,359253,1,0,0:0:0:0:
264,328,359396,1,0,0:0:0:0:
104,164,359538,6,0,P|64:116|108:80,1,95.9999970703126
360,132,359824,1,0,0:0:0:0:
120,248,359967,1,0,0:0:0:0:
360,200,360110,2,0,P|412:152|384:104,1,95.9999970703126
128,84,360396,1,0,0:0:0:0:
368,272,360538,1,0,0:0:0:0:
136,248,360681,5,0,0:0:0:0:
340,164,360824,1,0,0:0:0:0:
136,100,360967,1,0,0:0:0:0:
280,280,361110,1,0,0:0:0:0:
228,96,361253,1,0,0:0:0:0:
176,304,361396,1,0,0:0:0:0:
312,200,361538,1,0,0:0:0:0:
116,172,361681,1,0,0:0:0:0:
336,132,361824,6,0,P|420:92|440:68,1,95.9999970703126
144,208,362110,1,0,0:0:0:0:
40,316,362253,1,0,0:0:0:0:
336,124,362396,1,0,0:0:0:0:
456,40,362538,1,0,0:0:0:0:
136,252,362681,2,0,L|52:328,1,95.9999970703126
336,152,362967,5,0,0:0:0:0:
68,72,363110,1,0,0:0:0:0:
160,288,363253,1,0,0:0:0:0:
308,44,363396,1,0,0:0:0:0:
468,204,363538,1,0,0:0:0:0:
280,344,363681,1,0,0:0:0:0:
164,116,363824,2,0,P|264:100|288:112,1,95.9999970703126
168,312,364110,5,0,0:0:0:0:
392,188,364253,1,0,0:0:0:0:
148,72,364396,1,0,0:0:0:0:
280,328,364538,1,0,0:0:0:0:
276,72,364681,1,0,0:0:0:0:
312,216,364967,1,0,0:0:0:0:
355,198,365038,1,0,0:0:0:0:
385,161,365109,1,0,0:0:0:0:
394,114,365181,1,0,0:0:0:0:
378,69,365252,5,0,0:0:0:0:
124,116,365396,1,0,0:0:0:0:
356,264,365538,1,0,0:0:0:0:
248,56,365681,1,0,0:0:0:0:
84,256,365824,1,0,0:0:0:0:
304,76,365967,1,0,0:0:0:0:
300,268,366110,1,0,0:0:0:0:
96,84,366253,1,0,0:0:0:0:
380,224,366396,6,0,L|344:324,1,95.9999970703126
272,160,366681,2,0,L|300:260,1,95.9999970703126
224,100,366967,2,0,L|192:204,1,95.9999970703126
108,48,367253,2,0,L|144:156,1,95.9999970703126
360,144,367538,5,0,0:0:0:0:
104,272,367681,1,0,0:0:0:0:
268,60,367824,1,0,0:0:0:0:
276,300,367967,1,0,0:0:0:0:
112,140,368110,2,0,P|72:64|84:44,1,95.9999970703126
332,108,368396,1,0,0:0:0:0:
184,304,368538,1,0,0:0:0:0:
360,144,368681,6,0,P|400:80|372:56,1,95.9999970703126
120,108,368967,1,0,0:0:0:0:
76,252,369110,1,0,0:0:0:0:
364,224,369253,2,0,P|412:172|436:136,3,95.9999970703126
184,60,369824,6,0,P|96:52|80:76,1,95.9999970703126
144,300,370110,1,0,0:0:0:0:
380,128,370253,1,0,0:0:0:0:
216,64,370396,1,0,0:0:0:0:
192,300,370538,1,0,0:0:0:0:
36,96,370681,1,0,0:0:0:0:
344,76,370824,1,0,0:0:0:0:
128,328,370967,6,0,L|56:256,1,95.9999970703126
368,40,371253,2,0,L|448:140,1,95.9999970703126
184,36,371538,2,0,L|96:120,1,95.9999970703126
360,320,371824,2,0,L|424:244,1,95.9999970703126
160,96,372110,5,0,0:0:0:0:
324,268,372253,1,0,0:0:0:0:
220,76,372396,5,0,0:0:0:0:
248,280,372538,1,0,0:0:0:0:
296,80,372681,5,0,0:0:0:0:
176,248,372824,1,0,0:0:0:0:
352,132,372967,5,0,0:0:0:0:
132,180,373110,1,0,0:0:0:0:
352,200,373253,6,0,P|340:256|296:272,1,95.9999970703126
108,120,373538,1,0,0:0:0:0:
344,76,373681,1,0,0:0:0:0:
152,280,373824,1,0,0:0:0:0:
208,40,373967,1,0,0:0:0:0:
252,240,374110,1,0,0:0:0:0:
288,271,374181,1,0,0:0:0:0:
332,288,374253,2,0,L|392:292,1,47.9999985351563
420,264,374395,5,0,0:0:0:0:
152,264,374538,1,0,0:0:0:0:
152,56,374681,1,0,0:0:0:0:
396,64,374824,1,0,0:0:0:0:
280,304,374967,1,0,0:0:0:0:
128,136,375110,1,0,0:0:0:0:
308,8,375253,1,0,0:0:0:0:
436,156,375396,1,0,0:0:0:0:
192,248,375538,5,0,0:0:0:0:
376,76,375681,1,0,0:0:0:0:
104,124,375824,1,0,0:0:0:0:
380,128,375967,1,0,0:0:0:0:
216,32,376110,1,0,0:0:0:0:
260,252,376253,1,0,0:0:0:0:
288,28,376396,1,0,0:0:0:0:
184,240,376538,1,0,0:0:0:0:
368,104,376681,5,0,0:0:0:0:
92,136,376824,1,0,0:0:0:0:
264,296,376967,1,0,0:0:0:0:
240,52,377110,1,0,0:0:0:0:
80,228,377253,1,0,0:0:0:0:
356,176,377396,1,0,0:0:0:0:
132,56,377538,1,0,0:0:0:0:
248,276,377681,1,0,0:0:0:0:
404,72,377824,5,0,0:0:0:0:
416,288,377967,1,0,0:0:0:0:
264,64,378110,1,0,0:0:0:0:
280,296,378253,1,0,0:0:0:0:
76,72,378396,1,0,0:0:0:0:
228,260,378538,1,0,0:0:0:0:
28,176,378681,1,0,0:0:0:0:
240,164,378824,1,0,0:0:0:0:
460,168,378967,6,0,P|448:232|408:260,1,95.9999970703126
104,160,379253,2,0,P|140:96|164:76,1,95.9999970703126
352,316,379538,2,0,P|260:328|240:316,1,95.9999970703126
340,52,379824,2,0,P|400:56|436:104,1,95.9999970703126
88,264,380110,5,0,0:0:0:0:
184,68,380253,1,0,0:0:0:0:
252,288,380396,1,0,0:0:0:0:
248,64,380538,1,0,0:0:0:0:
368,280,380681,1,0,0:0:0:0:
360,64,380824,1,0,0:0:0:0:
476,236,380967,1,0,0:0:0:0:
280,192,381110,1,0,0:0:0:0:
48,60,381253,5,0,0:0:0:0:
284,56,381396,1,0,0:0:0:0:
472,168,381538,1,0,0:0:0:0:
224,160,381681,1,0,0:0:0:0:
32,244,381824,1,0,0:0:0:0:
284,236,381967,1,0,0:0:0:0:
480,328,382110,1,0,0:0:0:0:
224,328,382253,1,0,0:0:0:0:
100,100,382396,6,0,P|144:64|188:48,1,95.9999970703126
404,272,382681,2,0,P|356:328|332:328,1,95.9999970703126
108,248,382967,1,0,0:0:0:0:
96,202,383038,1,0,0:0:0:0:
111,157,383109,1,0,0:0:0:0:
149,128,383181,1,0,0:0:0:0:
196,124,383253,2,0,L|248:128,1,47.9999985351563
292,132,383396,1,0,0:0:0:0:
338,130,383467,1,0,0:0:0:0:
369,95,383538,5,0,0:0:0:0:
124,112,383681,1,0,0:0:0:0:
248,308,383824,1,0,0:0:0:0:
416,192,383967,1,0,0:0:0:0:
232,80,384110,1,0,0:0:0:0:
160,280,384253,1,0,0:0:0:0:
392,328,384396,1,0,0:0:0:0:
436,136,384538,1,0,0:0:0:0:
188,92,384681,5,0,0:0:0:0:
412,156,384824,1,0,0:0:0:0:
148,196,384967,1,0,0:0:0:0:
368,288,385110,1,0,0:0:0:0:
112,272,385253,1,0,0:0:0:0:
344,204,385396,1,0,0:0:0:0:
144,128,385538,1,0,0:0:0:0:
332,84,385681,1,0,0:0:0:0:
76,76,385824,5,0,0:0:0:0:
180,276,385967,1,0,0:0:0:0:
252,48,386110,1,0,0:0:0:0:
180,280,386253,1,0,0:0:0:0:
396,164,386396,1,0,0:0:0:0:
180,276,386538,1,0,0:0:0:0:
404,332,386681,1,0,0:0:0:0:
180,276,386824,1,0,0:0:0:0:
112,136,386967,6,0,L|48:56,1,95.9999970703126
244,132,387253,2,0,L|320:44,1,95.9999970703126
148,232,387538,2,0,L|80:320,1,95.9999970703126
368,224,387824,1,0,0:0:0:0:
408,199,387895,1,0,0:0:0:0:
424,155,387966,1,0,0:0:0:0:
410,110,388038,1,0,0:0:0:0:
376,80,388110,6,0,P|312:60|276:56,1,95.9999970703126
108,244,388396,2,0,L|212:312,1,95.9999970703126
424,120,388681,2,0,B|392:56|372:40|372:40|368:40,1,95.9999970703126
52,164,388967,2,0,P|64:240|92:272,1,95.9999970703126
392,240,389253,1,0,0:0:0:0:
152,116,389396,1,0,0:0:0:0:
408,96,389538,1,0,0:0:0:0:
172,264,389681,1,0,0:0:0:0:
296,48,389824,1,0,0:0:0:0:
292,292,389967,1,0,0:0:0:0:
180,60,390110,1,0,0:0:0:0:
384,232,390253,1,0,0:0:0:0:
52,48,390396,6,0,L|160:48,1,95.9999970703126
480,84,390681,2,0,L|376:84,1,95.9999970703126
48,128,390967,2,0,L|160:128,1,95.9999970703126
480,156,391253,2,0,L|368:156,1,95.9999970703126
48,200,391538,2,0,P|144:200|144:200,1,95.9999970703126
480,232,391824,2,0,L|368:232,1,95.9999970703126
72,236,392110,1,0,0:0:0:0:
72,282,392181,1,0,0:0:0:0:
105,316,392252,1,0,0:0:0:0:
151,327,392324,1,0,0:0:0:0:
198,318,392395,1,0,0:0:0:0:
240,296,392467,1,0,0:0:0:0:
269,331,392538,1,0,0:0:0:0:
316,334,392609,1,0,0:0:0:0:
360,316,392681,5,4,0:0:0:0:
