osu file format v14

[General]
AudioFilename: audio.mp3
AudioLeadIn: 0
PreviewTime: 145672
Countdown: 0
SampleSet: Soft
StackLeniency: 0.7
Mode: 0
LetterboxInBreaks: 0
WidescreenStoryboard: 1

[Editor]
Bookmarks: 35976,54261,72547,90833,99976,109118,127404,136547,145690,154690,163833,173118,182261,191404,200547,218833,227976,237118,246118,255261,264547,273690,282833,291976,301118,310261,319404,328404,337547,346833,355976,365118,374261,383404,392547,410833
DistanceSpacing: 1
BeatDivisor: 4
GridSize: 32
TimelineZoom: 2.1

[Metadata]
Title:Ira
TitleUnicode:Ira
Artist:Yousei Teikoku
ArtistUnicode:妖精帝國
Creator:Lasse
Version:Insane
Source:
Tags:GOTHIC LOLITA PROPAGANDA japanese rock 伊月ゆい itsuki yui
BeatmapID:4434604
BeatmapSetID:2108981

[Difficulty]
HPDrainRate:5
CircleSize:4
OverallDifficulty:8
ApproachRate:9
SliderMultiplier:1.55
SliderTickRate:1

[Events]
//Background and Video events
0,0,"h678647-1.jpg",0,0
//Break Periods
//Storyboard Layer 0 (Background)
//Storyboard Layer 1 (Fail)
//Storyboard Layer 2 (Pass)
//Storyboard Layer 3 (Foreground)
//Storyboard Layer 4 (Overlay)
//Storyboard Sound Samples

[TimingPoints]
35976,285.714285714286,4,2,1,55,1,0
35976,-133.333333333333,4,2,1,55,0,0
53547,-133.333333333333,4,2,1,60,0,0
53976,-133.333333333333,4,2,1,65,0,0
54261,-100,4,1,1,70,0,0
72547,-133.333333333333,4,2,1,55,0,0
90261,-133.333333333333,4,2,1,60,0,0
90547,-133.333333333333,4,2,1,65,0,0
90833,-100,4,1,1,70,0,0
108547,-100,4,1,1,60,0,0
109118,-133.333333333333,4,2,1,55,0,0
117976,-166.666666666667,4,2,1,55,0,0
118261,-133.333333333333,4,2,1,55,0,0
127261,-111.111111111111,4,2,1,55,0,0
127404,-111.111111111111,4,2,1,60,0,0
131976,-100,4,2,1,60,0,0
133261,-111.111111111111,4,2,1,60,0,0
134261,-100,4,2,1,60,0,0
135404,-111.111111111111,4,2,1,60,0,0
143404,-111.111111111111,4,2,1,62,0,0
143833,-111.111111111111,4,2,1,64,0,0
144261,-111.111111111111,4,2,1,66,0,0
144690,-111.111111111111,4,2,1,68,0,0
145118,-111.111111111111,4,2,1,70,0,0
145404,-111.111111111111,4,2,1,65,0,0
145690,-90.9090909090909,4,1,1,70,0,1
154618,-90.9090909090909,4,1,1,70,0,0
154690,-90.9090909090909,4,1,1,70,0,1
155118,-90.9090909090909,4,1,1,70,0,1
163761,-90.9090909090909,4,1,1,70,0,0
163833,-100,4,1,1,65,0,0
172976,-133.333333333333,4,2,1,60,0,0
181690,-166.666666666667,4,2,1,60,0,0
182261,-100,4,1,1,70,0,0
199976,-100,4,1,1,60,0,0
200547,-133.333333333333,4,2,1,55,0,0
209136,-133.333333333333,4,2,1,25,0,0
209154,-133.333333333333,4,2,1,26,0,0
209172,-133.333333333333,4,2,1,27,0,0
209190,-133.333333333333,4,2,1,28,0,0
209208,-133.333333333333,4,2,1,29,0,0
209226,-133.333333333333,4,2,1,30,0,0
209243,-133.333333333333,4,2,1,31,0,0
209261,-133.333333333333,4,2,1,32,0,0
209279,-133.333333333333,4,2,1,33,0,0
209297,-133.333333333333,4,2,1,34,0,0
209315,-133.333333333333,4,2,1,35,0,0
209333,-133.333333333333,4,2,1,36,0,0
209351,-133.333333333333,4,2,1,37,0,0
209368,-133.333333333333,4,2,1,38,0,0
209386,-133.333333333333,4,2,1,39,0,0
209404,-133.333333333333,4,2,1,40,0,0
209422,-133.333333333333,4,2,1,41,0,0
209440,-133.333333333333,4,2,1,42,0,0
209458,-133.333333333333,4,2,1,43,0,0
209476,-133.333333333333,4,2,1,44,0,0
209493,-133.333333333333,4,2,1,45,0,0
209511,-133.333333333333,4,2,1,46,0,0
209529,-133.333333333333,4,2,1,47,0,0
209547,-133.333333333333,4,2,1,48,0,0
209565,-133.333333333333,4,2,1,49,0,0
209583,-133.333333333333,4,2,1,50,0,0
209601,-133.333333333333,4,2,1,51,0,0
209618,-133.333333333333,4,2,1,52,0,0
209690,-133.333333333333,4,2,1,55,0,0
218833,-111.111111111111,4,2,1,60,0,0
223404,-100,4,2,1,60,0,0
224547,-111.111111111111,4,2,1,60,0,0
225690,-100,4,2,1,60,0,0
226833,-111.111111111111,4,2,1,60,0,0
234833,-111.111111111111,4,2,1,62,0,0
235261,-111.111111111111,4,2,1,64,0,0
235690,-111.111111111111,4,2,1,66,0,0
236118,-111.111111111111,4,2,1,68,0,0
236547,-111.111111111111,4,2,1,70,0,0
236833,-111.111111111111,4,2,1,65,0,0
237118,-90.9090909090909,4,1,1,70,0,1
246047,-90.9090909090909,4,1,1,70,0,0
246118,-90.9090909090909,4,1,1,70,0,1
246404,-90.9090909090909,4,1,1,70,0,1
255261,-100,4,1,1,65,0,0
264546,-133.333333333333,4,2,1,60,0,0
273690,-100,4,1,1,70,0,0
291976,-125,4,2,1,60,0,0
301118,-90.9090909090909,4,1,1,75,0,1
301261,-90.9090909090909,4,1,2,75,0,1
302833,-83.3333333333333,4,1,3,75,0,1
303404,-90.9090909090909,4,1,1,75,0,1
303547,-90.9090909090909,4,1,2,75,0,1
305118,-125,4,2,1,70,0,1
305690,-90.9090909090909,4,1,1,75,0,1
305833,-90.9090909090909,4,1,2,75,0,1
307404,-83.3333333333333,4,1,3,75,0,1
307976,-83.3333333333333,4,1,1,75,0,1
308118,-90.9090909090909,4,1,2,75,0,1
309690,-90.9090909090909,4,1,3,75,0,1
309833,-90.9090909090909,4,1,1,70,0,1
309904,-90.9090909090909,4,1,1,68,0,1
309976,-90.9090909090909,4,1,1,66,0,1
310047,-90.9090909090909,4,1,1,64,0,1
310118,-90.9090909090909,4,1,1,62,0,1
310190,-90.9090909090909,4,1,1,60,0,1
310261,-166.666666666667,4,2,1,55,0,0
316261,-166.666666666667,4,2,1,60,0,0
317118,-166.666666666667,4,2,1,62,0,0
317547,-166.666666666667,4,2,1,64,0,0
317976,-166.666666666667,4,2,1,66,0,0
318404,-166.666666666667,4,2,1,68,0,0
318833,-166.666666666667,4,2,1,70,0,0
319118,-166.666666666667,4,2,1,65,0,0
319404,-90.9090909090909,4,1,1,70,0,1
328333,-90.9090909090909,4,1,1,70,0,0
328404,-90.9090909090909,4,1,1,70,0,1
328690,-90.9090909090909,4,1,1,70,0,1
337547,-100,4,1,1,65,0,0
346833,-133.333333333333,4,2,1,60,0,0
355976,-100,4,1,1,70,0,0
364833,-200,4,2,1,60,0,0
365118,-100,4,1,1,70,0,0
374047,-100,4,1,1,60,0,0
374118,-100,4,1,1,70,0,0
374190,-100,4,1,1,60,0,0
374261,-86.2068965517241,4,1,1,77,0,1
382261,-75.7575757575758,4,1,3,77,0,1
382833,-86.2068965517241,4,2,1,65,0,0
383118,-100,4,2,1,70,0,0
383404,-81.9672131147541,4,1,1,80,0,1
391404,-71.4285714285714,4,1,3,80,0,1
391976,-81.9672131147541,4,2,3,78,0,1
392047,-81.9672131147541,4,2,3,76,0,1
392118,-81.9672131147541,4,2,3,74,0,1
392190,-81.9672131147541,4,2,3,72,0,1
392261,-81.9672131147541,4,2,3,70,0,1
392333,-81.9672131147541,4,2,3,68,0,1
392404,-81.9672131147541,4,2,3,66,0,1
392476,-81.9672131147541,4,2,3,64,0,1
392547,-166.666666666667,4,1,1,62,0,0

[Colours]
Combo1 : 164,0,82
Combo2 : 194,135,135
Combo3 : 192,192,192
Combo4 : 132,132,193
Combo5 : 123,62,65
Combo6 : 104,57,136
Combo7 : 0,117,117
Combo8 : 51,91,140

[HitObjects]
111,200,35976,22,0,B|59:231|-3:205,2,116.250004434586,4|0|8,1:2|0:0|0:0,0:0:0:0:
174,158,36690,1,0,0:0:0:0:
220,217,36833,2,0,B|225:342,1,116.250004434586,0|2,0:0|0:0,0:0:0:0:
283,380,37261,1,0,0:0:0:0:
335,325,37404,2,0,B|338:247,1,58.1250022172929,0|0,1:0|0:0,0:0:0:0:
430,188,37690,2,0,B|461:225|455:270|418:299,1,116.250004434586,8|0,0:0|0:0,0:0:0:0:
245,321,38261,102,0,L|164:306,1,58.1250022172929,2|0,1:2|0:0,0:0:0:0:
74,356,38547,2,0,L|155:371,1,58.1250022172929
151,239,38833,2,0,L|137:166,1,58.1250022172929,8|0,0:0|0:0,0:0:0:0:
117,106,39118,2,0,B|57:97|-3:135,1,116.250004434586,0|2,0:0|0:0,0:0:0:0:
140,182,39547,1,8,0:0:0:0:
218,196,39690,2,0,B|278:205|338:167,2,116.250004434586,0|8|0,1:0|0:0|0:0,0:0:0:0:
324,343,40547,6,0,B|375:375|435:366,1,116.250004434586,2|0,1:2|0:0,0:0:0:0:
498,324,40976,1,0,0:0:0:0:
510,249,41118,2,0,L|500:185,1,58.1250022172929,8|0,0:0|0:0,0:0:0:0:
411,236,41404,2,0,L|435:108,1,116.250004434586,0|2,0:0|0:0,0:0:0:0:
390,58,41833,1,0,0:0:0:0:
319,85,41976,2,0,P|305:116|303:160,1,58.1250022172929,0|0,1:0|0:0,0:0:0:0:
323,234,42261,2,0,B|274:202|212:207,1,116.250004434586,8|0,0:0|0:0,0:0:0:0:
34,242,42833,102,0,L|31:176,1,58.1250022172929,2|0,1:2|0:0,0:0:0:0:
118,124,43118,2,0,L|121:190,1,58.1250022172929
194,239,43404,2,0,B|243:271|304:265,2,116.250004434586,8|0|2,0:0|0:0|0:0,0:0:0:0:
120,182,44118,1,8,0:0:0:0:
204,140,44261,2,0,P|218:111|220:74,1,58.1250022172929,0|0,1:0|0:0,0:0:0:0:
137,17,44547,1,8,0:0:0:0:
137,17,45118,6,0,B|85:59|106:126,2,116.250004434586,4|0|8,1:2|0:0|0:0,0:0:0:0:
213,19,45833,1,0,0:0:0:0:
275,62,45976,2,0,B|294:123|242:165,1,116.250004434586,0|2,0:0|0:0,0:0:0:0:
185,215,46404,1,0,0:0:0:0:
212,283,46547,2,0,L|216:342,1,58.1250022172929,0|0,1:0|0:0,0:0:0:0:
300,306,46833,2,0,B|361:325|415:299,1,116.250004434586,8|0,0:0|0:0,0:0:0:0:
512,145,47404,102,0,L|450:130,1,58.1250022172929,2|0,1:2|0:0,0:0:0:0:
435,43,47690,2,0,L|497:58,1,58.1250022172929
424,204,47976,2,0,L|367:190,1,58.1250022172929,8|0,0:0|0:0,0:0:0:0:
283,130,48261,2,0,B|290:265,1,116.250004434586,0|2,0:0|0:0,0:0:0:0:
201,312,48690,1,8,0:0:0:0:
119,244,48833,2,0,B|54:222|-1:259,2,116.250004434586,0|8|0,1:0|0:0|0:0,0:0:0:0:
287,357,49690,6,0,B|352:379|407:342,1,116.250004434586,2|0,1:2|0:0,0:0:0:0:
457,298,50118,1,0,0:0:0:0:
429,228,50261,2,0,P|393:216|354:210,1,58.1250022172929,8|0,0:0|0:0,0:0:0:0:
318,130,50547,2,0,B|381:139|428:100,1,116.250004434586,0|2,0:0|0:0,0:0:0:0:
411,17,50976,1,0,0:0:0:0:
331,46,51118,2,0,L|265:29,1,58.1250022172929,0|0,1:0|0:0,0:0:0:0:
181,10,51404,2,0,B|192:141,1,116.250004434586,8|0,0:0|0:0,0:0:0:0:
56,262,51976,102,0,P|20:260|-9:247,1,58.1250022172929,2|0,1:2|0:0,0:0:0:0:
54,175,52261,2,0,P|90:177|119:190,1,58.1250022172929
153,268,52547,2,0,B|161:395,2,116.250004434586,8|0|2,0:0|0:0|0:0,0:0:0:0:
213,193,53261,1,8,0:0:0:0:
270,270,53404,2,0,P|296:279|340:279,1,58.1250022172929,0|0,1:0|0:0,0:0:0:0:
425,210,53690,5,8,0:0:0:0:
507,192,53833,1,0,1:0:0:0:
481,271,53976,1,8,0:0:0:0:
442,129,54118,53,8,0:0:0:0:
442,129,54190,1,8,0:0:0:0:
442,129,54261,2,0,B|370:80|294:108,1,155,4|8,0:0|0:2,0:0:0:0:
203,152,54690,1,0,0:2:0:0:
111,109,54833,2,0,P|101:71|106:26,1,77.5,2|0,0:2|0:2,0:0:0:0:
203,152,55118,2,0,B|251:217|220:302,1,155,8|2,0:2|0:2,0:0:0:0:
151,364,55547,101,0,0:2:0:0:
74,377,55690,1,8,0:2:0:0:
21,319,55833,1,0,0:2:0:0:
38,243,55976,1,2,0:2:0:0:
108,211,56118,1,0,0:2:0:0:
111,133,56261,2,0,P|80:115|40:104,1,77.5,8|0,0:2|0:2,0:2:0:0:
180,25,56547,5,2,0:2:0:0:
180,25,56690,2,0,P|211:43|251:54,1,77.5,0|8,0:2|0:2,0:0:0:0:
262,180,56976,1,0,0:2:0:0:
392,144,57118,2,0,P|358:126|321:115,1,77.5,2|0,0:2|0:2,0:2:0:0:
271,262,57404,2,0,P|305:280|342:291,1,77.5,8|0,0:2|0:2,0:2:0:0:
446,243,57690,102,0,B|508:187|489:98,1,155,2|8,0:2|0:2,0:0:0:0:
450,25,58118,1,0,0:2:0:0:
404,111,58261,1,2,0:2:0:0:
404,111,58404,1,0,0:2:0:0:
353,5,58547,1,8,0:2:0:0:
353,5,58690,1,0,0:2:0:0:
301,119,58833,6,0,L|206:99,1,77.5,2|0,0:2|0:0,0:2:0:0:
389,187,59118,2,0,L|407:91,1,77.5,8|0,0:2|0:2,0:0:0:0:
321,275,59404,2,0,L|416:293,1,77.5,2|0,0:2|0:2,0:0:0:0:
233,207,59690,2,0,L|214:302,1,77.5,8|0,0:2|0:2,0:2:0:0:
143,372,59976,101,2,0:2:0:0:
83,323,60118,1,0,0:2:0:0:
111,251,60261,1,8,0:2:0:0:
68,185,60404,1,0,0:2:0:0:
112,121,60547,2,0,L|97:44,1,77.5,2|0,0:2|0:2,0:0:0:0:
184,148,60833,2,0,B|246:202|329:180,1,155,8|2,0:2|0:2,0:0:0:0:
482,143,61261,5,0,0:2:0:0:
482,143,61404,2,0,L|504:220,1,77.5,8|0,0:2|0:0,0:2:0:0:
433,289,61690,2,0,L|411:212,1,77.5,2|0,0:2|0:2,0:0:0:0:
328,180,61976,1,8,0:2:0:0:
393,119,62118,1,0,0:2:0:0:
313,59,62261,102,0,B|237:14|160:70,1,155,2|8,0:2|0:2,0:0:0:0:
129,188,62690,1,0,0:2:0:0:
16,133,62833,2,0,P|49:121|95:115,1,77.5,2|0,0:2|0:2,0:0:0:0:
221,187,63118,5,8,2:2:0:0:
221,187,63261,1,8,2:2:0:0:
196,324,63404,102,0,B|265:374|341:329,1,155,4|8,0:1|0:2,0:0:0:0:
397,224,63833,1,0,0:2:0:0:
339,138,63976,2,0,B|261:172|262:261,1,155,2|8,0:2|0:2,0:2:0:0:
397,224,64404,1,0,0:2:0:0:
450,143,64547,6,0,P|439:105|426:66,1,77.5,2|0,0:2|0:2,0:0:0:0:
317,63,64833,2,0,P|327:101|339:138,1,77.5,8|0,0:2|0:2,0:0:0:0:
251,209,65118,2,0,P|240:171|227:132,1,77.5,2|0,0:2|0:2,0:0:0:0:
99,77,65404,2,0,P|109:114|121:151,1,77.5,8|0,0:2|0:2,0:0:0:0:
95,248,65690,101,2,0:2:0:0:
26,284,65833,1,0,0:2:0:0:
66,350,65976,1,8,0:2:0:0:
136,319,66118,1,0,0:2:0:0:
212,372,66261,2,0,L|222:269,1,77.5,2|0,0:2|0:2,0:0:0:0:
322,206,66547,2,0,B|364:246|350:318|305:339,1,155,8|2,0:2|0:2,0:0:0:0:
230,212,66976,5,0,0:2:0:0:
144,239,67118,2,0,L|42:264,1,77.5,8|0,0:2|0:2,0:0:0:0:
160,153,67404,2,0,B|117:112|131:40|176:19,1,155,2|8,0:2|0:2,0:2:0:0:
252,4,67833,1,0,0:2:0:0:
325,69,67976,102,0,L|420:58,1,77.5,2|0,0:2|0:2,0:0:0:0:
510,143,68261,2,0,L|415:154,1,77.5,8|0,0:2|0:2,0:0:0:0:
379,219,68547,1,2,0:2:0:0:
448,269,68690,1,0,0:2:0:0:
397,337,68833,2,0,B|347:313|296:337|296:337|247:322,1,155,8|2,0:2|0:2,0:0:0:0:
180,248,69261,5,0,0:0:0:0:
117,293,69404,1,8,0:2:0:0:
46,260,69547,1,0,0:2:0:0:
38,182,69690,1,2,0:2:0:0:
102,137,69833,1,0,0:2:0:0:
172,169,69976,2,0,P|217:182|256:187,1,77.5,8|0,0:2|0:2,0:0:0:0:
323,290,70261,102,0,B|404:333|474:257,1,155,2|8,0:2|0:2,0:2:0:0:
497,172,70690,1,0,0:2:0:0:
419,115,70833,2,0,P|380:121|343:132,1,77.5,2|0,0:2|0:2,0:0:0:0:
247,186,71118,2,0,P|208:179|171:168,1,77.5,8|0,0:2|0:2,0:0:0:0:
62,115,71404,5,2,0:2:0:0:
62,115,71547,1,0,0:2:0:0:
85,224,71690,1,8,0:2:0:0:
85,224,71833,1,0,0:2:0:0:
175,172,71976,1,2,0:2:0:0:
175,172,72118,1,0,0:2:0:0:
240,228,72261,69,8,2:0:0:0:
236,246,72333,1,8,2:3:0:0:
232,265,72404,1,4,2:3:0:0:
228,284,72476,1,4,2:3:0:0:
224,303,72547,2,0,L|237:370,1,58.1250022172929,4|2,1:2|0:0,0:0:0:0:
465,328,72976,2,0,L|453:385,1,58.1250022172929,0|10,0:0|0:0,0:0:0:0:
346,270,73404,1,0,0:0:0:0:
346,270,73547,2,0,B|372:214|359:151,1,116.250004434586,0|2,0:0|0:0,0:0:0:0:
333,84,73976,1,0,1:0:0:0:
256,214,74261,1,10,0:0:0:0:
179,84,74547,1,0,0:0:0:0:
30,114,74833,101,0,1:0:0:0:
30,114,74976,1,2,0:0:0:0:
56,262,75261,1,0,0:0:0:0:
56,262,75404,1,10,0:0:0:0:
203,226,75690,1,0,0:0:0:0:
203,226,75833,2,0,L|186:96,1,116.250004434586,0|2,0:0|0:0,0:0:0:0:
175,36,76261,1,0,1:0:0:0:
337,36,76547,1,10,0:0:0:0:
322,110,76690,1,0,1:0:0:0:
394,128,76833,1,2,0:0:0:0:
512,257,77118,6,0,P|484:248|437:243,1,58.1250022172929,0|2,1:0|0:0,0:0:0:0:
311,303,77547,1,0,0:0:0:0:
311,303,77690,2,0,B|323:346|279:386|241:369,1,116.250004434586,10|0,0:0|0:0,0:0:0:0:
222,295,78118,2,0,B|210:252|254:212|291:228,1,116.250004434586,0|2,0:0|0:0,0:0:0:0:
355,189,78547,1,0,1:0:0:0:
256,74,78833,1,10,0:0:0:0:
157,189,79118,2,0,L|163:265,1,58.1250022172929
85,310,79404,101,0,1:0:0:0:
85,310,79547,1,2,0:0:0:0:
0,192,79833,1,0,0:0:0:0:
0,192,79976,1,10,0:0:0:0:
85,74,80261,1,0,0:0:0:0:
85,74,80404,2,0,B|136:100|198:64,1,116.250004434586
256,19,80833,1,2,1:2:0:0:
256,192,81118,1,10,0:0:0:0:
256,267,81261,2,0,L|256:344,1,58.1250022172929,0|0,1:0|0:0,0:0:0:0:
453,384,81690,6,0,P|459:358|459:326,1,58.1250022172929,4|2,1:2|0:0,0:0:0:0:
484,172,82118,2,0,P|490:198|490:230,1,58.1250022172929,0|10,0:0|0:0,0:0:0:0:
357,299,82547,1,0,0:0:0:0:
357,299,82690,1,0,0:0:0:0:
256,192,82976,1,2,0:0:0:0:
256,192,83118,2,0,L|256:64,2,116.250004434586,0|10|0,1:0|0:0|0:0,0:0:0:0:
155,299,83976,101,0,1:0:0:0:
155,299,84118,1,2,0:0:0:0:
32,192,84404,1,0,0:0:0:0:
32,192,84547,1,10,0:0:0:0:
155,85,84833,1,0,0:0:0:0:
155,85,84976,2,0,B|200:126|268:111,1,116.250004434586,0|2,0:0|0:0,0:0:0:0:
331,78,85404,1,0,1:0:0:0:
473,192,85690,1,10,0:0:0:0:
407,230,85833,1,0,1:0:0:0:
407,154,85976,1,2,0:0:0:0:
331,306,86261,6,0,L|337:376,1,58.1250022172929,0|2,1:0|0:0,0:0:0:0:
177,363,86690,1,0,0:0:0:0:
177,363,86833,2,0,L|186:247,1,116.250004434586,10|0,0:0|0:0,0:0:0:0:
192,171,87261,2,0,B|137:140|59:160,1,116.250004434586,0|2,0:0|0:0,0:0:0:0:
22,104,87690,1,0,1:0:0:0:
56,267,87976,1,10,0:0:0:0:
192,171,88261,2,0,L|204:91,1,58.1250022172929
256,32,88547,101,0,1:0:0:0:
256,32,88690,1,2,0:0:0:0:
405,54,88976,1,0,0:0:0:0:
405,54,89118,1,10,0:0:0:0:
389,204,89404,1,0,0:0:0:0:
389,204,89547,2,0,L|398:328,1,116.250004434586
349,379,89976,1,2,1:2:0:0:
195,309,90261,53,10,0:0:0:0:
115,366,90404,1,0,1:0:0:0:
33,311,90547,1,8,0:0:0:0:
28,289,90618,1,8,0:0:0:0:
29,267,90690,1,8,0:0:0:0:
34,246,90761,1,8,0:0:0:0:
43,227,90833,2,0,P|83:228|126:211,1,77.5,4|0,0:0|0:0,0:0:0:0:
127,102,91118,2,0,P|87:101|44:118,1,77.5,8|0,0:2|0:2,0:2:0:0:
209,185,91404,2,0,L|217:106,1,77.5,2|0,0:2|0:2,0:0:0:0:
333,40,91690,2,0,L|325:119,1,77.5,8|0,0:2|0:2,0:0:0:0:
363,206,91976,101,2,0:2:0:0:
363,206,92118,1,0,0:2:0:0:
459,193,92261,1,8,0:2:0:0:
459,193,92404,1,0,0:2:0:0:
472,289,92547,1,2,0:2:0:0:
472,289,92690,1,0,0:2:0:0:
376,302,92833,2,0,L|369:388,1,77.5,8|0,0:2|0:2,0:2:0:0:
226,336,93118,5,2,0:2:0:0:
226,336,93261,2,0,L|233:250,1,77.5,0|8,0:2|0:2,0:0:0:0:
90,181,93547,1,0,0:2:0:0:
175,108,93690,2,0,L|181:185,1,77.5,2|0,0:2|0:2,0:2:0:0:
232,259,93976,2,0,B|286:290|342:281|373:238,1,155,8|2,0:2|0:2,0:2:0:0:
433,147,94404,101,0,0:2:0:0:
344,116,94547,1,8,0:2:0:0:
258,151,94690,1,0,0:2:0:0:
175,108,94833,2,0,L|169:31,1,77.5,2|0,0:2|0:2,0:0:0:0:
67,177,95118,2,0,L|61:100,1,77.5,8|0,0:2|0:2,0:0:0:0:
191,195,95404,6,0,B|134:192|97:253|121:304,1,155,2|8,0:2|0:2,0:2:0:0:
182,375,95833,1,0,0:2:0:0:
260,330,95976,2,0,P|296:316|345:309,1,77.5,2|0,0:2|0:2,0:0:0:0:
424,364,96261,2,0,P|462:370|498:384,1,77.5,8|0,0:2|0:2,0:0:0:0:
413,268,96547,101,2,0:2:0:0:
413,268,96690,1,0,0:2:0:0:
497,220,96833,2,0,P|508:182|513:142,1,77.5,8|0,0:2|0:2,0:0:0:0:
361,120,97118,2,0,P|350:158|345:198,1,77.5,2|0,0:2|0:2,0:0:0:0:
428,168,97404,2,0,B|456:95|450:11,1,155,8|2,0:2|0:2,0:0:0:0:
297,57,97833,5,0,0:2:0:0:
219,22,97976,1,8,0:2:0:0:
182,98,98118,1,0,0:0:0:0:
260,133,98261,2,0,B|297:177|285:244|227:269,1,155,2|8,0:2|0:2,0:0:0:0:
163,295,98690,1,0,0:2:0:0:
81,202,98833,102,0,B|44:158|56:91|114:66,1,155,2|8,0:2|0:2,0:0:0:0:
199,48,99261,1,0,0:2:0:0:
260,133,99404,2,0,P|299:144|349:142,1,77.5,2|0,0:2|0:2,0:0:0:0:
459,69,99690,5,8,2:2:0:0:
459,69,99833,1,8,2:2:0:0:
509,206,99976,102,0,L|490:365,1,155,4|8,0:1|0:2,0:0:0:0:
392,384,100404,1,0,0:2:0:0:
345,322,100547,1,2,0:2:0:0:
377,251,100690,1,0,0:2:0:0:
335,185,100833,1,8,0:2:0:0:
368,115,100976,1,0,0:2:0:0:
328,48,101118,6,0,P|294:41|223:43,1,77.5,2|0,0:2|0:2,0:0:0:0:
152,5,101404,2,0,P|145:39|147:110,1,77.5,8|0,0:2|0:2,0:0:0:0:
109,181,101690,2,0,P|143:188|214:186,1,77.5,2|0,0:2|0:2,0:0:0:0:
285,224,101976,2,0,P|292:190|290:119,1,77.5,8|0,0:2|0:2,0:0:0:0:
192,196,102261,101,2,0:2:0:0:
192,196,102404,2,0,P|185:230|187:301,1,77.5,0|8,0:2|0:2,0:0:0:0:
219,350,102690,1,0,0:2:0:0:
302,331,102833,1,2,0:2:0:0:
378,369,102976,1,0,0:2:0:0:
451,325,103118,2,0,B|498:262|469:176,1,155,8|2,0:2|0:2,0:0:0:0:
399,92,103547,5,0,0:0:0:0:
338,161,103690,2,0,L|235:167,1,77.5,8|0,0:2|0:2,0:0:0:0:
310,71,103976,2,0,L|140:44,1,155,2|8,0:2|0:2,0:2:0:0:
94,0,104404,1,0,0:2:0:0:
103,109,104547,102,0,P|68:113|25:128,1,77.5,2|0,0:2|0:2,0:0:0:0:
163,208,104833,2,0,P|126:195|88:190,1,77.5,8|0,0:2|0:2,0:0:0:0:
0,237,105118,1,2,0:2:0:0:
0,237,105261,1,0,0:2:0:0:
42,328,105404,2,0,B|104:375|193:352,1,155,8|2,0:2|0:2,0:0:0:0:
291,304,105833,5,0,0:0:0:0:
358,342,105976,1,8,0:2:0:0:
433,322,106118,1,0,0:2:0:0:
459,249,106261,1,2,0:2:0:0:
432,176,106404,1,0,0:2:0:0:
356,158,106547,2,0,P|321:170|277:173,1,77.5,8|0,0:2|0:2,0:0:0:0:
166,238,106833,102,0,B|124:266|56:249|38:189,1,155,2|8,0:2|0:2,0:2:0:0:
115,82,107261,1,0,0:2:0:0:
17,102,107404,1,2,0:2:0:0:
49,16,107547,1,0,0:2:0:0:
134,99,107690,2,0,B|175:127|243:110|261:50,1,155,8|2,0:2|0:2,0:0:0:0:
411,160,108118,5,0,0:2:0:0:
411,160,108261,2,0,P|369:152|308:147,1,77.5,8|0,0:2|0:2,0:0:0:0:
229,196,108547,1,4,1:3:0:0:
212,219,108618,1,4,1:3:0:0:
204,247,108690,1,4,1:3:0:0:
206,276,108761,1,4,1:3:0:0:
217,303,108833,1,8,1:2:0:0:
132,201,109118,70,0,L|74:192,1,58.1250022172929,4|2,1:2|0:0,0:0:0:0:
380,183,109547,2,0,L|437:191,1,58.1250022172929,0|10,0:0|0:0,0:0:0:0:
254,272,109976,1,0,0:0:0:0:
254,272,110118,2,0,B|188:265|143:299,1,116.250004434586,0|2,0:0|0:0,0:0:0:0:
78,337,110547,1,0,1:0:0:0:
0,192,110833,1,10,0:0:0:0:
78,47,111118,1,0,0:0:0:0:
160,192,111404,101,0,1:0:0:0:
160,192,111547,1,2,0:0:0:0:
352,192,111833,1,0,0:0:0:0:
352,192,111976,1,10,0:0:0:0:
256,309,112261,1,0,0:0:0:0:
256,309,112404,2,0,L|256:192,1,116.250004434586,0|2,0:0|0:0,0:0:0:0:
256,117,112833,1,0,1:0:0:0:
394,57,113118,1,10,0:0:0:0:
415,129,113261,1,0,1:0:0:0:
488,111,113404,1,2,0:0:0:0:
424,299,113690,6,0,L|436:384,1,58.1250022172929,0|2,1:0|0:0,0:0:0:0:
294,304,114118,1,0,0:0:0:0:
294,304,114261,2,0,B|253:321|217:299|208:253,1,116.250004434586,10|0,0:0|0:0,0:0:0:0:
256,192,114690,2,0,B|297:209|333:187|341:141,1,116.250004434586,0|2,0:0|0:0,0:0:0:0:
360,68,115118,1,0,1:0:0:0:
207,9,115404,1,10,0:0:0:0:
80,110,115690,2,0,L|86:186,1,58.1250022172929
100,252,115976,101,0,1:0:0:0:
100,252,116118,1,2,0:0:0:0:
256,192,116404,1,0,0:0:0:0:
256,192,116547,1,10,0:0:0:0:
412,252,116833,1,0,0:0:0:0:
412,252,116976,2,0,B|440:197|414:130,1,116.250004434586
371,71,117404,1,2,1:2:0:0:
256,192,117690,1,10,0:0:0:0:
141,71,117976,102,0,L|136:36,1,23.2499992904663,2|0,0:3|0:3,0:3:0:0:
65,60,118118,2,0,L|69:94,1,23.2499992904663,2|0,0:3|0:3,0:3:0:0:
71,157,118261,22,0,P|41:158|-12:167,1,58.1250022172929,4|2,1:2|0:0,0:0:0:0:
117,303,118690,2,0,P|88:299|59:298,1,58.1250022172929,0|10,0:0|0:0,0:0:0:0:
177,192,119118,1,0,0:0:0:0:
177,192,119261,1,0,0:0:0:0:
335,192,119547,1,2,0:0:0:0:
335,192,119690,2,0,B|396:215|447:181,2,116.250004434586,0|10|0,1:0|0:0|0:0,0:0:0:0:
256,37,120547,101,0,1:0:0:0:
256,37,120690,1,2,0:0:0:0:
256,192,120976,1,0,0:0:0:0:
256,192,121118,1,10,0:0:0:0:
256,347,121404,1,0,0:0:0:0:
256,347,121547,2,0,B|203:321|132:331,1,116.250004434586,0|2,0:0|0:0,0:0:0:0:
70,352,121976,1,0,1:0:0:0:
128,192,122261,1,10,0:0:0:0:
55,171,122404,1,0,1:0:0:0:
43,245,122547,1,2,0:0:0:0:
181,123,122833,6,0,L|176:65,1,58.1250022172929,0|2,1:0|0:0,0:0:0:0:
336,65,123261,1,0,0:0:0:0:
336,65,123404,2,0,L|326:180,1,116.250004434586,10|0,0:0|0:0,0:0:0:0:
315,255,123833,2,0,B|368:291|448:266,1,116.250004434586,0|2,0:0|0:0,0:0:0:0:
493,235,124261,1,0,1:0:0:0:
439,88,124547,1,10,0:0:0:0:
284,100,124833,2,0,L|225:95,1,58.1250022172929
156,37,125118,101,0,1:0:0:0:
156,37,125261,1,2,0:0:0:0:
256,192,125547,1,0,0:0:0:0:
256,192,125690,1,10,0:0:0:0:
156,347,125976,1,0,0:0:0:0:
156,347,126118,2,0,B|93:370|40:334,1,116.250004434586
7,267,126547,1,2,1:2:0:0:
139,194,126833,5,10,0:0:0:0:
223,217,126976,1,0,1:0:0:0:
249,133,127118,1,8,2:2:0:0:
338,155,127261,5,8,2:3:0:0:
338,155,127333,1,8,2:3:0:0:
338,155,127404,2,0,B|382:219|350:291,1,139.499995742798,4|0,1:1|0:0,0:0:0:0:
257,347,127833,1,0,0:0:0:0:
257,347,127976,2,0,B|213:283|245:211,1,139.499995742798,8|0,0:0|0:2,0:0:0:0:
243,214,128547,70,0,L|167:204,1,69.749997871399,2|0,0:2|0:0,0:2:0:0:
102,282,128833,2,0,L|171:291,1,69.749997871399,0|0,1:2|0:2,0:0:0:0:
152,128,129118,2,0,L|141:51,1,69.749997871399,8|0,0:2|0:2,0:0:0:0:
66,130,129404,2,0,L|77:207,1,69.749997871399,0|0,0:2|0:2,0:2:0:0:
243,214,129690,38,0,B|278:150|248:63,1,139.499995742798,2|0,1:2|1:2,0:2:0:0:
342,185,130118,1,2,0:2:0:0:
342,185,130261,2,0,P|372:199|435:208,1,69.749997871399,8|0,0:2|0:2,0:2:0:0:
318,287,130547,2,0,P|284:294|252:309,1,69.749997871399,0|0,0:2|0:2,0:2:0:0:
170,373,130833,70,0,P|166:331|153:301,1,69.749997871399,2|0,0:2|0:2,0:2:0:0:
33,255,131118,2,0,P|20:287|18:322,1,69.749997871399,0|0,1:2|0:2,0:2:0:0:
176,217,131404,1,8,0:2:0:0:
93,176,131547,2,0,B|61:111|100:39,1,139.499995742798,0|0,1:2|0:2,0:2:0:0:
203,110,131976,86,0,B|302:126|266:74|385:101,1,155,6|0,1:1|0:2,0:1:0:0:
477,201,132404,2,0,B|378:217|414:165|295:192,1,155,2|0,0:1|0:2,0:1:0:0:
199,289,132833,2,0,B|298:305|262:253|381:280,1,155,2|0,0:1|0:2,0:2:0:0:
230,197,133261,53,2,0:1:0:0:
230,197,133404,2,0,P|219:160|204:130,1,69.749997871399,0|0,1:2|0:2,0:2:0:0:
67,198,133690,2,0,P|78:235|93:265,1,69.749997871399,10|0,0:1|0:2,0:2:0:0:
151,203,133976,1,2,0:1:0:0:
151,203,134118,1,0,0:2:0:0:
242,288,134261,54,0,B|294:269|294:269|316:237|316:237|388:210,1,155,6|0,1:1|0:2,0:2:0:0:
512,179,134690,2,0,B|460:160|460:160|438:128|438:128|366:101,1,155,2|0,0:1|0:2,0:1:0:0:
235,73,135118,2,0,B|287:54|287:54|309:22|309:22|381:-5,1,155,2|0,0:1|0:2,0:2:0:0:
301,145,135547,53,2,0:1:0:0:
301,145,135690,2,0,L|284:242,1,69.749997871399,0|0,1:2|0:2,0:2:0:0:
276,292,135976,5,10,0:1:0:0:
214,175,136118,1,0,1:2:0:0:
97,237,136261,1,10,0:1:0:0:
97,237,136547,2,0,B|52:208|47:149|81:103,1,139.499995742798,4|0,1:1|0:2,0:2:0:0:
191,51,136976,1,0,0:0:0:0:
191,51,137118,2,0,B|236:80|241:139|207:185,1,139.499995742798,8|0,0:2|0:2,0:0:0:0:
214,174,137690,70,0,L|305:164,1,69.749997871399,2|0,0:2|0:0,0:2:0:0:
141,237,137976,2,0,L|133:167,1,69.749997871399,0|0,1:2|0:2,0:0:0:0:
204,309,138261,2,0,L|134:316,1,69.749997871399,8|0,0:2|0:2,0:0:0:0:
276,246,138547,2,0,L|283:315,1,69.749997871399,0|0,0:2|0:2,0:2:0:0:
377,372,138833,38,0,B|374:371|429:387|469:334|445:274,1,139.499995742798,2|0,1:2|1:2,0:2:0:0:
404,183,139261,1,2,0:2:0:0:
404,183,139404,2,0,P|441:168|498:161,1,69.749997871399,8|0,0:2|0:2,0:2:0:0:
327,62,139690,2,0,P|361:69|393:82,1,69.749997871399,0|0,0:2|0:2,0:2:0:0:
319,222,139976,70,0,P|317:187|306:153,1,69.749997871399,2|0,0:2|0:2,0:2:0:0:
139,235,140261,2,0,P|140:200|151:167,1,69.749997871399,0|0,1:2|0:2,0:2:0:0:
227,297,140547,1,10,0:2:0:0:
147,359,140690,2,0,B|95:373|45:331|57:278,1,139.499995742798,0|0,1:2|0:2,0:2:0:0:
129,148,141118,38,0,P|125:112|114:72,1,69.749997871399,6|0,1:2|0:2,0:2:0:0:
207,222,141404,2,0,P|171:226|131:237,1,69.749997871399,0|0,0:2|0:2,0:2:0:0:
203,70,141690,2,0,P|239:66|279:55,1,69.749997871399,8|0,0:2|0:2,0:2:0:0:
281,144,141976,1,2,2:2:0:0:
281,144,142118,2,0,B|237:172|249:237|295:259,1,139.499995742798,0|0,2:2|2:2,2:2:0:0:
360,307,142547,69,2,1:2:0:0:
162,375,142833,1,10,0:2:0:0:
110,172,143118,1,2,0:2:0:0:
392,124,143404,53,2,1:1:0:0:
406,206,143547,1,2,1:1:0:0:
124,90,143833,85,2,1:1:0:0:
110,172,143976,1,2,1:1:0:0:
408,108,144261,21,2,1:1:0:0:
422,190,144404,1,2,1:1:0:0:
107,74,144690,85,2,1:1:0:0:
93,156,144833,1,2,1:1:0:0:
256,6,145118,69,2,1:1:0:0:
256,6,145404,1,8,0:0:0:0:
264,30,145476,1,8,0:0:0:0:
267,56,145547,1,8,0:0:0:0:
264,82,145618,1,8,0:0:0:0:
256,107,145690,2,0,P|208:95|165:91,1,85.2500026016236,6|0,0:0|0:0,0:0:0:0:
256,277,145976,2,0,P|304:289|347:293,1,85.2500026016236,8|0,0:0|0:0,0:0:0:0:
201,181,146261,1,2,0:0:0:0:
201,181,146404,2,0,P|158:185|117:196,1,85.2500026016236,0|8,0:0|0:0,0:0:0:0:
22,224,146690,69,2,0:1:0:0:
22,224,146761,1,0,0:0:0:0:
22,224,146833,2,0,L|6:129,1,85.2500026016236
107,17,147118,2,0,L|123:112,1,85.2500026016236,10|0,0:2|0:0,0:0:0:0:
227,186,147404,1,2,0:1:0:0:
317,160,147547,1,2,0:0:0:0:
250,94,147690,1,8,0:0:0:0:
304,253,147833,38,0,B|322:310|394:333|439:274,1,170.500005203247,2|0,0:1|0:0,0:0:0:0:
503,191,148261,2,0,P|492:137|489:82,1,85.2500026016236,10|0,0:2|0:0,0:0:0:0:
338,139,148547,1,0,0:0:0:0:
395,1,148690,2,0,P|406:55|409:110,1,85.2500026016236,2|8,0:1|0:0,0:0:0:0:
317,160,148976,69,2,0:2:0:0:
226,137,149118,1,2,0:1:0:0:
203,228,149261,1,0,0:0:0:0:
294,251,149404,2,0,L|306:343,1,85.2500026016236,10|2,0:1|0:2,0:0:0:0:
124,284,149690,1,2,0:1:0:0:
124,284,149833,2,0,L|34:273,1,85.2500026016236,2|8,0:1|0:0,0:0:0:0:
174,176,150118,38,0,B|204:132|221:70|189:4,1,170.500005203247,2|0,0:1|0:0,0:0:0:0:
113,89,150547,2,0,P|72:98|3:105,1,85.2500026016236,10|0,0:2|0:0,0:0:0:0:
193,13,150833,1,2,0:2:0:0:
243,117,150976,2,0,P|284:126|326:131,1,85.2500026016236,2|8,0:1|0:0,0:0:0:0:
408,40,151261,69,2,0:0:0:0:
408,40,151333,1,0,0:0:0:0:
408,40,151404,2,0,P|449:30|491:25,1,85.2500026016236
505,187,151690,2,0,P|464:197|422:202,1,85.2500026016236,10|0,0:1|0:0,0:0:0:0:
326,131,151976,1,2,0:1:0:0:
301,247,152118,1,2,0:1:0:0:
185,222,152261,1,8,0:0:0:0:
121,274,152404,38,0,B|91:326|146:400|205:379,1,170.500005203247,2|0,0:1|0:0,0:0:0:0:
172,191,152833,2,0,B|141:138|50:149|38:211,1,170.500005203247,10|0,0:2|0:0,0:0:0:0:
217,290,153261,2,0,P|260:280|304:257,1,85.2500026016236,2|8,0:1|0:0,0:0:0:0:
388,183,153547,69,2,0:2:0:0:
338,123,153690,1,2,0:1:0:0:
364,49,153833,1,0,0:0:0:0:
440,35,153976,1,10,0:1:0:0:
492,95,154118,1,0,0:2:0:0:
467,171,154261,37,2,0:1:0:0:
338,123,154404,1,0,0:2:0:0:
361,259,154547,1,8,0:2:0:0:
388,183,154690,70,0,B|307:148|220:152,1,170.500005203247,6|0,0:0|0:0,0:1:0:0:
200,317,155118,2,0,B|281:352|368:348,1,170.500005203247,10|2,0:2|0:1,0:0:0:0:
210,233,155547,2,0,P|167:238|125:246,1,85.2500026016236,0|8,0:0|0:0,0:0:0:0:
29,271,155833,37,2,0:1:0:0:
29,271,155904,1,0,0:0:0:0:
29,271,155976,2,0,L|15:176,1,85.2500026016236
210,233,156261,2,0,L|224:138,1,85.2500026016236,10|0,0:1|0:0,0:0:0:0:
179,13,156547,1,2,0:1:0:0:
262,54,156690,1,2,0:1:0:0:
147,96,156833,1,8,0:0:0:0:
243,161,156976,70,0,B|291:198|361:186|388:125,1,170.500005203247,2|0,0:1|0:0,0:0:0:0:
512,245,157404,2,0,P|477:228|409:223,1,85.2500026016236,10|0,0:2|0:0,0:0:0:0:
404,353,157690,1,0,0:0:0:0:
404,353,157833,2,0,P|439:370|507:375,1,85.2500026016236,2|8,0:1|0:0,0:0:0:0:
337,264,158118,37,2,0:2:0:0:
264,309,158261,1,2,0:1:0:0:
337,264,158404,1,0,0:0:0:0:
264,218,158547,2,0,L|249:123,1,85.2500026016236,10|2,0:1|0:2,0:0:0:0:
414,91,158833,1,2,0:0:0:0:
340,7,158976,2,0,L|326:91,1,85.2500026016236,2|8,0:0|0:0,0:0:0:0:
209,31,159261,70,0,B|142:12|86:42|86:42|46:22,1,170.500005203247,2|0,0:1|0:0,0:0:0:0:
198,180,159690,2,0,B|265:199|321:169|321:169|360:188,1,170.500005203247,10|0,0:2|0:0,0:0:0:0:
163,102,160118,2,0,P|122:111|74:138,1,85.2500026016236,2|8,0:1|0:0,0:0:0:0:
0,205,160404,37,2,0:2:0:0:
64,267,160547,1,2,0:1:0:0:
151,246,160690,1,0,0:0:0:0:
226,293,160833,2,0,L|214:377,1,85.2500026016236,10|0,0:1|0:2,0:0:0:0:
314,306,161118,1,2,0:1:0:0:
404,346,161261,1,2,0:1:0:0:
404,346,161333,1,0,0:0:0:0:
404,346,161404,1,8,0:0:0:0:
375,233,161547,70,0,B|412:288|495:271|517:203,1,170.500005203247,2|0,0:1|0:0,0:0:0:0:
362,150,161976,2,0,B|295:155|269:234|316:288,1,170.500005203247,10|0,0:2|0:0,0:0:0:0:
436,183,162404,2,0,P|437:133|416:88,1,85.2500026016236,2|8,0:1|0:0,0:0:0:0:
330,19,162690,37,2,0:2:0:0:
259,80,162833,1,2,0:1:0:0:
171,50,162976,1,0,0:0:0:0:
259,80,163118,1,10,0:1:0:0:
278,172,163261,1,0,0:0:0:0:
188,142,163404,69,8,2:3:0:0:
167,135,163476,1,8,2:3:0:0:
146,134,163547,1,4,2:3:0:0:
125,139,163618,1,4,2:3:0:0:
107,150,163690,1,8,2:2:0:0:
24,116,163833,22,0,B|-16:150|-14:223|35:248,1,155,4|0,0:1|0:0,0:0:0:0:
110,311,164261,2,0,B|150:277|148:204|99:179,1,155,8|2,0:0|0:2,0:0:0:0:
177,252,164690,2,0,P|216:269|261:269,1,77.5,0|8,0:0|0:0,0:0:0:0:
350,179,164976,102,0,L|371:5,1,155,2|0,0:2|0:0,0:0:0:0:
442,142,165404,2,0,P|480:163|534:175,1,77.5,8|0,0:0|0:0,0:0:0:0:
427,233,165690,2,0,B|342:215|266:261,1,155,2|8,0:2|0:0,0:0:0:0:
199,313,166118,5,2,0:2:0:0:
199,313,166190,1,0,0:0:0:0:
199,313,166261,2,0,B|177:207,1,77.5
30,309,166547,2,0,B|52:415,1,77.5,8|0,0:0|0:0,0:0:0:0:
103,262,166833,1,2,0:2:0:0:
74,182,166976,2,0,P|43:169|-7:165,1,77.5,0|8,0:0|0:0,0:0:0:0:
165,102,167261,102,0,B|217:114|270:86|286:29,1,155,2|0,0:2|0:0,0:0:0:0:
309,172,167690,2,0,L|324:265,1,77.5,8|0,0:0|0:0,0:0:0:0:
393,295,167976,1,2,0:2:0:0:
460,244,168118,1,0,0:0:0:0:
388,197,168261,1,8,0:0:0:0:
309,269,168404,6,0,B|265:307|201:290|178:236,1,155,6|0,0:2|0:0,0:0:0:0:
268,141,168833,2,0,B|246:90|182:73|138:111,1,155,8|2,0:0|0:2,0:0:0:0:
61,179,169261,2,0,L|45:99,1,77.5,0|8,0:0|0:0,0:0:0:0:
192,174,169547,102,0,L|160:340,1,155,2|0,0:2|0:0,0:0:0:0:
289,384,169976,2,0,L|278:298,1,77.5,8|0,0:0|0:0,0:0:0:0:
355,214,170261,2,0,B|427:267|506:229,1,155,2|8,0:2|0:0,0:0:0:0:
439,143,170690,5,2,0:2:0:0:
439,143,170761,1,0,0:0:0:0:
439,143,170833,2,0,L|428:57,1,77.5
312,12,171118,2,0,L|323:98,1,77.5,8|0,0:2|0:0,0:0:0:0:
256,185,171404,1,2,0:2:0:0:
170,136,171547,2,0,L|160:59,1,77.5,0|8,0:0|0:0,0:0:0:0:
28,26,171833,102,0,B|-18:65|-20:123|17:162,1,155,2|0,0:1|0:0,0:0:0:0:
82,242,172261,2,0,P|43:247|7:260,1,77.5,10|0,0:1|0:0,0:0:0:0:
121,320,172547,1,2,0:1:0:0:
163,206,172690,1,0,0:0:0:0:
245,231,172833,1,8,0:0:0:0:
306,182,172976,69,8,2:3:0:0:
306,182,173047,1,8,2:3:0:0:
306,182,173118,2,0,B|318:135|297:100|297:100|311:59,1,116.250004434586,4|0,1:0|0:0,0:0:0:0:
229,144,173547,1,2,0:0:0:0:
229,144,173690,2,0,L|147:154,1,58.1250022172929,8|0,0:0|0:0,0:0:0:0:
96,187,173976,2,0,B|84:140|105:105|105:105|94:75,1,116.250004434586,2|0,0:0|0:0,0:0:0:0:
145,17,174404,85,2,0:0:0:0:
231,60,174547,2,0,L|288:52,1,58.1250022172929,0|0,1:0|0:0,0:0:0:0:
326,153,174833,2,0,L|268:160,1,58.1250022172929,8|0,0:0|0:0,0:0:0:0:
371,79,175118,2,0,P|374:44|382:16,1,58.1250022172929
483,88,175404,22,0,B|497:151|467:201,1,116.250004434586,2|0,1:2|0:0,0:0:0:0:
409,262,175833,1,2,0:0:0:0:
450,335,175976,2,0,P|476:345|525:349,1,58.1250022172929,8|0,0:0|0:0,0:0:0:0:
409,262,176261,2,0,B|354:232|287:239,1,116.250004434586,2|0,0:0|0:0,0:0:0:0:
221,199,176690,85,2,0:0:0:0:
181,295,176833,2,0,P|147:291|116:279,1,58.1250022172929,0|0,1:0|0:0,0:0:0:0:
47,242,177118,1,8,0:0:0:0:
50,329,177261,1,0,1:0:0:0:
124,283,177404,2,0,P|132:255|135:226,1,58.1250022172929,2|0,0:0|0:0,0:0:0:0:
75,139,177690,22,0,B|67:96|39:71|39:71|60:29,1,116.250004434586,2|0,1:2|0:0,0:0:0:0:
139,11,178118,1,2,0:0:0:0:
139,11,178261,2,0,L|144:88,1,58.1250022172929,8|0,0:0|0:0,0:0:0:0:
203,139,178547,2,0,B|211:96|239:71|239:71|218:29,1,116.250004434586,2|0,0:0|0:0,0:0:0:0:
285,146,178976,85,2,0:0:0:0:
285,146,179118,2,0,P|322:145|362:129,1,58.1250022172929,0|0,1:0|0:0,0:0:0:0:
447,102,179404,2,0,B|412:153|416:212,1,116.250004434586,8|2,0:0|0:0,0:0:0:0:
432,288,179833,1,0,0:0:0:0:
358,353,179976,22,0,B|315:379|273:370|243:329,1,116.250004434586,2|0,1:2|0:0,0:0:0:0:
189,284,180404,1,2,0:0:0:0:
258,229,180547,2,0,L|266:163,1,58.1250022172929,8|0,0:0|0:0,0:0:0:0:
174,197,180833,2,0,L|165:64,1,116.250004434586,2|0,0:0|0:0,0:0:0:0:
110,1,181261,85,10,0:0:0:0:
82,125,181404,2,0,P|53:125|24:117,1,58.1250022172929,0|0,1:0|0:0,0:0:0:0:
166,81,181690,6,0,L|198:61,1,23.2499992904663,8|0,0:0|0:0,0:0:0:0:
233,124,181833,2,0,L|213:135,1,23.2499992904663,8|0,0:0|0:0,0:0:0:0:
236,207,181976,2,0,L|268:187,1,23.2499992904663,8|0,0:0|0:0,0:0:0:0:
306,253,182118,2,0,L|286:264,1,23.2499992904663,8|0,0:0|0:0,0:0:0:0:
343,321,182261,54,0,B|382:359|448:337|461:274,1,155,4|8,0:0|0:2,0:0:0:0:
474,190,182690,1,0,0:2:0:0:
401,145,182833,1,2,0:2:0:0:
329,192,182976,1,0,0:2:0:0:
257,147,183118,2,0,B|219:110|146:132|140:194,1,155,8|2,0:2|0:2,0:0:0:0:
73,271,183547,101,0,0:2:0:0:
13,221,183690,1,8,0:2:0:0:
1,144,183833,1,0,0:2:0:0:
33,73,183976,1,2,0:2:0:0:
105,45,184118,1,0,0:2:0:0:
182,54,184261,2,0,P|211:67|262:72,1,77.5,8|0,0:2|0:2,0:2:0:0:
305,186,184547,5,2,0:2:0:0:
305,186,184690,2,0,P|276:173|225:168,1,77.5,0|8,0:2|0:2,0:0:0:0:
343,266,184976,1,0,0:2:0:0:
408,194,185118,2,0,L|399:108,1,77.5,2|0,0:2|0:2,0:0:0:0:
343,266,185404,2,0,L|352:352,1,77.5,8|0,0:2|0:2,0:2:0:0:
247,268,185690,102,0,B|177:241|94:240,1,155,2|8,0:2|0:2,0:0:0:0:
5,249,186118,1,0,0:2:0:0:
44,170,186261,1,2,0:2:0:0:
44,170,186404,1,0,0:2:0:0:
60,313,186547,1,8,0:2:0:0:
60,313,186690,1,0,0:2:0:0:
146,227,186833,6,0,L|134:144,1,77.5,2|0,0:2|0:0,0:2:0:0:
275,286,187118,2,0,L|192:298,1,77.5,8|0,0:2|0:2,0:0:0:0:
334,157,187404,2,0,L|346:239,1,77.5,2|0,0:2|0:2,0:0:0:0:
205,98,187690,2,0,L|288:86,1,77.5,8|0,0:2|0:2,0:2:0:0:
416,29,187976,101,2,0:2:0:0:
493,63,188118,1,0,0:2:0:0:
428,117,188261,1,8,0:2:0:0:
508,146,188404,1,0,0:2:0:0:
428,117,188547,2,0,P|416:150|413:194,1,77.5,2|0,0:2|0:2,0:0:0:0:
468,319,188833,2,0,B|399:274|312:286,1,155,8|2,0:2|0:2,0:0:0:0:
221,301,189261,5,0,0:2:0:0:
221,301,189404,2,0,L|210:385,1,77.5,8|0,0:2|0:0,0:0:0:0:
61,278,189690,2,0,L|72:362,1,77.5,2|0,0:2|0:2,0:0:0:0:
152,230,189976,1,8,0:2:0:0:
76,184,190118,1,0,0:2:0:0:
160,136,190261,102,0,B|236:168|308:115,1,155,2|8,0:2|0:2,0:0:0:0:
384,50,190690,1,0,0:2:0:0:
470,102,190833,2,0,P|484:140|482:204,1,77.5,2|0,0:2|0:2,0:0:0:0:
443,282,191118,5,8,2:2:0:0:
417,269,191190,1,8,2:2:0:0:
389,262,191261,1,8,2:2:0:0:
360,261,191333,1,8,2:2:0:0:
332,267,191404,2,0,B|311:319|239:333|199:276,1,155,4|8,0:1|0:2,0:0:0:0:
124,192,191833,1,0,0:2:0:0:
189,118,191976,2,0,B|243:110|291:166|262:229,1,155,2|8,0:2|0:2,0:2:0:0:
124,192,192404,1,0,0:2:0:0:
70,110,192547,102,0,L|83:28,1,77.5,2|0,0:2|0:2,0:0:0:0:
124,192,192833,2,0,L|111:274,1,77.5,8|0,0:2|0:2,0:0:0:0:
245,213,193118,2,0,P|298:205|330:195,1,77.5,2|0,0:2|0:2,0:0:0:0:
298,72,193404,2,0,P|259:76|222:86,1,77.5,8|0,0:2|0:2,0:0:0:0:
365,125,193690,5,2,0:2:0:0:
418,68,193833,1,0,0:2:0:0:
480,113,193976,1,8,0:2:0:0:
427,170,194118,1,0,0:2:0:0:
453,263,194261,2,0,P|412:249|362:242,1,77.5,2|0,0:2|0:2,0:0:0:0:
269,330,194547,2,0,B|293:381|366:391|395:333,1,155,8|2,0:2|0:2,0:0:0:0:
296,244,194976,101,0,0:2:0:0:
205,270,195118,2,0,L|119:238,1,77.5,8|0,0:2|0:2,0:0:0:0:
237,184,195404,2,0,L|290:33,1,155,2|8,0:2|0:2,0:2:0:0:
217,5,195833,1,0,0:2:0:0:
229,106,195976,6,0,L|237:189,1,77.5,2|0,0:2|0:2,0:0:0:0:
137,130,196261,2,0,L|43:105,1,77.5,8|0,0:2|0:2,0:0:0:0:
10,178,196547,1,2,0:2:0:0:
68,239,196690,1,0,0:2:0:0:
5,297,196833,2,0,B|174:269,1,155,8|2,0:2|0:2,0:0:0:0:
270,260,197261,101,0,0:0:0:0:
312,324,197404,1,8,0:2:0:0:
387,342,197547,1,0,0:2:0:0:
459,314,197690,1,2,0:2:0:0:
486,241,197833,1,0,0:2:0:0:
482,163,197976,2,0,P|444:150|406:145,1,77.5,8|0,0:2|0:2,0:0:0:0:
299,199,198261,6,0,B|301:109|274:32,1,155,2|8,0:2|0:2,0:2:0:0:
182,14,198690,1,0,0:2:0:0:
104,79,198833,2,0,P|66:74|27:59,1,77.5,2|0,0:2|0:2,0:0:0:0:
133,169,199118,2,0,P|152:215|148:267,1,77.5,8|0,0:2|0:2,0:0:0:0:
123,328,199404,101,2,0:2:0:0:
123,328,199547,1,0,0:2:0:0:
231,285,199690,1,8,0:2:0:0:
231,285,199833,1,0,0:2:0:0:
318,360,199976,1,4,1:3:0:0:
344,374,200047,1,4,1:3:0:0:
372,377,200118,1,4,1:3:0:0:
400,369,200190,1,4,1:3:0:0:
422,350,200261,1,12,1:2:0:0:
359,189,200547,86,0,L|425:199,1,58.1250022172929,4|2,1:2|0:0,0:0:0:0:
153,195,200976,2,0,L|87:185,1,58.1250022172929,0|10,0:0|0:0,0:0:0:0:
204,286,201404,1,0,0:0:0:0:
204,286,201547,2,0,B|261:296|317:249,1,116.250004434586,0|2,0:0|0:0,0:0:0:0:
359,189,201976,1,0,1:0:0:0:
256,78,202261,1,10,0:0:0:0:
153,189,202547,1,0,0:0:0:0:
76,58,202833,101,0,1:0:0:0:
76,58,202976,1,2,0:0:0:0:
0,192,203261,1,0,0:0:0:0:
0,192,203404,1,10,0:0:0:0:
76,326,203690,1,0,0:0:0:0:
76,326,203833,2,0,B|130:352|188:317,1,116.250004434586,0|2,0:0|0:0,0:0:0:0:
256,284,204261,1,0,1:0:0:0:
195,143,204547,1,10,0:0:0:0:
256,192,204690,1,0,1:0:0:0:
317,143,204833,1,2,0:0:0:0:
175,36,205118,6,0,P|144:29|100:25,1,58.1250022172929,0|2,1:0|0:0,0:0:0:0:
337,36,205547,1,0,0:0:0:0:
337,36,205690,2,0,B|380:85|442:71,1,116.250004434586,10|0,0:0|0:0,0:0:0:0:
298,116,206118,2,0,B|236:102|193:151,1,116.250004434586,0|2,0:0|0:0,0:0:0:0:
138,206,206547,1,0,1:0:0:0:
256,312,206833,1,10,0:0:0:0:
374,206,207118,2,0,L|368:129,1,58.1250022172929
401,81,207404,101,0,1:0:0:0:
401,81,207547,1,2,0:0:0:0:
512,192,207833,1,0,0:0:0:0:
512,192,207976,1,10,0:0:0:0:
401,303,208261,1,0,0:0:0:0:
401,303,208404,2,0,B|334:325|290:285,1,116.250004434586
256,219,208833,1,2,1:2:0:0:
82,367,209118,86,0,L|82:393,14,14.5312505543232,2|0|0|0|0|0|0|0|0|0|0|0|0|0|0,1:3|0:0|0:0|0:0|0:0|0:0|0:0|0:0|0:0|0:0|0:0|0:0|0:0|0:0|0:0,0:0:0:0:
95,352,209690,38,0,P|124:347|152:331,1,58.1250022172929,4|2,1:2|0:0,0:0:0:0:
362,333,210118,2,0,P|388:347|417:352,1,58.1250022172929,0|10,0:0|0:0,0:0:0:0:
342,195,210547,1,0,0:0:0:0:
342,195,210690,1,0,0:0:0:0:
170,195,210976,1,2,0:0:0:0:
170,195,211118,2,0,B|33:174,2,116.250004434586,0|10|0,1:0|0:0|0:0,0:0:0:0:
256,334,211976,101,0,1:0:0:0:
256,334,212118,1,2,0:0:0:0:
256,192,212404,1,0,0:0:0:0:
256,192,212547,1,10,0:0:0:0:
256,50,212833,1,0,0:0:0:0:
256,50,212976,2,0,B|211:15|143:24,1,116.250004434586,0|2,0:0|0:0,0:0:0:0:
71,37,213404,1,0,1:0:0:0:
128,192,213690,1,10,0:0:0:0:
62,154,213833,1,0,1:0:0:0:
62,230,213976,1,2,0:0:0:0:
71,347,214261,6,0,P|107:346|150:334,1,58.1250022172929,0|2,1:0|0:0,0:0:0:0:
213,216,214690,1,0,0:0:0:0:
213,216,214833,2,0,L|219:88,1,116.250004434586,10|0,0:0|0:0,0:0:0:0:
299,168,215261,2,0,L|293:296,1,116.250004434586,0|2,0:0|0:0,0:0:0:0:
287,360,215690,1,0,1:0:0:0:
438,367,215976,1,10,0:0:0:0:
445,216,216261,2,0,L|447:157,1,58.1250022172929
414,95,216547,101,0,1:0:0:0:
414,95,216690,1,2,0:0:0:0:
256,192,216976,1,0,0:0:0:0:
256,192,217118,1,10,0:0:0:0:
98,95,217404,1,0,0:0:0:0:
98,95,217547,2,0,B|65:151|91:215,1,116.250004434586
123,274,217976,1,2,1:2:0:0:
256,192,218261,5,10,0:0:0:0:
339,218,218404,1,0,1:0:0:0:
321,134,218547,1,8,2:2:0:0:
282,285,218690,5,8,2:3:0:0:
282,285,218761,1,8,2:3:0:0:
282,285,218833,2,0,B|344:325|414:280,1,139.499995742798,4|0,1:1|0:0,0:0:0:0:
343,222,219261,1,0,0:0:0:0:
343,222,219404,2,0,B|408:188|404:105,1,139.499995742798,8|0,0:0|0:2,0:0:0:0:
404,106,219976,70,0,P|368:96|335:82,1,69.749997871399,2|0,0:2|0:0,0:2:0:0:
210,152,220261,2,0,P|246:162|279:176,1,69.749997871399,0|0,1:2|0:2,0:0:0:0:
254,81,220547,2,0,P|251:40|241:3,1,69.749997871399,8|0,0:2|0:2,0:0:0:0:
124,127,220833,2,0,P|127:168|137:205,1,69.749997871399,0|0,0:2|0:2,0:2:0:0:
247,252,221118,38,0,B|311:294|295:373,1,139.499995742798,2|0,1:2|1:2,0:2:0:0:
203,323,221547,1,2,0:2:0:0:
203,323,221690,2,0,P|173:309|110:300,1,69.749997871399,8|0,0:2|0:2,0:2:0:0:
264,242,221976,2,0,P|294:225|321:203,1,69.749997871399,0|0,0:2|0:2,0:2:0:0:
230,142,222261,70,0,P|212:102|209:72,1,69.749997871399,2|0,0:2|0:2,0:2:0:0:
332,6,222547,2,0,P|316:37|310:71,1,69.749997871399,0|0,1:2|0:2,0:2:0:0:
383,144,222833,1,8,0:2:0:0:
485,134,222976,2,0,B|522:205|480:277,1,139.499995742798,0|0,1:2|0:2,0:2:0:0:
400,357,223404,86,0,B|344:334|297:362|297:362|254:342,1,155,6|0,1:1|0:2,0:1:0:0:
153,246,223833,2,0,B|208:268|255:240|255:240|298:260,1,155,2|0,0:1|0:2,0:1:0:0:
459,177,224261,2,0,B|403:154|356:182|356:182|313:162,1,155,2|0,0:1|0:2,0:2:0:0:
333,8,224690,53,2,0:1:0:0:
333,8,224833,2,0,P|346:41|351:78,1,69.749997871399,0|0,1:2|0:2,0:2:0:0:
206,125,225118,2,0,P|193:92|188:55,1,69.749997871399,10|0,0:1|0:2,0:2:0:0:
272,73,225404,1,2,0:1:0:0:
272,73,225547,1,0,0:2:0:0:
263,196,225690,54,0,B|197:154|197:154|113:175,1,155,6|0,1:1|0:2,0:2:0:0:
271,292,226118,2,0,B|340:255|340:255|364:172,1,155,2|0,0:1|0:2,0:1:0:0:
185,250,226547,2,0,B|181:328|181:328|241:390,1,155,2|0,0:1|0:2,0:2:0:0:
101,295,226976,53,2,0:1:0:0:
101,295,227118,2,0,L|24:277,1,69.749997871399,0|0,1:2|0:0,0:0:0:0:
0,206,227404,5,10,0:1:0:0:
129,181,227547,1,0,1:2:0:0:
104,52,227690,1,10,0:1:0:0:
104,52,227976,2,0,B|129:97|193:100|238:63,1,139.499995742798,4|0,1:1|0:2,0:2:0:0:
313,191,228404,1,0,0:0:0:0:
313,191,228547,2,0,B|288:146|224:143|179:180,1,139.499995742798,8|0,0:2|0:2,0:0:0:0:
190,171,229118,70,0,L|180:98,1,69.749997871399,2|0,0:2|0:0,0:2:0:0:
173,262,229404,2,0,L|246:252,1,69.749997871399,0|0,1:2|0:2,0:0:0:0:
82,245,229690,2,0,L|92:318,1,69.749997871399,8|0,0:2|0:2,0:0:0:0:
99,154,229976,2,0,L|26:164,1,69.749997871399,0|0,0:2|0:2,0:2:0:0:
190,171,230261,38,0,B|185:170|241:167|262:106|245:59,1,139.499995742798,2|0,1:2|1:2,0:2:0:0:
348,8,230690,1,2,0:2:0:0:
348,8,230833,2,0,P|338:40|336:76,1,69.749997871399,8|0,0:2|0:2,0:2:0:0:
467,132,231118,2,0,P|477:100|478:63,1,69.749997871399,0|0,0:2|0:2,0:2:0:0:
376,165,231404,70,0,L|296:184,1,69.749997871399,2|0,0:2|0:2,0:2:0:0:
409,253,231690,2,0,L|489:272,1,69.749997871399,0|0,1:2|0:2,0:2:0:0:
350,335,231976,1,10,0:2:0:0:
271,285,232118,2,0,B|226:270|169:313|181:366,1,139.499995742798,0|0,1:2|0:2,0:2:0:0:
86,291,232547,38,0,P|49:289|1:279,1,69.749997871399,6|0,1:2|0:2,0:2:0:0:
75,186,232833,2,0,P|59:159|42:106,1,69.749997871399,0|0,0:2|0:2,0:2:0:0:
160,123,233118,2,0,P|175:95|212:55,1,69.749997871399,8|0,0:2|0:2,0:2:0:0:
257,165,233404,1,2,2:2:0:0:
257,165,233547,2,0,B|285:209|354:204|372:151,1,139.499995742798,0|0,2:2|2:2,2:2:0:0:
419,88,233976,69,2,1:2:0:0:
457,303,234261,1,10,0:2:0:0:
256,384,234547,1,2,0:2:0:0:
55,303,234833,53,2,1:1:0:0:
69,221,234976,1,2,1:1:0:0:
256,192,235261,85,2,1:1:0:0:
256,288,235404,1,2,1:1:0:0:
457,303,235690,21,2,1:1:0:0:
443,221,235833,1,2,1:1:0:0:
256,96,236118,85,2,1:1:0:0:
256,192,236261,1,2,1:1:0:0:
108,22,236547,101,2,1:1:0:0:
404,22,236833,85,8,0:0:0:0:
415,45,236904,1,8,0:3:0:0:
420,70,236976,1,4,0:3:0:0:
417,96,237047,1,4,0:3:0:0:
407,120,237118,2,0,P|359:120|317:105,1,85.2500026016236,6|0,0:0|0:0,0:0:0:0:
309,283,237404,2,0,P|351:282|392:294,1,85.2500026016236,8|0,0:0|0:0,0:0:0:0:
256,192,237690,1,2,0:0:0:0:
256,192,237833,2,0,P|213:192|172:180,1,85.2500026016236,0|8,0:0|0:0,0:0:0:0:
102,108,238118,69,2,0:1:0:0:
102,108,238190,1,0,0:0:0:0:
102,108,238261,2,0,L|1:125,1,85.2500026016236
97,234,238547,2,0,B|42:204|-26:263|2:326,1,170.500005203247,10|2,0:2|0:1,0:0:0:0:
90,375,238976,1,2,0:1:0:0:
170,312,239118,1,8,0:0:0:0:
271,362,239261,38,0,B|325:391|394:332|366:272,1,170.500005203247,2|0,0:1|0:0,0:0:0:0:
248,253,239690,2,0,P|196:236|152:208,1,85.2500026016236,10|0,0:2|0:0,0:0:0:0:
352,174,239976,1,0,0:0:0:0:
352,174,240118,2,0,P|404:157|448:129,1,85.2500026016236,2|8,0:1|0:0,0:0:0:0:
294,21,240404,69,2,0:2:0:0:
230,90,240547,1,2,0:1:0:0:
151,38,240690,1,0,0:0:0:0:
230,90,240833,2,0,P|240:131|243:181,1,85.2500026016236,10|2,0:1|0:2,0:0:0:0:
165,252,241118,1,2,0:1:0:0:
69,169,241261,2,0,P|108:156|152:155,1,85.2500026016236,2|8,0:1|0:0,0:0:0:0:
253,271,241547,38,0,B|272:330|340:355|394:327,1,170.500005203247,2|0,0:1|0:0,0:0:0:0:
506,263,241976,2,0,L|513:170,1,85.2500026016236,10|0,0:2|0:0,0:0:0:0:
344,238,242261,1,2,0:2:0:0:
344,238,242404,2,0,L|337:145,1,85.2500026016236,2|8,0:1|0:0,0:0:0:0:
443,42,242690,69,2,0:0:0:0:
443,42,242761,1,0,0:0:0:0:
443,42,242833,2,0,L|436:127,1,85.2500026016236
243,105,243118,2,0,L|236:19,1,85.2500026016236,10|0,0:1|0:0,0:0:0:0:
337,153,243404,1,2,0:1:0:0:
236,212,243547,1,2,0:1:0:0:
142,140,243690,1,8,0:0:0:0:
91,202,243833,38,0,B|27:175|-33:245|16:306,1,170.500005203247,2|0,0:1|0:0,0:0:0:0:
142,365,244261,2,0,B|213:343|327:346,1,170.500005203247,10|0,0:2|0:0,0:0:0:0:
200,250,244690,2,0,P|188:217|177:155,1,85.2500026016236,2|8,0:1|0:0,0:0:0:0:
281,86,244976,69,2,0:2:0:0:
337,141,245118,1,2,0:1:0:0:
337,141,245261,1,0,0:0:0:0:
355,67,245404,1,10,0:1:0:0:
355,67,245547,1,0,0:2:0:0:
298,13,245690,37,2,0:1:0:0:
264,158,245833,1,0,0:2:0:0:
408,122,245976,1,8,0:2:0:0:
323,98,246118,70,0,B|243:68|155:69,1,170.500005203247,6|0,0:0|0:0,0:1:0:0:
311,192,246547,2,0,B|231:162|143:163,1,170.500005203247,10|2,0:2|0:1,0:0:0:0:
258,271,246976,2,0,P|212:259|160:259,1,85.2500026016236,0|8,0:0|0:0,0:0:0:0:
165,358,247261,37,2,0:1:0:0:
165,358,247333,1,0,0:0:0:0:
165,358,247404,2,0,P|211:370|263:370,1,85.2500026016236
386,300,247690,2,0,P|398:254|398:202,1,85.2500026016236,10|0,0:1|0:0,0:0:0:0:
358,112,247976,1,2,0:1:0:0:
468,128,248118,1,2,0:1:0:0:
427,25,248261,1,8,0:0:0:0:
334,122,248404,70,0,B|278:145|213:115|203:49,1,170.500005203247,2|0,0:1|0:0,0:0:0:0:
38,134,248833,2,0,P|89:114|131:114,1,85.2500026016236,10|0,0:2|0:0,0:0:0:0:
37,270,249118,1,0,0:0:0:0:
37,270,249261,2,0,P|68:225|104:201,1,85.2500026016236,2|8,0:1|0:0,0:0:0:0:
191,177,249547,37,2,0:2:0:0:
241,257,249690,1,2,0:1:0:0:
321,207,249833,1,0,0:0:0:0:
271,127,249976,2,0,P|260:80|258:41,1,85.2500026016236,10|2,0:1|0:2,0:0:0:0:
400,160,250261,1,2,0:0:0:0:
400,160,250404,2,0,P|439:178|499:195,1,85.2500026016236,2|8,0:0|0:0,0:0:0:0:
329,239,250690,70,0,B|268:228|220:308|259:357,1,170.500005203247,2|0,0:1|0:0,0:0:0:0:
409,308,251118,2,0,B|469:318|517:238|478:189,1,170.500005203247,10|0,0:2|0:0,0:0:0:0:
329,239,251547,2,0,P|286:252|227:247,1,85.2500026016236,2|8,0:1|0:0,0:0:0:0:
142,206,251833,37,2,0:2:0:0:
55,238,251976,1,2,0:1:0:0:
72,148,252118,1,0,0:0:0:0:
55,238,252261,2,0,L|37:325,1,85.2500026016236,10|0,0:1|0:2,0:0:0:0:
114,373,252547,1,2,0:1:0:0:
196,327,252690,1,2,0:1:0:0:
196,327,252761,1,0,0:0:0:0:
196,327,252833,1,8,0:0:0:0:
297,379,252976,70,0,L|262:212,1,170.500005203247,2|0,0:1|0:0,0:0:0:0:
395,98,253404,2,0,L|429:264,1,170.500005203247,10|0,0:2|0:0,0:0:0:0:
324,158,253833,2,0,P|280:134|239:131,1,85.2500026016236,2|8,0:1|0:0,0:0:0:0:
136,78,254118,37,2,0:2:0:0:
55,105,254261,1,2,0:1:0:0:
73,22,254404,1,0,0:0:0:0:
118,161,254547,2,0,L|102:259,1,85.2500026016236,10|0,0:1|0:0,0:0:0:0:
186,335,254833,101,8,2:0:0:0:
198,333,254904,1,8,2:3:0:0:
212,331,254976,1,8,2:3:0:0:
226,330,255047,1,8,2:3:0:0:
239,328,255118,1,4,2:3:0:0:
253,327,255190,1,4,2:3:0:0:
266,325,255261,2,0,B|302:372|361:383|415:339,1,155,4|0,0:1|0:0,0:0:0:0:
348,250,255690,2,0,B|406:242|445:196|434:127,1,155,8|2,0:0|0:2,0:0:0:0:
419,66,256118,1,0,0:0:0:0:
362,119,256261,1,8,0:0:0:0:
345,43,256404,102,0,B|286:50|247:96|258:165,1,155,2|0,0:2|0:0,0:0:0:0:
257,230,256833,1,8,0:0:0:0:
257,230,256976,1,0,0:0:0:0:
256,150,257118,2,0,B|265:95|226:50|169:42,1,155,2|8,0:2|0:0,0:0:0:0:
78,36,257547,5,2,0:2:0:0:
78,36,257618,1,0,0:0:0:0:
78,36,257690,2,0,B|60:142,1,77.5
148,229,257976,2,0,B|160:152,1,77.5,8|0,0:0|0:0,0:0:0:0:
55,254,258261,1,2,0:2:0:0:
124,321,258404,2,0,P|162:317|201:304,1,77.5,0|8,0:0|0:0,0:0:0:0:
308,226,258690,102,0,B|287:61,1,155,2|0,0:2|0:0,0:0:0:0:
412,0,259118,2,0,L|400:91,1,77.5,8|0,0:0|0:0,0:0:0:0:
482,156,259404,1,2,0:2:0:0:
411,202,259547,1,0,0:0:0:0:
485,244,259690,1,8,0:0:0:0:
414,292,259833,6,0,B|374:335|309:326|284:270,1,155,6|0,0:2|0:0,0:0:0:0:
310,113,260261,2,0,B|367:126|391:186|355:236,1,155,8|2,0:0|0:2,0:0:0:0:
221,221,260690,2,0,P|256:197|301:193,1,77.5,0|8,0:0|0:0,0:0:0:0:
202,300,260976,102,0,B|144:286|120:226|156:176,1,155,2|0,0:2|0:0,0:0:0:0:
290,191,261404,2,0,P|255:215|210:219,1,77.5,8|0,0:0|0:0,0:0:0:0:
310,113,261690,2,0,B|367:126|391:186|355:236,1,155,2|8,0:2|0:0,0:0:0:0:
229,138,262118,5,2,0:2:0:0:
229,138,262190,1,0,0:0:0:0:
229,138,262261,2,0,L|201:44,1,77.5
141,190,262547,2,0,L|47:218,1,77.5,8|0,0:2|0:0,0:0:0:0:
193,278,262833,1,2,0:2:0:0:
193,278,262976,2,0,L|221:372,1,77.5,0|8,0:0|0:0,0:0:0:0:
281,226,263261,102,0,B|320:265|392:252|416:199,1,155,2|0,0:1|0:0,0:0:0:0:
391,79,263690,2,0,B|352:40|280:53|256:106,1,155,10|2,0:1|0:1,0:0:0:0:
201,167,264118,1,0,0:0:0:0:
127,121,264261,1,10,0:0:0:0:
184,54,264404,1,4,2:3:0:0:
201,167,264547,70,0,B|194:282,1,116.250004434586,4|0,1:0|0:0,0:0:0:0:
113,225,264976,1,2,0:0:0:0:
113,225,265118,2,0,L|31:235,1,58.1250022172929,8|0,0:0|0:0,0:0:0:0:
193,283,265404,2,0,L|307:297,1,116.250004434586,2|0,0:0|0:0,0:0:0:0:
342,369,265833,85,2,0:0:0:0:
434,292,265976,2,0,P|441:319|441:355,1,58.1250022172929,0|0,1:0|0:0,0:0:0:0:
308,297,266261,2,0,P|308:268|315:239,1,58.1250022172929,8|0,0:0|0:0,0:0:0:0:
440,202,266547,2,0,P|440:173|433:144,1,58.1250022172929
357,42,266833,22,0,B|294:60|247:20,1,116.250004434586,2|0,1:2|0:0,0:0:0:0:
168,49,267261,1,2,0:0:0:0:
226,109,267404,2,0,L|234:166,1,58.1250022172929,8|0,0:0|0:0,0:0:0:0:
145,135,267690,2,0,B|82:117|35:156,1,116.250004434586,2|0,0:0|0:0,0:0:0:0:
0,232,268118,85,2,0:0:0:0:
84,306,268261,2,0,P|118:302|149:290,1,58.1250022172929,0|0,1:0|0:0,0:0:0:0:
219,256,268547,1,8,0:0:0:0:
212,343,268690,1,0,1:0:0:0:
291,306,268833,2,0,P|318:314|347:317,1,58.1250022172929,2|0,0:0|0:0,0:0:0:0:
452,264,269118,22,0,B|455:223|483:189|483:189|467:154,1,116.250004434586,2|0,1:2|0:0,0:0:0:0:
386,123,269547,1,2,0:0:0:0:
386,123,269690,2,0,L|391:200,1,58.1250022172929,8|0,0:0|0:0,0:0:0:0:
323,263,269976,2,0,B|320:222|292:188|292:188|308:153,1,116.250004434586,2|0,0:0|0:0,0:0:0:0:
238,254,270404,85,2,0:0:0:0:
238,254,270547,2,0,P|201:249|165:230,1,58.1250022172929,0|0,1:0|0:0,0:0:0:0:
116,304,270833,2,0,B|42:319|16:237,1,116.250004434586,8|2,0:0|0:0,0:0:0:0:
2,178,271261,1,0,0:0:0:0:
105,224,271404,22,0,B|179:239|205:157,1,116.250004434586,2|0,1:2|0:0,0:0:0:0:
234,94,271833,1,2,0:0:0:0:
175,28,271976,2,0,P|147:20|99:17,1,58.1250022172929,8|0,0:0|0:0,0:0:0:0:
234,94,272261,2,0,B|272:149|338:112,1,116.250004434586,2|0,0:0|0:0,0:0:0:0:
406,70,272690,85,10,0:0:0:0:
454,170,272833,2,0,P|458:194|451:234,1,58.1250022172929,0|0,1:0|0:0,0:0:0:0:
375,299,273118,21,8,0:0:0:0:
355,288,273190,1,8,0:0:0:0:
335,281,273261,1,8,0:3:0:0:
313,279,273333,1,4,0:3:0:0:
291,281,273404,2,0,L|287:321,3,29.0625011086464,8|8|8|8,0:0|0:0|0:0|0:0,0:0:0:0:
265,336,273690,38,0,P|225:337|182:320,1,77.5,4|0,0:0|0:0,0:0:0:0:
137,212,273976,2,0,P|97:211|54:228,1,77.5,8|0,0:2|0:2,0:0:0:0:
243,253,274261,2,0,L|236:171,1,77.5,2|0,0:2|0:2,0:0:0:0:
356,103,274547,2,0,L|349:180,1,77.5,8|0,0:2|0:0,0:0:0:0:
428,283,274833,101,2,0:2:0:0:
428,283,274976,1,0,0:2:0:0:
512,249,275118,1,8,0:2:0:0:
512,249,275261,1,0,0:2:0:0:
500,339,275404,1,2,0:2:0:0:
500,339,275547,1,0,0:2:0:0:
440,193,275690,2,0,L|446:115,1,77.5,8|0,0:2|0:2,0:0:0:0:
337,220,275976,5,2,0:2:0:0:
337,220,276118,2,0,P|301:232|242:232,1,77.5,0|8,0:2|0:2,0:0:0:0:
200,176,276404,1,0,0:2:0:0:
281,151,276547,1,2,0:2:0:0:
217,93,276690,1,0,0:2:0:0:
281,151,276833,2,0,B|328:146|360:73|315:21,1,155,8|2,0:2|0:2,0:2:0:0:
200,0,277261,101,0,0:2:0:0:
134,65,277404,1,8,0:2:0:0:
56,13,277547,1,0,0:2:0:0:
134,65,277690,2,0,P|142:100|141:144,1,77.5,2|0,0:2|0:2,0:0:0:0:
9,196,277976,2,0,P|1:161|2:117,1,77.5,8|0,0:2|0:2,0:0:0:0:
150,158,278261,6,0,B|222:201|298:161,1,155,2|8,0:2|0:2,0:2:0:0:
384,109,278690,1,0,0:2:0:0:
444,189,278833,2,0,P|458:226|457:284,1,77.5,2|0,0:2|0:2,0:0:0:0:
385,380,279118,2,0,P|371:344|369:306,1,77.5,8|0,0:2|0:2,0:0:0:0:
308,213,279404,101,2,0:2:0:0:
308,213,279547,1,0,0:2:0:0:
245,295,279690,2,0,L|159:285,1,77.5,8|0,0:2|0:2,0:0:0:0:
240,138,279976,2,0,L|163:146,1,77.5,2|0,0:2|0:2,0:0:0:0:
308,213,280261,2,0,B|362:152|331:65,1,155,8|2,0:2|0:2,0:0:0:0:
232,5,280690,5,0,0:2:0:0:
160,51,280833,1,8,0:2:0:0:
79,21,280976,1,0,0:0:0:0:
7,67,281118,2,0,B|-23:151|30:212,1,155,2|8,0:2|0:2,0:0:0:0:
103,271,281547,1,0,0:2:0:0:
177,172,281690,102,0,L|337:157,1,155,2|8,0:2|0:2,0:0:0:0:
419,107,282118,1,0,0:2:0:0:
487,181,282261,2,0,P|496:212|494:264,1,77.5,2|0,0:2|0:2,0:0:0:0:
429,332,282547,5,4,2:3:0:0:
411,324,282618,1,4,2:3:0:0:
392,320,282690,1,4,2:3:0:0:
373,318,282761,1,4,2:3:0:0:
353,319,282833,2,0,B|311:358|248:350|225:290,1,155,4|8,0:1|0:2,0:0:0:0:
287,222,283261,1,0,0:2:0:0:
263,131,283404,2,0,B|221:92|158:100|135:160,1,155,2|8,0:2|0:2,0:2:0:0:
287,222,283833,1,0,0:2:0:0:
370,179,283976,102,0,P|380:141|381:103,1,77.5,2|0,0:2|0:2,0:0:0:0:
413,262,284261,2,0,P|450:272|488:273,1,77.5,8|0,0:2|0:2,0:0:0:0:
331,305,284547,2,0,P|320:342|319:380,1,77.5,2|0,0:2|0:2,0:0:0:0:
287,222,284833,2,0,P|249:211|211:210,1,77.5,8|0,0:2|0:2,0:0:0:0:
75,226,285118,5,2,0:2:0:0:
75,226,285261,2,0,L|64:122,1,77.5,0|8,0:2|0:2,0:0:0:0:
17,78,285547,1,0,0:2:0:0:
93,39,285690,1,2,0:2:0:0:
142,109,285833,1,0,0:2:0:0:
218,70,285976,2,0,B|290:112|369:73,1,155,8|2,0:2|0:2,0:0:0:0:
470,43,286404,101,0,0:0:0:0:
501,122,286547,1,8,0:2:0:0:
465,199,286690,1,0,0:2:0:0:
496,288,286833,1,2,0:2:0:0:
496,288,286904,1,0,0:0:0:0:
496,288,286976,1,0,0:2:0:0:
460,365,287118,2,0,P|422:366|363:330,1,77.5,8|0,0:2|0:2,0:2:0:0:
304,250,287404,6,0,B|338:182|334:91,1,155,2|8,0:2|0:2,0:0:0:0:
289,26,287833,1,0,0:2:0:0:
209,57,287976,1,2,0:2:0:0:
140,7,288118,1,0,0:2:0:0:
67,52,288261,2,0,B|33:120|37:211,1,155,8|2,0:2|0:2,0:0:0:0:
68,309,288690,101,0,0:0:0:0:
134,270,288833,1,8,0:2:0:0:
208,294,288976,1,0,0:2:0:0:
236,365,289118,1,2,0:2:0:0:
311,384,289261,1,0,0:2:0:0:
377,343,289404,2,0,P|387:312|389:247,1,77.5,8|0,0:2|0:2,0:0:0:0:
343,161,289690,6,0,B|259:184|189:134,1,155,2|8,0:2|0:2,0:2:0:0:
116,81,290118,1,0,0:2:0:0:
29,121,290261,1,2,0:2:0:0:
20,216,290404,1,0,0:2:0:0:
97,271,290547,2,0,B|181:294|251:244,1,155,8|2,0:2|0:2,0:0:0:0:
336,174,290976,101,0,0:2:0:0:
412,226,291118,1,8,0:2:0:0:
478,161,291261,1,0,0:2:0:0:
402,109,291404,1,2,1:2:0:0:
402,109,291547,1,0,1:0:0:0:
412,226,291690,1,8,2:0:0:0:
322,361,291976,22,0,B|170:346,1,124,4|0,1:1|1:2,0:2:0:0:
122,383,292404,1,0,0:2:0:0:
86,305,292547,2,0,L|22:310,1,62,0|0,1:2|0:2,0:2:0:0:
166,266,292833,2,0,B|195:211|185:138,1,124,2|0,1:2|1:2,0:2:0:0:
136,66,293261,53,2,0:2:0:0:
136,66,293404,2,0,L|50:59,1,62,0|0,1:2|0:2,0:2:0:0:
89,178,293690,2,0,L|3:171,1,62,0|0,1:2|0:2,0:2:0:0:
185,145,293976,2,0,L|246:150,1,62,0|0,1:2|0:2,0:2:0:0:
365,96,294261,53,2,1:2:0:0:
424,164,294404,2,0,P|428:192|415:246,1,62,0|0,0:2|1:2,0:2:0:0:
347,285,294690,1,0,0:2:0:0:
347,285,294833,2,0,L|285:279,1,62,0|0,1:2|0:2,0:2:0:0:
219,202,295118,2,0,B|199:158|210:113|234:84,1,124,2|0,1:2|1:2,0:2:0:0:
173,4,295547,53,2,0:2:0:0:
129,70,295690,1,0,1:2:0:0:
67,16,295833,1,0,0:2:0:0:
129,70,295976,2,0,P|124:106|109:153,1,62,0|0,1:2|0:2,0:2:0:0:
61,204,296261,2,0,P|30:207|0:213,1,62,0|0,1:2|0:2,0:2:0:0:
112,268,296547,53,2,1:2:0:0:
190,287,296690,2,0,P|219:285|264:275,1,62,0|0,0:2|1:2,0:0:0:0:
318,355,296976,1,0,0:2:0:0:
318,355,297118,2,0,P|348:361|379:363,1,62,0|0,1:2|0:2,0:2:0:0:
445,294,297404,2,0,B|485:237|467:169,1,124,2|0,1:2|1:2,0:2:0:0:
414,77,297833,53,2,0:2:0:0:
414,77,297976,2,0,P|448:66|485:65,1,62,0|0,1:2|0:2,0:2:0:0:
336,127,298261,2,0,P|325:93|324:56,1,62,0|0,1:2|0:2,0:2:0:0:
386,205,298547,2,0,P|352:215|315:217,1,62,0|0,1:2|0:2,0:2:0:0:
239,266,298833,53,2,1:2:0:0:
247,163,298976,2,0,P|217:152|186:150,1,62,0|0,0:2|1:2,0:0:0:0:
122,108,299261,1,2,0:2:0:0:
76,170,299404,1,0,1:2:0:0:
138,212,299547,1,0,0:2:0:0:
76,170,299690,2,0,B|25:218|48:288,1,124,2|0,1:2|1:2,0:2:0:0:
137,366,300118,53,2,0:2:0:0:
137,366,300261,2,0,L|211:359,1,62,0|0,1:2|0:2,0:0:0:0:
281,293,300547,53,4,0:3:0:0:
294,311,300618,1,4,0:3:0:0:
313,324,300690,1,4,0:3:0:0:
335,330,300761,1,4,0:3:0:0:
358,328,300833,1,4,0:3:0:0:
256,192,301118,6,0,P|200:196|141:225,1,85.2500026016236,14|0,0:0|0:0,0:0:0:0:
105,242,301404,1,0,0:0:0:0:
256,192,301547,2,0,P|280:141|284:75,1,85.2500026016236,14|0,0:1|0:2,0:0:0:0:
288,36,301833,1,0,0:2:0:0:
256,192,301976,2,0,P|287:238|342:275,1,85.2500026016236,14|0,0:1|0:2,0:0:0:0:
436,234,302261,85,0,0:2:0:0:
512,203,302404,1,14,0:1:0:0:
499,278,302547,1,0,0:2:0:0:
448,159,302690,1,0,0:2:0:0:
366,270,302833,22,0,L|356:376,1,92.9999971618653,6|0,0:0|0:0,0:0:0:0:
154,362,303118,2,0,L|146:270,1,92.9999971618653,6|0,0:0|0:0,0:0:0:0:
132,149,303404,85,14,0:1:0:0:
54,201,303547,1,0,0:0:0:0:
2,122,303690,1,0,0:0:0:0:
80,70,303833,2,0,P|122:66|172:53,1,85.2500026016236,14|0,0:1|0:0,0:0:0:0:
225,9,304118,1,0,0:0:0:0:
249,166,304261,2,0,P|206:169|157:183,1,85.2500026016236,14|0,0:1|0:0,0:0:0:0:
92,217,304547,21,0,0:0:0:0:
196,266,304690,1,14,0:1:0:0:
108,323,304833,1,0,0:0:0:0:
196,266,304976,1,0,0:0:0:0:
263,317,305118,22,0,L|260:380,1,62,10|0,0:2|1:0,0:0:0:0:
366,355,305404,2,0,L|368:291,1,62,10|0,0:2|1:0,0:0:0:0:
335,173,305690,85,14,0:1:0:0:
427,213,305833,2,0,P|470:214|510:200,1,85.2500026016236
409,113,306118,1,14,0:1:0:0:
499,65,306261,1,0,0:0:0:0:
418,2,306404,1,0,0:0:0:0:
328,50,306547,2,0,P|283:50|242:34,1,85.2500026016236,14|0,0:1|0:0,0:0:0:0:
100,0,306833,85,0,0:0:0:0:
178,104,306976,1,14,0:1:0:0:
49,119,307118,1,0,0:0:0:0:
109,75,307261,1,0,0:0:0:0:
164,186,307404,22,0,P|122:191|54:206,1,92.9999971618653,14|0,0:1|0:0,0:0:0:0:
348,198,307690,2,0,P|390:193|458:178,1,92.9999971618653,14|0,0:1|0:0,0:0:0:0:
271,146,307976,85,14,0:1:0:0:
241,238,308118,1,0,0:0:0:0:
199,175,308261,1,0,0:0:0:0:
313,209,308404,2,0,L|327:307,1,85.2500026016236,14|0,0:1|0:0,0:0:0:0:
223,312,308690,1,0,0:0:0:0:
199,175,308833,2,0,L|185:77,1,85.2500026016236,14|0,0:1|0:0,0:0:0:0:
173,15,309118,21,0,0:0:0:0:
305,74,309261,2,0,L|406:84,2,85.2500026016236,14|0|0,0:1|0:0|0:0,0:0:0:0:
199,175,309690,1,12,0:1:0:0:
107,141,309833,21,8,2:1:0:0:
92,156,309904,1,8,2:1:0:0:
82,175,309976,1,8,2:1:0:0:
76,195,310047,1,8,2:1:0:0:
74,216,310118,1,8,2:1:0:0:
76,237,310190,1,8,2:1:0:0:
84,257,310261,2,0,B|147:247|210:291|210:291|280:275,1,185.999994323731,4|0,1:2|0:0,0:0:0:0:
260,279,311118,2,0,L|267:229,1,46.4999985809327,0|0,1:0|0:0,0:0:0:0:
289,147,311404,102,0,B|352:157|415:113|415:113|485:129,1,185.999994323731,14|0,2:2|0:0,0:0:0:0:
466,124,312261,2,0,L|459:174,1,46.4999985809327,0|0,1:0|0:0,0:0:0:0:
490,254,312547,6,0,B|443:268|397:237,1,92.9999971618653,6|0,1:2|0:0,0:0:0:0:
331,205,312976,1,0,0:0:0:0:
319,296,313118,2,0,B|277:267|230:281,1,92.9999971618653,2|0,1:2|1:0,0:0:0:0:
231,281,313690,2,0,L|224:226,1,46.4999985809327,14|0,0:0|0:0,0:0:0:0:
164,173,313976,2,0,B|122:202|75:188,1,92.9999971618653,0|10,1:1|0:0,0:0:0:0:
6,141,314404,1,0,1:0:0:0:
46,67,314547,1,8,0:0:0:0:
164,173,314833,102,0,B|152:280,2,92.9999971618653,6|0|8,1:2|0:0|0:0,0:0:0:0:
348,211,315690,1,0,0:0:0:0:
348,211,315833,2,0,B|360:104,1,92.9999971618653,2|0,0:0|0:0,0:0:0:0:
372,41,316261,5,2,1:2:0:0:
256,192,316547,1,10,0:2:0:0:
140,343,316833,1,2,0:2:0:0:
185,162,317118,37,2,1:1:0:0:
326,221,317261,1,2,1:1:0:0:
262,116,317547,85,2,1:1:0:0:
249,267,317690,1,2,1:1:0:0:
330,174,317976,21,2,1:1:0:0:
181,209,318118,1,2,1:1:0:0:
295,257,318404,85,2,1:1:0:0:
216,126,318547,1,2,1:1:0:0:
256,192,318833,101,2,1:1:0:0:
166,7,319118,85,8,0:0:0:0:
168,18,319190,1,8,0:3:0:0:
171,29,319261,1,4,0:3:0:0:
174,40,319333,1,8,0:0:0:0:
177,52,319404,2,0,P|137:59|82:64,1,85.2500026016236,6|0,0:0|0:0,0:0:0:0:
298,85,319690,2,0,P|291:45|286:-10,1,85.2500026016236,8|0,0:0|0:0,0:0:0:0:
221,129,319976,1,2,0:0:0:0:
265,206,320118,2,0,P|305:199|360:194,1,85.2500026016236,0|8,0:0|0:0,0:0:0:0:
144,173,320404,69,2,0:1:0:0:
144,173,320476,1,0,0:0:0:0:
144,173,320547,2,0,P|151:213|156:268,1,85.2500026016236
31,365,320833,2,0,P|24:325|19:270,1,85.2500026016236,10|0,0:2|0:0,0:0:0:0:
166,351,321118,1,2,0:1:0:0:
241,295,321261,1,2,0:0:0:0:
313,354,321404,1,8,0:0:0:0:
374,246,321547,38,0,B|417:285|495:267|512:204,1,170.500005203247,2|0,0:1|0:0,0:0:0:0:
464,46,321976,2,0,B|407:63|384:140|430:186,1,170.500005203247,10|0,0:2|0:0,0:0:0:0:
329,91,322404,2,0,P|287:75|238:68,1,85.2500026016236,2|8,0:1|0:0,0:0:0:0:
163,17,322690,69,2,0:2:0:0:
129,104,322833,1,2,0:1:0:0:
65,35,322976,1,0,0:0:0:0:
31,122,323118,2,0,P|18:159|14:209,1,85.2500026016236,10|2,0:1|0:2,0:0:0:0:
13,284,323404,1,2,0:1:0:0:
122,305,323547,2,0,P|135:268|139:218,1,85.2500026016236,2|8,0:1|0:0,0:0:0:0:
247,92,323833,38,0,B|214:179|273:257,1,170.500005203247,2|0,0:1|0:0,0:0:0:0:
336,160,324261,2,0,P|391:147|443:138,1,85.2500026016236,10|0,0:2|0:0,0:0:0:0:
270,253,324547,1,2,0:2:0:0:
188,187,324690,2,0,P|133:174|81:165,1,85.2500026016236,2|8,0:1|0:0,0:0:0:0:
99,314,324976,69,2,0:0:0:0:
99,314,325047,1,0,0:0:0:0:
99,314,325118,2,0,P|57:305|15:295,1,85.2500026016236
202,296,325404,2,0,L|217:389,1,85.2500026016236,10|0,0:1|0:0,0:0:0:0:
367,271,325690,1,2,0:1:0:0:
459,304,325833,1,2,0:1:0:0:
384,366,325976,1,8,0:0:0:0:
441,207,326118,38,0,B|469:117|420:38,1,170.500005203247,2|0,0:1|0:0,0:0:0:0:
346,145,326547,2,0,B|321:54|236:14,1,170.500005203247,10|0,0:2|0:0,0:0:0:0:
232,144,326976,2,0,P|182:110|122:99,1,85.2500026016236,2|8,0:1|0:0,0:0:0:0:
54,54,327261,69,2,0:2:0:0:
0,105,327404,1,2,0:1:0:0:
72,127,327547,1,0,0:0:0:0:
18,178,327690,1,10,0:1:0:0:
90,200,327833,1,0,0:2:0:0:
36,251,327976,37,2,0:1:0:0:
72,127,328118,1,0,0:2:0:0:
196,163,328261,1,8,0:2:0:0:
179,241,328404,70,0,B|194:307|277:323|319:279,1,170.500005203247,6|0,0:0|0:0,0:1:0:0:
372,126,328833,2,0,B|409:86|492:102|507:168,1,170.500005203247,10|2,0:2|0:1,0:0:0:0:
303,194,329261,2,0,P|281:146|276:82,1,85.2500026016236,0|8,0:0|0:0,0:0:0:0:
149,176,329547,37,2,0:1:0:0:
149,176,329618,1,0,0:0:0:0:
149,176,329690,2,0,P|167:214|176:255,1,85.2500026016236
5,273,329976,2,0,P|44:254|93:248,1,85.2500026016236,10|0,0:1|0:0,0:0:0:0:
203,333,330261,1,2,0:1:0:0:
130,383,330404,1,2,0:1:0:0:
176,256,330547,1,8,0:0:0:0:
287,353,330690,70,0,B|341:386|409:347|406:282,1,170.500005203247,2|0,0:1|0:0,0:0:0:0:
427,158,331118,2,0,P|467:160|513:177,1,85.2500026016236,10|0,0:2|0:0,0:0:0:0:
319,182,331404,1,0,0:0:0:0:
319,182,331547,2,0,P|321:142|338:96,1,85.2500026016236,2|8,0:1|0:0,0:0:0:0:
238,7,331833,37,2,0:2:0:0:
158,56,331976,1,2,0:1:0:0:
225,120,332118,1,0,0:0:0:0:
145,169,332261,2,0,L|46:176,1,85.2500026016236,10|2,0:1|0:2,0:0:0:0:
6,228,332547,1,2,0:0:0:0:
66,334,332690,2,0,L|165:327,1,85.2500026016236,2|8,0:0|0:0,0:0:0:0:
272,381,332976,70,0,B|220:299|285:215,1,170.500005203247,2|0,0:1|0:0,0:0:0:0:
356,312,333404,2,0,P|400:328|453:331,1,85.2500026016236,10|0,0:2|0:0,0:0:0:0:
476,186,333690,1,0,0:0:0:0:
476,186,333833,2,0,P|436:171|394:167,1,85.2500026016236,2|8,0:1|0:0,0:0:0:0:
297,64,334118,37,2,0:2:0:0:
213,105,334261,1,2,0:1:0:0:
143,41,334404,1,0,0:0:0:0:
59,82,334547,2,0,P|38:126|40:189,1,85.2500026016236,10|0,0:1|0:2,0:0:0:0:
89,239,334833,1,2,0:1:0:0:
187,225,334976,1,2,0:1:0:0:
187,225,335047,1,0,0:0:0:0:
187,225,335118,1,8,0:0:0:0:
231,330,335261,70,0,B|268:385|351:368|373:300,1,170.500005203247,2|0,0:1|0:0,0:0:0:0:
508,211,335690,2,0,B|471:266|388:249|366:181,1,170.500005203247,10|0,0:2|0:0,0:0:0:0:
460,72,336118,2,0,P|461:122|440:167,1,85.2500026016236,2|8,0:1|0:0,0:0:0:0:
302,134,336404,37,2,0:2:0:0:
215,97,336547,1,2,0:1:0:0:
152,168,336690,1,0,0:0:0:0:
200,249,336833,1,10,0:1:0:0:
293,228,336976,1,0,0:0:0:0:
365,283,337118,69,8,2:3:0:0:
371,303,337190,1,8,2:3:0:0:
371,324,337261,1,4,2:3:0:0:
367,345,337333,1,4,2:3:0:0:
359,364,337404,1,8,2:2:0:0:
273,312,337547,22,0,L|93:286,1,155,4|0,0:1|0:0,0:0:0:0:
44,229,337976,2,0,B|7:274|12:330|61:368,1,155,8|2,0:0|0:2,0:0:0:0:
120,290,338404,2,0,P|133:252|139:178,1,77.5,0|8,0:0|0:0,0:0:0:0:
79,125,338690,102,0,L|264:107,1,155,2|0,0:2|0:0,0:0:0:0:
216,208,339118,2,0,L|138:215,1,77.5,8|0,0:0|0:0,0:0:0:0:
109,322,339404,2,0,L|263:306,1,155,2|8,0:2|0:0,0:0:0:0:
422,290,339833,5,2,0:2:0:0:
422,290,339904,1,0,0:0:0:0:
422,290,339976,2,0,B|412:366,1,77.5
263,306,340261,2,0,B|272:382,1,77.5,8|0,0:0|0:0,0:0:0:0:
333,250,340547,1,2,0:2:0:0:
274,182,340690,2,0,P|236:171|190:166,1,77.5,0|8,0:0|0:0,0:0:0:0:
333,250,340976,102,0,B|382:290|445:266|462:215,1,155,2|0,0:2|0:0,0:0:0:0:
377,131,341404,2,0,L|364:54,1,77.5,8|0,0:0|0:0,0:0:0:0:
284,22,341690,1,2,0:2:0:0:
230,88,341833,1,0,0:0:0:0:
150,56,341976,1,8,0:0:0:0:
50,113,342118,6,0,B|-1:138|-3:211|44:242,1,155,6|0,0:2|0:0,0:0:0:0:
198,250,342547,2,0,B|201:191|139:153|87:180,1,155,8|2,0:0|0:2,0:0:0:0:
77,315,342976,2,0,P|105:290|121:254,1,77.5,0|8,0:0|0:0,0:0:0:0:
217,118,343261,102,0,B|207:175|266:218|317:197,1,155,2|0,0:2|0:0,0:0:0:0:
345,64,343690,2,0,P|313:85|294:119,1,77.5,8|0,0:0|0:0,0:0:0:0:
352,265,343976,2,0,B|406:244|414:172|370:137,1,155,2|8,0:2|0:0,0:0:0:0:
233,209,344404,5,2,0:2:0:0:
233,209,344476,1,0,0:0:0:0:
233,209,344547,2,0,L|139:190,1,77.5
185,70,344833,2,0,L|260:85,1,77.5,8|0,0:2|0:0,0:0:0:0:
113,116,345118,1,2,0:2:0:0:
37,76,345261,2,0,P|38:37|51:1,1,77.5,0|8,0:0|0:0,0:0:0:0:
113,116,345547,102,0,B|164:141|168:213|127:249,1,155,2|0,0:1|0:0,0:0:0:0:
0,207,345976,2,0,L|86:189,1,77.5,10|0,0:1|0:0,0:0:0:0:
190,168,346261,1,2,0:1:0:0:
213,283,346404,1,0,0:0:0:0:
288,248,346547,69,8,0:2:0:0:
304,257,346618,1,8,0:2:0:0:
323,262,346690,1,8,0:2:0:0:
342,261,346761,1,8,0:2:0:0:
360,254,346833,2,0,B|406:217|390:142,1,116.250004434586,4|0,1:0|0:0,0:0:0:0:
311,180,347261,1,2,0:0:0:0:
311,180,347404,2,0,L|233:163,1,58.1250022172929,8|0,0:0|0:0,0:0:0:0:
202,99,347690,2,0,B|156:136|172:211,1,116.250004434586,2|0,0:0|0:0,0:0:0:0:
209,275,348118,85,2,0:0:0:0:
123,333,348261,2,0,P|95:331|67:320,1,58.1250022172929,0|0,1:0|0:0,0:0:0:0:
0,242,348547,2,0,P|28:240|56:229,1,58.1250022172929,8|0,0:0|0:0,0:0:0:0:
103,147,348833,2,0,L|89:81,1,58.1250022172929
199,174,349118,22,0,B|257:198|318:156,1,116.250004434586,2|0,1:2|0:0,0:0:0:0:
372,104,349547,1,2,0:0:0:0:
318,38,349690,2,0,P|279:26|251:27,1,58.1250022172929,8|0,0:0|0:0,0:0:0:0:
372,104,349976,2,0,B|424:140|482:116,1,116.250004434586,2|0,0:0|0:0,0:0:0:0:
507,192,350404,85,2,0:0:0:0:
396,205,350547,2,0,L|388:271,1,58.1250022172929,0|0,1:0|0:0,0:0:0:0:
372,348,350833,1,8,0:0:0:0:
293,384,350976,1,0,1:0:0:0:
222,332,351118,2,0,L|230:266,1,58.1250022172929,2|0,0:0|0:0,0:0:0:0:
127,300,351404,22,0,B|87:287|47:313|47:313|14:298,1,116.250004434586,2|0,1:2|0:0,0:0:0:0:
51,220,351833,1,2,0:0:0:0:
51,220,351976,2,0,L|56:143,1,58.1250022172929,8|0,0:0|0:0,0:0:0:0:
17,84,352261,2,0,B|47:71|47:71|87:97|127:84,1,116.250004434586,2|0,0:0|0:0,0:0:0:0:
170,150,352690,85,2,0:0:0:0:
255,99,352833,2,0,L|245:28,1,58.1250022172929,0|0,1:0|0:0,0:0:0:0:
342,11,353118,2,0,B|375:68|350:124,1,116.250004434586,8|2,0:0|0:0,0:0:0:0:
310,189,353547,1,0,0:0:0:0:
368,272,353690,22,0,B|411:298|453:289|483:248,1,116.250004434586,2|0,1:2|0:0,0:0:0:0:
510,186,354118,1,2,0:0:0:0:
454,125,354261,2,0,L|450:66,1,58.1250022172929,8|0,0:0|0:0,0:0:0:0:
379,159,354547,2,0,B|336:185|294:176|264:135,1,116.250004434586,2|0,0:0|0:0,0:0:0:0:
211,94,354976,85,10,0:0:0:0:
224,211,355118,2,0,L|227:269,1,58.1250022172929,0|0,1:0|0:0,0:0:0:0:
161,353,355404,21,8,2:2:0:0:
139,348,355476,1,8,2:2:0:0:
118,344,355547,1,8,2:2:0:0:
97,339,355618,1,8,2:2:0:0:
75,335,355690,2,0,L|39:348,3,29.0625011086464,8|8|8|8,2:2|2:2|2:2|2:2,0:0:0:0:
23,335,355976,38,0,B|-13:266|26:184,1,155,4|8,0:0|0:2,0:0:0:0:
88,117,356404,1,0,0:2:0:0:
179,136,356547,1,2,0:2:0:0:
258,87,356690,1,0,0:2:0:0:
344,121,356833,2,0,B|382:201|346:270,1,155,8|2,0:2|0:2,0:0:0:0:
288,338,357261,101,0,0:2:0:0:
222,257,357404,1,8,0:2:0:0:
222,257,357547,1,0,0:2:0:0:
178,380,357690,1,2,0:2:0:0:
178,380,357833,1,0,0:2:0:0:
109,309,357976,2,0,L|12:293,1,77.5,8|0,0:2|0:2,0:2:0:0:
157,188,358261,5,2,0:2:0:0:
157,188,358404,2,0,L|173:91,1,77.5,0|8,0:2|0:2,0:0:0:0:
346,52,358690,1,0,0:2:0:0:
247,15,358833,2,0,L|259:91,1,77.5,2|0,0:2|0:2,0:0:0:0:
428,93,359118,2,0,L|440:16,1,77.5,8|0,0:2|0:2,0:2:0:0:
346,164,359404,102,0,B|426:157|495:226,1,155,2|8,0:2|0:2,0:0:0:0:
508,316,359833,1,0,0:2:0:0:
435,288,359976,1,2,0:2:0:0:
380,343,360118,1,0,0:2:0:0:
307,315,360261,1,8,0:2:0:0:
252,370,360404,1,0,0:2:0:0:
184,294,360547,6,0,P|147:286|86:282,1,77.5,2|0,0:2|0:0,0:2:0:0:
291,205,360833,2,0,P|283:242|279:303,1,77.5,8|0,0:2|0:2,0:0:0:0:
202,98,361118,2,0,P|239:106|300:110,1,77.5,2|0,0:2|0:2,0:0:0:0:
95,187,361404,2,0,P|103:150|107:89,1,77.5,8|0,0:2|0:2,0:2:0:0:
184,294,361690,101,2,0:2:0:0:
107,282,361833,1,0,0:2:0:0:
71,351,361976,1,8,0:2:0:0:
148,363,362118,1,0,0:2:0:0:
191,286,362261,2,0,L|178:204,1,77.5,2|0,0:2|0:2,0:0:0:0:
282,88,362547,2,0,B|329:160|281:244,1,155,8|2,0:2|0:2,0:0:0:0:
182,113,362976,5,0,0:2:0:0:
102,155,363118,2,0,L|-2:138,1,77.5,8|0,0:2|0:0,0:0:0:0:
83,293,363404,2,0,L|-21:276,1,77.5,2|0,0:2|0:2,0:0:0:0:
166,233,363690,1,8,0:2:0:0:
166,233,363833,1,0,0:2:0:0:
218,342,363976,102,0,B|291:389|362:330,1,155,2|8,0:2|0:2,0:0:0:0:
431,204,364404,1,0,0:2:0:0:
501,304,364547,2,0,P|462:300|424:283,1,77.5,2|0,0:2|0:2,0:0:0:0:
348,178,364833,70,0,L|346:153,3,19.375,2|0|0|0,3:3|3:3|3:3|3:3,2:3:0:0:
359,141,365118,38,0,B|286:94|215:153,1,155,4|8,0:1|0:2,0:0:0:0:
161,207,365547,1,0,0:2:0:0:
218,320,365690,2,0,B|291:367|360:308,1,155,2|8,0:2|0:2,0:0:0:0:
433,336,366118,1,0,0:2:0:0:
436,216,366261,6,0,L|520:204,1,77.5,2|0,0:2|0:2,0:0:0:0:
408,113,366547,2,0,L|492:101,1,77.5,8|0,0:2|0:2,0:0:0:0:
345,200,366833,2,0,P|334:161|319:124,1,77.5,2|0,0:2|0:2,0:0:0:0:
167,184,367118,2,0,P|178:223|193:260,1,77.5,8|0,0:2|0:2,0:0:0:0:
255,192,367404,101,2,0:2:0:0:
228,119,367547,1,0,0:2:0:0:
153,97,367690,1,8,0:2:0:0:
88,140,367833,1,0,0:2:0:0:
75,216,367976,2,0,P|85:253|99:289,1,77.5,2|0,0:2|0:2,0:0:0:0:
195,363,368261,2,0,B|269:334|347:343,1,155,8|2,0:2|0:2,0:0:0:0:
436,211,368690,5,0,0:2:0:0:
510,313,368833,2,0,P|480:309|423:291,1,77.5,8|0,0:2|0:2,0:0:0:0:
344,208,369118,2,0,B|316:123|351:50,1,155,2|8,0:2|0:2,0:2:0:0:
404,5,369547,1,0,0:2:0:0:
268,63,369690,102,0,L|180:70,1,77.5,2|0,0:2|0:2,0:0:0:0:
29,120,369976,2,0,L|107:127,1,77.5,8|0,0:2|0:2,0:0:0:0:
196,182,370261,1,2,0:2:0:0:
196,182,370404,1,0,0:2:0:0:
115,243,370547,2,0,B|79:285|92:352|153:368,1,155,8|2,0:2|0:2,0:0:0:0:
255,297,370976,5,0,0:0:0:0:
318,341,371118,1,8,0:2:0:0:
395,331,371261,1,0,0:2:0:0:
438,266,371404,1,2,0:2:0:0:
430,188,371547,1,0,0:2:0:0:
369,139,371690,2,0,P|332:142|293:156,1,77.5,8|0,0:2|0:2,0:0:0:0:
225,270,371976,102,0,B|140:313|81:245,1,155,2|8,0:2|0:2,0:2:0:0:
29,163,372404,1,0,0:2:0:0:
86,80,372547,2,0,P|48:69|10:63,1,77.5,2|0,0:2|0:2,0:0:0:0:
174,142,372833,2,0,P|184:104|190:66,1,77.5,8|0,0:2|0:2,0:0:0:0:
272,10,373118,5,2,0:2:0:0:
272,10,373261,1,0,0:2:0:0:
300,114,373404,1,8,0:2:0:0:
300,114,373547,1,0,0:2:0:0:
406,91,373690,2,0,P|445:85|485:83,1,77.5,10|0,1:2|0:0,0:0:0:0:
502,215,373976,102,0,L|493:278,1,38.75,8|4,2:0|2:3,0:0:0:0:
410,270,374118,2,0,L|419:207,1,38.75,8|4,2:0|2:3,0:0:0:0:
355,162,374261,22,0,P|318:147|252:134,1,89.9000027435304,14|0,0:2|0:0,0:0:0:0:
157,222,374547,2,0,P|194:237|260:250,1,89.9000027435304,8|0,0:0|0:0,0:0:0:0:
286,49,374833,2,0,P|242:58|200:75,1,89.9000027435304,10|0,0:2|0:0,0:0:0:0:
226,335,375118,2,0,P|269:325|311:308,1,89.9000027435304,8|0,0:0|0:0,0:0:0:0:
423,259,375404,85,10,0:2:0:0:
423,259,375547,1,0,0:0:0:0:
363,186,375690,1,8,0:0:0:0:
363,186,375833,1,0,0:0:0:0:
462,163,375976,1,10,0:2:0:0:
462,163,376118,1,0,0:0:0:0:
396,95,376261,1,8,0:0:0:0:
396,95,376404,1,0,0:0:0:0:
284,110,376547,22,0,L|177:84,1,89.9000027435304,10|0,0:2|0:0,0:0:0:0:
228,274,376833,2,0,L|335:300,1,89.9000027435304,8|0,0:0|0:0,0:0:0:0:
256,192,377118,1,10,0:2:0:0:
164,215,377261,1,0,0:0:0:0:
148,308,377404,1,8,0:0:0:0:
226,360,377547,1,0,0:0:0:0:
315,295,377690,86,0,P|361:287|416:284,1,89.9000027435304,10|0,0:2|0:0,0:0:0:0:
260,137,377976,2,0,P|268:183|271:238,1,89.9000027435304,8|0,0:0|0:0,0:0:0:0:
418,82,378261,2,0,P|372:90|317:93,1,89.9000027435304,10|0,0:2|0:0,0:0:0:0:
473,240,378547,2,0,P|465:194|462:139,1,89.9000027435304,8|0,0:0|0:0,0:0:0:0:
366,188,378833,21,10,0:2:0:0:
289,212,378976,1,0,0:0:0:0:
211,195,379118,1,8,0:0:0:0:
134,219,379261,1,0,0:0:0:0:
62,183,379404,2,0,P|63:142|76:90,1,89.9000027435304,10|0,0:2|0:0,0:0:0:0:
211,195,379690,2,0,P|209:235|196:287,1,89.9000027435304,8|0,0:0|0:0,0:0:0:0:
145,138,379976,85,10,0:2:0:0:
145,138,380118,1,0,0:0:0:0:
256,96,380261,1,8,0:2:0:0:
256,96,380404,1,0,0:2:0:0:
367,137,380547,2,0,P|356:181|354:226,1,89.9000027435304,10|0,0:2|0:0,0:0:0:0:
483,290,380833,2,0,P|493:246|496:201,1,89.9000027435304,10|0,0:2|0:0,0:0:0:0:
449,100,381118,21,10,0:2:0:0:
367,137,381261,1,0,0:0:0:0:
306,70,381404,1,8,0:0:0:0:
223,107,381547,1,2,0:2:0:0:
232,197,381690,1,8,0:0:0:0:
321,215,381833,1,0,0:0:0:0:
331,305,381976,1,10,0:2:0:0:
248,342,382118,1,0,0:0:0:0:
187,274,382261,86,0,L|55:261,1,102.299999687805,14|0,0:1|0:0,0:0:0:0:
325,110,382547,2,0,L|457:123,1,102.299999687805,14|0,0:1|0:0,0:0:0:0:
293,216,382833,69,12,0:2:0:0:
274,204,382904,1,8,0:3:0:0:
255,191,382975,1,4,0:3:0:0:
236,179,383047,1,4,0:3:0:0:
218,166,383118,2,0,L|209:118,3,38.75,8|8|8|8,0:0|0:0|0:0|0:0,0:0:0:0:
219,108,383404,86,0,P|182:93|112:82,1,94.5499961046602,12|0,1:0|0:0,0:0:0:0:
293,276,383690,2,0,P|330:291|400:302,1,94.5499961046602,8|0,0:0|0:0,0:0:0:0:
153,172,383976,2,0,P|106:180|62:197,1,94.5499961046602,10|0,0:2|0:0,0:0:0:0:
359,212,384261,2,0,P|405:203|449:186,1,94.5499961046602,8|0,0:0|0:0,0:0:0:0:
510,114,384547,101,10,0:2:0:0:
510,114,384690,1,0,0:0:0:0:
426,60,384833,1,8,0:0:0:0:
426,60,384976,1,0,0:0:0:0:
344,114,385119,1,10,0:2:0:0:
344,114,385261,1,0,0:0:0:0:
260,60,385404,1,8,0:0:0:0:
260,60,385547,1,0,0:0:0:0:
168,114,385690,6,0,P|124:114|63:98,1,94.5499961046602,10|0,0:2|0:2,0:0:0:0:
168,270,385976,2,0,P|120:270|74:281,1,94.5499961046602,8|0,0:2|0:2,0:0:0:0:
256,192,386261,1,10,0:2:0:0:
336,241,386404,1,0,0:2:0:0:
405,176,386547,1,8,0:2:0:0:
325,127,386690,1,0,0:2:0:0:
256,192,386833,102,0,L|160:175,1,94.5499961046602,10|0,0:2|0:2,0:0:0:0:
325,127,387118,2,0,L|342:31,1,94.5499961046602,8|0,0:2|0:2,0:0:0:0:
405,176,387404,2,0,L|501:193,1,94.5499961046602,10|0,0:2|0:2,0:0:0:0:
336,241,387690,5,10,0:2:0:0:
331,264,387761,1,8,0:0:0:0:
327,287,387832,1,8,0:0:0:0:
323,310,387904,1,8,0:0:0:0:
319,334,387976,2,0,P|374:351|426:347,1,94.5499961046602,12|0,0:0|0:0,0:0:0:0:
207,279,388261,2,0,P|190:334|194:386,1,94.5499961046602,10|0,0:2|0:0,0:0:0:0:
262,167,388547,2,0,P|207:150|155:154,1,94.5499961046602,10|0,0:2|0:0,0:0:0:0:
374,222,388833,2,0,P|391:167|387:115,1,94.5499961046602,10|0,0:2|0:0,0:0:0:0:
354,24,389119,101,10,0:2:0:0:
354,24,389261,1,0,0:2:0:0:
256,85,389404,1,10,0:2:0:0:
256,85,389547,1,0,0:2:0:0:
158,24,389690,2,0,L|52:40,1,94.5499961046602,10|0,0:2|0:2,0:0:0:0:
107,231,389976,2,0,L|1:215,1,94.5499961046602,10|0,0:2|0:2,0:0:0:0:
171,135,390261,5,10,0:2:0:0:
256,194,390404,1,0,0:2:0:0:
341,135,390547,1,10,0:2:0:0:
427,192,390690,1,0,0:2:0:0:
341,249,390833,1,10,0:2:0:0:
256,194,390976,1,0,0:2:0:0:
171,249,391119,1,10,0:2:0:0:
85,192,391261,1,0,0:2:0:0:
168,119,391404,102,0,P|119:106|57:80,1,108.499996688843,14|0,0:1|0:0,0:0:0:0:
344,265,391690,2,0,P|393:278|455:304,1,108.499996688843,14|0,0:1|0:0,0:0:0:0:
272,176,391976,37,8,0:0:0:0:
268,180,392047,1,8,0:0:0:0:
264,184,392118,1,8,0:0:0:0:
260,188,392190,1,8,0:0:0:0:
256,192,392261,1,8,0:0:0:0:
252,196,392333,1,8,0:0:0:0:
248,200,392404,1,8,0:0:0:0:
244,204,392476,1,8,0:0:0:0:
240,208,392547,1,4,1:0:0:0:
