osu file format v14

[General]
AudioFilename: audio.mp3
AudioLeadIn: 0
PreviewTime: 59516
Countdown: 0
SampleSet: Soft
StackLeniency: 0.3
Mode: 0
LetterboxInBreaks: 0
WidescreenStoryboard: 0

[Editor]
DistanceSpacing: 1
BeatDivisor: 2
GridSize: 4
TimelineZoom: 1

[Metadata]
Title:Hades: The rise
TitleUnicode:Hades: The rise
Artist:Yousei Teikoku
ArtistUnicode:妖精帝國
Creator:Delis
Version:Normal
Source:
Tags:metanoia Mirash
BeatmapID:1411798
BeatmapSetID:662526

[Difficulty]
HPDrainRate:4
CircleSize:3
OverallDifficulty:4
ApproachRate:5
SliderMultiplier:1
SliderTickRate:1

[Events]
//Background and Video events
0,0,"BG.jpg",0,0
//Break Periods
2,28002,31174
2,50859,51745
2,53145,54031
2,87431,95174
2,114859,115745
2,117145,118031
2,151431,159174
//Storyboard Layer 0 (Background)
//Storyboard Layer 1 (Fail)
//Storyboard Layer 2 (Pass)
//Storyboard Layer 3 (Foreground)
//Storyboard Sound Samples

[TimingPoints]
374,285.714285714286,4,2,1,60,1,0
18659,-100,4,1,1,50,0,0
41516,-125,4,2,1,50,0,0
50802,-125,4,1,1,50,0,0
57445,-100,4,1,1,50,0,0
59516,-100,4,1,1,60,0,0
87231,-100,4,1,1,50,0,0
105516,-125,4,2,1,50,0,0
114802,-125,4,1,1,50,0,0
121445,-100,4,1,1,50,0,0
123516,-100,4,1,1,60,0,0
151231,-100,4,1,1,50,0,0
160374,-125,4,1,1,50,0,0
168374,-125,4,2,1,50,0,0
168945,-125,4,2,0,50,0,0
169016,-125,4,2,1,50,0,0
179802,-125,4,2,1,55,0,0
180945,-125,4,2,1,60,0,0
182088,-125,4,1,1,60,0,0
183231,-100,4,2,1,60,0,0
195802,-100,4,1,1,50,0,0
196945,-100,4,1,1,60,0,0
198088,-125,4,1,1,60,0,0
201231,-125,4,1,1,40,0,0
201516,-100,4,1,1,60,0,0
224374,-100,4,1,1,70,0,0
233516,-100,4,1,1,65,0,0

[Colours]
Combo1 : 54,95,91
Combo2 : 107,46,67
Combo3 : 16,82,141
Combo4 : 134,0,134

[HitObjects]
148,64,7231,5,4,0:2:0:0:
344,92,7802,1,4,0:2:0:0:
308,284,8374,2,0,B|256:280|204:264,2,100,4|8|0,0:2|0:0|3:0,0:0:0:0:
400,244,9231,1,0,3:0:0:0:
416,144,9516,6,0,B|400:88|316:64|276:104,2,150,4|2|0,0:0|0:0|1:0,0:0:0:0:
340,208,10659,2,0,B|296:220|232:236,1,100,2|0,0:2|1:0,0:0:0:0:
160,284,11231,2,0,B|116:256|48:272,1,100,0|0,3:0|1:2,0:0:0:0:
32,172,11802,6,0,B|16:112|52:72|52:72|36:36|8:24,2,150,2|2|0,3:2|0:2|1:0,0:0:0:0:
124,136,12945,2,0,B|236:120,1,100,2|0,0:2|1:0,0:0:0:0:
296,192,13516,2,0,B|428:172,1,100,0|0,3:0|1:0,0:0:0:0:
456,256,14088,6,0,B|448:320|368:344|324:304,2,150,4|2|0,0:0|0:2|1:0,0:0:0:0:
396,176,15231,2,0,B|372:4,2,150,2|2|0,0:2|3:2|1:0,0:0:0:0:
304,136,16374,6,0,B|256:104|200:112,2,100,2|0|0,3:2|1:0|3:0,0:0:0:0:
344,228,17231,1,0,1:0:0:0:
288,312,17516,2,0,B|248:360|172:348|152:284,2,150,2|2|8,0:2|3:2|0:0,0:0:0:0:
380,348,18659,6,0,B|488:324,1,100,4|8,0:0|0:0,0:0:0:0:
428,240,19231,2,0,B|408:172|448:124,1,100,2|8,0:0|0:0,0:0:0:0:
476,52,19802,2,0,B|420:32|372:68,1,100,2|8,0:0|0:0,0:0:0:0:
308,132,20374,1,2,0:0:0:0:
212,164,20659,1,8,0:0:0:0:
116,128,20945,6,0,B|92:188|132:232,2,100,2|8|2,0:0|0:0|0:0,0:0:0:0:
144,32,21802,1,8,0:0:0:0:
240,48,22088,2,0,B|296:40|360:36,1,100,2|8,0:0|0:0,0:0:0:0:
384,128,22659,2,0,B|404:184|380:228,1,100,2|8,0:0|0:0,0:0:0:0:
284,228,23231,6,0,B|232:192|176:212,1,100,4|8,0:0|0:0,0:0:0:0:
96,244,23802,2,0,B|72:192|88:132,1,100,2|8,0:0|0:0,0:0:0:0:
156,76,24374,2,0,B|276:56,1,100,2|8,0:0|0:0,0:0:0:0:
348,92,24945,1,2,0:0:0:0:
416,164,25231,6,0,B|452:172|484:168,2,50,8|2|2,0:0|0:0|0:0,0:0:0:0:
316,172,25802,1,8,0:0:0:0:
244,240,26088,2,0,B|208:288|236:356,1,100,2|8,0:0|0:0,0:0:0:0:
324,300,26659,2,0,B|520:280,2,150,2|2|8,0:0|0:0|0:0,0:0:0:0:
356,208,27802,1,4,0:0:0:0:
216,140,32374,6,0,B|168:104|96:128,1,100,4|8,0:0|0:0,0:0:0:0:
152,216,32945,2,0,B|200:252|272:228,1,100,2|8,0:0|0:0,0:0:0:0:
316,164,33516,2,0,B|336:48,2,100,2|8|2,0:0|0:0|0:0,0:0:0:0:
348,260,34374,1,8,0:0:0:0:
288,340,34659,6,0,B|176:352,2,100,2|8|2,0:0|0:0|0:0,0:0:0:0:
228,260,35516,1,8,0:0:0:0:
292,180,35802,2,0,B|324:128|296:68,1,100,2|8,0:0|0:0,0:0:0:0:
204,56,36374,2,0,B|148:56|116:116,1,100,2|8,0:0|0:0,0:0:0:0:
108,204,36945,6,0,B|140:340,1,100,4|8,0:0|0:0,0:0:0:0:
228,332,37516,2,0,B|280:296|336:316,1,100,2|8,0:0|0:0,0:0:0:0:
424,300,38088,2,0,B|408:168,1,100,2|8,0:0|0:0,0:0:0:0:
404,104,38659,1,2,0:0:0:0:
304,120,38945,2,0,B|292:40,2,50,8|0|2,0:0|0:0|0:0,0:0:0:0:
240,196,39516,6,0,B|272:324,2,100,8|2|8,0:0|0:0|0:0,0:0:0:0:
160,132,40374,2,0,B|112:172|124:236,1,100,2|8,0:0|0:0,0:0:0:0:
132,244,40802,2,0,B|84:292|8:272|0:208,1,150,8|8,0:0|0:0,0:0:0:0:
52,144,41516,6,0,B|36:52,2,80,4|0|8,3:2|3:0|0:0,0:0:0:0:
192,224,42659,2,0,B|272:168|372:204,2,160,0|8|4,3:0|0:0|3:2,0:0:0:0:
112,240,44088,5,0,3:0:0:0:
136,316,44374,2,0,B|228:352|304:288,1,160,8|0,0:0|3:0,0:0:0:0:
324,148,45516,2,0,B|280:156|228:156,1,80,8|8,0:0|0:0,0:0:0:0:
220,76,46088,6,0,B|400:56,2,160,4|8|0,3:2|0:0|3:0,0:0:0:0:
72,140,47802,2,0,B|60:188|72:244,1,80,8|0,0:0|3:0,0:0:0:0:
132,276,48374,6,0,B|224:324|204:252|316:292,1,160,4|8,3:2|0:2,0:0:0:0:
444,264,49516,2,0,B|420:72,1,160,0|8,3:0|0:0,0:0:0:0:
348,80,50374,2,0,L|340:12,2,40,8|8|4,0:0|0:0|0:2,0:0:0:0:
256,192,52945,5,0,0:0:0:0:
72,68,55231,6,0,B|40:152|68:252,1,160,0|0,0:0|0:0,0:0:0:0:
208,292,56374,2,0,B|240:208|212:108,1,160,2|2,0:0|0:0,0:0:0:0:
340,292,57516,6,0,B|388:328|448:316,1,100,4|2,0:2|0:0,0:0:0:0:
480,228,58088,2,0,B|432:192|372:204,1,100,2|2,0:0|0:0,0:0:0:0:
288,212,58659,2,0,B|260:88,1,100,2|8,0:0|0:0,0:0:0:0:
180,60,59231,2,0,B|96:68|72:196|152:236,1,200,8|4,0:0|0:0,0:0:0:0:
184,296,60088,6,0,B|244:236|348:268,1,150,8|2,0:0|0:2,0:0:0:0:
416,296,60802,1,2,0:0:0:0:
472,212,61088,2,0,B|448:80,1,100,2|2,0:0|0:0,0:0:0:0:
372,172,61659,2,0,B|312:108|212:152,1,150,2|4,0:0|0:0,0:0:0:0:
144,184,62374,6,0,B|168:20,1,150,8|0,0:0|0:0,0:0:0:0:
72,76,63088,2,0,B|52:200,1,100,2|2,0:0|0:0,0:0:0:0:
92,268,63659,2,0,B|176:296|232:224,1,150,2|8,0:0|0:0,0:0:0:0:
304,292,64374,6,0,B|368:312|412:256,2,100,4|8|2,0:0|0:0|0:0,0:0:0:0:
296,192,65231,1,8,0:0:0:0:
380,144,65516,2,0,B|368:12,1,100,2|8,0:0|0:0,0:0:0:0:
280,84,66088,2,0,B|156:60,1,100,2|8,0:0|0:0,0:0:0:0:
88,104,66659,6,0,B|76:228|84:348,1,200,4|2,0:2|0:0,0:0:0:0:
180,320,67516,1,8,0:0:0:0:
168,220,67802,2,0,B|260:224|312:232,1,100,0|8,0:0|0:0,0:0:0:0:
300,320,68374,2,0,B|360:328|408:328,1,100,2|8,0:0|0:0,0:0:0:0:
468,256,68945,6,0,B|504:180|468:92,1,150,4|0,0:0|0:0,0:0:0:0:
392,56,69659,1,0,0:0:0:0:
292,68,69945,2,0,B|252:108|180:96,2,100,2|2|2,0:0|0:0|0:0,0:0:0:0:
340,152,70802,2,0,B|332:216|260:244|200:196,1,150,2|4,0:0|0:0,0:0:0:0:
136,168,71516,6,0,B|152:344,1,150,8|0,0:0|0:0,0:0:0:0:
48,316,72231,2,0,B|36:192,1,100,2|2,0:0|0:0,0:0:0:0:
52,116,72802,2,0,B|72:60|148:40|196:92,1,150,2|8,0:0|0:0,0:0:0:0:
252,144,73516,6,0,B|268:24,1,100,4|8,0:0|0:0,0:0:0:0:
348,100,74088,2,0,B|360:168|328:212,1,100,2|8,0:0|0:0,0:0:0:0:
272,276,74659,2,0,B|224:236|156:256,1,100,2|8,0:0|0:0,0:0:0:0:
92,200,75231,2,0,B|56:60,1,100,2|8,0:0|0:0,0:0:0:0:
168,100,75802,6,0,B|224:124|224:124|256:88|336:104,2,150,4|0|8,0:0|0:0|0:0,0:0:0:0:
80,48,76945,2,0,B|0:72|-16:188|64:228,1,200,2|2,0:0|0:0,0:0:0:0:
136,236,77802,1,8,0:0:0:0:
236,220,78088,6,0,B|296:200|360:216,2,100,4|8|2,0:0|0:0|0:0,0:0:0:0:
200,312,78945,1,8,0:0:0:0:
100,308,79231,2,0,B|44:300|28:204|84:172,2,150,0|2|8,0:0|0:0|0:0,0:0:0:0:
160,228,80374,6,0,B|176:88,1,100,4|8,0:0|0:0,0:0:0:0:
240,56,80945,1,2,0:0:0:0:
284,144,81231,1,8,0:0:0:0:
372,96,81516,2,0,B|400:148|372:196,1,100,0|8,0:0|0:0,0:0:0:0:
332,284,82088,2,0,B|308:336|332:388,1,100,2|8,0:0|0:0,0:0:0:0:
412,328,82659,6,0,B|434:247|375:192,2,150,4|2|8,0:0|0:0|0:0,0:0:0:0:
316,304,83802,2,0,B|268:372|180:352,2,150,4|2|8,0:0|0:0|0:0,0:0:0:0:
292,208,84945,6,0,B|276:52,2,150,4|12|12,0:0|0:2|0:2,0:0:0:0:
176,300,86231,1,12,0:2:0:0:
68,204,86659,1,12,0:2:0:0:
140,136,86945,1,4,0:2:0:0:
48,100,87231,1,4,0:0:0:0:
204,196,96374,6,0,B|252:176|312:192,2,100,4|8|2,0:0|0:0|0:0,0:0:0:0:
104,176,97231,1,8,0:0:0:0:
24,236,97516,2,0,B|-8:192|12:136,2,100,2|8|2,0:0|0:0|0:0,0:0:0:0:
108,288,98374,1,8,0:0:0:0:
212,304,98659,6,0,B|336:288,2,100,2|8|0,0:0|0:0|0:0,0:0:0:0:
248,212,99516,1,8,0:0:0:0:
156,172,99802,2,0,B|124:88|196:20,2,150,2|0|8,0:0|0:0|0:0,0:0:0:0:
56,168,100945,6,0,B|32:272,1,100,2|8,0:0|0:0,0:0:0:0:
92,348,101516,2,0,B|136:316|204:332,1,100,2|8,0:0|0:0,0:0:0:0:
284,348,102088,2,0,B|344:364|384:332,1,100,2|8,0:0|0:0,0:0:0:0:
424,244,102659,1,2,0:0:0:0:
364,164,102945,1,8,0:0:0:0:
388,68,103231,6,0,B|276:84,1,100,2|8,0:0|0:0,0:0:0:0:
188,52,103802,2,0,B|156:100|180:156,1,100,2|8,0:0|0:0,0:0:0:0:
232,232,104374,2,0,B|252:292|208:336,1,100,2|8,0:0|0:0,0:0:0:0:
192,320,104802,2,0,B|36:332,1,150,8|8,0:0|0:0,0:0:0:0:
84,248,105516,5,4,1:2:0:0:
84,248,105802,1,0,3:2:0:0:
124,176,106088,2,0,B|160:88|88:24,2,160,8|0|8,0:0|3:0|0:0,0:0:0:0:
280,208,107802,6,0,B|368:244|440:180,1,160,4|8,3:2|0:0,0:0:0:0:
392,116,108659,1,0,3:0:0:0:
412,36,108945,2,0,B|468:16|528:72|508:132,1,160,0|8,3:0|0:0,0:0:0:0:
464,192,109802,1,8,0:0:0:0:
448,272,110088,6,0,L|352:296,1,80,4|0,3:2|3:0,0:0:0:0:
288,288,110659,2,0,B|236:284|204:200|272:148,2,160,8|0|8,0:0|3:0|0:0,0:0:0:0:
156,380,112374,6,0,B|100:304|-8:332,1,160,4|8,3:2|0:0,0:0:0:0:
4,248,113231,1,0,3:0:0:0:
52,184,113516,2,0,B|236:156,1,160,0|8,3:0|0:0,0:0:0:0:
276,112,114374,2,0,B|284:56,2,40,8|8|4,0:0|0:0|0:0,0:0:0:0:
228,304,116945,5,0,0:0:0:0:
124,76,119231,6,0,B|104:152|112:248,1,160,0|0,0:0|0:0,0:0:0:0:
264,188,120374,2,0,B|276:272|256:348,1,160,2|2,0:0|0:0,0:0:0:0:
444,280,121516,6,0,B|440:172,1,100,4|2,0:2|0:0,0:0:0:0:
352,136,122088,2,0,B|348:24,1,100,2|2,0:0|0:0,0:0:0:0:
268,92,122659,2,0,B|216:116|160:88,1,100,2|8,0:0|0:0,0:0:0:0:
84,44,123231,2,0,B|96:152,1,100,8|8,0:0|0:0,0:0:0:0:
108,244,123802,6,0,B|168:228|208:272,1,100,4|8,0:0|0:0,0:0:0:0:
276,332,124374,2,0,B|448:300,1,150,2|2,0:0|0:0,0:0:0:0:
464,212,125088,1,2,0:0:0:0:
448,112,125374,1,0,0:0:0:0:
364,60,125659,2,0,B|324:24|248:36|220:92,1,150,2|4,0:0|0:0,0:0:0:0:
172,160,126374,6,0,B|208:332,1,150,8|2,0:0|0:0,0:0:0:0:
292,348,127088,1,2,0:0:0:0:
320,252,127374,1,2,0:0:0:0:
412,268,127659,2,0,B|464:280|512:228|484:164,1,150,2|2,0:0|0:0,0:0:0:0:
384,172,128374,6,0,B|340:140|276:152,1,100,4|8,0:0|0:0,0:0:0:0:
224,228,128945,2,0,B|176:260|120:244,1,100,2|8,0:0|0:0,0:0:0:0:
36,208,129516,1,2,0:0:0:0:
28,108,129802,1,8,0:0:0:0:
108,52,130088,2,0,B|140:96|212:84,1,100,2|8,0:0|0:0,0:0:0:0:
288,48,130659,6,0,B|372:60|384:172|304:204,1,200,4|2,0:0|0:0,0:0:0:0:
232,144,131516,1,8,0:0:0:0:
132,160,131802,2,0,B|48:172|36:284|116:316,1,200,2|2,0:0|0:0,0:0:0:0:
200,304,132659,1,8,0:0:0:0:
304,332,132945,6,0,B|372:284|472:312,1,150,4|0,0:0|0:0,0:0:0:0:
472,252,133659,2,0,B|496:204|472:152,1,100,2|2,0:0|0:0,0:0:0:0:
404,80,134231,2,0,B|324:72|284:72,1,100,0|2,0:0|0:0,0:0:0:0:
204,56,134802,2,0,B|112:24|48:104,1,150,2|4,0:0|0:0,0:0:0:0:
36,168,135516,6,0,B|64:216|128:220|172:168,1,150,8|0,0:0|0:0,0:0:0:0:
212,264,136231,2,0,B|260:240|324:264,1,100,2|2,0:0|0:0,0:0:0:0:
404,264,136802,2,0,B|460:252|472:176|416:140,1,150,2|8,0:0|0:0,0:0:0:0:
356,72,137516,6,0,B|240:80,2,100,4|8|2,0:0|0:0|0:0,0:0:0:0:
456,68,138374,1,8,0:0:0:0:
444,168,138659,2,0,B|444:224|448:272,1,100,2|8,0:0|0:0,0:0:0:0:
360,316,139231,2,0,B|360:264|356:212,1,100,2|8,0:0|0:0,0:0:0:0:
276,156,139802,6,0,B|220:152|172:160,1,100,4|8,0:0|0:0,0:0:0:0:
80,188,140374,2,0,B|48:144|68:92,1,100,2|8,0:0|0:0,0:0:0:0:
152,36,140945,2,0,B|200:28|260:28,1,100,0|8,0:0|0:0,0:0:0:0:
348,52,141516,1,2,0:0:0:0:
404,136,141802,1,8,0:0:0:0:
308,164,142088,6,0,B|236:264|332:364,1,200,4|2,0:0|0:0,0:0:0:0:
412,320,142945,1,8,0:0:0:0:
464,236,143231,2,0,B|444:64,2,150,0|2|8,0:0|0:0|0:0,0:0:0:0:
372,196,144374,6,0,B|252:176,1,100,4|8,0:0|0:0,0:0:0:0:
192,236,144945,2,0,B|144:268|84:248,1,100,2|8,0:0|0:0,0:0:0:0:
80,352,145516,2,0,B|128:320|188:340,1,100,2|8,0:0|0:0,0:0:0:0:
272,360,146088,2,0,B|392:348,1,100,2|8,0:0|0:0,0:0:0:0:
440,284,146659,6,0,B|492:268|504:192|448:156,1,150,4|2,0:0|0:0,0:0:0:0:
332,80,147516,1,8,0:0:0:0:
260,148,147802,2,0,B|184:192|112:152,1,150,4|2,0:0|0:0,0:0:0:0:
204,276,148659,1,8,0:0:0:0:
296,232,148945,6,0,B|448:264,2,150,4|12|12,0:0|0:2|0:2,0:0:0:0:
200,116,150231,2,0,B|272:64|352:104,1,150,12|12,0:2|0:2,0:0:0:0:
424,156,150945,1,12,0:2:0:0:
336,200,151231,1,4,0:0:0:0:
96,188,160374,6,0,B|180:216|168:160|256:192,2,160,4|0|2,0:0|0:0|0:0,0:0:0:0:
48,124,161802,1,2,0:0:0:0:
64,44,162088,1,4,0:3:0:0:
216,96,162659,6,0,B|320:112|400:100,1,160,2|0,0:0|0:0,0:0:0:0:
460,240,163802,2,0,B|364:248,1,80,2|2,0:0|0:0,0:0:0:0:
300,256,164374,1,4,0:3:0:0:
172,160,164945,6,0,B|108:228|156:320,2,160,4|0|2,0:2|0:0|0:0,0:0:0:0:
244,120,166374,1,2,0:0:0:0:
324,104,166659,2,0,B|388:176|480:128,2,160,4|2|0,0:3|0:0|0:0,0:0:0:0:
176,48,168374,6,0,B|132:128|132:128|148:196|148:196|112:288,1,240,0|0,3:0|0:0,0:0:0:0:
172,328,169516,6,0,B|240:264|344:312,1,160,4|4,3:2|0:3,0:0:0:0:
388,348,170374,1,2,0:0:0:0:
440,284,170659,2,0,B|424:196,1,80,0|0,3:2|3:0,0:0:0:0:
460,132,171231,2,0,B|368:111|268:112,1,160,4|2,0:3|3:2,0:0:0:0:
236,164,172088,5,0,0:0:0:0:
172,116,172374,2,0,B|96:112|16:92,2,120,4|2|0,0:3|0:0|3:0,0:0:0:0:
236,68,173516,2,0,B|276:52|340:64,1,80,4|2,0:3|0:0,0:0:0:0:
384,100,174088,6,0,B|407:140|384:189,2,80,4|0|4,3:2|0:0|0:3,0:0:0:0:
317,144,174945,2,0,B|297:192|330:234,2,80,2|0|0,0:0|3:0|3:0,0:0:0:0:
243,112,175802,2,0,B|139:120,1,80,4|2,0:3|0:0,0:0:0:0:
84,140,176374,6,0,B|36:188|60:264|120:272,1,160,0|4,3:0|0:3,0:0:0:0:
188,280,177231,1,0,0:0:0:0:
264,256,177516,2,0,B|360:272,1,80,0|0,3:0|3:0,0:0:0:0:
420,284,178088,1,4,0:3:0:0:
456,212,178374,2,0,B|448:144,2,40,0|0|0,3:0|3:0|3:0,0:0:0:0:
256,192,178945,12,4,183231,0:0:0:0:
272,272,183802,6,0,B|220:292|156:276,1,100,0|4,3:0|3:3,0:0:0:0:
96,215,184374,2,0,B|76:103,1,100,2|4,3:2|3:3,0:0:0:0:
156,52,184945,2,0,B|196:96|176:160,1,100,2|4,3:2|3:0,0:0:0:0:
264,196,185516,6,0,B|376:176,1,100,0|4,3:0|3:3,0:0:0:0:
452,132,186088,2,0,B|479:184|452:236,2,100,2|4|2,3:2|3:0|3:2,0:0:0:0:
372,68,186945,1,4,3:0:0:0:
280,108,187231,2,0,B|172:84,1,100,2|2,3:2|3:2,0:0:0:0:
116,164,187802,6,0,B|104:216|104:216|128:268,1,100,4|4,3:2|3:0,0:0:0:0:
168,348,188374,2,0,B|224:364|276:324,1,100,0|4,3:0|3:0,0:0:0:0:
304,240,188945,2,0,B|416:256,1,100,0|4,3:0|3:0,0:0:0:0:
496,212,189516,1,2,3:2:0:0:
508,116,189802,1,4,3:0:0:0:
432,52,190088,6,0,B|372:32|320:64,1,100,0|4,3:0|3:0,0:0:0:0:
252,112,190659,2,0,B|204:140|144:116,1,100,0|4,0:0|3:0,0:0:0:0:
60,84,191231,2,0,B|32:132|56:188,2,100,0|4|0,0:0|0:3|3:0,0:0:0:0:
144,32,192088,1,4,0:3:0:0:
240,56,192374,1,4,0:0:0:0:
256,192,192659,12,4,196945,0:0:0:0:
256,336,198088,6,0,B|272:200,2,120,0|0|0,0:0|0:0|0:0,0:0:0:0:
180,309,199231,2,0,B|176:245|108:213|48:261,1,160,4|4,0:2|2:3,0:0:0:0:
137,109,200374,2,0,B|93:165|13:149,2,120,0|0|0,0:0|0:0|0:0,0:0:0:0:
200,188,201516,6,0,B|320:176,1,100,4|8,0:0|0:0,0:0:0:0:
332,84,202088,2,0,B|452:104,1,100,2|8,0:0|0:0,0:0:0:0:
492,185,202659,2,0,B|520:240|496:296,1,100,2|8,0:0|0:0,0:0:0:0:
408,316,203231,2,0,B|300:300,1,100,2|8,0:0|0:0,0:0:0:0:
240,372,203802,6,0,B|252:160,1,200,4|2,0:0|0:0,0:0:0:0:
240,76,204659,1,8,0:0:0:0:
148,112,204945,2,0,B|100:116|44:116,2,100,2|8|2,0:0|0:0|0:0,0:0:0:0:
240,76,205802,1,8,0:0:0:0:
336,104,206088,6,0,B|376:68|452:92|460:156,1,150,4|0,0:0|0:0,0:0:0:0:
400,232,206802,1,2,0:0:0:0:
304,200,207088,2,0,B|188:220,1,100,2|2,0:0|0:0,0:0:0:0:
108,232,207659,1,2,0:0:0:0:
48,152,207945,2,0,B|104:88|192:100,1,150,2|4,0:0|0:0,0:0:0:0:
280,88,208659,6,0,L|432:120,1,150,8|2,0:0|0:0,0:0:0:0:
360,192,209374,2,0,B|364:244|368:304,2,100,2|2|2,0:0|0:0|0:0,0:0:0:0:
276,244,210231,2,0,B|228:272|164:252|152:192,1,150,2|4,0:0|0:0,0:0:0:0:
144,100,210945,5,8,0:0:0:0:
224,36,211231,2,0,B|256:80|236:140,1,100,2|8,0:0|0:0,0:0:0:0:
232,232,211802,2,0,B|280:192|352:208,1,100,2|8,0:0|0:0,0:0:0:0:
416,244,212374,1,2,0:0:0:0:
384,340,212659,1,8,0:0:0:0:
284,336,212945,6,0,B|232:312|180:328,1,100,4|8,0:0|0:0,0:0:0:0:
188,228,213516,2,0,B|144:188|76:200,1,100,2|8,0:0|0:0,0:0:0:0:
112,100,214088,2,0,B|72:60|28:48,2,100,2|8|2,0:0|0:0|0:0,0:0:0:0:
212,96,214945,2,0,L|232:168,2,50,8|8|4,0:0|0:0|0:0,0:0:0:0:
300,40,215516,5,8,0:0:0:0:
392,80,215802,2,0,B|436:160|372:228,1,150,2|2,0:0|0:0,0:0:0:0:
284,248,216516,1,2,0:0:0:0:
212,184,216802,1,2,0:0:0:0:
140,252,217088,2,0,B|88:232|80:160|132:128,1,150,2|4,0:0|0:0,0:0:0:0:
212,76,217802,6,0,B|396:92,1,150,8|0,0:0|0:0,0:0:0:0:
460,96,218516,1,2,0:0:0:0:
480,192,218802,1,2,0:0:0:0:
380,180,219088,2,0,B|404:340,1,150,2|8,0:0|0:0,0:0:0:0:
304,340,219802,6,0,B|236:324|184:376,1,100,4|8,0:0|0:0,0:0:0:0:
136,280,220374,2,0,B|116:140,1,100,2|8,0:0|0:0,0:0:0:0:
104,84,220945,1,0,0:2:0:0:
184,28,221231,1,8,0:0:0:0:
252,100,221516,2,0,B|364:76,1,100,2|8,0:0|0:0,0:0:0:0:
436,36,222088,6,0,B|512:60|532:172|440:208,1,200,4|2,0:0|0:0,0:0:0:0:
392,260,222945,1,8,0:0:0:0:
292,252,223231,2,0,B|236:248|192:272,1,100,2|8,0:0|0:0,0:0:0:0:
120,336,223802,2,0,B|104:224,1,100,2|8,0:0|0:0,0:0:0:0:
128,140,224374,5,4,0:0:0:0:
228,124,224659,1,8,0:0:0:0:
320,84,224945,2,0,B|432:56,1,100,8|8,0:0|0:0,0:0:0:0:
408,160,225516,2,0,B|288:188,1,100,8|8,0:0|0:0,0:0:0:0:
308,284,226088,2,0,B|416:256,1,100,8|8,0:0|0:0,0:0:0:0:
500,232,226659,5,12,0:0:0:0:
508,132,226945,1,8,0:0:0:0:
432,68,227231,2,0,B|312:100,1,100,8|8,0:0|0:0,0:0:0:0:
316,192,227802,2,0,B|436:160,1,100,8|8,0:0|0:0,0:0:0:0:
388,264,228374,2,0,L|276:296,1,100,8|8,0:0|0:0,0:0:0:0:
200,256,228945,6,0,B|148:152|204:48,1,200,4|2,0:0|0:0,0:0:0:0:
276,120,229802,1,8,0:0:0:0:
336,44,230088,2,0,B|432:80,1,100,2|8,0:0|0:0,0:0:0:0:
476,168,230659,2,0,B|440:264,1,100,2|8,0:0|0:0,0:0:0:0:
392,348,231231,6,0,B|360:304|308:308|308:308|292:252,2,150,4|0|8,0:0|0:0|0:0,0:0:0:0:
488,316,232374,2,0,B|516:272|496:208,1,100,0|8,0:0|0:0,0:0:0:0:
400,224,232945,2,0,B|412:116,1,100,2|8,0:0|0:0,0:0:0:0:
380,32,233516,6,0,B|280:24|168:32,1,200,4|2,0:0|0:0,0:0:0:0:
100,88,234374,1,8,0:0:0:0:
180,144,234659,2,0,B|184:200|176:260,1,100,0|8,0:0|0:0,0:0:0:0:
88,288,235231,2,0,B|84:232|88:176,1,100,2|8,0:0|0:0,0:0:0:0:
100,88,235802,6,0,B|128:20|224:8|276:68,1,200,4|2,0:0|0:0,0:0:0:0:
324,140,236659,1,8,0:0:0:0:
380,56,236945,2,0,B|440:76|476:40,1,100,0|8,0:0|0:0,0:0:0:0:
460,140,237516,2,0,B|432:252,1,100,2|8,0:0|0:0,0:0:0:0:
412,336,238088,6,0,B|332:368|340:316|236:352,2,150,4|2|8,0:0|0:0|0:0,0:0:0:0:
476,260,239231,2,0,B|444:180|496:188|460:84,2,150,4|2|8,0:0|0:0|0:0,0:0:0:0:
384,224,240374,6,0,B|312:184|228:224,1,150,4|12,0:0|0:2,0:0:0:0:
160,348,241231,2,0,B|244:388|312:340,1,150,12|12,0:2|0:2,0:0:0:0:
444,296,242088,2,0,B|460:196,1,100,4|12,0:2|0:2,0:0:0:0:
428,100,242659,6,0,B|364:44|284:72,1,150,4|2,0:0|0:2,0:0:0:0:
160,152,243516,1,8,0:0:0:0:
80,92,243802,2,0,B|24:124|32:200|88:220,2,150,2|2|8,0:2|0:0|0:0,0:0:0:0:
176,60,244945,6,0,B|364:72,1,150,2|2,0:0|0:2,0:0:0:0:
472,80,245802,1,8,0:0:0:0:
468,180,246088,2,0,B|416:204|368:184,1,100,2|8,0:2|0:0,0:0:0:0:
276,216,246659,2,0,B|164:200,1,100,2|8,0:0|0:0,0:0:0:0:
80,180,247231,6,0,B|20:172|-4:108|56:48,2,150,4|2|8,0:0|0:2|0:0,0:0:0:0:
172,136,248374,2,0,B|236:144|280:128,1,100,2|8,0:2|0:0,0:0:0:0:
360,84,248945,1,2,0:0:0:0:
452,124,249231,1,8,0:0:0:0:
388,200,249516,6,0,B|328:260|360:360,2,150,2|2|8,0:0|0:2|0:0,0:0:0:0:
288,204,250659,2,0,B|248:168|180:188,1,100,2|8,0:2|0:0,0:0:0:0:
96,208,251231,2,0,B|8:132,1,100,2|8,0:0|0:0,0:0:0:0:
116,108,251802,5,12,0:0:0:0:
212,80,252088,1,8,0:0:0:0:
308,52,252374,2,0,B|384:64|432:72,1,100,8|8,0:0|0:0,0:0:0:0:
348,148,252945,5,8,0:0:0:0:
252,176,253231,1,8,0:0:0:0:
156,204,253517,2,0,B|88:192|32:184,1,100,8|8,0:0|0:0,0:0:0:0:
96,280,254088,5,8,0:0:0:0:
180,332,254374,1,8,0:0:0:0:
280,316,254660,2,0,B|332:324|404:336,1,100,8|8,0:0|0:0,0:0:0:0:
456,268,255231,5,8,0:0:0:0:
384,200,255517,1,8,0:0:0:0:
288,228,255802,2,0,B|236:220|164:208,1,100,8|8,0:0|0:0,0:0:0:0:
92,188,256374,6,0,B|72:140|88:80,1,100,4|8,0:0|0:0,0:0:0:0:
164,28,256945,2,0,B|184:76|168:136,1,100,8|8,0:0|0:0,0:0:0:0:
268,148,257516,2,0,B|248:100|264:44,1,100,8|8,0:0|0:0,0:0:0:0:
352,96,258088,2,0,B|372:144|356:200,1,100,8|8,0:0|0:0,0:0:0:0:
288,268,258659,5,4,0:0:0:0:
200,220,258945,1,8,0:0:0:0:
200,320,259231,2,0,B|152:324|88:312,1,100,8|8,0:0|0:0,0:0:0:0:
112,216,259802,2,0,B|116:140|208:104|260:164,1,200,8|8,0:0|0:0,0:0:0:0:
312,248,260659,2,0,B|308:300|308:364,1,100,8|0,0:0|0:0,0:0:0:0:
