osu file format v14

[General]
AudioFilename: audio.mp3
AudioLeadIn: 0
PreviewTime: 59516
Countdown: 0
SampleSet: Normal
StackLeniency: 0.7
Mode: 0
LetterboxInBreaks: 0
WidescreenStoryboard: 0

[Editor]
DistanceSpacing: 0.8
BeatDivisor: 4
GridSize: 4
TimelineZoom: 1.5

[Metadata]
Title:Hades: The rise
TitleUnicode:Hades: The rise
Artist:Yousei Teikoku
ArtistUnicode:妖精帝國
Creator:Delis
Version:Extra
Source:
Tags:metanoia Mirash
BeatmapID:1403588
BeatmapSetID:662526

[Difficulty]
HPDrainRate:7
CircleSize:4
OverallDifficulty:9
ApproachRate:9
SliderMultiplier:1.8
SliderTickRate:1

[Events]
//Background and Video events
0,0,"BG.jpg",0,0
//Break Periods
2,50859,52345
2,53145,54631
2,87430,95202
2,114859,116345
2,117145,118631
2,151431,159774
2,192574,195202
//Storyboard Layer 0 (Background)
//Storyboard Layer 1 (Fail)
//Storyboard Layer 2 (Pass)
//Storyboard Layer 3 (Foreground)
//Storyboard Sound Samples

[TimingPoints]
374,285.714285714286,4,2,1,60,1,0
18659,-100,4,1,1,50,0,0
41516,-125,4,2,1,50,0,0
50802,-125,4,1,1,50,0,0
57516,-100,4,1,1,50,0,0
59516,-100,4,1,1,60,0,0
87231,-100,4,1,1,50,0,0
105516,-100,4,2,1,50,0,0
110088,-125,4,2,1,50,0,0
114802,-125,4,1,1,50,0,0
121516,-100,4,1,1,50,0,0
123516,-100,4,1,1,60,0,0
151231,-100,4,1,1,50,0,0
160374,-200,4,1,1,50,0,0
169516,-100,4,2,1,50,0,0
179802,-100,4,2,1,55,0,0
180945,-100,4,2,1,60,0,0
182088,-100,4,1,1,60,0,0
183231,-100,4,2,1,60,0,0
195802,-100,4,1,1,50,0,0
196945,-200,4,1,1,60,0,0
200945,-100,4,1,1,30,0,0
201231,-100,4,1,1,40,0,0
201516,-100,4,1,1,60,0,0
224374,-83.3333333333333,4,1,1,70,0,0
228945,-100,4,1,1,70,0,0
233516,-100,4,1,1,65,0,0
251802,-83.3333333333333,4,1,1,65,0,0

[Colours]
Combo1 : 54,95,91
Combo2 : 107,46,67
Combo3 : 16,82,141
Combo4 : 134,0,134

[HitObjects]
173,94,7231,5,4,0:2:0:0:
360,192,7802,5,4,0:2:0:0:
173,94,8374,5,4,0:2:0:0:
260,152,8516,1,0,3:0:0:0:
168,192,8659,1,8,0:0:0:0:
232,268,8802,1,0,3:0:0:0:
248,276,8874,1,0,3:0:0:0:
264,284,8945,1,0,3:0:0:0:
280,292,9016,1,0,3:0:0:0:
296,300,9088,1,0,3:0:0:0:
312,308,9159,1,0,3:0:0:0:
328,316,9231,2,0,B|360:308,8,22.5,0|0|0|0|0|0|0|0|4,3:0|0:0|0:0|0:0|0:0|0:0|0:0|0:0|0:0,0:0:0:0:
152,296,9802,5,0,1:0:0:0:
72,344,9945,2,0,B|64:280|64:152,1,180,2|0,0:0|3:0,0:0:0:0:
148,116,10374,2,0,B|152:192|152:232,1,90,0|0,1:0|3:0,0:0:0:0:
64,80,10659,1,2,0:2:0:0:
148,28,10802,1,0,3:0:0:0:
344,156,10945,1,0,1:0:0:0:
344,36,11088,1,2,3:2:0:0:
208,116,11231,5,0,3:0:0:0:
205,133,11302,1,0,3:0:0:0:
203,151,11374,1,0,3:0:0:0:
199,168,11445,1,0,3:0:0:0:
197,185,11516,1,0,1:2:0:0:
202,202,11588,1,0,0:0:0:0:
208,218,11659,1,0,3:0:0:0:
214,235,11731,1,0,3:0:0:0:
221,251,11802,2,0,B|258:317|350:301|372:222,1,180,2|0,3:2|1:0,0:0:0:0:
368,348,12231,5,2,0:2:0:0:
284,204,12374,1,0,3:0:0:0:
440,264,12516,1,0,3:0:0:0:
260,368,12659,1,0,1:0:0:0:
284,204,12802,1,0,3:0:0:0:
156,280,12945,2,0,B|76:280|48:288,1,90,2|0,0:2|3:0,0:0:0:0:
116,360,13231,1,0,1:0:0:0:
112,208,13374,1,2,3:2:0:0:
236,280,13516,5,0,3:0:0:0:
272,276,13588,1,0,3:0:0:0:
308,272,13659,1,0,3:0:0:0:
344,268,13731,1,0,3:0:0:0:
380,264,13802,1,0,1:0:0:0:
380,264,14088,2,0,B|380:196|468:164|512:212,1,180,4|0,0:0|1:0,0:0:0:0:
476,296,14516,5,2,0:2:0:0:
396,352,14659,1,0,3:0:0:0:
316,196,14802,1,0,3:0:0:0:
404,144,14945,1,0,1:0:0:0:
316,88,15088,1,0,3:0:0:0:
208,280,15231,6,0,B|256:288|304:288,1,90,2|0,0:2|3:0,0:0:0:0:
232,144,15516,2,0,B|184:136|136:136,1,90,0|2,1:0|3:2,0:0:0:0:
64,224,15802,1,0,3:0:0:0:
64,224,15874,1,0,3:0:0:0:
64,224,15945,1,0,3:0:0:0:
64,224,16016,1,0,3:0:0:0:
64,224,16088,1,0,1:0:0:0:
64,224,16159,1,0,0:0:0:0:
64,224,16231,1,0,3:0:0:0:
64,224,16302,1,0,3:0:0:0:
64,224,16374,2,0,B|132:248|136:336|68:372,1,180,2|0,3:2|1:0,0:0:0:0:
28,296,16802,5,2,0:2:0:0:
184,208,16945,2,0,B|244:200|280:200,1,90,0|0,3:0|3:0,0:0:0:0:
340,148,17231,1,0,1:0:0:0:
360,240,17374,1,0,3:0:0:0:
236,120,17516,2,0,B|196:124|144:124,1,90,2|0,0:2|3:0,0:0:0:0:
320,64,17802,2,0,B|372:64|420:60,1,90,0|2,1:0|3:2,0:0:0:0:
284,208,18088,1,0,3:0:0:0:
248,216,18159,1,0,3:0:0:0:
212,224,18231,1,0,3:0:0:0:
176,232,18302,1,0,3:0:0:0:
140,240,18374,1,8,0:0:0:0:
84,160,18516,5,0,3:0:0:0:
84,160,18588,1,0,3:0:0:0:
84,160,18659,2,0,B|108:48,1,90,4|0,0:0|0:0,0:0:0:0:
248,288,18945,2,0,B|224:400,1,90,8|0,0:0|0:0,0:0:0:0:
68,260,19231,2,0,B|120:268|172:276,1,90,2|2,0:0|0:0,0:0:0:0:
264,172,19516,2,0,B|212:164|160:156,1,90,8|0,0:0|0:0,0:0:0:0:
328,240,19802,5,2,0:0:0:0:
428,144,19945,1,2,0:0:0:0:
472,276,20088,1,8,0:0:0:0:
428,144,20231,1,0,0:0:0:0:
384,320,20374,1,2,0:0:0:0:
500,192,20516,1,2,0:0:0:0:
336,160,20659,2,0,B|264:168|204:164,1,90,8|2,0:0|0:0,0:0:0:0:
72,148,20945,6,0,B|72:104|68:52,1,90,2|0,0:0|0:0,0:0:0:0:
228,268,21231,2,0,B|184:268|132:272,1,90,8|0,0:0|0:0,0:0:0:0:
200,92,21516,2,0,B|252:88|296:88,1,90,2|2,0:0|0:0,0:0:0:0:
328,252,21802,2,0,B|332:312|332:356,1,90,8|0,0:0|0:0,0:0:0:0:
248,352,22088,5,2,0:0:0:0:
416,296,22231,1,2,0:0:0:0:
228,268,22374,1,8,0:0:0:0:
216,124,22516,1,0,0:0:0:0:
296,184,22659,1,2,0:0:0:0:
148,204,22802,1,2,0:0:0:0:
328,276,22945,5,8,0:0:0:0:
304,96,23088,1,8,0:0:0:0:
148,204,23231,2,0,B|128:156|144:108,1,90,4|0,0:0|0:0,0:0:0:0:
32,292,23516,6,0,B|88:252|164:288|172:364,1,180,8|2,0:0|0:0,0:0:0:0:
228,268,23945,1,2,0:0:0:0:
304,332,24088,2,0,B|372:328|420:328,1,90,8|0,0:0|0:0,0:0:0:0:
468,268,24374,5,2,0:0:0:0:
288,200,24516,1,2,0:0:0:0:
368,64,24659,1,8,0:0:0:0:
376,236,24802,1,0,0:0:0:0:
428,136,24945,1,2,0:0:0:0:
288,200,25088,1,2,0:0:0:0:
400,320,25231,1,8,0:0:0:0:
496,188,25374,1,2,0:0:0:0:
292,280,25516,6,0,B|232:280|196:284,1,90,2|0,0:0|0:0,0:0:0:0:
112,128,25802,2,0,B|172:128|208:124,1,90,8|0,0:0|0:0,0:0:0:0:
284,92,26088,1,2,0:0:0:0:
284,92,26231,1,2,0:0:0:0:
292,280,26374,1,8,0:0:0:0:
292,280,26516,1,2,0:0:0:0:
360,160,26659,5,2,0:0:0:0:
176,236,26802,1,2,0:0:0:0:
376,252,26945,5,8,0:0:0:0:
156,136,27088,1,2,0:0:0:0:
268,196,27231,5,2,0:0:0:0:
268,196,27302,1,2,0:0:0:0:
268,196,27374,1,2,0:0:0:0:
228,80,27516,5,8,0:0:0:0:
228,80,27588,1,8,0:0:0:0:
228,80,27659,1,8,0:0:0:0:
228,80,27731,1,8,0:0:0:0:
228,80,27802,2,0,B|260:24|352:12|404:64,1,180,4|8,0:0|0:0,0:0:0:0:
284,304,28231,2,0,B|252:360|160:372|108:320,1,180,0|2,0:0|0:0,0:0:0:0:
176,180,28659,1,8,0:0:0:0:
356,216,28802,1,2,0:0:0:0:
228,80,28945,6,0,B|140:96,1,90,2|2,0:2|0:0,0:0:0:0:
284,304,29231,2,0,B|372:288,1,90,8|2,0:0|0:0,0:0:0:0:
416,104,29516,1,2,0:0:0:0:
384,120,29588,1,2,0:0:0:0:
352,132,29659,1,2,0:0:0:0:
320,148,29731,1,2,0:0:0:0:
288,164,29802,1,8,0:0:0:0:
184,216,29945,5,2,0:0:0:0:
184,216,30016,1,2,0:0:0:0:
184,216,30088,2,0,B|128:204|88:204,1,90,2|0,0:0|0:0,0:0:0:0:
332,232,30374,2,0,B|388:244|428:244,1,90,8|2,0:0|0:2,0:0:0:0:
184,132,30659,1,2,0:0:0:0:
256,256,30802,1,2,0:0:0:0:
108,320,30945,1,8,0:0:0:0:
256,256,31088,1,2,0:0:0:0:
96,204,31231,6,0,B|104:152|112:112,1,90,2|2,0:2|0:0,0:0:0:0:
240,36,31516,1,8,0:0:0:0:
288,152,31659,1,2,0:0:0:0:
168,256,31802,1,2,0:0:0:0:
180,300,31874,1,2,0:0:0:0:
208,332,31945,1,2,0:0:0:0:
252,348,32016,1,2,0:0:0:0:
296,344,32088,1,8,0:0:0:0:
372,256,32231,1,8,0:0:0:0:
472,332,32374,6,0,B|464:288|472:224,1,90,4|0,0:0|0:0,0:0:0:0:
432,152,32659,2,0,B|436:100|432:48,1,90,8|0,0:0|0:0,0:0:0:0:
376,308,32945,2,0,B|380:232|376:204,1,90,2|2,0:0|0:0,0:0:0:0:
332,136,33231,2,0,B|328:76|336:36,1,90,8|0,0:0|0:0,0:0:0:0:
248,40,33516,5,2,0:0:0:0:
152,72,33659,1,2,0:0:0:0:
236,112,33802,1,8,0:0:0:0:
132,164,33945,1,0,0:0:0:0:
220,212,34088,1,2,0:0:0:0:
112,260,34231,1,2,0:0:0:0:
204,320,34374,1,8,0:0:0:0:
92,352,34516,1,2,0:0:0:0:
296,328,34659,6,0,B|384:284|480:332,1,180,2|8,0:0|0:0,0:0:0:0:
469,327,35088,1,0,0:0:0:0:
360,204,35231,2,0,B|352:100,1,90,2|2,0:0|0:0,0:0:0:0:
152,180,35516,2,0,B|160:284,1,90,8|0,0:0|0:0,0:0:0:0:
232,80,35802,5,2,0:0:0:0:
264,312,35945,1,2,0:0:0:0:
240,160,36088,1,8,0:0:0:0:
212,240,36231,1,0,0:0:0:0:
296,228,36374,1,2,0:0:0:0:
324,144,36516,5,2,0:0:0:0:
264,312,36659,1,8,0:0:0:0:
152,180,36802,1,2,0:0:0:0:
64,332,36945,6,0,B|108:324|196:316,1,90,4|0,0:0|0:0,0:0:0:0:
84,240,37231,2,0,B|36:192|52:104|128:92,1,180,8|2,0:0|0:0,0:0:0:0:
208,120,37659,1,2,0:0:0:0:
208,120,37802,2,0,B|272:116|312:104,1,90,8|0,0:0|0:0,0:0:0:0:
380,48,38088,5,2,0:0:0:0:
356,188,38231,1,2,0:0:0:0:
436,128,38374,1,8,0:0:0:0:
412,264,38516,1,0,0:0:0:0:
488,208,38659,5,2,0:0:0:0:
356,188,38802,1,2,0:0:0:0:
204,224,38945,1,8,0:0:0:0:
76,192,39088,1,0,0:0:0:0:
168,316,39231,6,0,B|220:328|264:300,1,90,2|0,0:0|0:0,0:0:0:0:
304,116,39516,2,0,B|288:20,1,90,8|0,0:0|0:0,0:0:0:0:
76,192,39802,2,0,B|116:220|168:204,1,90,2|2,0:0|0:0,0:0:0:0:
356,188,40088,2,0,B|460:152,1,90,8|0,0:0|0:0,0:0:0:0:
332,340,40374,6,0,B|264:268|160:320,1,180,2|8,0:0|0:0,0:0:0:0:
76,268,40802,1,8,0:0:0:0:
188,196,40945,1,2,0:0:0:0:
48,128,41088,1,2,0:0:0:0:
192,48,41231,1,8,0:0:0:0:
256,104,41374,5,8,0:0:0:0:
256,104,41445,1,8,0:0:0:0:
256,104,41516,1,4,3:2:0:0:
276,188,41802,1,0,3:0:0:0:
304,268,42088,2,0,B|364:216|464:252,1,144,8|0,0:0|3:0,0:0:0:0:
380,320,42516,1,0,3:0:0:0:
416,156,42659,1,0,3:0:0:0:
276,188,42802,5,0,3:0:0:0:
276,188,42945,1,0,3:0:0:0:
328,96,43088,1,0,3:0:0:0:
328,96,43159,1,0,3:0:0:0:
328,96,43231,1,8,0:0:0:0:
176,180,43374,1,0,3:0:0:0:
176,180,43445,1,0,3:0:0:0:
176,180,43516,1,0,3:0:0:0:
328,280,43659,1,0,3:0:0:0:
232,64,43802,5,4,3:2:0:0:
148,76,44088,1,0,3:0:0:0:
64,92,44374,2,0,B|0:72|-24:56,1,72,8|0,0:0|0:0,0:0:0:0:
100,188,44659,1,0,3:0:0:0:
148,76,44802,1,0,0:0:0:0:
256,120,44945,5,0,3:0:0:0:
256,120,45088,2,0,B|324:124|356:132,1,72,0|0,3:0|3:0,0:0:0:0:
384,200,45374,1,0,3:0:0:0:
384,200,45445,1,0,3:0:0:0:
384,200,45516,1,8,0:0:0:0:
272,264,45659,1,0,3:0:0:0:
272,264,45731,1,0,3:0:0:0:
272,264,45802,1,8,0:0:0:0:
256,120,45945,1,8,0:0:0:0:
120,220,46088,5,4,3:2:0:0:
124,124,46374,1,0,3:0:0:0:
208,172,46659,2,0,B|203:215|203:251,1,72,8|0,0:0|0:0,0:0:0:0:
36,164,46945,1,0,3:0:0:0:
36,164,47088,1,0,3:0:0:0:
120,220,47231,5,0,3:0:0:0:
132,36,47374,1,0,3:0:0:0:
296,96,47516,1,0,3:0:0:0:
208,88,47659,5,0,3:0:0:0:
208,88,47731,1,0,3:0:0:0:
208,88,47802,1,8,0:0:0:0:
252,264,47945,1,0,3:0:0:0:
252,264,48016,1,0,3:0:0:0:
252,264,48088,1,0,3:0:0:0:
380,152,48231,1,0,3:0:0:0:
296,184,48374,6,0,B|320:224|356:240,1,72,4|0,3:2|0:0,0:0:0:0:
460,124,48659,2,0,B|436:84|400:68,1,72,0|0,3:0|0:0,0:0:0:0:
428,212,48945,2,0,B|448:364,1,144,8|0,0:2|3:0,0:0:0:0:
446,354,49374,1,0,0:0:0:0:
360,320,49516,5,0,3:0:0:0:
335,304,49588,1,0,3:0:0:0:
306,301,49659,1,0,3:0:0:0:
278,309,49731,1,0,3:0:0:0:
253,323,49802,1,0,3:0:0:0:
226,335,49874,1,0,3:0:0:0:
197,337,49945,1,0,3:0:0:0:
168,332,50016,1,0,3:0:0:0:
144,314,50088,1,8,0:0:0:0:
200,184,50231,5,0,3:0:0:0:
200,184,50302,1,0,3:0:0:0:
200,184,50374,1,8,0:0:0:0:
56,220,50516,1,8,0:0:0:0:
176,72,50659,5,4,0:2:0:0:
188,88,52945,5,0,0:0:0:0:
200,108,55231,5,0,0:0:0:0:
216,128,56374,5,2,0:0:0:0:
236,152,56945,5,2,0:0:0:0:
256,176,57516,5,4,0:2:0:0:
424,120,57802,1,2,0:0:0:0:
256,252,58088,1,2,0:0:0:0:
256,32,58374,1,2,0:0:0:0:
256,332,58659,5,2,0:0:0:0:
152,200,58802,1,0,0:0:0:0:
340,208,58945,2,0,B|444:232,1,90,8|2,0:0|0:0,0:0:0:0:
463,236,59159,1,2,0:0:0:0:
440,207,59231,1,8,0:0:0:0:
429,172,59302,1,8,0:0:0:0:
431,135,59374,1,8,0:0:0:0:
454,107,59445,1,8,0:0:0:0:
470,74,59516,2,0,B|402:80,1,45,8|8,0:0|0:0,0:0:0:0:
392,64,59659,2,0,B|325:66,1,45,8|8,0:0|0:0,0:0:0:0:
316,80,59802,6,0,B|226:75|117:87,1,180,4|0,0:0|0:0,0:0:0:0:
132,172,60231,1,0,0:0:0:0:
220,164,60374,1,2,0:0:0:0:
56,32,60516,2,0,B|52:100|56:160,1,90,2|8,0:2|0:0,0:0:0:0:
172,272,60802,5,2,0:0:0:0:
328,240,60945,1,0,0:0:0:0:
172,272,61088,1,2,0:0:0:0:
272,380,61231,1,8,0:0:0:0:
296,128,61374,5,2,0:0:0:0:
256,292,61516,1,2,0:0:0:0:
132,172,61659,1,2,0:0:0:0:
176,36,61802,5,8,0:0:0:0:
224,196,61945,1,2,0:0:0:0:
364,80,62088,2,0,B|432:44|508:88|500:164,1,180,4|8,0:0|0:0,0:0:0:0:
400,168,62516,2,0,B|376:216|380:264,1,90,0|2,0:0|0:0,0:0:0:0:
208,144,62802,2,0,B|260:148|304:124,1,90,0|8,0:0|0:0,0:0:0:0:
148,312,63088,2,0,B|108:280|48:292,1,90,2|2,0:0|0:0,0:0:0:0:
68,100,63374,5,2,0:0:0:0:
148,212,63516,1,8,0:0:0:0:
180,40,63659,1,2,0:0:0:0:
148,212,63802,1,2,0:0:0:0:
164,219,63874,1,2,0:0:0:0:
180,224,63945,1,2,0:0:0:0:
197,228,64016,1,2,0:0:0:0:
215,229,64088,1,8,0:0:0:0:
232,229,64159,1,0,0:0:0:0:
250,227,64231,1,8,0:0:0:0:
267,223,64302,1,0,0:0:0:0:
284,217,64374,2,0,B|327:199|400:207,1,90,4|0,0:0|0:0,0:0:0:0:
328,312,64659,6,0,B|187:337,1,135,8|0,0:0|2:0,0:0:0:0:
195,335,64945,2,0,B|136:300|72:304,1,90,2|2,0:0|0:0,0:0:0:0:
320,140,65231,2,0,B|332:96|320:52,1,90,8|2,0:0|0:0,0:0:0:0:
128,84,65516,2,0,B|176:88|236:76,1,90,2|2,0:0|0:0,0:0:0:0:
348,216,65802,6,0,B|276:256|220:192,1,135,8|0,0:0|2:0,0:0:0:0:
208,176,66088,2,0,B|228:236,1,45,2|2,0:0|0:0,0:0:0:0:
240,304,66231,1,2,0:0:0:0:
292,148,66374,1,8,0:0:0:0:
132,240,66516,1,0,0:0:0:0:
320,352,66659,5,4,0:2:0:0:
320,352,66945,1,8,0:0:0:0:
428,272,67088,1,0,0:0:0:0:
240,304,67231,1,2,0:0:0:0:
336,236,67374,5,2,0:0:0:0:
152,268,67516,1,8,0:0:0:0:
152,268,67659,1,2,0:0:0:0:
372,144,67802,5,0,0:0:0:0:
232,176,67945,1,2,0:0:0:0:
92,200,68088,1,8,0:0:0:0:
300,88,68231,5,2,0:0:0:0:
148,120,68374,1,2,0:0:0:0:
148,120,68445,1,0,0:0:0:0:
148,120,68516,1,2,0:0:0:0:
148,120,68588,1,0,0:0:0:0:
148,120,68659,1,8,0:0:0:0:
232,24,68802,1,8,0:0:0:0:
388,220,68945,6,0,B|436:268|408:352|336:356,1,180,4|8,0:0|0:0,0:0:0:0:
244,280,69374,1,0,0:0:0:0:
196,360,69516,1,2,0:0:0:0:
168,204,69659,1,0,0:0:0:0:
328,276,69802,1,8,0:0:0:0:
128,292,69945,2,0,B|80:292|24:284,1,90,2|0,0:0|0:0,0:0:0:0:
256,152,70231,2,0,B|304:152|360:160,1,90,2|8,0:0|0:0,0:0:0:0:
308,56,70516,5,2,0:0:0:0:
296,240,70659,1,2,0:0:0:0:
308,56,70802,1,2,0:0:0:0:
452,164,70945,1,8,0:0:0:0:
256,152,71088,1,2,0:0:0:0:
336,320,71231,6,0,B|400:300|412:208|340:168,1,180,4|8,0:0|0:0,0:0:0:0:
296,240,71659,2,0,B|248:248|200:252,1,90,0|2,0:0|0:0,0:0:0:0:
64,136,71945,2,0,B|112:128|160:124,1,90,0|8,0:0|0:0,0:0:0:0:
124,224,72231,2,0,B|108:276|136:316,1,90,2|0,0:0|0:0,0:0:0:0:
256,152,72516,2,0,B|272:100|244:60,1,90,2|8,0:0|0:0,0:0:0:0:
352,96,72802,6,0,B|392:124|444:124,1,90,2|2,0:0|0:0,0:0:0:0:
472,120,73016,1,2,0:0:0:0:
448,147,73088,1,2,0:0:0:0:
437,181,73159,1,2,0:0:0:0:
430,216,73231,1,8,0:0:0:0:
437,251,73302,1,0,0:0:0:0:
452,283,73374,1,8,0:0:0:0:
475,310,73445,1,0,0:0:0:0:
505,328,73516,2,0,B|441:331|395:342,1,90,4|0,0:0|0:0,0:0:0:0:
352,272,73802,6,0,B|288:300|200:288,1,135,8|0,0:0|2:0,0:0:0:0:
219,290,74088,2,0,B|200:244|212:200,1,90,2|2,0:0|0:0,0:0:0:0:
48,328,74374,2,0,B|96:340|136:316,1,90,8|2,0:0|0:0,0:0:0:0:
296,236,74659,5,2,0:0:0:0:
304,136,74802,1,2,0:0:0:0:
204,128,74945,1,8,0:0:0:0:
196,228,75088,1,2,0:0:0:0:
380,188,75231,5,2,0:0:0:0:
260,60,75374,1,2,0:0:0:0:
124,172,75516,1,8,0:0:0:0:
240,304,75659,1,0,0:0:0:0:
312,352,75802,6,0,B|356:360|412:364,1,90,4|0,0:0|0:0,0:0:0:0:
488,192,76088,1,8,0:0:0:0:
488,192,76231,1,0,0:0:0:0:
344,32,76374,1,2,0:0:0:0:
400,104,76516,1,2,0:0:0:0:
316,132,76659,1,8,0:0:0:0:
260,60,76802,1,2,0:0:0:0:
464,36,76945,6,0,B|496:72|488:124,1,90,2|2,0:0|0:0,0:0:0:0:
396,312,77231,2,0,B|364:276|372:224,1,90,8|2,0:0|0:0,0:0:0:0:
188,180,77516,1,2,0:0:0:0:
172,224,77588,1,2,0:0:0:0:
176,268,77659,1,2,0:0:0:0:
200,308,77731,1,2,0:0:0:0:
240,324,77802,1,8,0:0:0:0:
288,240,77945,1,8,0:0:0:0:
104,336,78088,6,0,B|48:324|24:236|80:188,2,180,4|8|2,0:0|0:0|0:0,0:0:0:0:
104,336,78945,1,8,0:0:0:0:
176,268,79088,1,0,0:0:0:0:
200,380,79231,1,0,0:0:0:0:
244,200,79374,1,2,0:0:0:0:
124,256,79516,1,8,0:0:0:0:
260,324,79659,2,0,B|344:316|372:316,1,90,2|2,0:0|0:0,0:0:0:0:
428,264,79945,1,2,0:0:0:0:
428,264,80016,1,0,0:0:0:0:
428,264,80088,2,0,B|424:216|424:164,1,90,8|2,0:0|0:0,0:0:0:0:
300,64,80374,6,0,B|340:120|432:104|444:36,1,180,4|8,0:0|0:0,0:0:0:0:
442,41,80945,1,2,0:0:0:0:
442,41,81088,1,2,0:0:0:0:
488,144,81231,1,8,0:0:0:0:
488,144,81374,1,2,0:0:0:0:
388,212,81516,2,0,B|412:308,1,90,0|2,0:0|0:0,0:0:0:0:
344,356,81802,5,8,0:0:0:0:
484,256,81945,1,2,0:0:0:0:
304,192,82088,1,2,0:0:0:0:
292,148,82159,1,2,0:0:0:0:
304,104,82231,1,2,0:0:0:0:
340,80,82302,1,2,0:0:0:0:
384,80,82374,1,8,0:0:0:0:
212,156,82516,1,0,0:0:0:0:
64,32,82659,6,0,B|32:140|100:104|64:220,1,180,4|8,0:0|0:0,0:0:0:0:
448,336,83088,2,0,B|480:228|412:264|448:148,1,180,2|2,0:0|0:0,0:0:0:0:
256,192,83516,1,8,0:0:0:0:
464,68,83802,6,0,B|392:8|280:44,1,180,4|8,0:0|0:0,0:0:0:0:
48,316,84231,2,0,B|120:376|232:340,1,180,2|2,0:0|0:0,0:0:0:0:
256,192,84659,1,8,0:0:0:0:
256,192,84945,5,4,0:0:0:0:
324,272,85088,1,2,0:2:0:0:
352,120,85231,1,2,0:2:0:0:
256,192,85374,5,12,0:2:0:0:
132,88,85516,1,2,0:0:0:0:
108,248,85659,1,2,0:0:0:0:
256,192,85802,5,12,0:2:0:0:
156,164,85945,1,2,0:0:0:0:
208,288,86088,1,2,0:2:0:0:
228,80,86231,5,12,0:2:0:0:
292,336,86374,1,2,0:0:0:0:
28,272,86516,1,2,0:0:0:0:
360,164,86659,2,0,B|416:248|372:344,2,180,12|4|4,0:2|0:2|0:0,0:0:0:0:
256,32,95802,5,2,0:0:0:0:
256,68,95874,1,2,0:0:0:0:
256,104,95945,1,2,0:0:0:0:
256,140,96016,1,2,0:0:0:0:
256,176,96088,1,8,0:0:0:0:
256,212,96159,1,8,0:0:0:0:
256,248,96231,1,8,0:0:0:0:
256,284,96302,1,8,0:0:0:0:
256,320,96374,2,0,B|196:316|152:316,1,90,4|0,0:0|0:0,0:0:0:0:
332,252,96659,6,0,B|380:248|424:248,1,90,8|2,0:0|0:0,0:0:0:0:
444,352,96945,2,0,B|396:348|356:336,1,90,2|2,0:0|0:0,0:0:0:0:
304,136,97231,2,0,B|352:140|392:152,1,90,8|0,0:0|0:0,0:0:0:0:
164,240,97516,5,2,0:0:0:0:
112,160,97659,1,2,0:0:0:0:
164,240,97802,1,8,0:0:0:0:
220,128,97945,1,0,0:0:0:0:
252,280,98088,1,2,0:0:0:0:
164,240,98231,1,2,0:0:0:0:
296,200,98374,1,8,0:0:0:0:
264,56,98516,1,2,0:0:0:0:
428,348,98659,6,0,B|384:348|336:352,1,90,2|0,0:0|0:0,0:0:0:0:
368,232,98945,2,0,B|367:188|364:134,1,90,8|0,0:0|0:0,0:0:0:0:
164,240,99231,2,0,B|216:248|264:232,1,90,0|2,0:0|0:0,0:0:0:0:
416,64,99516,2,0,B|364:56|316:72,1,90,8|0,0:0|0:0,0:0:0:0:
120,200,99802,5,2,0:0:0:0:
224,84,99945,1,2,0:0:0:0:
196,264,100088,1,8,0:0:0:0:
132,116,100231,1,0,0:0:0:0:
232,192,100374,1,2,0:0:0:0:
44,248,100516,1,2,0:0:0:0:
76,32,100659,1,8,0:0:0:0:
36,116,100802,1,2,0:0:0:0:
208,348,100945,6,0,B|264:356|304:368,1,90,2|0,0:0|0:0,0:0:0:0:
396,324,101231,2,0,B|456:296|452:208|380:184,1,180,8|2,0:0|0:0,0:0:0:0:
300,260,101659,1,2,0:0:0:0:
276,120,101802,2,0,B|284:60|288:-4,1,90,8|2,0:0|0:0,0:0:0:0:
172,224,102088,5,2,0:0:0:0:
348,180,102231,1,2,0:0:0:0:
196,304,102374,1,8,0:0:0:0:
252,204,102516,1,0,0:0:0:0:
80,152,102659,1,2,0:0:0:0:
156,120,102802,1,2,0:0:0:0:
20,272,102945,6,0,B|56:304|108:288,1,90,8|2,0:0|0:0,0:0:0:0:
360,360,103231,2,0,B|324:328|272:344,1,90,2|0,0:0|0:0,0:0:0:0:
128,360,103516,1,8,0:0:0:0:
128,360,103802,1,2,0:0:0:0:
172,176,103945,1,2,0:0:0:0:
196,304,104088,1,8,0:0:0:0:
264,224,104231,1,0,0:0:0:0:
112,252,104374,6,0,B|80:212|100:136,1,90,2|2,0:0|0:0,0:0:0:0:
252,132,104659,1,8,0:0:0:0:
412,96,104802,1,8,0:0:0:0:
328,40,104945,5,2,0:0:0:0:
328,40,105016,1,2,0:0:0:0:
328,40,105088,1,2,0:0:0:0:
344,192,105231,1,8,0:0:0:0:
364,340,105374,1,8,0:0:0:0:
364,340,105445,1,8,0:0:0:0:
364,340,105516,1,4,1:2:0:0:
276,284,105802,5,0,3:2:0:0:
432,260,106088,1,8,0:0:0:0:
432,260,106374,1,0,3:0:0:0:
344,192,106516,1,0,3:0:0:0:
364,344,106659,5,0,3:0:0:0:
424,168,106802,1,0,3:0:0:0:
424,168,106945,1,0,3:0:0:0:
308,280,107088,1,0,3:0:0:0:
308,280,107159,1,0,3:0:0:0:
308,280,107231,1,8,0:0:0:0:
224,204,107374,1,0,3:0:0:0:
224,204,107445,1,0,3:0:0:0:
224,204,107517,1,0,3:0:0:0:
328,156,107659,1,0,3:0:0:0:
116,252,107802,5,4,3:2:0:0:
192,304,108088,1,0,3:0:0:0:
112,340,108374,1,8,0:0:0:0:
244,220,108516,5,2,0:0:0:0:
116,252,108659,1,0,3:0:0:0:
76,140,108802,1,0,3:0:0:0:
168,188,108945,1,0,3:0:0:0:
32,288,109088,5,0,3:0:0:0:
32,288,109231,1,0,3:0:0:0:
76,140,109374,1,0,3:0:0:0:
76,140,109445,1,0,3:0:0:0:
76,140,109516,1,8,0:0:0:0:
204,268,109659,1,0,3:0:0:0:
204,268,109731,1,0,3:0:0:0:
204,268,109802,1,8,0:0:0:0:
252,104,109945,1,8,0:0:0:0:
328,156,110088,6,0,B|268:216|192:176,2,144,4|0|8,3:2|3:0|0:0,0:0:0:0:
328,156,110945,1,0,3:0:0:0:
300,272,111088,1,0,3:0:0:0:
404,116,111231,1,0,3:0:0:0:
240,144,111374,5,0,3:0:0:0:
240,144,111516,1,0,3:0:0:0:
380,240,111659,1,0,3:0:0:0:
380,240,111731,1,0,3:0:0:0:
380,240,111802,1,8,0:0:0:0:
236,336,111945,1,0,3:0:0:0:
236,336,112016,1,0,3:0:0:0:
236,336,112088,1,0,3:0:0:0:
172,220,112231,1,0,3:0:0:0:
236,336,112374,6,0,B|288:332|320:332,1,72,4|0,3:2|0:0,0:0:0:0:
464,328,112659,2,0,B|412:332|380:332,1,72,0|0,3:0|0:0,0:0:0:0:
180,264,112945,2,0,B|104:268|28:264,1,144,8|0,0:0|3:0,0:0:0:0:
108,348,113374,1,0,3:0:0:0:
252,248,113516,5,0,3:0:0:0:
256,236,113588,1,0,3:0:0:0:
260,224,113659,1,0,3:0:0:0:
264,212,113731,1,0,3:0:0:0:
268,200,113802,1,0,3:0:0:0:
272,188,113874,1,0,3:0:0:0:
276,176,113945,1,0,3:0:0:0:
280,164,114016,1,0,3:0:0:0:
284,152,114088,1,8,0:0:0:0:
308,72,114231,6,0,B|344:44,2,36,0|0|8,3:0|3:0|0:0,0:0:0:0:
220,96,114516,1,8,0:0:0:0:
356,208,114659,1,4,0:0:0:0:
312,264,116945,5,0,0:0:0:0:
228,248,119231,5,0,0:0:0:0:
152,304,120374,5,2,0:0:0:0:
380,332,120659,1,0,0:0:0:0:
380,332,120802,1,0,0:0:0:0:
216,144,120945,5,2,0:0:0:0:
296,336,121231,1,0,0:0:0:0:
296,336,121374,1,0,0:0:0:0:
328,76,121516,6,0,B|296:176,1,90,4|0,0:2|0:0,0:0:0:0:
180,216,121802,2,0,B|148:316,1,90,2|0,0:0|0:0,0:0:0:0:
408,104,122088,6,0,B|376:204,1,90,2|0,0:0|0:0,0:0:0:0:
260,244,122374,2,0,B|228:344,1,90,2|0,0:0|0:0,0:0:0:0:
488,132,122659,6,0,B|456:232,1,90,2|2,0:0|0:0,0:0:0:0:
340,272,122945,2,0,B|308:372,1,90,8|8,0:0|0:0,0:0:0:0:
156,356,123231,5,8,0:0:0:0:
140,352,123302,1,8,0:0:0:0:
124,348,123374,1,8,0:0:0:0:
108,344,123445,1,8,0:0:0:0:
92,340,123516,1,8,0:0:0:0:
76,336,123588,1,8,0:0:0:0:
60,332,123659,1,8,0:0:0:0:
44,328,123731,1,8,0:0:0:0:
28,324,123802,2,0,B|100:316|128:232|68:188,1,180,4|8,0:0|0:0,0:0:0:0:
112,116,124231,2,0,B|160:136|204:132,1,90,0|2,0:0|0:0,0:0:0:0:
388,116,124516,2,0,B|340:96|296:100,1,90,0|8,0:0|0:0,0:0:0:0:
276,280,124802,5,2,0:0:0:0:
336,208,124945,1,0,0:0:0:0:
200,228,125088,1,2,0:0:0:0:
276,280,125231,1,8,0:0:0:0:
256,152,125374,1,0,0:0:0:0:
200,228,125516,1,2,0:0:0:0:
200,228,125588,1,2,0:0:0:0:
200,228,125659,1,2,0:0:0:0:
336,96,125802,5,8,0:0:0:0:
164,136,125945,1,0,0:0:0:0:
276,280,126088,2,0,B|324:336|408:316|420:236,1,180,4|8,0:0|0:0,0:0:0:0:
424,164,126516,2,0,B|428:108|428:60,1,90,0|2,0:0|0:0,0:0:0:0:
260,60,126802,2,0,B|256:116|256:164,1,90,0|8,0:0|0:0,0:0:0:0:
336,208,127088,5,2,0:0:0:0:
276,280,127231,1,2,0:0:0:0:
168,208,127374,2,0,B|116:204|56:204,1,90,2|8,0:0|0:0,0:0:0:0:
116,292,127659,1,2,0:0:0:0:
200,344,127802,5,2,0:0:0:0:
220,352,127874,1,2,0:0:0:0:
244,356,127945,1,2,0:0:0:0:
268,356,128016,1,2,0:0:0:0:
292,352,128088,1,8,0:0:0:0:
312,344,128159,1,0,0:0:0:0:
332,332,128231,1,8,0:0:0:0:
348,316,128302,1,0,0:0:0:0:
360,296,128374,2,0,B|376:220|392:180,1,90,4|0,0:0|0:0,0:0:0:0:
152,88,128659,2,0,B|136:164|120:204,1,90,8|0,0:0|0:0,0:0:0:0:
296,156,128945,5,2,0:0:0:0:
212,216,129088,1,2,0:0:0:0:
304,260,129231,1,8,0:0:0:0:
216,128,129374,2,0,B|236:80|300:72,1,90,2|2,0:0|0:0,0:0:0:0:
376,104,129659,5,2,0:0:0:0:
256,328,129802,1,8,0:0:0:0:
112,172,129945,1,2,0:0:0:0:
212,216,130088,5,2,0:0:0:0:
212,216,130159,1,2,0:0:0:0:
212,216,130231,1,2,0:0:0:0:
104,88,130374,1,8,0:0:0:0:
216,128,130516,1,0,0:0:0:0:
136,260,130659,6,0,B|108:160,1,90,4|0,0:0|0:0,0:0:0:0:
168,340,130945,1,8,0:0:0:0:
256,328,131088,1,0,0:0:0:0:
344,344,131231,1,2,0:0:0:0:
168,340,131374,5,2,0:0:0:0:
256,192,131516,1,8,0:0:0:0:
344,344,131659,1,2,0:0:0:0:
176,224,131802,5,2,0:0:0:0:
336,156,131945,1,2,0:0:0:0:
256,328,132088,1,8,0:0:0:0:
180,128,132231,1,2,0:0:0:0:
320,256,132374,5,2,0:0:0:0:
364,272,132445,1,0,0:0:0:0:
408,256,132516,1,2,0:0:0:0:
440,224,132588,1,0,0:0:0:0:
444,180,132659,1,8,0:0:0:0:
416,100,132802,1,8,0:0:0:0:
160,28,132945,6,0,B|240:92|344:48,1,180,4|8,0:0|0:0,0:0:0:0:
329,53,133374,1,0,0:0:0:0:
216,224,133516,1,2,0:0:0:0:
112,160,133659,2,0,B|76:124|8:136,1,90,2|8,0:0|0:0,0:0:0:0:
80,296,133945,6,0,B|120:328|180:312,1,90,2|0,0:0|0:0,0:0:0:0:
288,176,134231,2,0,B|280:132|272:80,1,90,0|8,0:0|0:0,0:0:0:0:
304,276,134516,1,2,0:0:0:0:
372,116,134659,1,2,0:0:0:0:
192,148,134802,1,2,0:0:0:0:
372,116,134945,2,0,B|424:116|472:124,1,90,8|0,0:0|0:0,0:0:0:0:
476,284,135231,6,0,B|464:352|376:376|324:316,1,180,4|8,0:0|0:0,0:0:0:0:
272,248,135659,1,0,0:0:0:0:
368,224,135802,1,2,0:0:0:0:
240,336,135945,2,0,B|184:344|128:340,1,90,0|8,0:0|0:0,0:0:0:0:
16,240,136231,6,0,B|104:232|204:232,1,180,2|2,0:0|0:0,0:0:0:0:
195,232,136659,1,8,0:0:0:0:
80,152,136802,2,0,B|76:104|80:56,1,90,2|2,0:0|0:0,0:0:0:0:
284,132,137088,1,2,0:0:0:0:
184,312,137231,1,8,0:0:0:0:
160,144,137374,1,8,0:0:0:0:
320,268,137516,6,0,B|376:308|452:272|444:200,1,180,4|8,0:0|0:0,0:0:0:0:
444,201,138088,2,0,B|448:140|452:104,1,90,2|2,0:0|0:0,0:0:0:0:
320,268,138374,2,0,B|316:329|312:357,1,90,8|2,0:0|0:0,0:0:0:0:
276,168,138659,5,2,0:0:0:0:
136,268,138802,1,0,0:0:0:0:
176,184,138945,1,8,0:0:0:0:
204,348,139087,1,2,0:0:0:0:
52,280,139231,1,2,0:0:0:0:
52,280,139302,1,0,0:0:0:0:
52,280,139374,1,2,0:0:0:0:
188,100,139516,5,8,0:0:0:0:
188,100,139802,2,0,B|244:108|292:120,1,90,4|0,0:0|0:0,0:0:0:0:
392,256,140088,2,0,B|336:248|288:236,1,90,8|0,0:0|0:0,0:0:0:0:
232,188,140374,1,2,0:0:0:0:
212,300,140516,1,2,0:0:0:0:
132,200,140659,1,8,0:0:0:0:
316,140,140802,1,2,0:0:0:0:
160,32,140945,6,0,B|104:28|64:48,1,90,0|2,0:0|0:0,0:0:0:0:
352,356,141231,2,0,B|408:360|448:340,1,90,8|2,0:0|0:0,0:0:0:0:
304,232,141516,1,2,0:0:0:0:
276,268,141588,1,2,0:0:0:0:
236,288,141659,1,2,0:0:0:0:
192,296,141731,1,2,0:0:0:0:
148,292,141802,1,8,0:0:0:0:
60,192,141945,1,8,0:0:0:0:
232,188,142088,6,0,B|232:128|236:92,1,90,4|0,0:0|0:0,0:0:0:0:
388,228,142374,2,0,B|412:156|376:56,1,135,8|0,0:0|2:0,0:0:0:0:
388,94,142659,2,0,B|488:108,1,90,2|0,0:0|0:0,0:0:0:0:
328,304,142945,2,0,B|432:320,1,90,8|2,0:0|0:0,0:0:0:0:
232,188,143231,5,0,0:0:0:0:
232,188,143374,2,0,B|184:180|132:196,1,90,0|8,0:0|0:0,0:0:0:0:
96,112,143659,1,2,0:0:0:0:
136,280,143802,1,2,0:0:0:0:
232,188,143945,1,2,0:0:0:0:
268,284,144088,2,0,B|312:316|372:288|372:232,1,135,8|0,0:0|2:0,0:0:0:0:
364,212,144374,6,0,B|432:184|492:240|472:304,1,180,4|8,0:0|0:0,0:0:0:0:
472,304,144945,1,2,0:0:0:0:
384,340,145088,1,2,0:0:0:0:
304,116,145231,1,8,0:0:0:0:
392,144,145374,1,2,0:0:0:0:
220,264,145516,6,0,B|224:208|220:168,1,90,2|2,0:0|0:0,0:0:0:0:
288,320,145802,1,8,0:0:0:0:
144,352,145945,1,2,0:0:0:0:
108,192,146088,1,2,0:0:0:0:
108,192,146159,1,2,0:0:0:0:
108,192,146231,1,2,0:0:0:0:
108,192,146302,1,2,0:0:0:0:
108,192,146374,1,8,0:0:0:0:
32,296,146516,1,0,0:0:0:0:
232,244,146659,6,0,B|284:192|368:232|364:300,1,180,4|8,0:0|0:0,0:0:0:0:
456,52,147088,2,0,B|404:0|320:40|324:108,1,180,2|2,0:0|0:0,0:0:0:0:
476,192,147516,1,8,0:0:0:0:
216,340,147802,6,0,B|164:392|80:352|84:284,1,180,4|8,0:0|0:0,0:0:0:0:
188,152,148231,2,0,B|240:204|324:164|320:96,1,180,2|2,0:0|0:0,0:0:0:0:
40,192,148659,1,8,0:0:0:0:
328,304,148945,5,4,0:0:0:0:
144,168,149088,1,0,0:0:0:0:
144,168,149231,1,0,0:0:0:0:
312,148,149374,5,12,0:2:0:0:
176,332,149517,1,2,0:0:0:0:
176,332,149660,1,2,0:0:0:0:
216,80,149802,5,12,0:2:0:0:
264,248,149945,1,2,0:0:0:0:
392,124,150088,1,2,0:0:0:0:
380,232,150231,5,12,0:2:0:0:
216,164,150374,1,2,0:0:0:0:
256,356,150517,1,2,0:0:0:0:
320,64,150659,5,12,0:2:0:0:
176,332,150945,1,12,0:2:0:0:
12,132,151231,1,4,0:0:0:0:
320,332,160374,6,0,B|224:364|236:296|132:324,2,180,4|0|2,0:0|0:0|0:0,0:0:0:0:
408,304,161802,1,2,0:0:0:0:
336,248,162088,1,4,0:3:0:0:
392,44,162659,6,0,B|392:112|304:148|252:96,1,180,2|0,0:0|0:0,0:0:0:0:
259,102,163802,1,2,0:0:0:0:
212,176,164088,1,2,0:0:0:0:
256,256,164374,1,4,0:3:0:0:
84,336,164945,6,0,B|84:156,2,180,4|0|2,0:2|0:0|0:0,0:0:0:0:
164,344,166374,2,0,B|208:324|256:336,1,90,2|4,0:0|0:3,0:0:0:0:
328,360,166945,1,0,0:0:0:0:
400,316,167231,1,2,0:0:0:0:
256,192,167374,12,0,168231,2:0:0:0:
160,280,168374,5,0,3:0:0:0:
162,271,168445,1,0,0:0:0:0:
164,262,168516,1,0,0:0:0:0:
166,253,168588,1,0,0:0:0:0:
168,244,168659,1,0,3:0:0:0:
170,235,168731,1,0,0:0:0:0:
172,226,168802,1,0,0:0:0:0:
174,217,168874,1,0,0:0:0:0:
176,208,168945,1,4,0:3:0:0:
178,199,169016,1,0,0:0:0:0:
180,190,169088,1,0,0:0:0:0:
182,181,169159,1,0,0:0:0:0:
184,172,169231,1,0,0:0:0:0:
186,163,169302,1,0,0:0:0:0:
188,154,169374,1,0,0:0:0:0:
190,145,169445,1,0,0:0:0:0:
192,136,169516,2,0,B|148:140|100:136,1,90,4|0,3:2|0:0,0:0:0:0:
252,304,169802,5,2,0:0:0:0:
252,304,169945,2,0,B|308:312|344:296,1,90,2|4,0:0|0:3,0:0:0:0:
404,132,170231,1,0,0:0:0:0:
356,60,170374,2,0,B|268:124|324:236,1,180,2|0,0:0|3:2,0:0:0:0:
228,192,170802,1,2,0:0:0:0:
228,192,170945,2,0,B|176:196|136:208,1,90,0|2,3:0|0:0,0:0:0:0:
72,260,171231,5,4,0:3:0:0:
136,112,171374,1,2,0:0:0:0:
40,176,171516,1,2,0:0:0:0:
176,272,171659,1,0,0:0:0:0:
232,104,171802,6,0,B|280:108|324:132,1,90,2|0,3:2|0:0,0:0:0:0:
360,208,172088,2,0,B|408:232|460:236,1,90,0|2,0:0|0:0,0:0:0:0:
376,304,172374,2,0,B|276:272|200:352,1,180,4|0,0:3|0:0,0:0:0:0:
209,342,172802,1,2,0:0:0:0:
240,240,172945,2,0,B|256:200|252:152,1,90,0|2,3:0|0:0,0:0:0:0:
180,96,173231,1,0,3:0:0:0:
168,184,173374,1,2,0:0:0:0:
328,220,173516,5,4,0:3:0:0:
156,272,173659,1,2,0:0:0:0:
252,152,173802,1,2,0:0:0:0:
280,328,173945,1,0,0:0:0:0:
352,120,174088,5,4,3:2:0:0:
276,56,174231,1,0,0:0:0:0:
252,152,174374,1,0,0:0:0:0:
184,76,174516,5,2,0:0:0:0:
204,176,174659,1,4,0:3:0:0:
104,152,174802,1,0,0:0:0:0:
68,240,174945,5,2,0:0:0:0:
144,168,175088,1,0,0:0:0:0:
160,268,175231,1,0,3:0:0:0:
256,192,175374,5,2,0:0:0:0:
352,240,175516,1,0,3:0:0:0:
348,132,175659,1,2,0:0:0:0:
256,192,175802,6,0,B|208:208|144:208,1,90,4|0,0:3|0:0,0:0:0:0:
80,172,176088,1,2,0:0:0:0:
112,88,176231,1,0,0:0:0:0:
256,192,176374,5,0,3:0:0:0:
256,192,176516,2,0,B|260:268|256:296,1,90,0|0,0:0|0:0,0:0:0:0:
184,344,176802,2,0,B|268:268|384:320,1,180,2|0,0:0|0:0,0:0:0:0:
432,352,177231,1,0,0:0:0:0:
480,272,177374,2,0,B|448:228|460:160|460:160|432:184|380:176,1,180,2|0,0:0|0:0,0:0:0:0:
364,92,177802,2,0,B|324:124|264:108,1,90,0|0,3:0|0:0,0:0:0:0:
136,64,178088,5,4,0:3:0:0:
180,188,178231,1,0,0:0:0:0:
180,188,178302,1,0,3:0:0:0:
180,188,178374,1,0,3:0:0:0:
72,160,178516,1,0,3:0:0:0:
220,276,178659,6,0,B|268:272|312:272,1,90,0|0,3:0|0:0,0:0:0:0:
309,272,178874,1,0,0:0:0:0:
309,272,178945,2,0,B|324:224|308:180,1,90,0|0,3:0|0:0,0:0:0:0:
240,96,179231,2,0,B|292:108|336:88,1,90,4|0,3:3|0:0,0:0:0:0:
412,40,179516,2,0,B|408:148,1,90,0|0,3:0|0:0,0:0:0:0:
404,216,179802,5,0,3:0:0:0:
408,232,179874,1,0,0:0:0:0:
412,248,179945,1,0,0:0:0:0:
416,264,180016,1,0,0:0:0:0:
420,280,180088,1,0,3:0:0:0:
424,296,180159,1,0,0:0:0:0:
428,312,180231,1,0,0:0:0:0:
432,328,180302,1,0,0:0:0:0:
436,344,180374,2,0,B|388:328|340:332,1,90,4|0,3:3|0:0,0:0:0:0:
260,348,180659,1,0,3:0:0:0:
192,276,180802,5,0,0:0:0:0:
192,276,180874,1,0,0:0:0:0:
192,276,180945,2,0,B|204:176,1,90,0|0,3:0|0:0,0:0:0:0:
216,96,181231,1,0,3:0:0:0:
299,156,181374,1,0,0:0:0:0:
315,162,181445,1,0,0:0:0:0:
332,165,181516,1,4,3:3:0:0:
350,165,181588,1,0,0:0:0:0:
367,163,181659,1,0,0:0:0:0:
384,158,181731,1,0,0:0:0:0:
399,148,181802,1,0,3:0:0:0:
410,134,181874,1,0,0:0:0:0:
418,118,181945,1,0,0:0:0:0:
421,100,182016,1,0,0:0:0:0:
419,81,182088,6,0,B|466:60,1,45,0|0,0:0|2:0,0:0:0:0:
340,40,182231,2,0,B|293:61,1,45,0|0,0:0|2:0,0:0:0:0:
315,157,182374,6,0,B|362:136,1,45,0|0,0:0|2:0,0:0:0:0:
236,116,182517,2,0,B|189:137,1,45,0|0,0:0|2:0,0:0:0:0:
212,236,182659,6,0,B|259:215,1,45,0|0,0:0|2:0,0:0:0:0:
132,192,182802,2,0,B|85:213,1,45,0|0,0:0|2:0,0:0:0:0:
84,296,182945,6,0,B|76:364,1,45,0|0,0:0|2:0,0:0:0:0:
0,256,183088,2,0,B|8:188,1,45,0|0,0:0|2:0,0:0:0:0:
128,64,183231,5,4,0:0:0:0:
188,140,183374,1,0,0:0:0:0:
280,112,183516,1,4,3:3:0:0:
128,64,183659,5,2,0:0:0:0:
96,160,183802,1,0,3:0:0:0:
160,224,183945,1,2,0:0:0:0:
128,64,184088,5,4,3:3:0:0:
16,200,184231,1,2,0:0:0:0:
152,296,184374,1,2,3:2:0:0:
260,172,184516,5,2,0:2:0:0:
308,252,184659,1,4,3:3:0:0:
232,312,184802,1,2,0:0:0:0:
340,172,184945,5,2,3:2:0:0:
312,332,185088,1,0,0:0:0:0:
152,296,185231,1,4,3:0:0:0:
184,140,185374,1,2,0:0:0:0:
388,256,185516,6,0,B|448:256|496:244,1,90,0|2,3:0|0:0,0:0:0:0:
448,64,185802,2,0,B|388:64|340:76,1,90,4|2,3:3|0:0,0:0:0:0:
180,228,186088,2,0,B|220:264|288:248,1,90,2|2,3:2|0:0,0:0:0:0:
340,172,186374,2,0,B|300:136|232:152,1,90,4|2,3:0|0:0,0:0:0:0:
76,296,186659,5,2,3:2:0:0:
60,184,186802,1,0,0:0:0:0:
208,304,186945,1,4,3:0:0:0:
184,140,187088,1,2,0:0:0:0:
268,212,187231,2,0,B|216:220|176:228,1,90,2|0,3:2|0:0,0:0:0:0:
96,48,187516,5,2,3:2:0:0:
104,52,187588,1,0,0:0:0:0:
112,56,187659,1,0,0:0:0:0:
120,60,187731,1,0,0:0:0:0:
128,64,187802,2,0,B|188:48|240:44,1,90,4|0,3:2|0:0,0:0:0:0:
454,91,188088,2,0,B|356:52|280:112,1,180,4|0,3:0|3:0,0:0:0:0:
376,160,188516,1,2,0:0:0:0:
420,240,188659,2,0,B|404:332,1,90,4|2,3:0|0:0,0:0:0:0:
320,340,188945,6,0,B|272:328|232:352,1,90,0|2,3:0|0:0,0:0:0:0:
168,292,189231,2,0,B|120:304|80:280,1,90,4|2,3:0|0:0,0:0:0:0:
56,184,189516,5,2,3:2:0:0:
80,92,189659,1,0,0:0:0:0:
164,136,189802,1,4,3:0:0:0:
136,224,189945,1,2,0:0:0:0:
284,256,190088,6,0,B|336:264|380:236,1,90,0|0,3:0|0:0,0:0:0:0:
432,116,190374,1,4,3:0:0:0:
316,172,190516,1,2,0:0:0:0:
452,228,190659,1,0,0:0:0:0:
348,88,190802,5,0,0:0:0:0:
284,256,190945,1,4,3:0:0:0:
164,136,191088,1,2,0:0:0:0:
164,136,191374,1,0,0:0:0:0:
260,156,191516,1,4,3:3:0:0:
164,136,191659,1,2,0:2:0:0:
88,276,191802,5,2,1:2:0:0:
124,268,191874,1,0,1:0:0:0:
160,260,191945,1,0,1:0:0:0:
196,252,192016,1,0,1:0:0:0:
232,280,192088,5,4,1:3:0:0:
267,284,192159,1,0,1:0:0:0:
302,289,192231,1,0,1:0:0:0:
337,293,192302,1,0,1:0:0:0:
372,298,192374,1,4,1:2:0:0:
256,192,195802,5,0,0:0:0:0:
256,192,195874,1,0,0:0:0:0:
256,192,195945,1,0,0:0:0:0:
256,192,196016,1,0,0:0:0:0:
256,192,196088,1,4,0:3:0:0:
256,192,196159,1,0,0:0:0:0:
256,192,196231,1,0,0:0:0:0:
256,192,196302,1,0,0:0:0:0:
256,192,196374,1,0,0:0:0:0:
256,192,196445,1,0,0:0:0:0:
256,192,196516,1,0,0:0:0:0:
256,192,196588,1,0,0:0:0:0:
256,192,196659,1,4,0:3:0:0:
256,192,196731,1,0,0:0:0:0:
256,192,196802,1,0,0:0:0:0:
256,192,196874,1,0,0:0:0:0:
256,192,196945,6,0,B|160:240|176:156|68:192,2,180,4|4|0,0:0|2:3|0:0,0:0:0:0:
392,264,198516,1,0,0:0:0:0:
264,356,198945,1,0,0:0:0:0:
344,72,199231,6,0,B|252:48|164:72,1,180,4|4,0:2|2:3,0:0:0:0:
252,316,200374,1,0,0:0:0:0:
100,276,200802,1,0,0:0:0:0:
168,220,200945,6,0,B|216:228|272:244,1,90,4|0,0:3|0:0,0:0:0:0:
408,144,201231,2,0,B|360:136|304:120,1,90,8|8,0:0|0:0,0:0:0:0:
388,264,201516,5,4,0:0:0:0:
388,264,201659,1,0,0:0:0:0:
236,152,201802,5,8,0:0:0:0:
300,284,201945,1,0,0:0:0:0:
216,344,202088,1,2,0:0:0:0:
144,128,202231,5,2,0:0:0:0:
172,264,202374,1,8,0:0:0:0:
48,228,202516,1,2,0:0:0:0:
60,140,202659,6,0,B|60:72|56:28,1,90,2|2,0:0|0:0,0:0:0:0:
232,48,202945,2,0,B|236:96|236:144,1,90,8|2,0:0|0:0,0:0:0:0:
324,240,203231,1,2,0:0:0:0:
324,240,203302,1,0,0:0:0:0:
324,240,203374,1,2,0:0:0:0:
260,352,203516,1,8,0:0:0:0:
384,356,203659,1,0,0:0:0:0:
220,244,203802,6,0,B|160:208|176:112|248:100,1,180,4|8,0:0|0:0,0:0:0:0:
320,152,204231,1,0,0:0:0:0:
332,44,204374,1,2,0:0:0:0:
380,224,204516,1,2,0:0:0:0:
238,102,204659,1,8,0:0:0:0:
420,52,204802,1,2,0:0:0:0:
132,236,204945,6,0,B|176:236|224:244,1,90,2|2,0:0|0:0,0:0:0:0:
404,360,205231,2,0,B|360:360|312:352,1,90,8|2,0:0|0:0,0:0:0:0:
324,252,205516,1,2,0:0:0:0:
360,252,205588,1,0,0:0:0:0:
395,256,205659,1,2,0:0:0:0:
430,262,205731,1,0,0:0:0:0:
464,270,205802,1,8,0:0:0:0:
408,160,205945,1,2,0:0:0:0:
200,332,206088,6,0,B|128:364|64:312|84:236,1,180,4|8,0:0|0:0,0:0:0:0:
264,124,206516,2,0,B|288:172|296:216,1,90,0|2,0:0|0:0,0:0:0:0:
160,172,206802,2,0,B|136:124|128:80,1,90,2|8,0:0|0:0,0:0:0:0:
204,36,207088,5,2,0:0:0:0:
416,56,207231,1,0,0:0:0:0:
476,156,207374,1,2,0:0:0:0:
264,124,207516,1,8,0:0:0:0:
216,220,207659,1,2,0:0:0:0:
436,244,207802,1,2,0:0:0:0:
356,312,207945,1,2,0:0:0:0:
376,128,208088,1,8,0:0:0:0:
376,128,208231,1,2,0:0:0:0:
216,220,208374,6,0,B|148:248|104:200|104:200|48:224,1,180,4|8,0:0|0:0,0:0:0:0:
116,316,208802,2,0,B|172:320|224:320,1,90,0|2,0:0|0:0,0:0:0:0:
264,124,209088,2,0,B|268:68|268:20,1,90,2|8,0:0|0:0,0:0:0:0:
328,216,209374,2,0,B|372:272|456:260|472:184,1,180,2|2,0:0|0:0,0:0:0:0:
488,104,209802,1,8,0:0:0:0:
416,328,209945,1,2,0:0:0:0:
248,240,210088,5,2,0:0:0:0:
227,222,210159,1,2,0:0:0:0:
204,207,210231,1,2,0:0:0:0:
179,197,210302,1,2,0:0:0:0:
152,191,210374,1,8,0:0:0:0:
125,192,210445,1,8,0:0:0:0:
99,199,210516,1,8,0:0:0:0:
74,210,210588,1,8,0:0:0:0:
51,225,210659,2,0,B|43:134|40:108,1,90,4|0,0:0|0:0,0:0:0:0:
108,76,210945,6,0,B|160:132|240:112,1,135,8|0,0:0|2:0,0:0:0:0:
264,104,211231,1,2,0:0:0:0:
244,256,211374,1,2,0:0:0:0:
376,200,211516,1,8,0:0:0:0:
332,56,211659,1,2,0:0:0:0:
176,160,211802,6,0,B|168:216|168:268,1,90,2|2,0:0|0:0,0:0:0:0:
232,304,212088,1,8,0:0:0:0:
116,344,212231,1,2,0:0:0:0:
72,220,212374,1,2,0:0:0:0:
72,220,212445,1,0,0:0:0:0:
72,220,212516,1,2,0:0:0:0:
168,249,212659,1,8,0:0:0:0:
24,352,212802,1,0,0:0:0:0:
304,336,212945,5,4,0:0:0:0:
260,212,213088,1,0,0:0:0:0:
116,344,213231,1,8,0:0:0:0:
220,136,213374,1,0,0:0:0:0:
360,264,213516,1,2,0:0:0:0:
272,60,213659,1,2,0:0:0:0:
152,260,213802,2,0,B|100:260|52:264,1,90,8|2,0:0|0:0,0:0:0:0:
144,104,214088,5,2,0:0:0:0:
348,168,214231,1,2,0:0:0:0:
152,260,214374,1,8,0:0:0:0:
260,212,214516,1,2,0:0:0:0:
300,324,214659,1,2,0:0:0:0:
328,344,214731,1,2,0:0:0:0:
364,352,214802,1,2,0:0:0:0:
400,344,214874,1,2,0:0:0:0:
432,328,214945,1,8,0:0:0:0:
488,200,215088,1,8,0:0:0:0:
392,60,215231,6,0,B|332:24|248:64|256:140,1,180,4|8,0:0|0:0,0:0:0:0:
276,292,215659,2,0,B|308:324|360:328,1,90,0|2,0:0|0:0,0:0:0:0:
160,192,215945,2,0,B|120:228|120:284,1,90,2|8,0:0|0:0,0:0:0:0:
344,216,216231,5,2,0:0:0:0:
388,136,216374,1,0,0:2:0:0:
412,272,216516,1,2,0:0:0:0:
276,292,216659,1,8,0:0:0:0:
244,160,216802,1,2,0:0:0:0:
180,244,216945,1,2,0:0:0:0:
180,244,217016,1,0,0:0:0:0:
180,244,217088,1,2,0:0:0:0:
292,376,217231,1,8,0:0:0:0:
292,376,217374,1,2,0:0:0:0:
440,244,217516,6,0,B|488:204|472:112|404:96,1,180,4|8,0:0|0:0,0:0:0:0:
328,60,217945,2,0,B|284:68|236:68,1,90,0|2,0:0|0:0,0:0:0:0:
160,120,218231,1,0,0:0:0:0:
40,80,218374,1,8,0:0:0:0:
104,208,218516,1,2,0:0:0:0:
152,40,218659,1,2,0:0:0:0:
104,208,218802,1,2,0:0:0:0:
264,244,218945,1,8,0:0:0:0:
104,208,219088,1,2,0:0:0:0:
240,152,219231,5,2,0:0:0:0:
274,144,219302,1,0,0:0:0:0:
312,148,219374,1,2,0:0:0:0:
341,168,219445,1,0,0:0:0:0:
361,197,219516,1,8,0:0:0:0:
373,230,219588,1,0,0:0:0:0:
367,265,219659,1,8,0:0:0:0:
350,297,219731,1,0,0:0:0:0:
323,320,219802,2,0,B|251:325|200:340,1,90,4|0,0:0|0:0,0:0:0:0:
168,272,220088,6,0,B|168:220|176:124,1,135,8|0,0:0|2:0,0:0:0:0:
174,137,220374,2,0,B|116:132|76:132,1,90,2|2,0:0|0:0,0:0:0:0:
344,156,220659,2,0,B|402:161|442:161,1,90,8|2,0:0|0:0,0:0:0:0:
188,28,220945,5,0,0:2:0:0:
244,104,221088,1,2,0:0:0:0:
344,64,221231,1,8,0:0:0:0:
292,248,221374,1,2,0:0:0:0:
344,156,221516,1,2,0:0:0:0:
176,208,221659,1,2,0:0:0:0:
116,48,221802,2,0,B|72:60|24:68,1,90,8|0,0:0|0:0,0:0:0:0:
52,164,222088,6,0,B|44:228|56:288,1,90,4|0,0:0|0:0,0:0:0:0:
124,344,222374,2,0,B|196:364|260:324,1,135,8|0,0:0|2:0,0:0:0:0:
272,316,222659,2,0,B|328:312|376:336,1,90,2|2,0:0|0:0,0:0:0:0:
236,128,222945,2,0,B|180:132|140:148,1,90,8|2,0:0|0:0,0:0:0:0:
272,212,223231,5,2,0:0:0:0:
456,176,223374,1,2,0:0:0:0:
356,256,223516,5,8,0:0:0:0:
384,40,223659,1,2,0:0:0:0:
241,83,223802,6,0,B|233:151,1,45,2|2,0:0|0:0,0:0:0:0:
148,160,223945,2,0,B|156:92,1,45,2|2,0:0|0:0,0:0:0:0:
332,68,224088,2,0,B|320:132|316:168,1,90,8|8,0:0|0:0,0:0:0:0:
396,328,224374,6,0,B|344:360|288:328,1,108.000002574921,4|0,0:0|0:0,0:0:0:0:
120,332,224659,2,0,B|88:280|120:224,1,108.000002574921,8|2,0:0|0:0,0:0:0:0:
116,56,224945,2,0,B|168:24|224:56,1,108.000002574921,8|2,0:0|0:0,0:0:0:0:
392,52,225231,2,0,B|424:104|392:160,1,108.000002574921,8|2,0:0|0:0,0:0:0:0:
316,288,225516,5,8,0:0:0:0:
160,248,225659,1,2,0:0:0:0:
196,92,225802,1,8,0:0:0:0:
352,132,225945,1,2,0:0:0:0:
276,272,226088,5,8,0:0:0:0:
176,204,226231,1,2,0:0:0:0:
240,104,226373,1,8,0:0:0:0:
340,172,226516,1,2,0:0:0:0:
172,332,226659,6,0,B|112:336|40:332,1,108.000002574921,12|2,0:0|0:0,0:0:0:0:
340,332,226945,2,0,B|400:336|464:332,1,108.000002574921,8|2,0:0|0:0,0:0:0:0:
192,240,227231,2,0,B|136:256|84:240,1,108.000002574921,8|2,0:0|0:0,0:0:0:0:
320,240,227516,2,0,B|376:256|428:240,1,108.000002574921,8|2,0:0|0:0,0:0:0:0:
168,152,227802,5,8,0:0:0:0:
168,152,227945,1,2,0:0:0:0:
344,152,228088,1,8,0:0:0:0:
344,152,228231,1,2,0:0:0:0:
144,64,228374,5,8,0:0:0:0:
372,64,228516,1,2,0:0:0:0:
256,36,228659,1,8,0:0:0:0:
256,252,228802,5,8,0:0:0:0:
256,252,228874,1,8,0:0:0:0:
256,252,228945,2,0,B|256:332|256:368,1,90,4|0,0:0|0:0,0:0:0:0:
96,316,229231,2,0,B|88:164,1,135,8|0,0:0|2:0,0:0:0:0:
88,156,229516,1,2,0:0:0:0:
88,156,229659,1,2,0:0:0:0:
256,176,229802,1,8,0:0:0:0:
424,156,229945,1,2,0:0:0:0:
352,228,230088,5,2,0:0:0:0:
328,128,230231,1,2,0:0:0:0:
484,224,230374,2,0,B|504:272|484:328,1,90,8|2,0:0|0:0,0:0:0:0:
392,352,230659,1,2,0:0:0:0:
392,352,230731,1,2,0:0:0:0:
392,352,230802,1,2,0:0:0:0:
272,268,230945,1,8,0:0:0:0:
176,360,231088,1,0,0:0:0:0:
88,324,231231,6,0,B|68:280|88:224,1,90,4|0,0:0|0:0,0:0:0:0:
152,84,231516,1,8,0:0:0:0:
184,176,231659,1,0,0:0:0:0:
264,104,231802,1,2,0:0:0:0:
372,152,231945,1,2,0:0:0:0:
360,32,232088,1,8,0:0:0:0:
280,204,232231,1,2,0:0:0:0:
404,264,232374,6,0,B|452:252|476:204,1,90,0|2,0:0|0:0,0:0:0:0:
296,296,232659,2,0,B|180:320,1,90,8|2,0:0|0:0,0:0:0:0:
88,272,232945,1,2,0:0:0:0:
80,228,233016,1,2,0:0:0:0:
72,184,233088,1,2,0:0:0:0:
64,140,233159,1,2,0:0:0:0:
56,96,233231,1,8,0:0:0:0:
156,96,233374,1,8,0:0:0:0:
256,56,233516,6,0,B|316:20|396:68|384:152,1,180,4|8,0:0|0:0,0:0:0:0:
256,328,234088,2,0,B|196:364|116:316|128:232,1,180,2|8,0:0|0:0,0:0:0:0:
256,192,234516,1,2,0:0:0:0:
312,268,234659,5,0,0:0:0:0:
304,120,234802,1,2,0:0:0:0:
176,200,234945,1,8,0:0:0:0:
312,268,235088,1,2,0:0:0:0:
208,96,235231,2,0,B|136:104|88:104,1,90,2|2,0:0|0:0,0:0:0:0:
348,192,235516,2,0,B|420:184|468:184,1,90,8|2,0:0|0:0,0:0:0:0:
220,296,235802,6,0,B|120:296|36:304,1,180,4|8,0:0|0:0,0:0:0:0:
40,303,236374,1,2,0:0:0:0:
176,200,236517,1,0,0:0:0:0:
28,160,236659,1,8,0:0:0:0:
136,52,236802,1,2,0:0:0:0:
288,252,236945,5,0,0:0:0:0:
236,120,237088,1,2,0:0:0:0:
268,292,237231,5,8,0:0:0:0:
312,168,237374,1,2,0:0:0:0:
176,200,237516,1,2,0:0:0:0:
304,64,237659,5,2,0:0:0:0:
352,292,237802,1,8,0:0:0:0:
408,192,237945,1,0,0:0:0:0:
120,288,238088,6,0,B|56:280|32:184|96:144,1,180,4|8,0:0|0:0,0:0:0:0:
208,280,238516,2,0,B|233:339|161:408|95:372,1,180,2|2,0:0|0:0,0:0:0:0:
164,204,238945,2,0,B|202:152|298:180|300:255,2,180,8|4|8,0:0|0:0|0:0,0:0:0:0:
280,332,239659,2,0,B|339:365|412:295|386:237,1,180,2|2,0:0|0:0,0:0:0:0:
271,109,240088,2,0,B|213:143|237:241|301:247,1,180,8|4,0:0|0:0,0:0:0:0:
360,164,240516,5,0,0:0:0:0:
360,164,240659,1,0,0:0:0:0:
136,100,240802,5,12,0:2:0:0:
136,100,240945,1,2,0:0:0:0:
136,100,241088,1,2,0:0:0:0:
360,44,241231,5,12,0:2:0:0:
360,44,241374,1,2,0:0:0:0:
360,44,241516,1,2,0:0:0:0:
176,184,241659,5,12,0:2:0:0:
348,284,241802,1,2,0:0:0:0:
168,344,241945,1,2,0:0:0:0:
256,264,242088,6,0,B|264:192,1,45,4|2,0:2|0:0,0:0:0:0:
268,140,242231,2,0,B|276:64,1,45,2|2,0:0|0:0,0:0:0:0:
180,64,242374,5,12,0:2:0:0:
180,64,242445,1,8,0:0:0:0:
180,64,242516,1,8,0:0:0:0:
180,64,242588,1,8,0:0:0:0:
180,64,242659,2,0,B|160:252,1,180,4|8,0:0|0:0,0:0:0:0:
88,156,243088,1,2,0:2:0:0:
244,184,243231,6,0,B|300:196|352:200,1,90,2|2,0:0|0:0,0:0:0:0:
456,128,243516,2,0,B|364:108|348:112,1,90,8|2,0:0|0:0,0:0:0:0:
220,296,243802,1,2,0:2:0:0:
348,352,243945,1,2,0:0:0:0:
333,198,244088,1,8,0:0:0:0:
368,112,244231,1,2,0:0:0:0:
448,256,244374,5,2,0:0:0:0:
431,264,244445,1,2,0:0:0:0:
414,270,244516,1,2,0:0:0:0:
396,275,244588,1,2,0:0:0:0:
378,278,244659,1,8,0:0:0:0:
360,280,244731,1,0,0:0:0:0:
342,281,244802,1,2,0:0:0:0:
323,280,244874,1,2,0:0:0:0:
305,277,244945,2,0,B|244:263|188:260,1,90,2|0,0:0|0:0,0:0:0:0:
152,196,245231,5,8,0:0:0:0:
216,348,245374,1,2,0:2:0:0:
132,300,245516,1,2,0:0:0:0:
248,184,245659,1,2,0:0:0:0:
132,300,245802,2,0,B|80:292|40:252,1,90,8|2,0:0|0:0,0:0:0:0:
44,96,246088,1,2,0:2:0:0:
152,196,246231,1,2,0:0:0:0:
196,32,246374,1,8,0:0:0:0:
152,196,246516,1,2,0:0:0:0:
272,96,246659,5,2,0:0:0:0:
288,92,246731,1,2,0:0:0:0:
304,88,246802,1,2,0:0:0:0:
320,84,246874,1,2,0:0:0:0:
336,80,246945,2,0,B|387:99,1,45,8|0,0:0|0:0,0:0:0:0:
408,200,247088,2,0,B|357:181,1,45,8|8,0:0|0:0,0:0:0:0:
304,264,247231,2,0,B|364:284|396:296,1,90,4|0,0:0|0:0,0:0:0:0:
268,164,247516,5,8,0:0:0:0:
216,324,247659,1,2,0:2:0:0:
152,196,247802,1,2,0:0:0:0:
304,264,247945,1,2,0:0:0:0:
176,92,248088,1,8,0:0:0:0:
208,264,248231,1,2,0:0:0:0:
48,296,248374,2,0,B|28:248|68:196,1,90,2|2,0:2|0:0,0:0:0:0:
268,164,248659,1,8,0:0:0:0:
152,196,248802,1,2,0:0:0:0:
216,324,248945,5,2,0:0:0:0:
232,328,249016,1,2,0:0:0:0:
248,332,249088,1,2,0:0:0:0:
264,336,249159,1,2,0:0:0:0:
280,340,249231,1,8,0:0:0:0:
296,344,249302,1,0,0:0:0:0:
312,348,249374,1,2,0:0:0:0:
328,352,249445,1,2,0:0:0:0:
344,356,249516,2,0,B|408:348|440:268|384:216,1,180,2|8,0:0|0:0,0:0:0:0:
304,244,249945,5,2,0:2:0:0:
292,84,250088,1,2,0:0:0:0:
408,176,250231,1,2,0:0:0:0:
396,32,250374,1,8,0:0:0:0:
300,168,250516,1,2,0:0:0:0:
100,108,250659,2,0,B|144:80|196:96,1,90,2|2,0:2|0:0,0:0:0:0:
186,290,250945,2,0,B|136:304|96:272,1,90,8|2,0:0|0:0,0:0:0:0:
28,192,251231,5,2,0:0:0:0:
44,192,251302,1,2,0:0:0:0:
64,192,251374,1,2,0:0:0:0:
80,192,251445,1,2,0:0:0:0:
96,192,251516,1,8,0:0:0:0:
116,192,251588,1,8,0:0:0:0:
132,192,251659,1,8,0:0:0:0:
152,192,251731,1,8,0:0:0:0:
168,192,251802,2,0,B|224:188|284:192,1,108.000002574921,12|0,0:0|0:0,0:0:0:0:
376,288,252088,2,0,B|320:292|260:288,1,108.000002574921,8|2,0:0|0:0,0:0:0:0:
228,96,252374,6,0,B|292:92|352:96,1,108.000002574921,8|2,0:0|0:0,0:0:0:0:
468,208,252659,2,0,B|404:212|344:208,1,108.000002574921,8|2,0:0|0:0,0:0:0:0:
112,84,252945,5,8,0:0:0:0:
48,292,253088,1,2,0:0:0:0:
184,160,253231,1,8,0:0:0:0:
144,284,253374,1,2,0:0:0:0:
48,176,253516,5,8,0:0:0:0:
252,248,253659,1,2,0:0:0:0:
272,160,253802,1,8,0:0:0:0:
232,368,253945,1,2,0:0:0:0:
232,368,254016,1,2,0:0:0:0:
232,368,254088,2,0,B|160:368|112:360,1,108.000002574921,8|2,0:0|0:0,0:0:0:0:
116,120,254374,2,0,B|156:168|124:228,1,108.000002574921,8|2,0:0|0:0,0:0:0:0:
48,292,254659,5,8,0:0:0:0:
228,244,254802,1,2,0:0:0:0:
144,336,254945,1,8,0:0:0:0:
116,120,255088,1,2,0:0:0:0:
32,184,255231,6,0,B|68:236|144:216,1,108.000002574921,8|2,0:0|0:0,0:0:0:0:
480,200,255516,2,0,B|444:148|368:168,1,108.000002574921,8|2,0:0|0:0,0:0:0:0:
144,336,255802,2,0,B|208:348|240:296,1,108.000002574921,8|2,0:0|0:0,0:0:0:0:
368,48,256088,2,0,B|304:36|272:88,1,108.000002574921,8|8,0:0|0:0,0:0:0:0:
268,104,256302,1,8,0:0:0:0:
264,124,256374,2,0,B|240:20,1,108.000002574921,4|2,0:0|0:0,0:0:0:0:
128,240,256659,6,0,B|104:136,1,108.000002574921,8|2,0:0|0:0,0:0:0:0:
312,280,256945,2,0,B|284:160,1,108.000002574921,8|2,0:0|0:0,0:0:0:0:
112,360,257231,2,0,B|84:244,1,108.000002574921,8|2,0:0|0:0,0:0:0:0:
212,284,257516,5,8,0:0:0:0:
364,168,257659,1,2,0:0:0:0:
212,284,257802,1,8,0:0:0:0:
388,340,257945,1,2,0:0:0:0:
320,104,258088,5,8,0:0:0:0:
340,260,258231,1,2,0:0:0:0:
212,188,258374,1,8,0:0:0:0:
204,184,258445,1,0,0:0:0:0:
196,180,258516,1,2,0:0:0:0:
188,176,258588,1,2,0:0:0:0:
180,172,258659,2,0,B|144:120|180:56,1,108.000002574921,4|2,0:0|0:0,0:0:0:0:
408,184,258945,6,0,B|340:172|292:220,1,108.000002574921,8|2,0:0|0:0,0:0:0:0:
140,320,259231,2,0,B|200:304|248:348,1,108.000002574921,8|2,0:0|0:0,0:0:0:0:
408,284,259516,2,0,B|448:244|516:256,1,108.000002574921,8|2,0:0|0:0,0:0:0:0:
420,64,259802,5,8,0:0:0:0:
388,72,259874,1,0,0:0:0:0:
356,80,259945,1,2,0:0:0:0:
324,88,260016,1,0,0:0:0:0:
292,96,260088,1,8,0:0:0:0:
260,104,260159,1,0,0:0:0:0:
228,112,260231,1,2,0:0:0:0:
196,120,260302,1,0,0:0:0:0:
164,128,260374,5,8,0:0:0:0:
200,148,260445,1,8,0:0:0:0:
236,168,260516,1,8,0:0:0:0:
276,188,260588,1,8,0:0:0:0:
312,208,260659,1,8,0:0:0:0:
352,228,260731,1,8,0:0:0:0:
392,248,260802,1,8,0:0:0:0:
432,268,260874,1,8,0:0:0:0:
