osu file format v14

[General]
AudioFilename: audio.mp3
AudioLeadIn: 0
PreviewTime: 59516
Countdown: 0
SampleSet: Soft
StackLeniency: 0.3
Mode: 0
LetterboxInBreaks: 0
WidescreenStoryboard: 0

[Editor]
DistanceSpacing: 1
BeatDivisor: 2
GridSize: 4
TimelineZoom: 1

[Metadata]
Title:Hades: The rise
TitleUnicode:Hades: The rise
Artist:Yousei Teikoku
ArtistUnicode:妖精帝國
Creator:Delis
Version:Easy
Source:
Tags:metanoia Mirash
BeatmapID:1413442
BeatmapSetID:662526

[Difficulty]
HPDrainRate:2
CircleSize:3
OverallDifficulty:2
ApproachRate:3
SliderMultiplier:0.7
SliderTickRate:1

[Events]
//Background and Video events
0,0,"BG.jpg",0,0
//Break Periods
2,28002,30934
2,87431,94934
2,151431,158934
2,192574,195505
//Storyboard Layer 0 (Background)
//Storyboard Layer 1 (Fail)
//Storyboard Layer 2 (Pass)
//Storyboard Layer 3 (Foreground)
//Storyboard Sound Samples

[TimingPoints]
374,285.714285714286,4,2,1,60,1,0
18659,-100,4,1,1,50,0,0
41516,-100,4,2,1,50,0,0
50802,-100,4,1,1,50,0,0
59516,-100,4,1,1,60,0,0
87231,-100,4,1,1,50,0,0
105516,-100,4,2,1,50,0,0
114802,-100,4,1,1,50,0,0
123516,-100,4,1,1,60,0,0
151231,-100,4,1,1,50,0,0
168374,-100,4,2,1,50,0,0
168945,-100,4,2,0,50,0,0
169016,-100,4,2,1,50,0,0
179802,-100,4,2,1,55,0,0
180945,-100,4,2,1,60,0,0
182088,-100,4,1,1,60,0,0
183231,-100,4,2,1,60,0,0
195802,-100,4,1,1,50,0,0
196945,-100,4,1,1,60,0,0
201231,-100,4,1,1,40,0,0
201516,-100,4,1,1,60,0,0
224374,-100,4,1,1,70,0,0
233516,-100,4,1,1,65,0,0

[Colours]
Combo1 : 54,95,91
Combo2 : 107,46,67
Combo3 : 16,82,141
Combo4 : 134,0,134

[HitObjects]
44,168,9516,6,0,B|52:64|196:24|264:112,1,280,4|2,0:0|0:2,0:0:0:0:
304,236,11231,1,0,3:0:0:0:
420,316,11802,2,0,B|444:160,1,140,2|0,3:2|3:0,0:0:0:0:
326,97,12945,2,0,B|302:253,1,140,2|0,0:2|3:0,0:0:0:0:
192,316,14088,6,0,B|116:344|48:296|24:200|92:148,1,280,4|2,0:0|0:2,0:0:0:0:
220,92,15802,1,0,3:0:0:0:
348,148,16374,2,0,B|392:216|352:308,1,140,2|0,3:2|3:0,0:0:0:0:
228,236,17516,2,0,B|72:256,1,140,2|0,0:2|3:0,0:0:0:0:
52,120,18659,6,0,B|156:108|156:108|216:136|216:136|328:124,1,280,4|2,0:0|0:0,0:0:0:0:
464,108,20374,1,2,0:0:0:0:
496,244,20945,2,0,B|480:360|328:384|296:276,1,280,2|2,0:0|0:0,0:0:0:0:
304,140,22659,1,2,0:0:0:0:
192,48,23231,6,0,B|136:112|176:200,1,140,4|2,0:0|0:0,0:0:0:0:
216,312,24374,2,0,B|136:348|68:288,1,140,2|2,0:0|0:0,0:0:0:0:
24,172,25516,2,0,B|56:12,2,140,2|2|2,0:0|0:0|0:0,0:0:0:0:
152,232,27231,1,2,0:0:0:0:
256,136,27802,1,4,0:0:0:0:
376,44,32374,6,0,B|408:108|408:108|376:172|400:240|400:240|368:220|320:240,1,280,4|2,0:0|0:0,0:0:0:0:
236,340,34088,1,2,0:0:0:0:
100,308,34659,2,0,B|32:264|56:144|124:128|124:128|196:152,1,280,2|2,0:0|0:0,0:0:0:0:
316,184,36374,1,2,0:0:0:0:
444,128,36945,6,0,B|436:20|296:-12|232:80,1,280,4|2,0:0|0:0,0:0:0:0:
176,200,38659,1,2,0:0:0:0:
52,268,39231,2,0,B|12:200|60:128,2,140,2|2|2,0:0|0:0|0:0,0:0:0:0:
168,348,40945,1,2,0:0:0:0:
292,280,41516,6,0,B|460:296,2,140,4|8|0,3:2|0:0|3:0,0:0:0:0:
192,180,43231,2,0,B|136:236|32:196,1,140,8|4,0:0|3:2,0:0:0:0:
104,72,44374,1,8,0:0:0:0:
240,36,44945,2,0,B|352:12|408:160|296:232,1,280,0|4,3:0|3:2,0:0:0:0:
192,292,46659,1,8,0:0:0:0:
148,160,47231,6,0,B|100:96|8:116,2,140,0|8|4,3:0|0:0|3:2,0:0:0:0:
280,112,48945,1,8,0:2:0:0:
420,132,49516,2,0,B|464:204|424:284,1,140,0|8,3:0|0:0,0:0:0:0:
296,308,50659,1,4,0:2:0:0:
152,136,52945,5,0,0:0:0:0:
316,168,55231,5,0,0:0:0:0:
92,336,56374,2,0,B|40:276|84:192,1,140,2|2,0:0|0:0,0:0:0:0:
164,96,57516,2,0,B|308:120,1,140,4|2,0:2|0:0,0:0:0:0:
388,232,58659,2,0,B|332:292|256:268,1,140,2|8,0:0|0:0,0:0:0:0:
124,236,59802,6,0,B|48:160|116:24|244:64,1,280,4|0,0:0|0:0,0:0:0:0:
300,180,61516,1,2,0:0:0:0:
420,108,62088,2,0,B|456:184|412:268,1,140,4|2,0:0|0:0,0:0:0:0:
296,304,63231,2,0,B|140:312,1,140,2|2,0:0|0:0,0:0:0:0:
88,188,64374,6,0,B|148:228|224:200|236:120|236:120|268:172|328:160,1,280,4|2,0:0|0:0,0:0:0:0:
432,100,66088,1,2,0:0:0:0:
508,220,66659,2,0,B|436:204|364:232,1,140,4|2,0:2|0:0,0:0:0:0:
256,312,67802,2,0,B|184:336|116:320,1,140,0|2,0:0|0:0,0:0:0:0:
32,212,68945,6,0,B|40:104|176:60|248:156,1,280,4|0,0:0|0:0,0:0:0:0:
312,268,70659,1,2,0:0:0:0:
192,344,71231,2,0,B|156:280|192:204,1,140,4|2,0:0|0:0,0:0:0:0:
260,88,72374,2,0,B|184:56|116:96,2,140,0|2|4,0:0|0:0|0:0,0:0:0:0:
368,176,74088,5,2,0:0:0:0:
288,292,74659,2,0,B|224:332|128:284,1,140,2|2,0:0|0:0,0:0:0:0:
36,216,75802,2,0,B|-4:140|60:72,1,140,4|2,0:0|0:0,0:0:0:0:
176,40,76945,1,2,0:0:0:0:
280,132,77516,1,2,0:0:0:0:
232,264,78088,6,0,B|128:304|32:200|108:100,1,280,4|0,0:0|0:0,0:0:0:0:
224,36,79802,1,2,0:0:0:0:
368,36,80374,2,0,B|416:136|304:236|204:160,1,280,4|0,0:0|0:0,0:0:0:0:
136,44,82088,1,2,0:0:0:0:
56,160,82659,6,0,B|84:316,1,140,4|0,0:0|0:0,0:0:0:0:
220,320,83802,2,0,B|192:164,1,140,4|0,0:0|0:0,0:0:0:0:
256,192,84945,12,4,87231,0:0:0:0:
148,328,96374,6,0,B|96:268|140:184,1,140,4|2,0:0|0:0,0:0:0:0:
272,180,97516,2,0,B|324:240|280:324,1,140,2|2,0:0|0:0,0:0:0:0:
148,328,98659,1,2,0:0:0:0:
76,208,99231,1,0,0:0:0:0:
116,76,99802,2,0,B|280:44,1,140,2|2,0:0|0:0,0:0:0:0:
392,36,100945,6,0,B|448:116|392:192|392:192|444:224|444:292,1,280,2|2,0:0|0:0,0:0:0:0:
324,356,102659,1,2,0:0:0:0:
232,248,103231,2,0,B|164:212|92:232,1,140,2|2,0:0|0:0,0:0:0:0:
24,348,104374,2,0,B|0:208,1,140,2|2,0:0|0:0,0:0:0:0:
64,84,105516,5,4,1:2:0:0:
200,108,106088,1,8,0:0:0:0:
336,132,106659,2,0,B|424:152|472:76,2,140,0|8|4,3:0|0:0|3:2,0:0:0:0:
236,36,108374,1,8,0:0:0:0:
104,80,108945,2,0,B|56:144|100:216,1,140,0|8,3:0|0:0,0:0:0:0:
164,332,110088,6,0,B|464:312,1,280,4|0,3:2|3:0,0:0:0:0:
432,172,111802,1,8,0:0:0:0:
304,232,112374,2,0,B|256:164|300:92,1,140,4|8,3:2|0:0,0:0:0:0:
160,88,113516,2,0,B|244:152|184:288|68:276,1,280,0|4,3:0|0:0,0:0:0:0:
312,140,116945,5,0,0:0:0:0:
264,316,119231,5,0,0:0:0:0:
284,36,120374,2,0,B|204:24|120:40,1,140,2|2,0:0|0:0,0:0:0:0:
56,144,121516,2,0,B|4:244|112:336|212:276,1,280,4|2,0:2|0:0,0:0:0:0:
320,192,123231,1,8,0:0:0:0:
384,316,123802,6,0,B|492:296|520:148|396:92,1,280,4|0,0:0|0:0,0:0:0:0:
276,108,125516,1,2,0:0:0:0:
148,48,126088,2,0,B|0:64,1,140,4|2,0:0|0:0,0:0:0:0:
4,204,127231,2,0,B|148:220,1,140,2|2,0:0|0:0,0:0:0:0:
272,280,128374,6,0,B|336:272|372:196|336:132|336:132|376:160|436:148,1,280,4|2,0:0|0:0,0:0:0:0:
500,36,130088,1,2,0:0:0:0:
360,44,130659,2,0,B|240:52|240:52|240:120|184:164|116:144,2,280,4|2|4,0:0|0:0|0:0,0:0:0:0:
476,124,133516,1,0,0:0:0:0:
396,240,134088,6,0,B|332:284|256:244,1,140,0|2,0:0|0:0,0:0:0:0:
144,172,135231,2,0,B|160:12,1,140,4|2,0:0|0:0,0:0:0:0:
260,128,136374,2,0,B|336:160|396:108,1,140,0|2,0:0|0:0,0:0:0:0:
276,32,137516,6,0,B|164:20|108:164|212:224,1,280,4|2,0:0|0:0,0:0:0:0:
340,180,139231,1,2,0:0:0:0:
404,304,139802,2,0,B|260:292,1,140,4|2,0:0|0:0,0:0:0:0:
144,364,140945,2,0,B|92:304|136:228,1,140,0|2,0:0|0:0,0:0:0:0:
244,152,142088,6,0,B|404:96|372:232|540:152,1,280,4|0,0:0|0:0,0:0:0:0:
452,36,143802,1,2,0:0:0:0:
312,44,144374,2,0,B|200:48|200:48|148:96|148:96|40:100,1,280,4|2,0:0|0:0,0:0:0:0:
12,232,146088,1,2,0:0:0:0:
112,332,146659,6,0,B|200:356|248:292,1,140,4|0,0:0|0:0,0:0:0:0:
352,216,147802,2,0,B|272:232|216:172,1,140,4|0,0:0|0:0,0:0:0:0:
256,192,148945,12,4,151231,0:0:0:0:
48,312,160374,6,0,B|204:256|156:376|320:312,1,280,4|2,0:0|0:0,0:0:0:0:
464,72,162659,2,0,B|308:128|356:8|192:72,1,280,2|2,0:0|0:0,0:0:0:0:
256,344,164945,5,4,0:2:0:0:
492,192,166088,1,2,0:0:0:0:
256,44,167231,1,2,0:0:0:0:
20,192,168374,1,0,3:0:0:0:
292,264,169516,6,0,B|372:284|420:216,1,140,4|4,3:2|0:3,0:0:0:0:
308,132,170659,2,0,B|152:104,1,140,0|4,3:2|0:3,0:0:0:0:
64,200,171802,2,0,B|112:272|208:240,1,140,2|4,3:2|0:3,0:0:0:0:
308,176,172945,2,0,B|352:24,1,140,0|4,3:0|0:3,0:0:0:0:
208,72,174088,5,4,3:2:0:0:
76,124,174659,1,4,0:3:0:0:
192,204,175231,2,0,B|244:268|200:348,1,140,0|4,3:0|0:3,0:0:0:0:
328,264,176374,2,0,B|320:116,1,140,0|4,3:0|0:3,0:0:0:0:
208,40,177516,1,0,3:0:0:0:
84,104,178088,1,4,0:3:0:0:
144,228,178659,6,0,B|236:228|236:228|336:264|336:264|424:264,2,280
80,104,181516,1,0,0:0:0:0:
208,48,182088,2,0,B|264:104|352:72,1,140
476,48,183231,6,0,B|548:152|472:272|356:236,1,280,4|0,0:0|0:0,0:0:0:0:
244,208,184945,1,0,0:0:0:0:
160,320,185516,2,0,B|56:308|36:148|152:104,1,280,0|2,3:0|3:2,0:0:0:0:
264,168,187231,1,2,3:2:0:0:
384,96,187802,6,0,B|428:168|388:240,2,140,4|0|0,3:2|3:0|3:0,0:0:0:0:
252,44,189516,1,2,3:2:0:0:
152,144,190088,2,0,B|80:196|112:284|180:288|180:288|216:252|280:264,1,280,0|0,3:0|0:0,0:0:0:0:
384,320,191802,1,2,3:2:0:0:
480,216,192374,1,4,0:0:0:0:
104,64,196945,6,0,B|120:220,1,140,4|4,0:0|2:3,0:0:0:0:
132,344,198088,1,0,0:0:0:0:
272,368,198659,1,0,0:0:0:0:
392,296,199231,2,0,B|448:240|408:156,1,140,4|4,0:2|2:3,0:0:0:0:
308,72,200374,1,0,0:0:0:0:
172,108,200945,1,0,0:0:0:0:
96,224,201516,6,0,B|132:292|236:280|264:200|264:200|344:244,1,280,4|2,0:0|0:0,0:0:0:0:
448,296,203231,1,2,0:0:0:0:
500,164,203802,2,0,B|472:20,1,140,4|2,0:0|0:0,0:0:0:0:
352,96,204945,2,0,B|296:44|212:60,1,140,2|2,0:0|0:0,0:0:0:0:
108,140,206088,6,0,B|24:160|4:252|64:300|64:300|144:288,1,280,4|0,0:0|0:0,0:0:0:0:
272,264,207802,1,2,0:0:0:0:
392,336,208374,2,0,B|424:40,1,280,4|0,0:0|0:0,0:0:0:0:
284,44,210088,1,2,0:0:0:0:
264,184,210659,6,0,B|208:244|104:200,1,140,4|2,0:0|0:0,0:0:0:0:
44,104,211802,2,0,B|104:40|204:88,1,140,2|2,0:0|0:0,0:0:0:0:
308,116,212945,2,0,B|368:156|424:128|424:128|432:88,2,140,4|2|2,0:0|0:0|0:0,0:0:0:0:
204,208,214659,1,2,0:0:0:0:
260,336,215231,6,0,B|376:328|412:184|292:120,1,280,4|0,0:0|0:2,0:0:0:0:
184,80,216945,1,2,0:0:0:0:
68,160,217516,2,0,B|88:304,1,140,4|2,0:0|0:0,0:0:0:0:
204,224,218659,2,0,B|264:176|348:208,1,140,2|2,0:0|0:0,0:0:0:0:
460,268,219802,6,0,B|416:172|416:172|488:96|436:-4,1,280,4|0,0:0|0:2,0:0:0:0:
316,68,221516,1,2,0:0:0:0:
328,208,222088,2,0,B|264:260|168:216,1,140,4|2,0:0|0:0,0:0:0:0:
68,172,223231,2,0,B|20:108|68:20,1,140,2|2,0:0|0:0,0:0:0:0:
180,108,224374,5,4,0:0:0:0:
312,60,224945,1,8,0:0:0:0:
396,172,225516,1,8,0:0:0:0:
320,292,226088,1,8,0:0:0:0:
184,256,226659,2,0,B|128:200|44:224,1,140,12|8,0:0|0:0,0:0:0:0:
156,124,227802,2,0,B|212:180|296:156,1,140,8|8,0:0|0:0,0:0:0:0:
380,56,228945,6,0,B|488:84|500:248|380:280,1,280,4|2,0:0|0:0,0:0:0:0:
268,304,230659,1,2,0:0:0:0:
188,188,231231,2,0,B|140:116|40:144,1,140,4|2,0:0|0:0,0:0:0:0:
188,72,232374,2,0,B|344:44,1,140,0|2,0:0|0:0,0:0:0:0:
452,104,233516,6,0,B|424:260|424:260|352:236|292:284,1,280,4|0,0:0|0:0,0:0:0:0:
196,356,235231,1,2,0:0:0:0:
72,296,235802,2,0,B|44:144,1,140,4|2,0:0|0:0,0:0:0:0:
160,76,236945,2,0,B|188:228,1,140,0|2,0:0|0:0,0:0:0:0:
304,288,238088,6,0,B|416:272|440:124|340:72,2,280,4|4|4,0:0|0:0|0:0,0:0:0:0:
256,192,240659,12,0,242659,0:0:0:0:
128,304,243802,6,0,B|84:236|140:148,1,140,2|2,0:2|0:0,0:0:0:0:
220,68,244945,2,0,B|404:32,1,140,2|2,0:0|0:0,0:0:0:0:
480,112,246088,1,2,0:2:0:0:
360,188,246659,1,2,0:0:0:0:
436,304,247231,6,0,B|368:368|288:320|288:320|232:340|232:340|216:303|188:272,1,280,4|2,0:0|0:2,0:0:0:0:
132,168,248945,1,2,0:0:0:0:
204,48,249516,2,0,B|368:68,1,140,2|2,0:0|0:0,0:0:0:0:
432,172,250659,2,0,B|368:220|296:188,1,140,2|2,0:2|0:0,0:0:0:0:
176,128,251802,5,12,0:0:0:0:
116,256,252374,1,8,0:0:0:0:
244,308,252945,1,8,0:0:0:0:
304,180,253516,1,8,0:0:0:0:
404,280,254088,6,0,B|436:216|436:216|408:136,1,140,8|8,0:0|0:0,0:0:0:0:
328,44,255231,2,0,B|248:12|184:64,1,140,8|8,0:0|0:0,0:0:0:0:
108,168,256374,5,4,0:0:0:0:
128,308,256945,1,8,0:0:0:0:
232,212,257516,1,8,0:0:0:0:
252,356,258088,1,8,0:0:0:0:
384,332,258659,6,0,B|364:168,1,140,4|8,0:0|0:0,0:0:0:0:
504,228,259802,2,0,B|484:64,1,140,8|8,0:0|0:0,0:0:0:0:
356,40,260945,1,0,0:0:0:0:
