osu file format v14

[General]
AudioFilename: audio.mp3
AudioLeadIn: 0
PreviewTime: 59516
Countdown: 0
SampleSet: Soft
StackLeniency: 0.3
Mode: 0
LetterboxInBreaks: 0
WidescreenStoryboard: 0

[Editor]
DistanceSpacing: 1
BeatDivisor: 2
GridSize: 4
TimelineZoom: 1

[Metadata]
Title:Hades: The rise
TitleUnicode:Hades: The rise
Artist:Yousei Teikoku
ArtistUnicode:妖精帝國
Creator:Delis
Version:Intermediate
Source:
Tags:metanoia Mirash
BeatmapID:1414691
BeatmapSetID:662526

[Difficulty]
HPDrainRate:5
CircleSize:4
OverallDifficulty:5
ApproachRate:6
SliderMultiplier:1.05
SliderTickRate:1

[Events]
//Background and Video events
0,0,"BG.jpg",0,0
//Break Periods
2,28002,31324
2,50859,51895
2,53145,54181
2,87431,95324
2,114859,115895
2,151430,159324
//Storyboard Layer 0 (Background)
//Storyboard Layer 1 (Fail)
//Storyboard Layer 2 (Pass)
//Storyboard Layer 3 (Foreground)
//Storyboard Sound Samples

[TimingPoints]
374,285.714285714286,4,2,1,60,1,0
18659,-100,4,1,1,50,0,0
41516,-125,4,2,1,50,0,0
50802,-125,4,1,1,50,0,0
57516,-100,4,1,1,50,0,0
59516,-100,4,1,1,60,0,0
87231,-100,4,1,1,50,0,0
105516,-125,4,2,1,50,0,0
114802,-125,4,1,1,50,0,0
121516,-100,4,1,1,50,0,0
123516,-100,4,1,1,60,0,0
151231,-100,4,1,1,50,0,0
160374,-125,4,1,1,50,0,0
168374,-125,4,2,1,50,0,0
168945,-125,4,2,0,50,0,0
169016,-125,4,2,1,50,0,0
179802,-125,4,2,1,55,0,0
180945,-125,4,2,1,60,0,0
182088,-125,4,1,1,60,0,0
183231,-125,4,2,1,60,0,0
183802,-100,4,2,1,60,0,0
195802,-100,4,1,1,50,0,0
196945,-125,4,1,1,60,0,0
201231,-125,4,1,1,40,0,0
201516,-100,4,1,1,60,0,0
224374,-100,4,1,1,70,0,0
233516,-100,4,1,1,65,0,0

[Colours]
Combo1 : 54,95,91
Combo2 : 107,46,67
Combo3 : 16,82,141
Combo4 : 134,0,134

[HitObjects]
120,124,7231,5,4,0:2:0:0:
328,152,7802,1,4,0:2:0:0:
120,124,8374,2,0,B|96:184|124:252,1,105,4|8,0:2|0:0,0:0:0:0:
192,300,8945,2,0,B|328:320,1,105,0|0,3:0|3:0,0:0:0:0:
400,292,9516,6,0,B|432:228|384:164,1,105,4|0,0:0|1:0,0:0:0:0:
384,168,9945,2,0,B|404:28,1,105,2|0,0:0|3:0,0:0:0:0:
420,48,10374,1,0,1:0:0:0:
320,80,10659,2,0,B|260:96|196:76,1,105,2|0,0:2|1:0,0:0:0:0:
196,64,11088,1,2,3:2:0:0:
176,44,11231,2,0,B|132:100|156:180,1,105,0|0,3:0|1:2,0:0:0:0:
244,188,11802,6,0,B|216:320,1,105,2|0,3:2|1:0,0:0:0:0:
144,364,12374,2,0,B|92:316|20:336,1,105,0|0,3:0|1:0,0:0:0:0:
24,344,12802,1,0,3:0:0:0:
24,344,12945,1,2,0:2:0:0:
64,248,13231,1,0,1:0:0:0:
44,144,13516,2,0,B|172:112,1,105,0|0,3:0|1:0,0:0:0:0:
248,92,14088,6,0,B|312:92|340:152,1,105,4|0,0:0|1:0,0:0:0:0:
332,168,14516,2,0,B|304:220|340:276,1,105,2|0,0:2|3:0,0:0:0:0:
352,288,14945,1,0,1:0:0:0:
248,284,15231,2,0,B|128:256,1,105,2|0,0:2|1:0,0:0:0:0:
120,252,15659,1,2,3:2:0:0:
120,252,15802,2,0,B|136:184|100:120,1,105,0|0,3:0|1:0,0:0:0:0:
96,44,16374,6,0,B|140:84|196:76,1,105,2|0,3:2|1:0,0:0:0:0:
216,64,16802,2,0,B|276:52|328:88,1,105,2|0,0:2|3:0,0:0:0:0:
336,96,17231,1,0,1:0:0:0:
316,200,17516,2,0,B|236:184|236:184|172:236,1,157.5,2|2,0:2|3:2,0:0:0:0:
160,252,18088,2,0,B|136:128,1,105,0|8,3:0|0:0,0:0:0:0:
76,64,18659,6,0,B|168:8|296:52,1,210,4|2,0:0|0:0,0:0:0:0:
372,96,19516,2,0,B|428:40,2,52.5,8|0|2,0:0|0:0|0:0,0:0:0:0:
344,196,20088,1,8,0:0:0:0:
240,176,20374,1,2,0:0:0:0:
236,284,20659,5,8,0:0:0:0:
236,284,20802,1,2,0:0:0:0:
236,284,20945,2,0,B|176:256|112:272,1,105,2|8,0:0|0:0,0:0:0:0:
104,168,21516,2,0,B|164:196|228:180,1,105,2|8,0:0|0:0,0:0:0:0:
292,120,22088,2,0,B|420:108,1,105,2|8,0:0|0:0,0:0:0:0:
424,108,22516,1,0,0:0:0:0:
424,108,22659,2,0,B|432:160|428:188,1,52.5,2|2,0:0|0:0,0:0:0:0:
424,188,22945,2,0,B|420:224|432:264,1,52.5,8|8,0:0|0:0,0:0:0:0:
428,268,23231,6,0,B|380:228|312:248,1,105,4|8,0:0|0:0,0:0:0:0:
248,312,23802,2,0,B|128:292,1,105,2|8,0:0|0:0,0:0:0:0:
120,304,24231,1,0,0:0:0:0:
120,304,24374,2,0,B|144:244|108:184,1,105,2|8,0:0|0:0,0:0:0:0:
52,120,24945,1,2,0:0:0:0:
120,40,25231,6,0,B|160:108,1,52.5,8|2,0:0|0:0,0:0:0:0:
164,108,25516,2,0,B|232:128|276:80,1,105,2|8,0:0|0:0,0:0:0:0:
356,40,26088,2,0,B|328:104|376:156,1,105,2|8,0:0|0:0,0:0:0:0:
432,220,26659,2,0,B|368:204|312:248,1,105,2|8,0:0|0:0,0:0:0:0:
312,256,27088,1,2,0:0:0:0:
312,256,27231,2,0,B|260:216|188:236,1,105,2|8,0:0|0:0,0:0:0:0:
112,264,27802,1,4,0:0:0:0:
256,192,32374,6,0,B|240:48,2,105,4|8|2,0:0|0:0|0:0,0:0:0:0:
212,288,33231,2,0,B|176:264|148:256,1,52.5,8|0,0:0|0:0,0:0:0:0:
140,268,33516,2,0,B|100:216|136:140,1,105,2|8,0:0|0:0,0:0:0:0:
188,84,34088,1,2,0:0:0:0:
292,88,34374,5,8,0:0:0:0:
292,88,34516,1,2,0:0:0:0:
292,88,34659,2,0,B|360:108|352:76|424:96,2,105,2|8|2,0:0|0:0|0:0,0:0:0:0:
220,164,35516,1,8,0:0:0:0:
316,208,35802,2,0,B|352:264|324:332,1,105,2|8,0:0|0:0,0:0:0:0:
228,300,36374,2,0,B|194:297|156:304,1,52.5,2|2,0:0|0:0,0:0:0:0:
148,304,36659,2,0,B|98:310|64:304,1,52.5,8|2,0:0|0:0,0:0:0:0:
68,312,36945,6,0,B|36:256|68:184,1,105,4|8,0:0|0:0,0:0:0:0:
96,112,37516,2,0,B|148:84|216:96,1,105,2|8,0:0|0:0,0:0:0:0:
224,96,37945,1,0,0:0:0:0:
248,104,38088,2,0,B|316:124|372:88,1,105,2|8,0:0|0:0,0:0:0:0:
444,48,38659,1,2,0:0:0:0:
492,144,38945,6,0,B|504:216,2,52.5,8|0|2,0:0|0:0|0:0,0:0:0:0:
392,112,39516,1,8,0:0:0:0:
340,204,39802,1,2,0:0:0:0:
268,128,40088,1,8,0:0:0:0:
180,184,40374,2,0,B|148:124|188:52,1,105,2|8,0:0|0:0,0:0:0:0:
188,60,40802,1,8,0:0:0:0:
188,60,40945,2,0,B|321:76,1,105,2|8,0:0|0:0,0:0:0:0:
384,32,41516,6,0,B|404:76|388:128,1,84,4|0,3:2|3:0,0:0:0:0:
320,160,42088,2,0,B|340:332,2,168,8|0|8,0:0|3:0|0:0,0:0:0:0:
248,204,43516,1,0,3:0:0:0:
192,140,43802,6,0,B|172:88|208:40,1,84,4|0,3:2|3:0,0:0:0:0:
276,28,44374,1,8,0:0:0:0:
352,60,44659,1,0,3:0:0:0:
372,140,44945,2,0,B|352:340,1,168,0|8,3:0|0:0,0:0:0:0:
284,264,45802,1,8,0:0:0:0:
208,296,46088,6,0,B|152:312|108:268,1,84,4|0,3:2|3:0,0:0:0:0:
112,204,46659,2,0,B|100:100,1,84,8|0,0:0|3:0,0:0:0:0:
112,100,47088,1,0,3:0:0:0:
124,84,47231,2,0,B|180:68|220:104,1,84,0|0,3:0|3:0,0:0:0:0:
280,128,47802,2,0,B|340:144|384:100,1,84,8|0,0:0|3:0,0:0:0:0:
428,68,48374,5,4,3:2:0:0:
476,136,48659,1,0,3:0:0:0:
432,208,48945,2,0,B|448:312,1,84,8|0,0:2|3:0,0:0:0:0:
376,340,49516,2,0,B|312:344|288:292|288:292|204:328,1,168,0|8,3:0|0:0,0:0:0:0:
156,280,50374,5,8,0:0:0:0:
156,280,50516,1,8,0:0:0:0:
156,280,50659,1,4,0:2:0:0:
320,72,52945,5,0,0:0:0:0:
360,324,55231,5,0,0:0:0:0:
256,192,56374,6,0,B|304:184|368:188,1,84,2|0,0:0|0:0,0:0:0:0:
296,116,56945,2,0,B|248:124|184:120,1,84,2|0,0:0|0:0,0:0:0:0:
128,92,57516,5,4,0:2:0:0:
40,152,57802,1,2,0:0:0:0:
140,188,58088,1,2,0:0:0:0:
56,248,58374,1,2,0:0:0:0:
156,280,58659,2,0,B|376:264,1,210,2|8,0:0|0:0,0:0:0:0:
372,160,59516,1,8,0:0:0:0:
468,200,59802,6,0,B|484:148|456:96,1,105,4|0,0:0|0:0,0:0:0:0:
457,98,60231,2,0,B|336:80,1,105,0|2,0:0|0:2,0:0:0:0:
252,120,60802,1,2,0:0:0:0:
196,32,61088,2,0,B|124:24,1,52.5,2|8,0:0|0:0,0:0:0:0:
116,24,61374,2,0,B|132:76|124:128,1,105,2|2,0:0|0:0,0:0:0:0:
112,152,61802,1,8,0:0:0:0:
76,252,62088,6,0,B|120:284|176:272,1,105,4|8,0:0|0:0,0:0:0:0:
184,264,62516,2,0,B|230:171,2,105,0|0|2,0:0|0:0|0:0,0:0:0:0:
132,356,63374,1,2,0:0:0:0:
232,348,63659,2,0,B|284:360|348:356,1,105,2|2,0:0|0:0,0:0:0:0:
356,340,64088,2,0,B|412:344,1,52.5,8|8,0:0|0:0,0:0:0:0:
432,336,64374,6,0,B|428:264|440:204,1,105,4|8,0:0|0:0,0:0:0:0:
480,136,64945,1,2,0:0:0:0:
408,60,65231,1,8,0:0:0:0:
408,60,65374,2,0,B|280:68,1,105,2|2,0:0|0:0,0:0:0:0:
276,72,65802,1,8,0:0:0:0:
184,120,66088,2,0,B|140:88|84:104,1,105,2|8,0:0|0:0,0:0:0:0:
40,200,66659,6,0,B|36:328|212:352|252:220,1,315,4|8,0:2|0:0,0:0:0:0:
264,120,67802,2,0,B|280:-8|468:-20|500:112,1,315,0|8,0:0|0:0,0:0:0:0:
404,148,68945,6,0,B|424:276,1,105,4|8,0:0|0:0,0:0:0:0:
428,260,69374,2,0,B|370:250|318:286,1,105
244,344,69945,2,0,B|176:332|136:324,1,105,2|2,0:0|0:0,0:0:0:0:
100,228,70516,2,0,B|84:160,1,52.5,2|2,0:0|0:0,0:0:0:0:
84,152,70802,2,0,B|140:168|184:136,1,105,2|2,0:0|0:0,0:0:0:0:
204,116,71231,6,0,B|340:100,1,105,4|8,0:0|0:0,0:0:0:0:
320,112,71659,1,0,0:0:0:0:
408,60,71945,1,0,0:0:0:0:
480,132,72231,2,0,B|496:188|480:268,1,105,2|2,0:0|0:0,0:0:0:0:
404,304,72802,2,0,B|364:264|300:272,1,105,2|2,0:0|0:0,0:0:0:0:
288,284,73231,2,0,B|220:292,1,52.5,8|8,0:0|0:0,0:0:0:0:
208,280,73516,6,0,B|156:288|104:288,1,105,4|8,0:0|0:0,0:0:0:0:
68,188,74088,2,0,B|16:204,2,52.5,2|2|8,0:0|0:0|0:0,0:0:0:0:
88,172,74516,2,0,B|108:64,1,105,2|2,0:0|0:0,0:0:0:0:
112,48,74945,1,8,0:0:0:0:
192,120,75231,2,0,B|252:132|292:96,1,105,2|8,0:0|0:0,0:0:0:0:
380,40,75802,6,0,B|416:84|388:148,1,105,4|8,0:0|0:0,0:0:0:0:
388,168,76231,1,0,0:0:0:0:
388,168,76374,2,0,B|362:270,1,105,2|8,0:0|0:0,0:0:0:0:
328,368,76945,2,0,B|328:292|220:248|164:304,1,210,2|2,0:0|0:0,0:0:0:0:
80,352,77802,5,8,0:0:0:0:
80,352,77945,1,8,0:0:0:0:
80,352,78088,2,0,B|-40:292|24:156|24:156|112:132,1,315,4|8,0:0|0:0,0:0:0:0:
200,92,79231,2,0,B|240:124|304:108,1,105,0|8,0:0|0:0,0:0:0:0:
324,96,79659,2,0,B|392:32|488:76,1,157.5,2|8,0:0|0:0,0:0:0:0:
488,172,80374,6,0,B|368:144|408:232|280:208,1,210,4|2,0:0|0:0,0:0:0:0:
232,120,81231,1,8,0:0:0:0:
136,164,81516,2,0,B|28:148,1,105,0|8,0:0|0:0,0:0:0:0:
24,140,81945,2,0,B|84:200|52:292,1,157.5,2|8,0:0|0:0,0:0:0:0:
156,248,82659,6,0,B|212:192|304:216,2,157.5,4|2|8,0:0|0:0|0:0,0:0:0:0:
136,156,83802,2,0,B|132:64|216:24,2,157.5,4|2|8,0:0|0:0|0:0,0:0:0:0:
36,120,84945,6,0,B|52:248,1,105,4|2,0:0|0:2,0:0:0:0:
40,248,85374,1,12,0:2:0:0:
116,320,85659,1,2,0:0:0:0:
116,320,85802,2,0,B|228:340,1,105,12|2,0:2|0:2,0:0:0:0:
240,320,86231,2,0,B|300:332|348:296,1,105,12|2,0:2|0:0,0:0:0:0:
356,280,86659,1,12,0:2:0:0:
396,184,86945,1,4,0:2:0:0:
296,148,87231,1,4,0:0:0:0:
376,304,96374,6,0,B|320:304|240:300,2,105,4|8|2,0:0|0:0|0:0,0:0:0:0:
460,240,97231,1,8,0:0:0:0:
460,240,97374,2,0,B|484:192|456:132,1,105,0|2,0:0|0:0,0:0:0:0:
436,120,97802,2,0,B|313:109,1,105,8|2,0:0|0:0,0:0:0:0:
240,164,98374,6,0,B|196:152|180:128,1,52.5,8|2,0:0|0:0,0:0:0:0:
172,124,98659,2,0,B|104:112|60:160,1,105,2|8,0:0|0:0,0:0:0:0:
96,252,99231,2,0,B|164:264|208:216,1,105,0|8,0:0|0:0,0:0:0:0:
280,164,99802,2,0,B|384:188,1,105,2|8,0:0|0:0,0:0:0:0:
404,196,100231,2,0,B|380:256|412:312,1,105,0|2,0:0|0:0,0:0:0:0:
420,320,100659,2,0,B|388:316|356:308,1,52.5,8|2,0:0|0:0,0:0:0:0:
340,304,100945,5,2,0:0:0:0:
240,336,101231,1,8,0:0:0:0:
144,292,101516,2,0,B|128:244|140:184,1,105,2|8,0:0|0:0,0:0:0:0:
152,164,101945,1,2,0:0:0:0:
168,140,102088,2,0,B|160:20,1,105,2|8,0:0|0:0,0:0:0:0:
76,96,102659,1,2,0:0:0:0:
48,196,102945,1,8,0:0:0:0:
100,288,103231,6,0,B|144:252|212:268,1,105,2|8,0:0|0:0,0:0:0:0:
288,320,103802,2,0,B|352:340|400:296,1,105,2|8,0:0|0:0,0:0:0:0:
452,224,104374,2,0,B|440:104,1,105,2|8,0:0|0:0,0:0:0:0:
436,92,104802,1,8,0:0:0:0:
436,92,104945,2,0,B|388:128|324:108,1,105,2|8,0:0|0:0,0:0:0:0:
244,60,105516,6,0,B|128:68,1,84,4|0,1:2|3:2,0:0:0:0:
80,36,106088,2,0,B|36:132|108:204,1,168,8|0,0:0|3:0,0:0:0:0:
168,240,106945,1,0,3:0:0:0:
244,204,107231,2,0,B|292:176|360:188,1,84,8|0,0:0|3:0,0:0:0:0:
404,208,107802,5,4,3:2:0:0:
452,276,108088,1,0,3:0:0:0:
368,280,108374,2,0,B|268:300,1,84,8|0,0:0|3:0,0:0:0:0:
204,308,108945,2,0,B|144:232|40:268,2,168,0|8|4,3:0|0:0|3:2,0:0:0:0:
256,244,110374,5,0,3:0:0:0:
260,160,110659,2,0,B|256:56,1,84,8|0,0:0|3:0,0:0:0:0:
184,116,111231,2,0,B|104:172|16:128,2,168,0|8|4,3:0|0:0|3:2,0:0:0:0:
256,72,112659,5,0,3:0:0:0:
336,48,112945,2,0,B|384:44|428:68,1,84,8|0,0:0|3:0,0:0:0:0:
464,132,113516,2,0,B|460:200|380:232|328:180,1,168,0|8,3:0|0:0,0:0:0:0:
288,256,114374,1,8,0:0:0:0:
240,188,114659,1,4,0:0:0:0:
164,132,116945,5,0,0:0:0:0:
328,72,119231,5,0,0:0:0:0:
200,300,120374,6,0,B|196:244|196:196,1,84,2|0,0:0|0:0,0:0:0:0:
272,180,120945,2,0,B|276:236|276:284,1,84,2|0,0:0|0:0,0:0:0:0:
272,348,121516,1,4,0:2:0:0:
368,308,121802,1,2,0:0:0:0:
356,204,122088,1,2,0:0:0:0:
452,164,122374,1,2,0:0:0:0:
464,60,122659,6,0,B|416:36|356:36,1,105,2|8,0:0|0:0,0:0:0:0:
276,100,123231,2,0,B|152:116,1,105,8|8,0:0|0:0,0:0:0:0:
80,60,123802,6,0,B|56:120|88:172,1,105,4|8,0:0|0:0,0:0:0:0:
88,168,124231,2,0,B|70:295,1,105
156,328,124802,1,2,0:0:0:0:
204,240,125088,2,0,B|260:256,1,52.5,2|8,0:0|0:0,0:0:0:0:
280,264,125374,2,0,B|332:232|388:252,1,105,0|2,0:0|0:0,0:0:0:0:
408,256,125802,1,8,0:0:0:0:
496,316,126088,6,0,B|484:200,1,105,4|8,0:0|0:0,0:0:0:0:
480,184,126516,2,0,B|420:200|372:160,1,105,0|0,0:0|0:0,0:0:0:0:
360,148,126945,2,0,B|308:160,1,52.5,8|2,0:0|0:0,0:0:0:0:
216,112,127374,1,2,0:0:0:0:
116,144,127659,2,0,B|96:200|112:256,1,105,2|2,0:0|0:0,0:0:0:0:
128,268,128088,2,0,B|212:280,1,52.5,8|8,0:0|0:0,0:0:0:0:
204,260,128374,6,0,B|256:240|308:252,1,105,4|8,0:0|0:0,0:0:0:0:
400,300,128945,2,0,B|500:272,1,105,2|8,0:0|0:0,0:0:0:0:
508,280,129374,2,0,B|479:221|511:153,1,105,2|2,0:0|0:0,0:0:0:0:
512,156,129802,1,8,0:0:0:0:
432,80,130088,2,0,B|392:128|416:204,1,105,2|8,0:0|0:0,0:0:0:0:
420,280,130659,6,0,B|244:352|304:196|116:244,1,315,4|8,0:0|0:0,0:0:0:0:
128,136,131802,2,0,B|304:64|244:220|432:172,1,315,2|8,0:0|0:0,0:0:0:0:
460,76,132945,6,0,B|360:40,1,105,4|8,0:0|0:0,0:0:0:0:
336,32,133374,2,0,B|280:20|228:40,1,105,0|2,0:0|0:0,0:0:0:0:
212,56,133802,2,0,B|144:32,1,52.5,8|2,0:0|0:0,0:0:0:0:
68,88,134231,1,0,0:0:0:0:
152,152,134516,1,2,0:0:0:0:
60,208,134802,2,0,B|40:260|64:316,1,105,2|0,0:0|0:0,0:0:0:0:
80,328,135231,6,0,B|128:292|196:308,1,105,4|0,0:0|0:0,0:0:0:0:
204,316,135659,1,0,0:0:0:0:
268,232,135945,1,0,0:0:0:0:
348,300,136231,2,0,B|424:288|464:292,1,105,2|2,0:0|0:0,0:0:0:0:
492,192,136802,2,0,B|512:136|480:88,1,105,2|2,0:0|0:0,0:0:0:0:
468,72,137231,2,0,B|397:60,1,52.5,8|8,0:0|0:0,0:0:0:0:
388,68,137516,6,0,B|328:72|276:56,1,105,4|8,0:0|0:0,0:0:0:0:
192,108,138088,2,0,B|124:120,1,52.5,2|2,0:0|0:0,0:0:0:0:
112,124,138374,1,8,0:0:0:0:
112,124,138516,2,0,B|136:196|112:240,1,105,2|0,0:0|0:0,0:0:0:0:
100,248,138945,1,8,0:0:0:0:
200,212,139231,2,0,B|308:200,1,105,2|8,0:0|0:0,0:0:0:0:
400,244,139802,6,0,B|412:196|396:156|396:156|408:60,2,157.5,4|0|8,0:0|0:0|0:0,0:0:0:0:
348,336,140945,2,0,B|268:360|204:280|248:208,1,210,0|2,0:0|0:0,0:0:0:0:
304,124,141802,1,8,0:0:0:0:
200,116,142088,6,0,B|140:108|88:132,2,105,4|8|2,0:0|0:0|0:0,0:0:0:0:
264,32,142945,1,8,0:0:0:0:
368,52,143231,2,0,B|404:104|384:164,1,105,0|8,0:0|0:0,0:0:0:0:
368,176,143659,2,0,B|388:300,1,105,2|2,0:0|0:0,0:0:0:0:
392,304,144088,1,8,0:0:0:0:
292,268,144374,6,0,B|280:188|168:160|104:248,1,210,4|2,0:0|0:0,0:0:0:0:
108,328,145231,1,8,0:0:0:0:
200,280,145516,2,0,B|232:88,2,157.5,2|2|8,0:0|0:0|0:0,0:0:0:0:
292,328,146659,6,0,B|348:304|408:320,1,105,4|8,0:0|0:0,0:0:0:0:
420,328,147088,2,0,B|448:200,1,105,2|2,0:0|0:0,0:0:0:0:
452,200,147516,1,8,0:0:0:0:
412,104,147802,2,0,B|368:140|304:120,1,105,4|8,0:0|0:0,0:0:0:0:
288,112,148231,2,0,B|232:124|176:132,1,105,2|2,0:0|0:0,0:0:0:0:
160,120,148659,1,8,0:0:0:0:
80,52,148945,6,0,B|24:84|36:156,1,105,4|0,0:0|0:0,0:0:0:0:
60,152,149374,2,0,B|100:196|76:260,1,105,12|2,0:2|0:0,0:0:0:0:
60,272,149802,1,12,0:2:0:0:
164,248,150088,1,2,0:0:0:0:
164,248,150231,2,0,B|280:224,1,105,12|2,0:2|0:0,0:0:0:0:
300,232,150659,2,0,B|280:168|332:120,2,105,12|12|4,0:2|0:2|0:0,0:0:0:0:
256,192,160374,5,4,0:0:0:0:
108,112,160945,2,0,B|76:196|108:312,1,168,0|2,0:0|0:0,0:0:0:0:
172,324,161802,1,2,0:0:0:0:
256,312,162088,1,4,0:3:0:0:
420,356,162659,6,0,B|408:168,1,168,2|0,0:0|0:0,0:0:0:0:
488,40,163802,1,2,0:0:0:0:
412,72,164088,1,2,0:0:0:0:
328,56,164374,2,0,B|272:32|220:40,1,84,4|0,0:3|0:0,0:0:0:0:
180,88,164945,6,0,B|84:136|16:44,2,168,4|0|2,0:2|0:0|0:0,0:0:0:0:
252,128,166374,1,2,0:0:0:0:
184,176,166659,2,0,B|152:288,1,84,4|0,0:3|0:0,0:0:0:0:
208,324,167231,6,0,B|328:408|468:280|376:148,2,336,2|0|4,0:0|3:0|3:2,0:0:0:0:
168,248,169802,5,0,0:0:0:0:
228,188,170088,2,0,B|216:100,1,84,4|2,0:3|0:0,0:0:0:0:
156,44,170659,1,0,3:2:0:0:
84,88,170945,1,0,3:0:0:0:
132,156,171231,2,0,B|132:232|136:280,1,84,4|2,0:3|0:0,0:0:0:0:
152,324,171802,6,0,B|216:248|320:284,1,168,2|4,3:2|0:3,0:0:0:0:
372,328,172659,1,0,0:0:0:0:
440,280,172945,2,0,B|420:180,1,84,0|0,3:0|3:0,0:0:0:0:
444,116,173516,2,0,B|344:136,1,84,4|2,0:3|0:0,0:0:0:0:
288,92,174088,6,0,B|192:80,1,84,4|0,3:2|0:0,0:0:0:0:
184,76,174516,2,0,B|172:176,1,84,2|0,0:0|0:0,0:0:0:0:
184,176,174945,2,0,B|84:164,1,84,2|0,0:0|3:0,0:0:0:0:
80,152,175374,2,0,B|40:216|64:288,1,126,2|4,0:0|0:3,0:0:0:0:
132,312,176088,1,2,0:0:0:0:
200,264,176374,6,0,B|256:252|312:260,1,84,0|0,3:0|0:0,0:0:0:0:
304,264,176802,2,0,B|364:268|440:256,1,126,2|0,0:0|0:0,0:0:0:0:
452,252,177374,2,0,B|470:114,1,126,2|0,0:0|3:0,0:0:0:0:
416,64,178088,1,4,0:3:0:0:
336,96,178374,1,0,3:0:0:0:
256,72,178659,1,0,3:0:0:0:
256,192,178945,12,4,183231,0:0:0:0:
136,112,183802,5,0,3:0:0:0:
224,168,184088,2,0,B|280:176|332:172,1,105,4|2,3:3|3:2,0:0:0:0:
424,124,184659,1,4,3:3:0:0:
476,216,184945,2,0,B|480:276|472:340,1,105,2|4,3:2|3:0,0:0:0:0:
380,272,185516,6,0,B|324:256|276:296,1,105,0|4,3:0|3:3,0:0:0:0:
256,308,185945,1,2,0:0:0:0:
232,316,186088,2,0,B|172:336|120:296,1,105,2|4,3:2|3:0,0:0:0:0:
112,288,186516,1,2,0:0:0:0:
96,268,186659,2,0,B|88:164,1,105,2|4,3:2|3:0,0:0:0:0:
188,192,187231,1,2,3:2:0:0:
272,128,187516,1,2,3:2:0:0:
364,188,187802,6,0,B|428:208|472:164,1,105,4|4,3:2|3:0,0:0:0:0:
484,152,188231,1,0,0:0:0:0:
484,152,188374,2,0,B|500:44,1,105,0|4,3:0|3:0,0:0:0:0:
400,20,188945,2,0,B|372:76|404:120,1,105,0|4,3:0|3:0,0:0:0:0:
324,188,189516,2,0,B|272:220|204:196,1,105,2|4,3:2|3:0,0:0:0:0:
128,156,190088,6,0,B|104:36,1,105,0|4,3:0|3:0,0:0:0:0:
100,28,190516,2,0,B|148:72|228:52,1,105,2|0,0:0|0:0,0:0:0:0:
224,48,190945,2,0,B|216:104,1,52.5,4|2,3:0|0:0,0:0:0:0:
288,180,191374,2,0,B|320:168|352:172,2,52.5,0|4|2,0:0|3:3|0:2,0:0:0:0:
264,192,191802,1,2,3:2:0:0:
232,292,192088,1,4,3:0:0:0:
336,276,192374,1,4,0:0:0:0:
256,192,192659,12,0,195802,0:0:0:0:
136,312,196945,6,0,B|172:360|260:352|280:292,1,168,4|4,0:0|2:3,0:0:0:0:
392,164,198088,2,0,B|428:20,2,126
464,208,199231,6,0,B|464:272|388:304|336:264,1,168,4|4,0:2|2:3,0:0:0:0:
228,136,200374,2,0,B|180:88|96:112,2,126
264,212,201516,6,0,B|148:224,1,105,4|8,0:0|0:0,0:0:0:0:
172,328,202088,2,0,B|288:316,1,105,2|8,0:0|0:0,0:0:0:0:
368,264,202659,2,0,B|496:252,1,105,2|8,0:0|0:0,0:0:0:0:
468,148,203231,2,0,B|340:160,1,105,2|8,0:0|0:0,0:0:0:0:
288,88,203802,6,0,B|216:-8|56:44|64:172,1,315,4|8,0:0|0:0,0:0:0:0:
92,268,204945,2,0,B|164:364|324:312|316:184,1,315,2|8,0:0|0:0,0:0:0:0:
232,128,206088,6,0,B|184:156|128:144,1,105,4|8,0:0|0:0,0:0:0:0:
108,132,206516,2,0,B|52:156|36:212,2,105,0|2|2,0:0|0:0|0:0,0:0:0:0:
176,52,207374,2,0,B|232:36,1,52.5,2|8,0:0|0:0,0:0:0:0:
252,48,207659,2,0,B|312:32|356:68,1,105,2|2,0:0|0:0,0:0:0:0:
368,84,208088,1,8,0:0:0:0:
380,188,208374,6,0,B|356:312,1,105,4|8,0:0|0:0,0:0:0:0:
356,316,208802,2,0,B|408:284|472:304,1,105,0|2,0:0|0:0,0:0:0:0:
480,196,209374,2,0,B|472:112,1,52.5,2|0,0:0|0:0,0:0:0:0:
488,120,209659,2,0,B|440:96,1,52.5,2|8,0:0|0:0,0:0:0:0:
416,80,209945,2,0,B|384:128|300:112,1,105,2|2,0:0|0:0,0:0:0:0:
296,108,210374,2,0,B|161:84,1,105,8|4,0:0|0:0,0:0:0:0:
116,164,210945,5,8,0:0:0:0:
176,248,211231,2,0,B|248:236,1,52.5,2|2,0:0|0:0,0:0:0:0:
256,232,211516,1,8,0:0:0:0:
256,232,211659,2,0,B|320:256|376:208,1,105,2|2,0:0|0:0,0:0:0:0:
376,200,212088,1,8,0:0:0:0:
412,100,212374,2,0,B|368:60|304:80,1,105,2|8,0:0|0:0,0:0:0:0:
216,36,212945,6,0,B|68:56,1,105,4|8,0:0|0:0,0:0:0:0:
84,40,213374,2,0,B|52:88|72:152,1,105,0|2,0:0|0:0,0:0:0:0:
84,164,213802,1,8,0:0:0:0:
160,236,214088,2,0,B|120:284|60:268,2,105,2|8|2,0:0|0:0|0:0,0:0:0:0:
200,140,214945,5,8,0:0:0:0:
212,164,215088,1,8,0:0:0:0:
224,188,215231,2,0,B|272:160|328:172,1,105,4|8,0:0|0:0,0:0:0:0:
348,184,215659,2,0,B|468:196,1,105,0|2,0:0|0:0,0:0:0:0:
492,292,216231,1,2,0:0:0:0:
388,272,216516,2,0,B|372:296|364:336,1,52.5,2|8,0:0|0:0,0:0:0:0:
360,348,216802,2,0,B|300:368|256:320,1,105,2|2,0:0|0:0,0:0:0:0:
248,304,217231,1,8,0:0:0:0:
272,200,217516,6,0,L|248:88,1,105,4|8,0:0|0:0,0:0:0:0:
256,72,217945,2,0,B|204:100|144:84,1,105,0|0,0:0|0:0,0:0:0:0:
128,72,218374,2,0,L|80:44,1,52.5,8|2,0:0|0:0,0:0:0:0:
48,144,218802,2,0,L|120:184,1,52.5,2|8,0:0|0:0,0:0:0:0:
120,160,219088,2,0,B|144:216|116:272,1,105,2|2,0:0|0:0,0:0:0:0:
104,284,219516,2,0,L|172:276,1,52.5,8|8,0:0|0:0,0:0:0:0:
184,272,219802,6,0,B|248:264|292:304,1,105,4|8,0:0|0:0,0:0:0:0:
376,348,220374,2,0,L|400:220,1,105,2|8,0:0|0:0,0:0:0:0:
404,220,220802,2,0,B|352:252|288:216,1,105,2|2,0:0|0:0,0:0:0:0:
284,208,221231,1,8,0:0:0:0:
228,120,221516,2,0,B|280:88|344:124,1,105,2|8,0:0|0:0,0:0:0:0:
420,60,222088,6,0,B|528:104|508:284|360:292,1,315,4|8,0:0|0:0,0:0:0:0:
336,192,223231,2,0,B|256:100|80:176|112:316,1,315,2|8,0:0|0:0,0:0:0:0:
124,308,224231,5,8,0:0:0:0:
124,308,224374,2,0,B|175:299|243:307,1,105,4|8,0:0|0:0,0:0:0:0:
328,276,224945,2,0,B|384:284|444:272,1,105,8|8,0:0|0:0,0:0:0:0:
492,188,225516,1,8,0:0:0:0:
476,84,225802,1,8,0:0:0:0:
372,100,226088,1,8,0:0:0:0:
388,204,226374,1,8,0:0:0:0:
284,228,226659,6,0,B|224:240|176:208,1,105,12|8,0:0|0:0,0:0:0:0:
148,112,227231,2,0,B|208:100|256:132,1,105,8|8,0:0|0:0,0:0:0:0:
328,60,227802,2,0,B|372:108|348:176,1,105,8|8,0:0|0:0,0:0:0:0:
428,232,228374,2,0,L|344:304,1,105,8|8,0:0|0:0,0:0:0:0:
328,320,228802,5,8,0:0:0:0:
328,320,228945,2,0,B|296:272|224:280,1,105,4|8,0:0|0:0,0:0:0:0:
132,276,229516,2,0,L|76:288,1,52.5,2|2,0:0|0:0,0:0:0:0:
64,264,229802,2,0,L|120:252,1,52.5,8|2,0:0|0:0,0:0:0:0:
208,192,230231,1,2,0:0:0:0:
208,192,230374,2,0,B|232:136|192:80,2,105,8|2|8,0:0|0:0|0:0,0:0:0:0:
296,252,231231,6,0,B|356:272|404:240,1,105,4|8,0:0|0:0,0:0:0:0:
416,228,231659,1,0,0:0:0:0:
432,208,231802,2,0,B|460:152|432:96,1,105,2|8,0:0|0:0,0:0:0:0:
348,48,232374,2,0,L|208:64,1,105,0|8,0:0|0:0,0:0:0:0:
216,64,232802,1,2,0:0:0:0:
216,64,232945,2,0,B|156:52|80:60,1,105,2|8,0:0|0:0,0:0:0:0:
84,64,233374,5,8,0:0:0:0:
60,72,233516,2,0,B|40:124|52:188,1,105,4|8,0:0|0:0,0:0:0:0:
124,252,234088,1,2,0:0:0:0:
184,164,234374,2,0,L|252:192,1,52.5,8|2,0:0|0:0,0:0:0:0:
256,208,234659,2,0,B|300:172|384:192,1,105,0|8,0:0|0:0,0:0:0:0:
380,196,235088,1,2,0:0:0:0:
380,196,235231,2,0,B|440:212|488:168,1,105,2|8,0:0|0:0,0:0:0:0:
508,76,235802,5,4,0:0:0:0:
408,40,236088,1,8,0:0:0:0:
320,100,236374,2,0,L|240:96,1,52.5,2|0,0:0|0:0,0:0:0:0:
240,88,236659,2,0,L|148:84,1,52.5,8|2,0:0|0:0,0:0:0:0:
160,72,236945,2,0,B|136:128|152:188,1,105,0|8,0:0|0:0,0:0:0:0:
172,192,237374,2,0,B|188:252|168:304,1,105,2|2,0:0|0:0,0:0:0:0:
152,320,237802,1,8,0:0:0:0:
56,276,238088,5,4,0:0:0:0:
36,172,238374,1,8,0:0:0:0:
36,172,238516,1,2,0:0:0:0:
112,100,238802,1,2,0:0:0:0:
112,100,238945,1,8,0:0:0:0:
212,128,239231,2,0,L|328:116,1,105,4|8,0:0|0:0,0:0:0:0:
328,124,239659,1,2,0:0:0:0:
416,68,239945,1,2,0:0:0:0:
416,68,240088,1,8,0:0:0:0:
492,132,240374,6,0,B|528:188|504:248,1,105,4|0,0:0|0:0,0:0:0:0:
492,252,240802,2,0,B|444:216|372:236,1,105,12|2,0:2|0:0,0:0:0:0:
372,248,241231,2,0,B|328:288|264:268,1,105,12|2,0:2|0:0,0:0:0:0:
252,256,241659,2,0,L|232:132,1,105,12|2,0:2|0:0,0:0:0:0:
228,128,242088,1,4,0:2:0:0:
128,96,242374,1,12,0:2:0:0:
144,200,242659,6,0,B|92:232|24:212,1,105,4|8,0:0|0:0,0:0:0:0:
20,204,243088,1,2,0:2:0:0:
20,204,243231,2,0,L|0:88,1,105,2|8,0:0|0:0,0:0:0:0:
20,80,243659,1,2,0:0:0:0:
40,64,243802,2,0,B|80:108|156:84,1,105,2|8,0:2|0:0,0:0:0:0:
232,48,244374,2,0,B|292:56|344:64,1,105,2|8,0:0|0:0,0:0:0:0:
364,60,244802,5,2,0:0:0:0:
364,60,244945,2,0,B|408:104|392:176,1,105,2|8,0:0|0:0,0:0:0:0:
380,176,245374,1,2,0:2:0:0:
364,196,245516,2,0,L|372:316,1,105,2|8,0:0|0:0,0:0:0:0:
276,256,246088,2,0,B|216:240|164:268,1,105,2|8,0:2|0:0,0:0:0:0:
80,312,246659,2,0,L|68:236,1,52.5,2|2,0:0|0:0,0:0:0:0:
64,236,246945,5,8,0:0:0:0:
68,212,247088,1,8,0:0:0:0:
76,188,247231,2,0,B|92:132|68:76,1,105,4|8,0:0|0:0,0:0:0:0:
60,60,247659,1,2,0:2:0:0:
60,60,247802,2,0,B|112:76|112:76|176:64,1,105,2|8,0:0|0:0,0:0:0:0:
236,140,248374,2,0,B|292:128|292:128|348:144,1,105,2|8,0:2|0:0,0:0:0:0:
364,148,248802,1,2,0:0:0:0:
388,156,248945,2,0,B|388:216|396:280,1,105,2|8,0:0|0:0,0:0:0:0:
308,320,249516,6,0,B|256:360|184:324,1,105,2|8,0:0|0:0,0:0:0:0:
188,320,249945,1,2,0:2:0:0:
172,300,250088,2,0,L|180:188,1,105,2|8,0:0|0:0,0:0:0:0:
88,140,250659,2,0,L|84:272,1,105,2|8,0:2|0:0,0:0:0:0:
28,336,251231,2,0,L|96:332,1,52.5,2|2,0:0|0:0,0:0:0:0:
104,316,251516,5,8,0:0:0:0:
128,324,251659,1,8,0:0:0:0:
152,332,251802,2,0,B|208:352|262:330,1,105,12|8,0:0|0:0,0:0:0:0:
360,284,252374,1,8,0:0:0:0:
276,224,252659,1,8,0:0:0:0:
372,180,252945,2,0,B|380:124|368:48,1,105,8|8,0:0|0:0,0:0:0:0:
276,36,253516,2,0,B|268:92|280:168,1,105,8|8,0:0|0:0,0:0:0:0:
184,88,254088,6,0,L|68:104,1,105,8|8,0:0|0:0,0:0:0:0:
56,104,254516,1,2,0:0:0:0:
56,104,254659,2,0,B|37:162|73:210,1,105,8|8,0:0|0:0,0:0:0:0:
72,308,255231,2,0,B|124:276|188:296,1,105,8|8,0:0|0:0,0:0:0:0:
196,304,255659,1,2,0:0:0:0:
196,304,255802,2,0,B|262:327|314:287,1,105,8|8,0:0|0:0,0:0:0:0:
320,284,256231,5,8,0:0:0:0:
336,264,256374,1,4,0:0:0:0:
316,160,256659,1,8,0:0:0:0:
412,200,256945,1,8,0:0:0:0:
424,96,257231,1,8,0:0:0:0:
500,168,257516,6,0,L|516:288,1,105,8|8,0:0|0:0,0:0:0:0:
424,324,258088,2,0,L|284:344,1,105,8|8,0:0|0:0,0:0:0:0:
228,292,258659,2,0,B|172:312|120:280,1,105,4|8,0:0|0:0,0:0:0:0:
108,264,259088,1,2,0:0:0:0:
96,240,259231,2,0,L|72:112,1,105,8|8,0:0|0:0,0:0:0:0:
156,68,259802,6,0,B|196:116|176:176,1,105,8|8,0:0|0:0,0:0:0:0:
172,192,260231,1,2,0:0:0:0:
172,192,260374,2,0,L|288:212,1,105,8|8,0:0|0:0,0:0:0:0:
356,144,260945,1,0,0:0:0:0:
