osu file format v14

[General]
AudioFilename: audio.mp3
AudioLeadIn: 0
PreviewTime: 59516
Countdown: 0
SampleSet: Normal
StackLeniency: 0.7
Mode: 0
LetterboxInBreaks: 0
WidescreenStoryboard: 0

[Editor]
DistanceSpacing: 0.2
BeatDivisor: 4
GridSize: 4
TimelineZoom: 1

[Metadata]
Title:Hades: The rise
TitleUnicode:Hades: The rise
Artist:Yousei Teikoku
ArtistUnicode:妖精帝國
Creator:Delis
Version:Insane
Source:
Tags:metanoia Mirash
BeatmapID:1403276
BeatmapSetID:662526

[Difficulty]
HPDrainRate:6
CircleSize:4
OverallDifficulty:8
ApproachRate:9
SliderMultiplier:1.7
SliderTickRate:1

[Events]
//Background and Video events
0,0,"BG.jpg",0,0
//Break Periods
2,28002,31774
2,50859,52345
2,53145,54631
2,87431,95774
2,114859,116345
2,117145,118631
2,151431,159774
2,192574,195202
//Storyboard Layer 0 (Background)
//Storyboard Layer 1 (Fail)
//Storyboard Layer 2 (Pass)
//Storyboard Layer 3 (Foreground)
//Storyboard Sound Samples

[TimingPoints]
374,285.714285714286,4,2,1,60,1,0
18659,-100,4,1,1,50,0,0
41516,-125,4,2,1,50,0,0
50802,-125,4,1,1,50,0,0
58659,-100,4,1,1,50,0,0
59516,-100,4,1,1,60,0,0
87231,-100,4,1,1,50,0,0
105516,-125,4,2,1,50,0,0
114802,-125,4,1,1,50,0,0
122659,-100,4,1,1,50,0,0
123516,-100,4,1,1,60,0,0
160374,-100,4,1,1,50,0,0
169516,-100,4,2,1,50,0,0
179802,-100,4,2,1,55,0,0
180945,-100,4,2,1,60,0,0
182088,-100,4,1,1,60,0,0
183231,-100,4,2,1,60,0,0
195802,-100,4,1,1,50,0,0
196945,-200,4,1,1,60,0,0
201231,-200,4,1,1,40,0,0
201516,-100,4,1,1,60,0,0
224374,-83.3333333333333,4,1,1,70,0,0
228945,-100,4,1,1,70,0,0
233516,-100,4,1,1,65,0,0
251802,-83.3333333333333,4,1,1,65,0,0

[Colours]
Combo1 : 54,95,91
Combo2 : 107,46,67
Combo3 : 16,82,141
Combo4 : 134,0,134

[HitObjects]
200,80,7231,5,4,0:2:0:0:
368,192,7802,5,4,0:2:0:0:
196,252,8374,6,0,B|132:256|96:256,1,85,4|0,0:2|3:0,0:0:0:0:
52,188,8659,1,8,0:0:0:0:
92,108,8802,1,0,3:0:0:0:
108,104,8874,1,0,3:0:0:0:
124,100,8945,1,0,3:0:0:0:
140,96,9016,1,0,3:0:0:0:
156,92,9088,1,0,3:0:0:0:
172,88,9159,1,0,3:0:0:0:
188,84,9231,2,0,B|200:68,8,21.25,0|0|0|0|0|0|0|0|4,3:0|0:0|0:0|0:0|0:0|0:0|0:0|0:0|0:0,0:0:0:0:
308,280,9802,5,0,1:0:0:0:
372,340,9945,2,0,B|440:344|472:260|420:208,1,170,2|0,0:0|3:0,0:0:0:0:
356,160,10374,2,0,B|288:164|244:164,1,85,0|0,1:0|3:0,0:0:0:0:
212,224,10659,1,2,0:2:0:0:
160,124,10802,1,0,3:0:0:0:
280,76,10945,1,0,1:0:0:0:
200,196,11088,1,2,3:2:0:0:
80,128,11231,1,0,3:0:0:0:
80,128,11302,1,0,3:0:0:0:
80,128,11374,1,0,3:0:0:0:
80,128,11445,1,0,3:0:0:0:
80,128,11516,1,0,1:2:0:0:
28,208,11659,5,0,3:0:0:0:
28,208,11731,1,0,3:0:0:0:
28,208,11802,2,0,B|32:272|112:300|168:244,1,170,2|0,3:2|1:0,0:0:0:0:
200,332,12231,1,2,0:2:0:0:
120,352,12374,2,0,B|72:352|20:356,1,85,0|0,3:0|3:0,0:0:0:0:
104,192,12659,2,0,B|152:192|204:188,1,85,0|0,1:0|3:0,0:0:0:0:
280,176,12945,5,2,0:2:0:0:
336,244,13088,1,0,3:0:0:0:
256,252,13231,1,0,1:0:0:0:
360,160,13374,1,2,3:2:0:0:
256,252,13516,1,0,3:0:0:0:
220,252,13588,1,0,3:0:0:0:
192,232,13659,1,0,3:0:0:0:
176,200,13731,1,0,3:0:0:0:
180,168,13802,1,0,1:0:0:0:
220,84,13945,1,0,3:0:0:0:
140,44,14088,6,0,B|88:48|52:72,1,85,4|0,0:0|0:0,0:0:0:0:
24,216,14374,2,0,B|76:212|112:188,1,85,0|2,1:0|0:2,0:0:0:0:
152,120,14659,1,0,3:0:0:0:
152,120,14802,1,0,3:0:0:0:
200,200,14945,1,0,1:0:0:0:
200,200,15088,1,0,3:0:0:0:
288,176,15231,2,0,B|332:156|384:168,1,85,2|0,0:2|3:0,0:0:0:0:
288,284,15516,2,0,B|244:304|192:292,1,85,0|2,1:0|3:2,0:0:0:0:
128,240,15802,1,0,3:0:0:0:
128,240,15874,1,0,3:0:0:0:
128,240,15945,1,0,3:0:0:0:
128,240,16016,1,0,3:0:0:0:
128,240,16088,1,0,1:0:0:0:
128,140,16231,6,0,B|96:100,2,42.5,0|0|2,3:0|3:0|3:2,0:0:0:0:
220,196,16516,1,0,0:0:0:0:
220,196,16659,2,0,B|276:184|324:192,1,85,0|2,1:0|0:2,0:0:0:0:
396,132,16945,2,0,B|400:180|396:228,1,85,0|0,3:0|3:0,0:0:0:0:
484,276,17231,2,0,B|480:228|484:180,1,85,0|0,1:0|3:0,0:0:0:0:
396,304,17516,2,0,B|324:300|244:312,1,127.5,2|0,0:2|0:0,0:0:0:0:
240,324,17802,1,0,1:0:0:0:
168,264,17945,1,2,3:2:0:0:
88,312,18088,1,0,3:0:0:0:
60,292,18159,1,0,3:0:0:0:
48,260,18231,1,0,3:0:0:0:
48,228,18302,1,0,3:0:0:0:
60,196,18374,1,8,0:0:0:0:
140,144,18516,5,0,3:0:0:0:
140,144,18588,1,0,3:0:0:0:
140,144,18659,2,0,B|240:140|328:140,2,170,4|8|2,0:0|0:0|0:0,0:0:0:0:
68,100,19374,1,2,0:0:0:0:
148,60,19516,1,8,0:0:0:0:
136,196,19659,1,0,0:0:0:0:
40,204,19802,2,0,B|36:156|36:108,1,85,2|2,0:0|0:0,0:0:0:0:
208,240,20088,2,0,B|212:288|212:336,1,85,8|0,0:0|0:0,0:0:0:0:
40,316,20374,2,0,B|88:312|136:312,1,85,2|2,0:0|0:0,0:0:0:0:
228,156,20659,2,0,B|180:160|132:160,1,85,8|2,0:0|0:0,0:0:0:0:
296,272,20945,6,0,B|352:312|424:268|420:196,2,170,2|8|2,0:0|0:0|0:0,0:0:0:0:
268,164,21659,1,2,0:0:0:0:
344,208,21802,1,8,0:0:0:0:
216,240,21945,1,0,0:0:0:0:
344,208,22088,2,0,B|348:160|344:108,1,85,2|2,0:0|0:0,0:0:0:0:
184,172,22374,2,0,B|180:220|184:272,1,85,8|0,0:0|0:0,0:0:0:0:
252,312,22659,5,2,0:0:0:0:
308,244,22802,1,2,0:0:0:0:
268,164,22945,1,8,0:0:0:0:
304,80,23088,1,8,0:0:0:0:
236,28,23231,2,0,B|184:32|140:32,1,85,4|0,0:0|0:0,0:0:0:0:
116,112,23516,2,0,B|184:108|216:108,1,85,8|0,0:0|0:0,0:0:0:0:
268,164,23802,1,2,0:0:0:0:
268,164,23945,1,2,0:0:0:0:
360,148,24088,1,8,0:0:0:0:
360,148,24231,1,0,0:0:0:0:
304,80,24374,6,0,B|264:80|216:84,1,85,2|2,0:0|0:0,0:0:0:0:
96,208,24659,2,0,B|136:208|184:204,1,85,8|0,0:0|0:0,0:0:0:0:
256,256,24945,1,2,0:0:0:0:
344,236,25088,1,2,0:0:0:0:
364,324,25231,1,8,0:0:0:0:
276,344,25374,1,2,0:0:0:0:
192,312,25516,6,0,B|160:280|104:288,1,85,2|0,0:0|0:0,0:0:0:0:
60,356,25802,2,0,B|108:264|32:200,1,170,8|2,0:0|0:0,0:0:0:0:
64,124,26231,1,2,0:0:0:0:
128,184,26374,2,0,B|160:144|212:136,1,85,8|2,0:0|0:0,0:0:0:0:
260,196,26659,2,0,B|360:208,1,85,2|2,0:0|0:0,0:0:0:0:
428,216,26945,2,0,B|328:204,1,85,8|2,0:0|0:0,0:0:0:0:
304,120,27231,2,0,B|292:72,2,42.5,2|2|2,0:0|0:0|0:0,0:0:0:0:
360,292,27516,5,8,0:0:0:0:
360,292,27588,1,8,0:0:0:0:
360,292,27659,1,8,0:0:0:0:
360,292,27731,1,8,0:0:0:0:
360,292,27802,1,4,0:0:0:0:
376,112,32374,6,0,B|304:104|200:112,1,170,4|8,0:0|0:0,0:0:0:0:
206,111,32945,2,0,B|204:48|200:16,1,85,2|2,0:0|0:0,0:0:0:0:
120,80,33231,2,0,B|122:143|126:175,1,85,8|0,0:0|0:0,0:0:0:0:
180,232,33516,1,2,0:0:0:0:
260,260,33659,1,2,0:0:0:0:
332,212,33802,1,8,0:0:0:0:
416,196,33945,1,0,0:0:0:0:
480,252,34088,1,2,0:0:0:0:
464,336,34231,1,2,0:0:0:0:
384,364,34374,1,8,0:0:0:0:
324,304,34516,1,2,0:0:0:0:
248,340,34659,6,0,B|192:332|148:356,1,85,2|0,0:0|0:0,0:0:0:0:
96,240,34945,2,0,B|152:248|196:224,1,85,8|0,0:0|0:0,0:0:0:0:
88,336,35231,2,0,B|48:304|0:304,1,85,2|2,0:0|0:0,0:0:0:0:
40,132,35516,2,0,B|80:164|128:164,1,85,8|0,0:0|0:0,0:0:0:0:
196,128,35802,1,2,0:0:0:0:
196,128,35945,1,2,0:0:0:0:
244,208,36088,1,8,0:0:0:0:
244,208,36231,1,0,0:0:0:0:
304,112,36374,1,2,0:0:0:0:
304,112,36516,1,2,0:0:0:0:
368,236,36659,1,8,0:0:0:0:
368,236,36802,1,2,0:0:0:0:
420,156,36945,6,0,B|460:132|512:140,1,85,4|0,0:0|0:0,0:0:0:0:
456,312,37231,2,0,B|416:336|364:328,1,85,8|0,0:0|0:0,0:0:0:0:
292,292,37516,2,0,B|184:264,1,85,2|2,0:0|0:0,0:0:0:0:
136,340,37802,2,0,B|244:368,1,85,8|0,0:0|0:0,0:0:0:0:
136,248,38088,1,2,0:0:0:0:
88,168,38231,1,2,0:0:0:0:
176,144,38374,1,8,0:0:0:0:
256,196,38516,1,0,0:0:0:0:
336,144,38659,1,2,0:0:0:0:
424,168,38802,1,2,0:0:0:0:
376,248,38945,1,8,0:0:0:0:
376,340,39088,1,0,0:0:0:0:
296,296,39231,6,0,B|244:288|196:296,1,85,2|0,0:0|0:0,0:0:0:0:
216,88,39516,2,0,B|268:96|316:88,1,85,8|0,0:0|0:0,0:0:0:0:
168,216,39802,2,0,B|124:200|64:196,1,85,2|2,0:0|0:0,0:0:0:0:
344,168,40088,2,0,B|388:184|448:188,1,85,8|0,0:0|0:0,0:0:0:0:
268,224,40374,1,2,0:0:0:0:
240,136,40516,1,2,0:0:0:0:
268,224,40659,1,8,0:0:0:0:
360,252,40802,1,8,0:0:0:0:
268,224,40945,1,2,0:0:0:0:
268,224,41016,1,2,0:0:0:0:
268,224,41088,1,2,0:0:0:0:
207,291,41231,6,0,B|223:379,1,85,8|8,0:0|0:0,0:0:0:0:
223,375,41445,1,8,0:0:0:0:
223,375,41516,2,0,B|160:336|88:348,1,136,4|0,3:2|3:0,0:0:0:0:
192,196,42088,2,0,B|176:44,1,136,8|0,0:0|3:0,0:0:0:0:
177,60,42516,1,0,3:0:0:0:
104,108,42659,1,0,3:0:0:0:
104,108,42802,2,0,B|68:124|28:112,1,68,0|0,3:0|3:0,0:0:0:0:
48,224,43088,1,0,3:0:0:0:
120,188,43231,2,0,B|132:228|120:272,1,68,8|0,0:0|3:0,3:0:0:0:
60,340,43516,1,0,3:0:0:0:
60,340,43659,1,0,3:0:0:0:
144,352,43802,6,0,B|208:392|284:360,1,136,4|0,3:2|3:0,0:0:0:0:
396,200,44374,2,0,B|332:160|256:192,1,136,8|0,0:0|3:0,0:0:0:0:
200,236,44802,1,0,0:0:0:0:
196,148,44945,2,0,B|180:60,2,68,0|0|0,3:0|3:0|3:0,0:0:0:0:
124,196,45374,2,0,L|48:160,1,68,0|8,3:0|0:0,0:0:0:0:
124,280,45659,2,0,L|44:308,1,68,0|8,3:0|0:0,0:0:0:0:
200,316,45945,1,8,0:0:0:0:
280,268,46088,6,0,B|336:228|412:248,2,136,4|0|8,3:2|3:0|0:0,0:0:0:0:
280,268,46945,2,0,B|264:176,1,68,0|0,3:0|3:0,0:0:0:0:
248,120,47231,1,0,3:0:0:0:
304,60,47374,1,0,3:0:0:0:
384,80,47516,1,0,3:0:0:0:
412,160,47659,1,0,3:0:0:0:
356,228,47802,1,8,0:0:0:0:
356,228,47945,1,0,3:0:0:0:
388,308,48088,1,0,3:0:0:0:
388,308,48231,1,0,3:0:0:0:
464,336,48374,6,0,B|464:260|472:192,1,136,4|0,3:2|3:0,0:0:0:0:
220,220,48945,2,0,B|296:220|356:228,1,136,8|0,0:2|3:0,0:0:0:0:
288,304,49374,1,0,0:0:0:0:
200,312,49516,1,0,3:0:0:0:
188,308,49588,1,0,3:0:0:0:
176,304,49659,1,0,3:0:0:0:
164,300,49731,1,0,3:0:0:0:
152,296,49802,1,0,3:0:0:0:
140,292,49874,1,0,3:0:0:0:
128,288,49945,1,0,3:0:0:0:
116,284,50016,1,0,3:0:0:0:
104,280,50088,2,0,B|96:216|96:196,1,68,8|0,0:0|3:0,0:0:0:0:
104,132,50374,5,8,0:0:0:0:
104,132,50516,1,8,0:0:0:0:
84,56,50659,1,4,0:2:0:0:
256,192,52945,5,0,0:0:0:0:
256,192,55231,5,0,0:0:0:0:
256,192,56374,5,2,0:0:0:0:
256,192,56945,5,2,0:0:0:0:
256,192,57516,6,0,B|192:184|120:188,1,136,4|2,0:2|0:0,0:0:0:0:
256,192,58088,2,0,B|320:200|392:196,1,136,2|2,0:0|0:0,0:0:0:0:
192,116,58659,2,0,B|192:64|196:24,1,85,2|0,0:0|0:0,0:0:0:0:
316,36,58945,2,0,B|316:88|312:124,1,85,8|2,0:0|0:0,0:0:0:0:
256,192,59231,5,8,0:0:0:0:
264,208,59302,1,8,0:0:0:0:
272,224,59374,1,8,0:0:0:0:
280,240,59445,1,8,0:0:0:0:
288,256,59516,1,8,0:0:0:0:
296,272,59588,1,8,0:0:0:0:
304,288,59659,1,8,0:0:0:0:
312,304,59731,1,8,0:0:0:0:
320,320,59802,2,0,B|228:352|240:288|144:308,1,170,4|0,0:0|0:0,0:0:0:0:
64,344,60231,6,0,B|108:352|156:340,1,85,0|2,0:0|0:0,0:0:0:0:
144,228,60516,2,0,B|96:224|52:232,1,85,2|8,0:2|0:0,0:0:0:0:
200,288,60802,2,0,B|264:272|280:188|216:144,1,170,2|2,0:0|0:0,0:0:0:0:
227,153,61231,1,8,0:0:0:0:
328,160,61374,2,0,B|336:208|332:256,1,85,2|2,0:0|0:0,0:0:0:0:
424,208,61659,2,0,B|416:160|420:112,1,85,2|8,0:0|0:0,0:0:0:0:
372,52,61945,1,2,0:0:0:0:
296,88,62088,6,0,B|208:64|120:80,1,170,4|8,0:0|0:0,0:0:0:0:
56,152,62516,2,0,B|104:164|148:156,1,85,0|2,0:0|0:0,0:0:0:0:
227,153,62802,2,0,B|232:216|224:252,1,85,0|8,0:0|0:0,0:0:0:0:
144,320,63088,2,0,B|140:272|148:220,1,85,2|2,0:0|0:0,0:0:0:0:
304,232,63374,2,0,B|308:276|304:320,1,85,2|8,0:0|0:0,0:0:0:0:
392,352,63659,2,0,B|400:264|392:176,1,170,2|2,0:0|0:0,0:0:0:0:
312,144,64088,1,8,0:0:0:0:
312,144,64231,1,8,0:0:0:0:
272,68,64374,6,0,B|208:76|192:176|256:208,1,170,4|8,0:0|0:0,0:0:0:0:
168,252,64802,1,0,0:0:0:0:
112,180,64945,2,0,B|72:208|20:196,1,85,2|2,0:0|0:0,0:0:0:0:
88,272,65231,2,0,B|108:320|96:360,1,85,8|2,0:0|0:0,0:0:0:0:
188,328,65516,1,2,0:0:0:0:
276,352,65659,1,2,0:0:0:0:
336,284,65802,2,0,B|424:296,1,85,8|2,0:0|0:0,0:0:0:0:
488,232,66088,1,2,0:0:0:0:
488,232,66159,1,2,0:0:0:0:
488,232,66231,2,0,B|472:140,1,85,2|8,0:0|0:0,0:0:0:0:
456,64,66516,1,0,0:0:0:0:
368,168,66659,6,0,B|324:220|240:196|236:120,1,170,4|8,0:2|0:0,0:0:0:0:
240,48,67088,1,0,0:0:0:0:
316,112,67231,1,2,0:0:0:0:
352,24,67374,1,2,0:0:0:0:
240,48,67516,2,0,B|192:44|148:44,1,85,8|2,0:0|0:0,0:0:0:0:
56,144,67802,5,0,0:0:0:0:
116,216,67945,1,2,0:0:0:0:
152,128,68088,1,8,0:0:0:0:
40,264,68231,1,2,0:0:0:0:
140,296,68374,1,2,0:0:0:0:
172,292,68445,1,0,0:0:0:0:
204,288,68516,1,2,0:0:0:0:
236,284,68588,1,0,0:0:0:0:
268,280,68659,1,8,0:0:0:0:
208,204,68802,1,8,0:0:0:0:
228,364,68945,6,0,B|168:400|92:356|108:276,1,170,4|8,0:0|0:0,0:0:0:0:
268,280,69374,2,0,B|312:268|376:268,1,85,0|2,0:0|0:0,0:0:0:0:
440,284,69659,1,0,0:0:0:0:
464,180,69802,1,8,0:0:0:0:
356,192,69945,2,0,B|344:148|356:88,1,85,2|0,0:0|0:0,0:0:0:0:
256,148,70231,2,0,B|256:104|248:48,1,85,2|8,0:0|0:0,0:0:0:0:
164,188,70516,2,0,B|160:136|164:88,1,85,2|2,0:0|0:0,0:0:0:0:
68,228,70802,2,0,B|76:180|68:116,1,85,2|8,0:0|0:0,0:0:0:0:
56,56,71088,1,2,0:0:0:0:
172,32,71231,6,0,B|256:12|344:32,1,170,4|8,0:0|0:0,0:0:0:0:
416,64,71659,2,0,B|504:96,1,85,0|2,0:0|0:0,0:0:0:0:
428,156,71945,2,0,B|348:128,1,85,0|8,0:0|0:0,0:0:0:0:
264,96,72231,2,0,B|212:148|240:224|312:232,1,170,2|2,0:0|0:0,0:0:0:0:
384,240,72659,1,8,0:0:0:0:
328,316,72802,2,0,B|236:296|164:344,1,170,2|2,0:0|0:0,0:0:0:0:
148,264,73231,2,0,B|56:236,1,85,8|8,0:0|0:0,0:0:0:0:
192,192,73516,6,0,B|236:244|320:220|328:152,1,170,4|8,0:0|0:0,0:0:0:0:
340,76,73945,1,0,0:0:0:0:
256,56,74088,2,0,B|252:100|252:144,1,85,2|2,0:0|0:0,0:0:0:0:
92,72,74374,2,0,B|128:100|184:104,1,85,8|2,0:0|0:0,0:0:0:0:
104,164,74659,2,0,B|44:152|-4:228|36:288,1,170,2|8,0:0|0:0,0:0:0:0:
108,244,75088,1,2,0:0:0:0:
164,312,75231,1,2,0:0:0:0:
164,312,75302,1,0,0:0:0:0:
164,312,75374,2,0,B|212:304|264:304,1,85,2|8,0:0|0:0,0:0:0:0:
416,88,75802,6,0,B|376:76|327:88,1,85,4|0,0:0|0:0,0:0:0:0:
260,132,76088,1,8,0:0:0:0:
188,176,76231,1,0,0:0:0:0:
100,96,76374,2,0,B|144:108|188:96,1,85,2|2,0:0|0:0,0:0:0:0:
356,212,76659,2,0,B|312:200|268:212,1,85,8|2,0:0|0:0,0:0:0:0:
200,264,76945,2,0,B|104:240,1,85,2|2,0:0|0:0,0:0:0:0:
300,296,77231,2,0,B|396:320,1,85,8|2,0:0|0:0,0:0:0:0:
460,252,77516,1,2,0:0:0:0:
468,212,77588,1,2,0:0:0:0:
476,172,77659,1,2,0:0:0:0:
484,128,77731,1,2,0:0:0:0:
492,88,77802,2,0,B|444:76|404:104,1,85,8|8,0:0|0:0,0:0:0:0:
284,28,78088,6,0,B|220:100|108:56,2,170,4|8|2,0:0|0:0|0:0,0:0:0:0:
364,76,78802,1,0,0:0:0:0:
296,136,78945,2,0,L|308:240,1,85,8|0,0:0|0:0,0:0:0:0:
232,352,79231,2,0,B|296:280|408:324,1,170,0|8,0:0|0:0,0:0:0:0:
384,240,79659,1,2,0:0:0:0:
384,240,79802,2,0,B|420:148,1,85,2|2,0:0|0:0,0:0:0:0:
320,168,80088,2,0,B|228:132,1,85,8|2,0:0|0:0,0:0:0:0:
136,228,80374,6,0,B|113:292|170:351|237:325,1,170,4|8,0:0|0:0,0:0:0:0:
284,256,80802,1,0,0:0:0:0:
368,300,80945,2,0,B|408:276|452:284,1,85,2|2,0:0|0:0,0:0:0:0:
496,208,81231,2,0,B|512:104,1,85,8|2,0:0|0:0,0:0:0:0:
464,48,81516,1,0,0:0:0:0:
384,100,81659,1,2,0:0:0:0:
300,64,81802,1,8,0:0:0:0:
216,104,81945,1,2,0:0:0:0:
144,52,82088,1,2,0:0:0:0:
124,48,82159,1,2,0:0:0:0:
104,52,82231,1,2,0:0:0:0:
84,64,82302,1,2,0:0:0:0:
72,80,82374,1,8,0:0:0:0:
64,264,82659,6,0,B|64:328|136:364|192:320,1,170,4|8,0:0|0:0,0:0:0:0:
300,264,83088,2,0,B|300:200|228:164|172:208,1,170,2|2,0:0|0:0,0:0:0:0:
344,348,83516,1,8,0:0:0:0:
344,348,83802,2,0,B|432:336,1,85,4|0,0:0|0:0,0:0:0:0:
300,264,84088,1,8,0:0:0:0:
224,292,84231,2,0,B|200:228|256:164|320:184,1,170,2|2,0:0|0:0,0:0:0:0:
384,232,84659,2,0,B|432:244|472:208,1,85,8|0,0:0|0:0,0:0:0:0:
464,40,84945,5,4,0:0:0:0:
464,40,85088,2,0,B|404:44|360:44,1,85,2|2,0:2|0:2,0:0:0:0:
296,76,85374,5,12,0:2:0:0:
296,76,85516,2,0,B|248:80|208:80,1,85,2|2,0:0|0:0,0:0:0:0:
136,124,85802,5,12,0:2:0:0:
136,124,85945,2,0,B|88:128|44:128,1,85,2|2,0:0|0:2,0:0:0:0:
160,220,86231,5,12,0:2:0:0:
112,292,86374,1,2,0:0:0:0:
72,220,86516,1,2,0:0:0:0:
200,328,86659,5,12,0:2:0:0:
324,208,86945,1,4,0:2:0:0:
232,64,87231,1,4,0:0:0:0:
220,336,96374,6,0,B|268:348|308:336,1,85,4|0,0:0|0:0,0:0:0:0:
392,304,96659,2,0,B|312:328|212:300,1,170,8|2,0:0|0:0,0:0:0:0:
144,268,97088,1,2,0:0:0:0:
192,200,97231,1,8,0:0:0:0:
276,232,97374,1,0,0:0:0:0:
156,168,97516,2,0,B|112:184|60:176,1,85,2|2,0:0|0:0,0:0:0:0:
108,96,97802,2,0,B|152:80|204:88,1,85,8|0,0:0|0:0,0:0:0:0:
300,148,98088,2,0,B|348:160|400:136,1,85,2|2,0:0|0:0,0:0:0:0:
424,64,98374,2,0,B|376:52|324:76,1,85,8|2,0:0|0:0,0:0:0:0:
216,168,98659,6,0,B|248:348,1,170,2|8,0:0|0:0,0:0:0:0:
245,335,99231,1,0,0:0:0:0:
245,335,99374,1,2,0:0:0:0:
160,304,99516,1,8,0:0:0:0:
160,304,99659,1,0,0:0:0:0:
312,264,99802,2,0,B|324:160,1,85,2|2,0:0|0:0,0:0:0:0:
340,20,100088,2,0,B|344:105,1,85,8|0,0:0|0:0,0:0:0:0:
392,248,100374,1,2,0:0:0:0:
404,160,100516,1,2,0:0:0:0:
248,144,100659,1,8,0:0:0:0:
232,224,100802,1,2,0:0:0:0:
120,204,100945,6,0,B|108:160|120:112,1,85,2|0,0:0|0:0,0:0:0:0:
136,36,101231,2,0,B|304:52,1,170,8|2,0:0|0:0,0:0:0:0:
305,52,101659,1,2,0:0:0:0:
392,24,101802,2,0,B|400:76|376:112,1,85,8|2,0:0|0:0,0:0:0:0:
300,144,102088,2,0,B|320:196|388:192,2,85,2|2|8,0:0|0:0|0:0,0:0:0:0:
232,196,102516,1,0,0:0:0:0:
192,272,102659,2,0,B|232:304|288:288,1,85,2|2,0:0|0:0,0:0:0:0:
164,152,102945,2,0,B|124:120|68:136,1,85,8|2,0:0|0:0,0:0:0:0:
48,208,103231,6,0,B|80:316,1,85,2|0,0:0|0:0,0:0:0:0:
84,132,103516,2,0,B|-8:88,1,85,8|0,0:0|0:0,0:0:0:0:
132,204,103802,2,0,B|224:192,1,85,2|2,0:0|0:0,0:0:0:0:
288,240,104088,2,0,B|380:228,1,85,8|0,0:0|0:0,0:0:0:0:
448,176,104374,1,2,0:0:0:0:
452,268,104516,1,2,0:0:0:0:
372,228,104659,1,8,0:0:0:0:
364,144,104802,1,8,0:0:0:0:
292,88,104945,1,2,0:0:0:0:
292,88,105016,1,2,0:0:0:0:
292,88,105088,2,0,B|232:60|184:72,1,85,2|8,0:0|0:0,0:0:0:0:
136,112,105374,5,8,0:0:0:0:
136,112,105445,1,8,0:0:0:0:
136,112,105516,2,0,B|-4:132,1,136,4|0,1:2|3:2,0:0:0:0:
144,256,106088,2,0,B|284:236,1,136,8|0,0:0|3:0,0:0:0:0:
316,164,106516,1,0,3:0:0:0:
364,232,106659,2,0,B|380:268|364:312,1,68,0|0,3:0|3:0,0:0:0:0:
300,344,106945,1,0,3:0:0:0:
220,344,107088,1,0,3:0:0:0:
168,284,107231,1,8,0:0:0:0:
160,288,107374,1,0,3:0:0:0:
192,208,107516,1,0,3:0:0:0:
182,208,107659,1,0,3:0:0:0:
184,132,107802,6,0,B|112:104|48:128,1,136,4|0,3:2|3:0,0:0:0:0:
248,40,108374,2,0,B|400:56,1,136,8|0,0:0|3:0,0:0:0:0:
448,108,108802,1,0,3:0:0:0:
376,156,108945,1,0,3:0:0:0:
444,204,109088,2,0,B|456:284,1,68,0|0,3:0|3:0,0:0:0:0:
460,356,109374,1,0,3:0:0:0:
390,329,109516,1,8,0:0:0:0:
324,268,109659,1,0,3:0:0:0:
390,329,109802,1,8,0:0:0:0:
304,352,109945,5,8,0:0:0:0:
304,352,110088,2,0,B|160:328,1,136,4|0,3:2|3:0,0:0:0:0:
173,333,110659,2,0,B|168:276|172:252,1,68,8|0,0:0|0:0,0:0:0:0:
216,192,110945,1,0,3:0:0:0:
152,140,111088,1,0,3:0:0:0:
216,192,111231,1,0,3:0:0:0:
104,232,111374,2,0,B|68:232|20:236,1,68,0|0,3:0|3:0,0:0:0:0:
68,152,111659,2,0,B|72:120|68:96,2,34,0|0|8,3:0|3:0|0:0,0:0:0:0:
132,60,111945,2,0,B|132:28|136:4,2,34,0|0|0,3:0|3:0|3:0,0:0:0:0:
216,96,112231,1,0,3:0:0:0:
292,44,112374,6,0,B|360:28|428:64,2,136,4|0|8,3:2|3:0|0:0,0:0:0:0:
292,44,113088,1,0,0:0:0:0:
284,136,113231,2,0,B|308:216,1,68,0|0,3:0|3:0,0:0:0:0:
256,288,113516,5,0,3:0:0:0:
240,284,113588,1,0,3:0:0:0:
224,280,113659,1,0,3:0:0:0:
208,276,113731,1,0,3:0:0:0:
192,272,113802,1,0,3:0:0:0:
176,268,113874,1,0,3:0:0:0:
160,264,113945,1,0,3:0:0:0:
144,260,114016,1,0,3:0:0:0:
128,256,114088,2,0,B|84:240|44:232,1,68,8|0,0:0|3:0,0:0:0:0:
48,152,114374,2,0,B|84:164|124:172,1,68,8|8,0:0|0:0,0:0:0:0:
200,152,114659,1,4,0:0:0:0:
348,144,116945,5,0,0:0:0:0:
256,320,119231,5,0,0:0:0:0:
128,120,120374,5,2,0:0:0:0:
256,192,120945,5,2,0:0:0:0:
380,268,121516,6,0,B|388:192|376:132,1,136,4|2,0:2|0:0,0:0:0:0:
132,116,122088,2,0,B|124:192|136:252,1,136,2|2,0:0|0:0,0:0:0:0:
272,136,122659,6,0,B|260:44,1,85,2|2,0:0|0:0,0:0:0:0:
240,248,122945,2,0,B|252:340,1,85,8|8,0:0|0:0,0:0:0:0:
392,288,123231,1,8,0:0:0:0:
384,268,123302,1,8,0:0:0:0:
376,248,123374,1,8,0:0:0:0:
368,228,123445,1,8,0:0:0:0:
380,212,123516,1,8,0:0:0:0:
392,196,123588,1,8,0:0:0:0:
404,180,123659,1,8,0:0:0:0:
416,164,123731,1,8,0:0:0:0:
408,144,123802,2,0,B|392:84|308:64|264:124,1,170,4|8,0:0|0:0,0:0:0:0:
200,168,124231,6,0,B|156:180|112:176,1,85,0|2,0:0|0:0,0:0:0:0:
48,116,124516,2,0,B|40:28,1,85,0|8,0:0|0:0,0:0:0:0:
64,192,124802,2,0,B|52:288,1,85,2|0,0:0|0:0,0:0:0:0:
112,340,125088,1,2,0:0:0:0:
184,288,125231,1,8,0:0:0:0:
252,344,125374,2,0,B|292:320|344:328,1,85,0|2,0:0|0:0,0:0:0:0:
408,264,125659,2,0,B|444:88,1,170,2|0,0:0|0:0,0:0:0:0:
368,36,126088,6,0,B|364:104|280:132|232:84,1,170,4|8,0:0|0:0,0:0:0:0:
180,32,126516,2,0,B|148:72|92:60,1,85,0|2,0:0|0:0,0:0:0:0:
172,140,126802,2,0,B|172:192|116:224,1,85,0|8,0:0|0:0,0:0:0:0:
260,188,127088,2,0,B|284:228|264:280,1,85,2|2,0:0|0:0,0:0:0:0:
196,328,127374,2,0,B|108:324,1,85,2|8,0:0|0:0,0:0:0:0:
24,276,127659,2,0,B|68:328|152:300|156:216,1,170,2|2,0:0|0:0,0:0:0:0:
156,92,128088,1,8,0:0:0:0:
96,160,128231,1,8,0:0:0:0:
208,164,128374,6,0,B|264:168|304:168,1,85,4|0,0:0|0:0,0:0:0:0:
372,192,128659,1,8,0:0:0:0:
304,248,128802,1,0,0:0:0:0:
352,112,128945,2,0,B|360:64|348:20,1,85,2|2,0:0|0:0,0:0:0:0:
272,80,129231,1,8,0:0:0:0:
200,28,129374,2,0,B|148:108|200:192,1,170,2|2,0:0|0:0,0:0:0:0:
104,164,129802,2,0,B|144:260,1,85,8|2,0:0|0:0,0:0:0:0:
176,316,130088,1,2,0:0:0:0:
176,316,130159,1,2,0:0:0:0:
176,316,130231,1,2,0:0:0:0:
256,240,130374,5,8,0:0:0:0:
256,240,130659,2,0,B|308:236|360:240,1,85,4|0,0:0|0:0,0:0:0:0:
256,144,130945,2,0,B|204:148|152:144,1,85,8|0,0:0|0:0,0:0:0:0:
171,145,131231,2,0,B|168:208|168:252,1,85,2|2,0:0|0:0,0:0:0:0:
340,238,131516,2,0,B|344:176|344:132,1,85,8|2,0:0|0:0,0:0:0:0:
260,332,131802,1,2,0:0:0:0:
348,328,131945,1,2,0:0:0:0:
340,238,132088,1,8,0:0:0:0:
432,232,132231,1,2,0:0:0:0:
428,140,132374,1,2,0:0:0:0:
425,118,132445,1,0,0:0:0:0:
423,96,132516,1,2,0:0:0:0:
420,74,132588,1,0,0:0:0:0:
418,52,132659,1,8,0:0:0:0:
328,60,132802,1,8,0:0:0:0:
236,68,132945,6,0,B|144:88|64:40,1,170,4|8,0:0|0:0,0:0:0:0:
80,128,133374,2,0,B|108:232,1,85,0|2,0:0|0:0,0:0:0:0:
36,272,133659,2,0,B|8:168,1,85,2|8,0:0|0:0,0:0:0:0:
164,152,133945,2,0,B|220:120|292:164|280:240,1,170,2|0,0:0|0:0,0:0:0:0:
216,280,134374,1,8,0:0:0:0:
284,340,134516,2,0,B|340:336|376:332,1,85,2|2,0:0|0:0,0:0:0:0:
448,368,134802,1,2,0:0:0:0:
472,284,134945,2,0,B|476:240|472:200,1,85,8|0,0:0|0:0,0:0:0:0:
420,104,135231,6,0,B|332:112|244:108,1,170,4|8,0:0|0:0,0:0:0:0:
272,192,135659,2,0,B|324:188|360:192,1,85,0|2,0:0|0:0,0:0:0:0:
312,72,135945,2,0,B|260:76|224:72,1,85,0|8,0:0|0:0,0:0:0:0:
152,136,136231,2,0,B|136:184|156:232,1,85,2|0,0:0|0:0,0:0:0:0:
224,268,136516,2,0,B|240:312|228:360,1,85,2|8,0:0|0:0,0:0:0:0:
140,360,136802,2,0,B|76:376|24:300|68:240,1,170,2|2,0:0|0:0,0:0:0:0:
116,184,137231,1,8,0:0:0:0:
64,112,137374,1,8,0:0:0:0:
112,40,137516,6,0,B|144:68|200:60,1,85,4|0,0:0|0:0,0:0:0:0:
284,52,137802,2,0,B|456:28,1,170,8|2,0:0|0:0,0:0:0:0:
396,120,138231,1,2,0:0:0:0:
396,120,138374,2,0,B|500:112,1,85,8|2,0:0|0:0,0:0:0:0:
376,212,138659,2,0,B|480:204,1,85,2|0,0:0|0:0,0:0:0:0:
348,300,138945,2,0,B|444:292,1,85,8|2,0:0|0:0,0:0:0:0:
248,212,139231,1,2,0:0:0:0:
248,212,139302,1,0,0:0:0:0:
248,212,139374,2,0,B|236:168|248:120,1,85,2|8,0:0|0:0,0:0:0:0:
280,44,139659,1,0,0:0:0:0:
328,168,139802,5,4,0:0:0:0:
160,160,139945,1,0,0:0:0:0:
280,44,140088,1,8,0:0:0:0:
248,128,140231,1,0,0:0:0:0:
180,72,140374,2,0,B|112:80|64:88,1,85,2|2,0:0|0:0,0:0:0:0:
328,112,140659,2,0,B|396:104|444:96,1,85,8|2,0:0|0:0,0:0:0:0:
216,208,140945,2,0,B|192:248|200:304,1,85,0|2,0:0|0:0,0:0:0:0:
280,344,141231,2,0,B|304:304|296:248,1,85,8|2,0:0|0:0,0:0:0:0:
380,200,141516,1,2,0:0:0:0:
380,200,141588,1,2,0:0:0:0:
380,200,141659,1,2,0:0:0:0:
380,200,141731,1,2,0:0:0:0:
380,200,141802,2,0,B|472:164,1,85,8|8,0:0|0:0,0:0:0:0:
416,284,142088,6,0,B|332:316|248:348,1,170,4|8,0:0|0:0,0:0:0:0:
120,112,142659,2,0,B|204:80|288:48,1,170,2|8,0:0|0:0,0:0:0:0:
256,140,143088,1,2,0:0:0:0:
192,200,143231,2,0,B|144:208|104:184,2,85,0|0|8,0:0|0:0|0:0,0:0:0:0:
256,264,143659,2,0,B|276:200|364:184|408:248,1,170,2|2,0:0|0:0,0:0:0:0:
368,308,144088,1,8,0:0:0:0:
324,84,144374,6,0,B|240:48|256:120|160:84,2,170,4|8|2,0:0|0:0|0:0,0:0:0:0:
404,120,145088,1,2,0:0:0:0:
336,164,145231,2,0,B|328:216|324:260,1,85,8|2,0:0|0:0,0:0:0:0:
268,312,145516,1,2,0:0:0:0:
176,272,145659,1,2,0:0:0:0:
252,212,145802,1,8,0:0:0:0:
268,312,145945,1,2,0:0:0:0:
148,288,146088,2,0,B|100:288|56:300,1,85,2|2,0:0|0:0,0:0:0:0:
80,200,146374,2,0,B|128:200|172:188,1,85,8|0,0:0|0:0,0:0:0:0:
216,100,146659,6,0,B|196:40|124:20|68:64,1,170,4|8,0:0|0:0,0:0:0:0:
200,192,147088,2,0,B|219:252|292:272|348:228,1,170,2|2,0:0|0:0,0:0:0:0:
132,132,147516,2,0,B|72:152|52:224|96:280,1,170,8|4,0:0|0:0,0:0:0:0:
90,271,148088,1,8,0:0:0:0:
156,332,148231,2,0,B|324:316,1,170,2|2,0:0|0:0,0:0:0:0:
432,252,148659,2,0,B|408:192|320:188|284:252,1,170,8|4,0:0|0:0,0:0:0:0:
280,140,149088,2,0,B|280:88|284:40,1,85
360,100,149374,5,12,0:2:0:0:
360,100,149516,2,0,B|356:156|356:192,1,85,2|2,0:0|0:0,0:0:0:0:
200,200,149802,5,12,0:2:0:0:
200,200,149945,2,0,B|196:152|200:96,1,85,2|2,0:0|0:0,0:0:0:0:
100,72,150231,5,12,0:2:0:0:
100,72,150374,2,0,B|96:116|100:168,1,85,2|2,0:0|0:0,0:0:0:0:
132,284,150659,5,12,0:2:0:0:
372,352,150945,1,12,0:2:0:0:
476,96,151231,1,4,0:0:0:0:
256,32,160374,5,4,0:2:0:0:
256,344,160945,1,0,0:0:0:0:
136,192,161516,1,2,0:0:0:0:
256,192,161802,1,2,0:0:0:0:
376,192,162088,1,4,0:3:0:0:
468,192,162659,5,2,0:0:0:0:
52,192,163231,1,0,0:0:0:0:
256,72,163802,1,2,0:0:0:0:
256,192,164088,1,2,0:0:0:0:
256,312,164374,1,4,0:3:0:0:
256,192,164945,5,4,0:2:0:0:
256,192,165088,12,4,168374,0:0:0:0:
256,192,168659,6,0,B|252:144,12,42.5,0|0|0|0|4|0|0|0|0|0|0|0|4,3:0|0:0|0:0|0:0|0:3|0:0|0:0|0:0|0:0|0:0|0:0|0:0|3:2,0:0:0:0:
256,192,169802,1,0,0:0:0:0:
176,176,169945,2,0,B|124:168|88:192,2,85,2|4|0,0:0|0:3|0:0,0:0:0:0:
208,100,170374,2,0,B|192:56|136:40,2,85,2|0|0,0:0|0:0|3:2,0:0:0:0:
288,112,170802,1,2,0:0:0:0:
344,176,170945,2,0,B|396:184|432:168,1,85,0|2,3:0|0:0,0:0:0:0:
396,264,171231,2,0,B|368:352,1,85,4|2,0:3|0:0,0:0:0:0:
308,276,171516,2,0,B|280:236|216:240,1,85,2|0,0:0|0:0,0:0:0:0:
156,280,171802,5,2,3:2:0:0:
156,280,171945,1,0,0:0:0:0:
80,232,172088,1,0,0:0:0:0:
80,232,172231,2,0,B|40:132|120:64,1,170,2|0,0:0|0:0,0:0:0:0:
107,75,172659,1,0,0:0:0:0:
164,144,172802,2,0,B|336:116,1,170,2|2,0:0|0:0,0:0:0:0:
416,96,173231,2,0,B|480:84|508:80,1,85,0|2,3:0|0:0,0:0:0:0:
480,180,173516,2,0,B|436:180|388:168,1,85,4|2,0:3|0:0,0:0:0:0:
336,40,173802,2,0,B|380:40|428:52,1,85,2|0,0:0|0:0,0:0:0:0:
492,264,174088,5,4,3:2:0:0:
492,264,174231,2,0,B|432:256|384:260,1,85
312,132,174516,1,2,0:0:0:0:
312,132,174659,2,0,B|380:132|424:140,1,85,4|0,0:3|0:0,0:0:0:0:
208,252,174945,1,2,0:0:0:0:
208,252,175088,2,0,B|256:252|312:248,1,85,0|0,0:0|3:0,0:0:0:0:
216,96,175374,1,2,0:0:0:0:
216,96,175517,2,0,B|168:96|112:100,1,85,0|2,3:0|0:0,0:0:0:0:
64,304,175802,2,0,B|112:312|152:288,1,85,4|0,0:3|0:0,0:0:0:0:
31,147,176088,2,0,B|15:191|39:231,1,85,2|0,0:0|0:0,0:0:0:0:
172,104,176374,5,0,3:0:0:0:
112,166,176516,2,0,B|60:174|24:142,1,85
200,208,176802,2,0,B|296:176|352:264,1,170,2|0,0:0|0:0,0:0:0:0:
312,360,177231,1,0,0:0:0:0:
200,336,177374,1,2,0:0:0:0:
200,336,177516,2,0,B|136:344|92:356,1,85,0|0,3:0|0:0,0:0:0:0:
28,256,177802,2,0,B|92:248|136:236,1,85,0|0,3:0|0:0,0:0:0:0:
188,192,178088,5,4,0:3:0:0:
256,260,178231,1,0,0:0:0:0:
256,260,178302,1,0,3:0:0:0:
256,260,178374,1,0,3:0:0:0:
324,192,178516,1,0,3:0:0:0:
256,124,178659,6,0,B|236:88|240:56,3,42.5,0|0|0|0,3:0|0:0|0:0|0:0,0:0:0:0:
248,164,178945,2,0,B|268:200|264:232,3,42.5,0|0|0|0,3:0|0:0|0:0|0:0,0:0:0:0:
212,124,179231,2,0,B|192:88|196:56,3,42.5,4|0|0|0,3:3|0:0|0:0|0:0,0:0:0:0:
204,164,179516,2,0,B|224:200|220:232,3,42.5,0|0|0|0,3:0|0:0|0:0|0:0,0:0:0:0:
168,132,179802,6,0,B|124:104|120:92,3,42.5,0|0|0|0,3:0|0:0|0:0|0:0,0:0:0:0:
144,172,180088,2,0,B|188:200|192:212,3,42.5,0|0|0|0,3:0|0:0|0:0|0:0,0:0:0:0:
104,152,180374,2,0,B|60:124|56:112,3,42.5,4|0|0|0,3:3|0:0|0:0|0:0,0:0:0:0:
112,208,180660,2,0,B|156:236|160:248,3,42.5,0|0|0|0,3:0|0:0|0:0|0:0,0:0:0:0:
72,196,180945,6,0,B|44:184|12:188,3,42.5,0|0|0|0,3:0|0:0|0:0|0:0,0:0:0:0:
84,252,181231,2,0,B|112:264|144:260,3,42.5,0|0|0|0,3:0|0:0|0:0|0:0,0:0:0:0:
44,244,181516,2,0,B|16:232|-16:236,3,42.5,4|0|0|0,3:3|0:0|0:0|0:0,0:0:0:0:
72,288,181802,2,0,B|100:300|132:296,3,42.5,0|0|0|0,3:0|0:0|0:0|0:0,0:0:0:0:
256,192,182088,12,4,183231,0:0:0:0:
188,224,183516,5,4,3:3:0:0:
188,224,183659,2,0,B|180:144|196:104,2,85,2|0|2,0:0|3:0|0:0,0:0:0:0:
312,260,184088,2,0,B|320:340|304:380,2,85,4|2|2,3:3|0:0|3:2,0:0:0:0:
264,180,184516,1,2,0:2:0:0:
344,128,184659,1,4,3:3:0:0:
260,84,184802,1,2,0:0:0:0:
336,212,184945,2,0,B|400:216|436:212,1,85,2|0,3:2|0:0,0:0:0:0:
464,104,185231,2,0,B|400:100|364:104,1,85,4|2,3:0|0:0,0:0:0:0:
244,156,185516,6,0,B|152:160|68:152,1,170,0|4,3:0|3:3,0:0:0:0:
80,76,185945,1,2,0:0:0:0:
156,72,186088,2,0,B|200:80|260:72,1,85,2|2,3:2|0:0,0:0:0:0:
324,64,186374,2,0,B|372:60|428:64,1,85,4|2,3:0|0:0,0:0:0:0:
480,120,186659,2,0,B|472:160|460:212,1,85,2|0,3:2|0:0,0:0:0:0:
328,228,186945,2,0,B|336:188|344:140,1,85,4|2,3:0|0:0,0:0:0:0:
400,284,187231,1,2,3:2:0:0:
232,40,187516,1,2,3:2:0:0:
84,240,187802,6,0,B|136:284|212:244|208:176,1,170,4|4,3:2|3:0,0:0:0:0:
152,120,188231,1,2,0:0:0:0:
76,76,188374,2,0,B|80:124|80:176,1,85,0|2,3:0|0:0,0:0:0:0:
232,116,188659,2,0,B|292:112|344:112,1,85,4|2,3:0|0:0,0:0:0:0:
400,104,188945,1,0,3:0:0:0:
484,96,189088,1,2,0:0:0:0:
400,104,189231,1,4,3:0:0:0:
392,20,189374,1,2,0:0:0:0:
360,188,189516,2,0,B|312:200|264:196,1,85,2|0,3:2|0:0,0:0:0:0:
184,188,189802,1,4,3:0:0:0:
184,188,189945,1,2,0:0:0:0:
124,256,190088,6,0,B|160:288|216:272,2,85,0|0|4,3:0|0:0|3:0,0:0:0:0:
80,180,190516,2,0,B|60:116|112:80|112:80|68:32,1,170,2|0,0:0|0:0,0:0:0:0:
192,100,190945,1,4,3:0:0:0:
192,100,191088,2,0,B|368:88,1,170,2|0,0:0|0:0,0:0:0:0:
440,124,191516,2,0,B|460:84|436:40,1,85,4|2,3:3|0:2,0:0:0:0:
352,176,191802,2,0,B|384:208|432:204,1,85,2|0,3:2|0:0,0:0:0:0:
356,276,192088,2,0,B|344:328|384:368,1,85,4|0,3:0|0:0,0:0:0:0:
448,296,192374,1,4,0:0:0:0:
156,292,195802,5,0,0:0:0:0:
146,272,195874,1,0,0:0:0:0:
144,250,195945,1,0,0:0:0:0:
149,229,196016,1,0,0:0:0:0:
162,212,196088,1,4,0:3:0:0:
179,199,196159,1,0,0:0:0:0:
195,184,196231,1,0,0:0:0:0:
200,163,196302,1,0,0:0:0:0:
196,140,196374,2,0,L|208:76,7,42.5,0|0|0|0|4|0|0|0,0:0|0:0|0:0|0:0|0:3|0:0|0:0|0:0,0:0:0:0:
200,163,196945,6,0,B|176:104|100:84|52:140,1,170,4|4,0:0|2:3,0:0:0:0:
304,224,198088,2,0,B|444:240,2,127.5
164,96,199231,6,0,B|188:44|280:32|312:96,1,170,4|4,0:2|2:3,0:0:0:0:
176,232,200374,2,0,B|100:256|52:192,2,127.5,0|0|0,0:0|0:0|0:0,0:0:0:0:
312,176,201516,6,0,B|400:140,1,85,4|0,0:0|0:0,0:0:0:0:
256,280,201802,2,0,B|168:316,1,85,8|0,0:0|0:0,0:0:0:0:
224,192,202088,2,0,B|216:100,1,85,2|2,0:0|0:0,0:0:0:0:
344,260,202374,2,0,B|352:352,1,85,8|2,0:0|0:0,0:0:0:0:
312,176,202659,2,0,B|360:84,1,85,2|2,0:0|0:0,0:0:0:0:
256,280,202945,2,0,B|204:356,1,85,8|2,0:0|0:0,0:0:0:0:
152,260,203231,2,0,B|136:152,1,85,2|2,0:0|0:0,0:0:0:0:
192,32,203516,2,0,B|208:140,1,85,8|0,0:0|0:0,0:0:0:0:
68,232,203802,6,0,B|4:220|-12:132|44:96,1,170,4|8,0:0|0:0,0:0:0:0:
38,99,204374,2,0,B|92:116|140:120,1,85,2|2,0:0|0:0,0:0:0:0:
212,132,204659,1,8,0:0:0:0:
296,92,204802,1,2,0:0:0:0:
380,112,204945,2,0,B|400:172|404:220,1,85,2|2,0:0|0:0,0:0:0:0:
216,264,205231,2,0,B|196:204|192:156,1,85,8|2,0:0|0:0,0:0:0:0:
320,180,205516,2,0,B|315:230|295:274,1,85,2|2,0:0|0:0,0:0:0:0:
104,200,205802,2,0,B|108:149|128:105,1,85,8|2,0:0|0:0,0:0:0:0:
204,44,206088,6,0,B|256:8|328:32|336:96,1,170,4|8,0:0|0:0,0:0:0:0:
320,180,206516,2,0,B|312:224|320:268,1,85,0|2,0:0|0:0,0:0:0:0:
416,304,206802,2,0,B|420:248|412:208,1,85,2|8,0:0|0:0,0:0:0:0:
252,136,207088,2,0,B|164:128|80:140,1,170,2|2,0:0|0:0,0:0:0:0:
148,204,207516,1,8,0:0:0:0:
204,44,207659,2,0,B|296:52,1,85,2|2,0:0|0:0,0:0:0:0:
376,32,207945,2,0,B|384:144,1,85,2|8,0:0|0:0,0:0:0:0:
388,200,208231,1,2,0:0:0:0:
312,268,208374,6,0,B|252:248|244:164|308:136,1,170,4|8,0:0|0:0,0:0:0:0:
220,184,208802,2,0,B|177:203|131:200,1,85,0|2,0:0|0:0,0:0:0:0:
80,136,209088,2,0,B|123:117|169:120,1,85,2|8,0:0|0:0,0:0:0:0:
192,280,209374,2,0,B|96:300|20:244,1,170,2|2,0:0|0:0,0:0:0:0:
29,250,209802,2,0,B|23:203|15:167,1,85,8|2,0:0|0:0,0:0:0:0:
68,52,210088,5,2,0:0:0:0:
76,56,210159,1,2,0:0:0:0:
84,60,210231,1,2,0:0:0:0:
92,64,210302,1,2,0:0:0:0:
100,68,210374,1,8,0:0:0:0:
108,72,210445,1,8,0:0:0:0:
116,76,210516,1,8,0:0:0:0:
124,80,210588,1,8,0:0:0:0:
132,84,210659,2,0,B|176:96|216:68,1,85,4|0,0:0|0:0,0:0:0:0:
356,144,210945,6,0,B|312:156|272:128,1,85,8|0,0:0|0:0,0:0:0:0:
148,216,211231,2,0,B|192:228|232:200,1,85,2|2,0:0|0:0,0:0:0:0:
356,296,211516,2,0,B|312:308|272:280,1,85,8|2,0:0|0:0,0:0:0:0:
196,316,211802,2,0,B|100:336,1,85,2|2,0:0|0:0,0:0:0:0:
328,216,212088,2,0,B|424:236,1,85,8|2,0:0|0:0,0:0:0:0:
176,136,212374,2,0,B|80:156,1,85,2|2,0:0|0:0,0:0:0:0:
328,68,212659,2,0,B|424:88,1,85,8|0,0:0|0:0,0:0:0:0:
176,36,212945,5,4,0:0:0:0:
244,88,213088,1,0,0:0:0:0:
260,172,213231,1,8,0:0:0:0:
208,236,213374,1,0,0:0:0:0:
240,316,213516,2,0,B|284:288|336:300,1,85,2|2,0:0|0:0,0:0:0:0:
424,188,213802,2,0,B|384:224|328:204,1,85,8|2,0:0|0:0,0:0:0:0:
176,152,214088,2,0,B|76:112,1,85,2|2,0:0|0:0,0:0:0:0:
112,236,214374,2,0,B|152:336,1,85,8|2,0:0|0:0,0:0:0:0:
240,316,214659,1,2,0:0:0:0:
280,296,214731,1,2,0:0:0:0:
320,288,214802,1,2,0:0:0:0:
364,292,214874,1,2,0:0:0:0:
404,304,214945,1,8,0:0:0:0:
468,248,215088,1,8,0:0:0:0:
388,188,215231,6,0,B|380:112|388:16,1,170,4|8,0:0|0:0,0:0:0:0:
464,84,215659,2,0,B|468:132|468:176,1,85,0|2,0:0|0:0,0:0:0:0:
308,180,215945,2,0,B|304:140|308:88,1,85,2|8,0:0|0:0,0:0:0:0:
252,28,216231,1,2,0:0:0:0:
252,28,216516,2,0,B|160:64,1,85,2|8,0:0|0:0,0:0:0:0:
132,216,216802,2,0,B|128:124,1,85,2|2,0:0|0:0,0:0:0:0:
16,20,217088,2,0,B|108:64,1,85,2|8,0:0|0:0,0:0:0:0:
232,124,217374,1,2,0:0:0:0:
292,192,217516,6,0,B|248:240|168:224|148:156,1,170,4|8,0:0|0:0,0:0:0:0:
56,124,217945,2,0,B|52:172|56:216,1,85,0|2,0:0|0:0,0:0:0:0:
152,252,218231,2,0,B|156:204|152:160,1,85,0|8,0:0|0:0,0:0:0:0:
64,336,218516,2,0,B|104:356|152:336,1,85,2|2,0:0|0:0,0:0:0:0:
220,304,218802,2,0,B|316:288,1,85,2|8,0:0|0:0,0:0:0:0:
388,328,219088,1,2,0:0:0:0:
464,272,219231,5,2,0:0:0:0:
452,256,219302,1,0,0:0:0:0:
444,236,219374,1,2,0:0:0:0:
440,216,219445,1,0,0:0:0:0:
440,196,219516,1,8,0:0:0:0:
444,176,219588,1,0,0:0:0:0:
452,156,219659,1,8,0:0:0:0:
460,136,219731,1,0,0:0:0:0:
472,120,219802,2,0,B|420:136|372:128,1,85,4|0,0:0|0:0,0:0:0:0:
332,200,220088,6,0,B|284:204|236:188,1,85,8|0,0:0|0:0,0:0:0:0:
264,108,220374,2,0,B|224:120|176:116,1,85,2|2,0:0|0:0,0:0:0:0:
128,184,220659,2,0,B|80:180|40:156,1,85,8|2,0:0|0:0,0:0:0:0:
168,268,220945,2,0,B|112:280|72:272,1,85,0|2,0:2|0:0,0:0:0:0:
248,336,221231,2,0,B|304:324|344:332,1,85,8|2,0:0|0:0,0:0:0:0:
416,348,221516,1,2,0:0:0:0:
416,348,221588,1,0,0:0:0:0:
416,348,221659,1,2,0:0:0:0:
484,224,221802,5,8,0:0:0:0:
484,224,222088,2,0,B|472:140,1,85,4|0,0:0|0:0,0:0:0:0:
384,112,222374,2,0,B|396:196,1,85,8|0,0:0|0:0,0:0:0:0:
296,152,222659,2,0,B|312:44,1,85,2|2,0:0|0:0,0:0:0:0:
220,95,222945,2,0,B|204:196,1,85,8|2,0:0|0:0,0:0:0:0:
128,116,223231,2,0,B|116:24,1,85,2|2,0:0|0:0,0:0:0:0:
40,84,223516,2,0,B|52:176,1,85,8|2,0:0|0:0,0:0:0:0:
76,280,223802,1,2,0:0:0:0:
76,280,223874,1,2,0:0:0:0:
76,280,223945,1,2,0:0:0:0:
76,280,224016,1,2,0:0:0:0:
76,280,224088,1,8,0:0:0:0:
208,360,224231,1,8,0:0:0:0:
288,296,224374,6,0,B|336:264|396:284,1,102.00000243187,4|0,0:0|0:0,0:0:0:0:
464,204,224659,2,0,B|432:156|452:96,1,102.00000243187,8|2,0:0|0:0,0:0:0:0:
364,40,224945,2,0,B|316:72|256:52,1,102.00000243187,8|2,0:0|0:0,0:0:0:0:
192,136,225231,2,0,B|224:184|204:244,1,102.00000243187,8|2,0:0|0:0,0:0:0:0:
8,92,225516,6,0,B|56:64|112:76,1,102.00000243187,8|2,0:0|0:0,0:0:0:0:
136,268,225802,2,0,B|88:296|32:284,1,102.00000243187,8|2,0:0|0:0,0:0:0:0:
76,168,226088,2,0,B|124:136|184:156,1,102.00000243187,8|2,0:0|0:0,0:0:0:0:
200,344,226374,2,0,B|152:376|92:356,1,102.00000243187,8|2,0:0|0:0,0:0:0:0:
236,244,226659,5,12,0:0:0:0:
236,244,226802,1,2,0:0:0:0:
320,288,226945,1,8,0:0:0:0:
320,288,227088,1,2,0:0:0:0:
364,204,227231,1,8,0:0:0:0:
364,204,227374,1,2,0:0:0:0:
280,160,227516,1,8,0:0:0:0:
280,160,227659,1,2,0:0:0:0:
176,180,227802,6,0,B|136:224|160:292,1,102.00000243187,8|2,0:0|0:0,0:0:0:0:
96,152,228088,2,0,B|60:104|0:108,1,102.00000243187,8|2,0:0|0:0,0:0:0:0:
12,208,228374,1,8,0:0:0:0:
96,152,228516,1,2,0:0:0:0:
72,288,228659,1,8,0:0:0:0:
208,312,228802,1,8,0:0:0:0:
248,180,228945,2,0,B|296:160|344:172,1,85,4|0,0:0|0:0,0:0:0:0:
304,256,229231,5,8,0:0:0:0:
304,256,229516,2,0,B|256:272|208:264,1,85,2|2,0:0|0:0,0:0:0:0:
160,184,229802,1,8,0:0:0:0:
192,96,229945,2,0,B|280:56|372:92,1,170,2|2,0:0|0:0,0:0:0:0:
432,136,230374,2,0,B|444:184|428:228,1,85,8|2,0:0|0:0,0:0:0:0:
380,364,230659,1,2,0:0:0:0:
380,364,230731,1,2,0:0:0:0:
380,364,230802,1,2,0:0:0:0:
296,312,230945,5,8,0:0:0:0:
296,312,231231,2,0,B|248:292|196:300,1,85,4|0,0:0|0:0,0:0:0:0:
224,72,231516,2,0,B|272:92|320:84,1,85,8|0,0:0|0:0,0:0:0:0:
132,224,231802,2,0,B|148:184|144:124,1,85,2|2,0:0|0:0,0:0:0:0:
380,160,232088,2,0,B|360:204|368:264,1,85,8|2,0:0|0:0,0:0:0:0:
212,224,232374,5,0,0:0:0:0:
220,148,232516,1,2,0:0:0:0:
296,160,232659,1,8,0:0:0:0:
288,236,232802,1,2,0:0:0:0:
236,300,232945,1,2,0:0:0:0:
220,304,233016,1,2,0:0:0:0:
204,308,233088,1,2,0:0:0:0:
188,312,233159,1,2,0:0:0:0:
172,316,233231,1,8,0:0:0:0:
100,208,233374,5,8,0:0:0:0:
40,264,233516,2,0,B|-12:212|20:124|96:128,1,170,4|8,0:0|0:0,0:0:0:0:
380,192,234088,2,0,B|432:244|400:332|324:328,1,170,2|8,0:0|0:0,0:0:0:0:
272,292,234516,1,2,0:0:0:0:
260,208,234659,2,0,B|264:164|264:112,1,85,0|2,0:0|0:0,0:0:0:0:
180,164,234945,2,0,B|176:216|176:264,1,85,8|2,0:0|0:0,0:0:0:0:
176,332,235231,1,2,0:0:0:0:
176,332,235302,1,2,0:0:0:0:
176,332,235374,1,2,0:0:0:0:
96,296,235516,2,0,B|52:292|8:292,1,85,8|2,0:0|0:0,0:0:0:0:
64,140,235802,6,0,B|160:152|236:148,1,170,4|8,0:0|0:0,0:0:0:0:
233,148,236374,2,0,B|280:144|328:152,1,85,2|0,0:0|0:0,0:0:0:0:
278,235,236659,2,0,B|232:240|184:232,1,85,8|2,0:0|0:0,0:0:0:0:
120,192,236945,1,0,0:0:0:0:
88,112,237088,1,2,0:0:0:0:
172,120,237231,1,8,0:0:0:0:
184,32,237374,1,2,0:0:0:0:
260,84,237516,1,2,0:0:0:0:
276,72,237588,1,2,0:0:0:0:
296,64,237659,1,2,0:0:0:0:
316,64,237731,1,0,0:0:0:0:
336,72,237802,2,0,B|384:92|432:84,1,85,8|0,0:0|0:0,0:0:0:0:
336,164,238088,6,0,B|280:204|300:296|376:304,1,170,4|8,0:0|0:0,0:0:0:0:
428,356,238516,2,0,B|484:316|464:224|388:216,1,170,2|2,0:0|0:0,0:0:0:0:
244,304,238945,1,8,0:0:0:0:
244,304,239231,2,0,B|192:356|112:328|108:260,1,170,4|8,0:0|0:0,0:0:0:0:
56,192,239659,2,0,B|108:140|188:168|192:236,1,170,2|2,0:0|0:0,0:0:0:0:
256,64,240088,5,8,0:0:0:0:
256,64,240374,2,0,B|160:72,1,85,4|0,0:0|0:0,0:0:0:0:
171,71,240659,1,0,0:0:0:0:
256,164,240802,2,0,B|352:172,1,85,12|2,0:2|0:0,0:0:0:0:
340,171,241087,1,2,0:0:0:0:
256,268,241231,2,0,B|160:276,1,85,12|2,0:2|0:0,0:0:0:0:
171,275,241516,1,2,0:0:0:0:
256,360,241659,2,0,B|352:368,1,85,12|2,0:2|0:0,0:0:0:0:
340,367,241944,1,2,0:0:0:0:
436,336,242088,6,0,B|452:296|440:244,1,85,4|2,0:2|0:0,0:0:0:0:
412,156,242374,1,12,0:2:0:0:
412,156,242445,1,8,0:0:0:0:
412,156,242516,1,8,0:0:0:0:
412,156,242588,1,8,0:0:0:0:
412,156,242659,2,0,B|480:160|512:88|480:36,1,170,4|8,0:0|0:0,0:0:0:0:
404,64,243088,1,2,0:2:0:0:
324,40,243231,2,0,B|268:40|204:44,1,85,2|2,0:0|0:0,0:0:0:0:
212,188,243516,2,0,B|268:188|332:184,1,85,8|2,0:0|0:0,0:0:0:0:
168,104,243802,6,0,B|112:88|76:120|76:120|36:120|16:80,1,170,2|8,0:2|0:0,0:0:0:0:
80,28,244231,1,2,0:0:0:0:
164,28,244374,2,0,B|208:32|252:28,1,85,2|2,0:0|0:0,0:0:0:0:
348,112,244659,2,0,B|304:108|260:112,1,85,8|2,0:0|0:0,0:0:0:0:
152,252,244945,6,0,B|248:272|336:252,1,170,2|8,0:0|0:0,0:0:0:0:
408,216,245374,1,2,0:2:0:0:
400,308,245516,2,0,B|364:340|304:344,1,85,2|2,0:0|0:0,0:0:0:0:
272,176,245802,2,0,B|308:144|368:140,1,85,8|2,0:0|0:0,0:0:0:0:
440,140,246088,5,2,0:2:0:0:
332,240,246231,1,2,0:0:0:0:
272,92,246374,1,8,0:0:0:0:
348,142,246516,1,2,0:0:0:0:
272,176,246659,2,0,B|224:192|176:168,1,85,2|2,0:0|0:0,0:0:0:0:
96,40,246945,5,8,0:0:0:0:
188,100,247088,1,8,0:0:0:0:
88,156,247231,2,0,B|32:204|60:288|124:292,1,170,4|8,0:0|0:0,0:0:0:0:
192,256,247659,1,2,0:2:0:0:
268,296,247802,2,0,B|312:292|360:296,1,85,2|2,0:0|0:0,0:0:0:0:
496,360,248088,2,0,B|452:364|404:360,1,85,8|2,0:0|0:0,0:0:0:0:
320,212,248374,6,0,B|332:148|424:128|464:192,1,170,2|8,0:2|0:0,0:0:0:0:
432,264,248802,1,2,0:0:0:0:
384,340,248945,2,0,B|344:320|315:282,1,85,2|2,0:0|0:0,0:0:0:0:
254,158,249231,2,0,B|293:177|322:215,1,85,8|2,0:0|0:0,0:0:0:0:
192,320,249516,6,0,B|124:316|92:240|144:184,1,170,2|8,0:0|0:0,0:0:0:0:
188,128,249945,1,2,0:2:0:0:
148,56,250088,2,0,B|104:44|60:48,1,85,2|2,0:0|0:0,0:0:0:0:
244,56,250374,2,0,B|288:68|332:64,1,85,8|2,0:0|0:0,0:0:0:0:
416,52,250659,5,2,0:2:0:0:
440,184,250802,1,2,0:0:0:0:
352,144,250945,1,8,0:0:0:0:
376,268,251088,1,2,0:0:0:0:
280,216,251231,5,2,0:0:0:0:
256,208,251302,1,2,0:0:0:0:
232,212,251374,1,2,0:0:0:0:
212,228,251445,1,2,0:0:0:0:
200,252,251516,1,8,0:0:0:0:
200,276,251588,1,8,0:0:0:0:
212,300,251659,1,8,0:0:0:0:
232,316,251731,1,8,0:0:0:0:
252,324,251802,2,0,B|144:336,1,102.00000243187,12|0,0:0|0:0,0:0:0:0:
388,196,252088,6,0,B|400:304,1,102.00000243187,8|2,0:0|0:0,0:0:0:0:
260,60,252374,2,0,B|368:48,1,102.00000243187,8|2,0:0|0:0,0:0:0:0:
124,188,252659,2,0,B|112:80,1,102.00000243187,8|2,0:0|0:0,0:0:0:0:
312,252,252945,6,0,B|300:144,1,102.00000243187,8|2,0:0|0:0,0:0:0:0:
140,328,253231,2,0,B|248:316,1,102.00000243187,8|2,0:0|0:0,0:0:0:0:
48,176,253516,2,0,B|60:284,1,102.00000243187,8|2,0:0|0:0,0:0:0:0:
220,108,253802,2,0,B|112:120,1,102.00000243187,8|2,0:0|0:0,0:0:0:0:
192,216,254088,5,8,0:0:0:0:
192,216,254231,1,2,0:0:0:0:
368,168,254374,1,8,0:0:0:0:
368,168,254516,1,2,0:0:0:0:
243,275,254659,1,8,0:0:0:0:
243,275,254802,1,2,0:0:0:0:
318,109,254945,1,8,0:0:0:0:
318,109,255087,1,2,0:0:0:0:
320,276,255231,6,0,B|368:308|416:292,1,102.00000243187,8|2,0:0|0:0,0:0:0:0:
272,176,255516,2,0,B|224:144|176:160,1,102.00000243187,8|2,0:0|0:0,0:0:0:0:
96,232,255802,2,0,B|68:336,1,102.00000243187,8|2,0:0|0:0,0:0:0:0:
172,308,256088,1,8,0:0:0:0:
96,140,256231,5,8,0:0:0:0:
96,140,256302,1,8,0:0:0:0:
96,140,256374,2,0,B|72:88|96:28,1,102.00000243187,4|2,0:0|0:0,0:0:0:0:
216,24,256659,2,0,B|240:76|216:136,1,102.00000243187,8|2,0:0|0:0,0:0:0:0:
304,240,256945,2,0,B|284:296|312:348,1,102.00000243187,8|2,0:0|0:0,0:0:0:0:
444,312,257231,2,0,B|464:256|436:204,1,102.00000243187,8|2,0:0|0:0,0:0:0:0:
184,204,257516,6,0,B|80:228,1,102.00000243187,8|2,0:0|0:0,0:0:0:0:
240,328,257802,2,0,B|344:352,1,102.00000243187,8|2,0:0|0:0,0:0:0:0:
364,116,258088,2,0,B|260:144,1,102.00000243187,8|2,0:0|0:0,0:0:0:0:
420,268,258374,2,0,B|452:160,1,102.00000243187,8|2,0:0|0:0,0:0:0:0:
160,292,258659,6,0,B|100:284|56:320,1,102.00000243187,4|2,0:0|0:0,0:0:0:0:
252,248,258945,2,0,B|308:236|356:276,1,102.00000243187,8|2,0:0|0:0,0:0:0:0:
100,204,259231,2,0,B|56:168|72:96,1,101.999996887207,8|2,0:0|0:0,0:0:0:0:
288,44,259516,2,0,B|328:88|312:148,1,101.999996887207,8|2,0:0|0:0,0:0:0:0:
236,332,259802,5,8,0:0:0:0:
245,327,259874,1,0,0:0:0:0:
254,322,259945,1,2,0:0:0:0:
263,317,260016,1,0,0:0:0:0:
272,312,260088,1,8,0:0:0:0:
281,307,260159,1,0,0:0:0:0:
290,302,260231,1,2,0:0:0:0:
299,297,260302,1,0,0:0:0:0:
308,292,260374,2,0,B|336:248,8,50.9999984436036,8|8|8|8|8|8|8|8|0,0:0|0:0|0:0|0:0|0:0|0:0|0:0|0:0|0:0,0:0:0:0:
