osu file format v14

[General]
AudioFilename: audio.mp3
AudioLeadIn: 0
PreviewTime: 59516
Countdown: 0
SampleSet: Normal
StackLeniency: 0.7
Mode: 0
LetterboxInBreaks: 0
WidescreenStoryboard: 0

[Editor]
DistanceSpacing: 0.1
BeatDivisor: 4
GridSize: 4
TimelineZoom: 1.5

[Metadata]
Title:Hades: The rise
TitleUnicode:Hades: The rise
Artist:Yousei Teikoku
ArtistUnicode:妖精帝國
Creator:Delis
Version:Hardest
Source:
Tags:metanoia Mirash
BeatmapID:1402392
BeatmapSetID:662526

[Difficulty]
HPDrainRate:8
CircleSize:4
OverallDifficulty:9
ApproachRate:10
SliderMultiplier:2
SliderTickRate:1

[Events]
//Background and Video events
0,0,"BG.jpg",0,0
//Break Periods
2,28002,31879
2,160663,167879
2,192574,195307
//Storyboard Layer 0 (Background)
//Storyboard Layer 1 (Fail)
//Storyboard Layer 2 (Pass)
//Storyboard Layer 3 (Foreground)
//Storyboard Sound Samples

[TimingPoints]
374,285.714285714286,4,2,1,60,1,0
18659,-100,4,1,1,50,0,0
41516,-133.333333333333,4,2,1,50,0,0
50802,-133.333333333333,4,1,1,50,0,0
59088,-100,4,1,1,50,0,0
59516,-100,4,1,1,60,0,0
68945,-83.3333333333333,4,1,1,60,0,1
69016,-83.3333333333333,4,1,1,60,0,0
78088,-100,4,1,1,60,0,0
87231,-100,4,1,1,50,0,0
105516,-133.333333333333,4,2,1,50,0,0
114802,-133.333333333333,4,1,1,50,0,0
123231,-100,4,1,1,50,0,0
123516,-100,4,1,1,60,0,0
132945,-83.3333333333333,4,1,1,60,0,1
133016,-83.3333333333333,4,1,1,60,0,0
142088,-100,4,1,1,60,0,0
151231,-100,4,1,1,50,0,0
169516,-100,4,2,1,50,0,0
176231,-125,4,2,1,50,0,0
179802,-125,4,2,1,55,0,0
180945,-125,4,2,1,60,0,0
181874,-100,4,2,1,30,0,0
182088,-100,4,1,1,32,0,0
182159,-100,4,1,1,34,0,0
182231,-100,4,1,1,36,0,0
182302,-100,4,1,1,38,0,0
182374,-100,4,1,1,40,0,0
182445,-100,4,1,1,42,0,0
182516,-100,4,1,1,44,0,0
182588,-100,4,1,1,46,0,0
182659,-100,4,1,1,48,0,0
182731,-100,4,1,1,50,0,0
182802,-100,4,1,1,52,0,0
182874,-100,4,1,1,54,0,0
182945,-100,4,1,1,56,0,0
183016,-100,4,1,1,58,0,0
183088,-100,4,1,1,60,0,0
183231,-100,4,2,1,60,0,0
195802,-100,4,1,1,50,0,0
196945,-200,4,1,1,60,0,0
201231,-100,4,1,1,40,0,0
201516,-100,4,1,1,60,0,0
215231,-83.3333333333333,4,1,1,60,0,0
224374,-71.4285714285714,4,1,1,70,0,0
233516,-83.3333333333333,4,1,1,65,0,0

[Colours]
Combo1 : 54,95,91
Combo2 : 107,46,67
Combo3 : 16,82,141
Combo4 : 134,0,134

[HitObjects]
456,328,7231,5,4,0:2:0:0:
28,180,7802,5,4,0:2:0:0:
424,44,8374,5,4,0:2:0:0:
232,72,8516,1,0,3:0:0:0:
336,240,8659,1,8,0:0:0:0:
388,164,8802,5,0,3:0:0:0:
409,185,8874,1,0,3:0:0:0:
423,211,8945,1,0,3:0:0:0:
428,238,9016,1,0,3:0:0:0:
424,268,9088,1,0,3:0:0:0:
414,296,9159,1,0,3:0:0:0:
392,317,9231,2,0,L|363:347,8,25,0|0|0|0|0|0|0|0|4,3:0|0:0|0:0|0:0|0:0|0:0|0:0|0:0|0:0,0:0:0:0:
104,168,9802,5,0,1:0:0:0:
56,252,9945,2,0,B|92:316|196:304|216:224,1,200,2|0,0:0|3:0,0:0:0:0:
432,156,10374,2,0,B|384:120|328:144,1,100,0|0,1:0|3:0,0:0:0:0:
244,336,10659,5,2,0:2:0:0:
368,240,10802,1,0,3:0:0:0:
214,232,10945,1,0,1:0:0:0:
337,141,11088,2,0,B|351:88|314:43,1,100,2|0,3:2|3:2,0:2:0:0:
308,41,11302,1,0,3:0:0:0:
298,36,11374,1,0,3:0:0:0:
288,32,11445,1,0,3:0:0:0:
278,27,11516,1,0,1:2:0:0:
128,120,11659,5,0,3:0:0:0:
128,120,11731,1,0,3:0:0:0:
128,120,11802,2,0,B|184:104|232:132,1,100,2|0,3:2|0:0,0:0:0:0:
416,264,12088,2,0,B|360:280|312:252,1,100,0|2,1:0|0:2,0:0:0:0:
464,136,12374,2,0,B|432:92|456:32,1,100,0|0,3:0|3:0,0:0:0:0:
216,232,12659,2,0,B|248:276|224:336,1,100,0|0,1:0|3:0,0:0:0:0:
56,120,12945,5,2,0:2:0:0:
56,120,13088,1,0,3:0:0:0:
256,44,13231,1,0,1:0:0:0:
140,192,13374,1,2,3:2:0:0:
120,28,13516,5,0,3:0:0:0:
140,32,13588,1,0,3:0:0:0:
156,44,13659,1,0,3:0:0:0:
172,56,13731,1,0,3:0:0:0:
188,72,13802,1,0,1:0:0:0:
196,92,13874,1,0,3:0:0:0:
200,112,13945,1,0,3:0:0:0:
200,132,14016,1,0,3:0:0:0:
192,152,14088,2,0,B|144:180|92:164,1,100,4|0,0:0|0:0,0:0:0:0:
84,332,14374,6,0,B|196:316,1,100,0|2,1:0|0:2,0:0:0:0:
256,44,14659,2,0,B|368:28,1,100,0|0,3:0|3:0,0:0:0:0:
468,172,14945,2,0,B|420:200|368:184,1,100,0|0,1:0|3:0,0:0:0:0:
168,248,15231,5,2,0:2:0:0:
328,120,15374,1,0,3:0:0:0:
296,276,15517,1,0,1:0:0:0:
200,96,15659,1,2,3:2:0:0:
248,208,15802,1,0,3:0:0:0:
286,219,15874,1,0,3:0:0:0:
324,209,15945,1,0,3:0:0:0:
350,179,16016,1,0,3:0:0:0:
360,140,16088,1,0,1:0:0:0:
200,336,16231,5,0,3:0:0:0:
200,336,16302,1,0,3:0:0:0:
200,336,16374,2,0,B|144:328|72:352,1,100,2|0,3:2|0:0,0:0:0:0:
32,184,16659,2,0,B|88:192|160:168,1,100,0|2,1:0|0:2,0:0:0:0:
240,212,16945,1,0,3:0:0:0:
144,256,17088,1,0,3:0:0:0:
116,100,17231,1,0,1:0:0:0:
208,56,17374,1,0,3:0:0:0:
380,276,17516,6,0,B|328:288|268:296,1,100,2|0,0:2|3:0,0:0:0:0:
380,140,17802,1,0,1:0:0:0:
380,140,17945,1,2,3:2:0:0:
256,40,18088,5,0,3:0:0:0:
256,40,18159,1,0,3:0:0:0:
256,40,18231,1,0,3:0:0:0:
256,40,18302,1,0,3:0:0:0:
256,40,18374,1,8,0:0:0:0:
256,40,18445,1,0,3:0:0:0:
256,40,18516,1,0,3:0:0:0:
256,40,18588,1,0,3:0:0:0:
256,40,18659,2,0,B|300:148|216:128|268:236,2,200,4|8|2,0:0|0:0|0:0,0:0:0:0:
188,96,19374,5,2,0:0:0:0:
168,176,19516,2,0,B|176:232|188:280,1,100,8|0,0:0|0:0,0:0:0:0:
348,48,19802,5,2,0:0:0:0:
380,128,19945,1,2,0:0:0:0:
364,212,20088,2,0,B|356:264|352:320,1,100,8|0,0:0|0:0,0:0:0:0:
188,96,20374,5,2,0:0:0:0:
168,176,20516,1,2,0:0:0:0:
240,232,20659,1,8,0:0:0:0:
256,144,20802,1,2,0:0:0:0:
68,180,20945,6,0,B|128:176|188:176,1,100,2|0,0:0|0:0,0:0:0:0:
196,352,21231,2,0,B|136:356|76:356,1,100,8|0,0:0|0:0,0:0:0:0:
328,128,21516,2,0,B|388:120|460:124,1,100,2|2,0:0|0:0,0:0:0:0:
460,312,21802,2,0,B|404:316|340:312,1,100,8|0,0:0|0:0,0:0:0:0:
204,252,22088,5,2,0:0:0:0:
312,248,22231,1,2,0:0:0:0:
260,308,22374,1,8,0:0:0:0:
256,196,22516,1,0,0:0:0:0:
336,344,22659,5,2,0:0:0:0:
196,352,22802,1,2,0:0:0:0:
184,144,22945,1,8,0:0:0:0:
328,128,23088,1,8,0:0:0:0:
76,264,23231,6,0,B|48:220|60:164,1,100,4|0,0:0|0:0,0:0:0:0:
152,48,23516,2,0,B|180:92|168:148,1,100,8|0,0:0|0:0,0:0:0:0:
176,272,23802,2,0,B|216:232|280:248,1,100,2|2,0:0|0:0,0:0:0:0:
464,168,24088,2,0,B|424:208|360:192,1,100,8|0,0:0|0:0,0:0:0:0:
240,120,24374,5,2,0:0:0:0:
312,44,24516,1,2,0:0:0:0:
292,224,24659,1,8,0:0:0:0:
384,244,24802,1,0,0:0:0:0:
388,132,24945,5,2,0:0:0:0:
356,340,25088,1,2,0:0:0:0:
168,312,25231,1,8,0:0:0:0:
200,104,25374,1,2,0:0:0:0:
476,304,25516,6,0,B|508:252|480:204,1,100,2|0,0:0|0:0,0:0:0:0:
448,120,25802,2,0,B|343:108,1,100,8|0,0:0|0:0,0:0:0:0:
156,40,26088,1,2,0:0:0:0:
292,56,26231,1,2,0:0:0:0:
272,192,26374,1,8,0:0:0:0:
136,176,26516,1,2,0:0:0:0:
228,108,26659,5,2,0:0:0:0:
228,108,26802,1,2,0:0:0:0:
384,292,26945,2,0,B|352:336|288:328,1,100,8|2,0:0|0:0,0:0:0:0:
128,284,27231,1,2,0:0:0:0:
128,284,27302,1,2,0:0:0:0:
128,284,27374,1,2,0:0:0:0:
352,192,27516,5,8,0:0:0:0:
378,161,27588,1,8,0:0:0:0:
382,121,27659,1,8,0:0:0:0:
368,82,27731,1,8,0:0:0:0:
340,52,27802,1,4,0:0:0:0:
400,312,32374,6,0,B|284:328,1,100,4|0,0:0|0:0,0:0:0:0:
56,256,32659,2,0,B|72:324|168:340|216:272,1,200,8|2,0:0|0:0,0:0:0:0:
256,196,33088,1,2,0:0:0:0:
200,128,33231,1,8,0:0:0:0:
164,204,33374,1,0,0:0:0:0:
284,116,33516,5,2,0:0:0:0:
232,56,33659,1,2,0:0:0:0:
320,44,33802,1,8,0:0:0:0:
408,32,33945,1,0,0:0:0:0:
344,232,34088,5,2,0:0:0:0:
272,280,34231,1,2,0:0:0:0:
256,196,34374,1,8,0:0:0:0:
244,112,34516,1,2,0:0:0:0:
420,180,34659,6,0,B|448:228|424:284,1,100,2|0,0:0|0:0,0:0:0:0:
92,204,34945,2,0,B|64:156|88:100,1,100,8|0,0:0|0:0,0:0:0:0:
364,336,35231,2,0,B|324:376|252:364,1,100,2|2,0:0|0:0,0:0:0:0:
148,48,35516,2,0,B|188:8|260:20,1,100,8|0,0:0|0:0,0:0:0:0:
232,244,35802,5,2,0:0:0:0:
212,172,35945,1,2,0:0:0:0:
284,152,36088,1,8,0:0:0:0:
304,224,36231,1,0,0:0:0:0:
380,144,36374,5,2,0:0:0:0:
208,64,36516,1,2,0:0:0:0:
132,240,36659,1,8,0:0:0:0:
304,320,36801,1,2,0:0:0:0:
372,268,36945,6,0,B|328:232|272:240,1,100,4|0,0:0|0:0,0:0:0:0:
104,348,37231,2,0,B|200:324,1,100,8|0,0:0|0:0,0:0:0:0:
212,172,37516,2,0,B|104:136,1,100,2|2,0:0|0:0,0:0:0:0:
36,228,37802,2,0,B|80:260|140:236,1,100,8|0,0:0|0:0,0:0:0:0:
312,136,38088,5,2,0:0:0:0:
284,224,38231,1,2,0:0:0:0:
380,212,38374,1,8,0:0:0:0:
212,172,38516,1,0,0:0:0:0:
176,328,38659,1,2,0:0:0:0:
372,304,38802,1,2,0:0:0:0:
304,368,38945,2,0,B|264:324|296:256,1,100,8|0,0:0|0:0,0:0:0:0:
144,216,39231,6,0,B|36:240,1,100,2|0,0:0|0:0,0:0:0:0:
368,168,39516,2,0,B|476:144,1,100,8|0,0:0|0:0,0:0:0:0:
193,288,39802,2,0,B|134:381,1,100,2|2,0:0|0:0,0:0:0:0:
318,95,40088,2,0,B|377:2,1,100,8|0,0:0|0:0,0:0:0:0:
304,280,40374,5,2,0:0:0:0:
192,104,40516,1,2,0:0:0:0:
416,200,40659,5,8,0:0:0:0:
88,228,40802,1,8,0:0:0:0:
256,196,40945,5,2,0:0:0:0:
256,196,41016,1,2,0:0:0:0:
256,196,41088,1,2,0:0:0:0:
156,172,41231,5,8,0:0:0:0:
348,220,41374,1,8,0:0:0:0:
348,220,41445,1,8,0:0:0:0:
348,220,41516,2,0,B|344:168|340:136,1,74.9999977648259,4|0,3:2|2:0,0:0:0:0:
336,56,41802,2,0,B|304:40|268:24,1,75.0000028610231,0|0,3:0|2:0,0:0:0:0:
184,56,42088,2,0,B|136:136|192:208,1,150.000005722046,8|0,0:0|3:0,0:0:0:0:
272,200,42516,1,0,3:0:0:0:
312,128,42659,5,0,3:0:0:0:
312,128,42802,1,0,3:0:0:0:
312,128,42945,1,0,3:0:0:0:
296,256,43088,5,0,3:0:0:0:
296,256,43159,1,0,3:0:0:0:
296,256,43231,1,8,0:0:0:0:
192,172,43374,5,0,3:0:0:0:
192,172,43445,1,0,3:0:0:0:
192,172,43516,1,0,3:0:0:0:
264,188,43659,5,0,3:0:0:0:
216,80,43802,6,0,B|180:108|132:96,1,74.9999977648259,4|0,3:2|0:0,0:0:0:0:
141,225,44088,2,0,B|153:189|197:169,1,74.9999977648259,0|0,3:0|0:0,0:0:0:0:
48,48,44374,2,0,B|76:200,1,149.999995529652,8|0,0:0|3:0,0:0:0:0:
75,195,44802,1,0,0:0:0:0:
284,224,44945,5,0,3:0:0:0:
284,224,45088,1,0,3:0:0:0:
284,224,45231,1,0,3:0:0:0:
168,264,45374,5,0,3:0:0:0:
168,264,45445,1,0,3:0:0:0:
168,264,45516,1,8,0:0:0:0:
188,140,45659,5,0,3:0:0:0:
188,140,45731,1,0,3:0:0:0:
188,140,45802,1,8,0:0:0:0:
284,224,45945,5,8,0:0:0:0:
304,124,46088,6,0,B|296:40,1,74.9999977648259,4|0,3:2|0:0,0:0:0:0:
296,49,46374,2,0,B|384:41,1,74.9999977648259,0|0,3:0|0:0,0:0:0:0:
400,208,46659,2,0,B|316:216,1,74.9999977648259,8|0,0:0|0:0,0:0:0:0:
160,176,46945,1,0,3:0:0:0:
160,176,47088,1,0,3:0:0:0:
256,196,47231,5,0,3:0:0:0:
216,88,47374,1,0,3:0:0:0:
328,108,47516,1,0,3:0:0:0:
256,196,47659,6,0,B|264:240,2,37.5000014305115,0|0|8,3:0|3:0|0:0,0:0:0:0:
328,108,47945,6,0,B|356:72,2,37.5000014305115,0|0|0,3:0|3:0|3:0,0:0:0:0:
216,88,48231,5,0,3:0:0:0:
172,168,48374,6,0,B|116:160|88:164,1,74.9999977648259,4|0,3:2|0:0,0:0:0:0:
48,240,48659,2,0,B|104:248|132:244,1,74.9999977648259,0|0,3:0|0:0,0:0:0:0:
168,336,48945,2,0,B|124:336|76:328,1,75.0000028610231,8|0,0:2|0:0,0:0:0:0:
208,248,49231,1,0,3:0:0:0:
272,320,49374,1,0,0:0:0:0:
304,224,49516,5,0,3:0:0:0:
308,216,49588,1,0,3:0:0:0:
312,208,49659,1,0,3:0:0:0:
316,200,49731,1,0,3:0:0:0:
320,192,49802,1,0,3:0:0:0:
324,184,49874,1,0,3:0:0:0:
328,176,49945,1,0,3:0:0:0:
332,168,50016,1,0,3:0:0:0:
336,160,50088,1,8,0:0:0:0:
272,88,50231,5,0,3:0:0:0:
272,88,50302,1,0,3:0:0:0:
272,88,50374,1,8,0:0:0:0:
208,160,50516,1,8,0:0:0:0:
120,128,50659,1,4,0:2:0:0:
256,192,50802,12,4,52945,0:2:0:0:
256,192,53088,12,4,55231,0:2:0:0:
164,236,56374,5,2,0:0:0:0:
284,104,56945,5,2,0:0:0:0:
368,284,57516,5,4,0:2:0:0:
176,320,57802,1,2,0:0:0:0:
136,128,58088,1,2,0:0:0:0:
328,92,58374,1,2,0:0:0:0:
264,280,58659,5,2,0:0:0:0:
168,220,58802,1,0,0:0:0:0:
236,124,58945,1,8,0:0:0:0:
336,196,59088,1,2,0:0:0:0:
280,232,59231,5,8,0:0:0:0:
280,232,59302,1,8,0:0:0:0:
280,232,59374,1,8,0:0:0:0:
280,232,59445,1,8,0:0:0:0:
280,232,59516,1,8,0:0:0:0:
280,232,59588,1,8,0:0:0:0:
280,232,59659,1,8,0:0:0:0:
280,232,59731,1,8,0:0:0:0:
280,232,59802,2,0,B|184:228|64:228,1,200,4|0,0:0|0:0,0:0:0:0:
304,312,60231,6,0,B|228:308|184:308,1,100,0|2,0:0|0:0,0:0:0:0:
400,120,60516,2,0,B|340:116|284:116,1,100,2|8,0:2|0:0,0:0:0:0:
496,284,60802,2,0,B|444:280|388:284,1,100,2|0,0:0|0:0,0:0:0:0:
224,96,61088,5,2,0:0:0:0:
312,208,61231,1,8,0:0:0:0:
164,228,61374,2,0,B|112:228|48:224,1,100,2|2,0:0|0:0,0:0:0:0:
64,224,61588,1,2,0:0:0:0:
64,224,61659,1,2,0:0:0:0:
136,128,61802,5,8,0:0:0:0:
144,320,61945,1,2,0:0:0:0:
432,216,62088,2,0,B|420:144|320:112|264:176,1,200,4|8,0:0|0:0,0:0:0:0:
164,268,62516,6,0,B|220:284|264:248,1,100,0|2,0:0|0:0,0:0:0:0:
100,96,62802,2,0,B|140:136|200:120,1,100,0|8,0:0|0:0,0:0:0:0:
8,232,63088,2,0,B|67:247|111:211,1,100,2|2,0:0|0:0,0:0:0:0:
336,184,63374,2,0,B|368:136|340:84,1,100,2|8,0:0|0:0,0:0:0:0:
192,200,63659,1,2,0:0:0:0:
272,352,63802,5,2,0:0:0:0:
272,352,63874,1,2,0:0:0:0:
272,352,63945,1,2,0:0:0:0:
272,352,64016,1,2,0:0:0:0:
272,352,64088,1,8,0:0:0:0:
256,32,64231,1,8,0:0:0:0:
192,200,64374,6,0,B|236:168|296:176,1,100,4|0,0:0|0:0,0:0:0:0:
320,184,64659,2,0,B|276:216|216:208,1,100,8|0,0:0|0:0,0:0:0:0:
168,96,64945,6,0,B|220:84|268:112,1,100,2|2,0:0|0:0,0:0:0:0:
344,288,65231,2,0,B|292:300|244:272,1,100,8|2,0:0|0:0,0:0:0:0:
380,120,65516,6,0,B|412:164|400:224,1,100,2|2,0:0|0:0,0:0:0:0:
132,264,65802,2,0,B|100:220|112:160,1,100,8|2,0:0|0:0,0:0:0:0:
320,184,66088,5,2,0:0:0:0:
320,184,66159,1,2,0:0:0:0:
320,184,66231,1,2,0:0:0:0:
200,200,66374,1,8,0:0:0:0:
200,200,66659,5,4,0:2:0:0:
268,260,66802,1,0,0:0:0:0:
252,128,66945,1,8,0:0:0:0:
320,184,67088,1,0,0:0:0:0:
170,179,67231,5,2,0:0:0:0:
245,293,67374,1,2,0:0:0:0:
273,95,67517,1,8,0:0:0:0:
350,203,67660,1,2,0:0:0:0:
151,146,67802,5,0,0:0:0:0:
208,313,67945,1,2,0:0:0:0:
309,75,68088,1,8,0:0:0:0:
370,236,68231,1,2,0:0:0:0:
149,105,68374,5,2,0:0:0:0:
163,317,68517,1,2,0:0:0:0:
355,72,68660,1,8,0:0:0:0:
374,277,68803,1,8,0:0:0:0:
60,216,68945,6,0,B|-8:168|24:40|120:36,1,240.000005722046,4|8,0:0|0:0,0:0:0:0:
272,328,69374,2,0,B|328:364|392:340,1,120.000002861023,0|2,0:0|0:0,0:0:0:0:
476,168,69659,2,0,B|456:36,1,120.000002861023,0|8,0:0|0:0,0:0:0:0:
168,172,69945,2,0,B|140:244|192:296,1,120.000002861023,2|0,0:0|0:0,0:0:0:0:
355,72,70231,2,0,B|316:16|228:32,1,120.000002861023,2|8,0:0|0:0,0:0:0:0:
352,284,70516,1,2,0:0:0:0:
256,192,70659,5,2,0:0:0:0:
256,192,70731,1,2,0:0:0:0:
256,192,70802,1,2,0:0:0:0:
160,264,70945,1,8,0:0:0:0:
256,336,71088,1,2,0:0:0:0:
28,112,71231,6,0,B|152:164|136:60|272:120,2,240.000005722046,4|8|2,0:0|0:0|0:0,0:0:0:0:
84,284,71945,2,0,B|152:300|200:256,1,120.000002861023,0|8,0:0|0:0,0:0:0:0:
460,172,72231,2,0,B|344:144,1,120.000002861023,2|0,0:0|0:0,0:0:0:0:
364,344,72516,2,0,B|404:292|380:228,1,120.000002861023,2|8,0:0|0:0,0:0:0:0:
192,40,72802,1,2,0:0:0:0:
164,296,72945,5,2,0:0:0:0:
180,252,73016,1,2,0:0:0:0:
220,224,73088,1,2,0:0:0:0:
268,216,73159,1,2,0:0:0:0:
312,240,73231,1,8,0:0:0:0:
256,316,73374,1,8,0:0:0:0:
112,96,73516,5,4,0:0:0:0:
112,96,73659,1,0,0:0:0:0:
392,60,73802,5,8,0:0:0:0:
392,60,73945,1,0,0:0:0:0:
412,320,74088,5,2,0:0:0:0:
412,320,74231,1,2,0:0:0:0:
132,356,74374,5,8,0:0:0:0:
132,356,74517,1,2,0:0:0:0:
232,36,74659,5,2,0:0:0:0:
232,36,74802,1,2,0:0:0:0:
440,184,74945,5,8,0:0:0:0:
440,184,75088,1,2,0:0:0:0:
280,348,75231,5,2,0:0:0:0:
280,348,75374,1,2,0:0:0:0:
72,200,75517,5,8,0:0:0:0:
72,200,75660,1,0,0:0:0:0:
328,96,75802,5,4,0:0:0:0:
352,280,75945,1,0,0:0:0:0:
184,208,76088,1,8,0:0:0:0:
440,184,76231,5,0,0:0:0:0:
160,64,76374,1,2,0:0:0:0:
192,360,76516,1,2,0:0:0:0:
360,168,76659,2,0,B|308:120|228:144,1,120.000002861023,8|2,0:0|0:0,0:0:0:0:
73,380,76945,6,0,B|211:356,1,119.999996337891,2|2,0:0|0:0,0:0:0:0:
452,52,77231,2,0,B|312:80,1,119.999996337891,8|2,0:0|0:0,0:0:0:0:
40,144,77516,5,2,0:0:0:0:
72,180,77588,1,2,0:0:0:0:
116,196,77659,1,2,0:0:0:0:
164,192,77731,1,2,0:0:0:0:
208,172,77802,1,8,0:0:0:0:
312,232,77945,1,8,0:0:0:0:
436,204,78088,6,0,B|508:172|504:60|400:40,2,200,4|8|2,0:0|0:0|0:0,0:0:0:0:
292,272,78802,1,0,0:0:0:0:
292,272,78945,2,0,B|236:260|184:288,1,100,8|0,0:0|0:0,0:0:0:0:
164,80,79231,2,0,B|220:92|272:64,1,100,0|2,0:0|0:0,0:0:0:0:
252,348,79516,5,8,0:0:0:0:
224,184,79659,1,2,0:0:0:0:
392,248,79802,1,2,0:0:0:0:
392,248,79874,1,2,0:0:0:0:
392,248,79945,1,2,0:0:0:0:
156,348,80088,5,8,0:0:0:0:
292,272,80231,1,2,0:0:0:0:
144,208,80374,2,0,B|76:160|100:56|184:48,1,200,4|8,0:0|0:0,0:0:0:0:
256,92,80802,1,0,0:0:0:0:
332,44,80945,2,0,B|388:28|440:40,1,100,2|2,0:0|0:0,0:0:0:0:
292,272,81231,1,8,0:0:0:0:
256,92,81374,1,2,0:0:0:0:
400,168,81516,5,0,0:0:0:0:
220,344,81659,2,0,B|160:348|92:332,1,100,2|8,0:0|0:0,0:0:0:0:
192,196,81945,1,2,0:0:0:0:
416,288,82088,1,2,0:0:0:0:
416,288,82159,1,2,0:0:0:0:
416,288,82231,1,2,0:0:0:0:
416,288,82302,1,2,0:0:0:0:
416,288,82374,2,0,B|460:248|512:260,1,100,8|0,0:0|0:0,0:0:0:0:
320,312,82659,6,0,B|272:368|168:344|164:264,1,200,4|8,0:0|0:0,0:0:0:0:
208,72,83088,2,0,B|251:14|355:38|364:120,1,200,2|2,0:0|0:0,0:0:0:0:
100,144,83516,5,8,0:0:0:0:
100,144,83802,2,0,B|104:64|192:32|248:84,1,200,4|8,0:0|0:0,0:0:0:0:
412,240,84231,2,0,B|408:320|320:352|264:300,1,200,2|2,0:0|0:0,0:0:0:0:
352,96,84659,5,8,0:0:0:0:
352,96,84945,1,4,0:0:0:0:
316,280,85088,1,2,0:2:0:0:
248,152,85231,1,2,0:2:0:0:
372,180,85374,5,12,0:2:0:0:
184,196,85516,1,2,0:0:0:0:
272,76,85659,1,2,0:0:0:0:
248,240,85802,5,12,0:2:0:0:
196,52,85945,1,2,0:0:0:0:
352,96,86088,1,2,0:2:0:0:
152,272,86231,5,12,0:2:0:0:
72,72,86374,1,2,0:0:0:0:
248,152,86516,1,2,0:0:0:0:
24,196,86659,5,12,0:2:0:0:
32,212,86731,1,2,0:0:0:0:
40,228,86802,1,2,0:0:0:0:
48,244,86874,1,2,0:0:0:0:
56,260,86945,2,0,B|100:292|160:268,1,100,4|0,0:2|0:0,0:0:0:0:
368,200,87231,5,4,0:0:0:0:
296,256,87374,1,0,0:0:0:0:
368,200,87516,1,8,0:0:0:0:
292,152,87659,1,2,0:2:0:0:
368,200,87802,2,0,B|428:220|472:168,1,100,2|2,0:0|0:0,0:0:0:0:
236,312,88088,2,0,B|176:292|132:344,1,100,8|2,0:0|0:0,0:0:0:0:
156,128,88374,5,2,0:2:0:0:
188,232,88516,1,2,0:0:0:0:
156,128,88659,1,8,0:0:0:0:
60,184,88802,1,2,0:0:0:0:
156,128,88945,1,2,0:0:0:0:
192,144,89016,1,2,0:0:0:0:
232,140,89088,1,2,0:0:0:0:
264,116,89159,1,2,0:0:0:0:
280,80,89231,1,8,0:0:0:0:
392,200,89374,5,2,0:0:0:0:
392,200,89445,1,2,0:0:0:0:
392,200,89516,1,2,0:0:0:0:
308,296,89659,1,0,0:0:0:0:
392,200,89802,1,8,0:0:0:0:
276,180,89945,1,2,0:2:0:0:
496,296,90088,2,0,B|440:292|392:292,1,100,2|2,0:0|0:0,0:0:0:0:
344,100,90374,2,0,B|400:104|448:104,1,100,8|2,0:0|0:0,0:0:0:0:
120,316,90659,6,0,B|120:248|128:200,1,100,2|2,0:2|0:0,0:0:0:0:
392,200,90945,2,0,B|392:268|384:316,1,100,8|2,0:0|0:0,0:0:0:0:
244,352,91231,5,2,0:0:0:0:
264,316,91302,1,2,0:0:0:0:
272,276,91374,1,2,0:0:0:0:
260,240,91445,1,2,0:0:0:0:
244,204,91516,1,8,0:0:0:0:
236,164,91588,1,0,0:0:0:0:
240,124,91659,1,8,0:0:0:0:
256,88,91731,1,0,0:0:0:0:
284,60,91802,2,0,B|488:60,1,200,4|8,0:0|0:0,0:0:0:0:
400,160,92231,5,2,0:2:0:0:
352,280,92374,2,0,B|468:276,1,100,2|2,0:0|0:0,0:0:0:0:
180,360,92659,2,0,B|64:364,1,100,8|2,0:0|0:0,0:0:0:0:
192,104,92945,5,2,0:2:0:0:
280,304,93088,1,2,0:0:0:0:
332,160,93231,1,0,0:0:0:0:
144,248,93374,1,2,0:0:0:0:
304,40,93516,1,2,0:0:0:0:
344,32,93588,1,2,0:0:0:0:
384,36,93659,1,2,0:0:0:0:
416,60,93731,1,2,0:0:0:0:
432,96,93802,1,8,0:0:0:0:
244,200,93945,1,2,0:0:0:0:
448,328,94088,6,0,B|448:264|444:224,1,100,2|0,0:0|0:0,0:0:0:0:
64,56,94374,2,0,B|64:120|68:160,1,100,8|2,0:0|0:2,0:0:0:0:
324,272,94659,1,2,0:0:0:0:
176,340,94802,1,2,0:0:0:0:
244,200,94945,1,8,0:0:0:0:
296,356,95088,1,2,0:0:0:0:
136,192,95231,5,2,0:2:0:0:
240,292,95374,1,2,0:0:0:0:
276,64,95516,1,8,0:0:0:0:
432,280,95659,1,2,0:0:0:0:
484,192,95802,5,2,0:0:0:0:
432,192,95874,1,2,0:0:0:0:
384,192,95945,1,2,0:0:0:0:
336,192,96016,1,2,0:0:0:0:
288,212,96088,5,8,0:0:0:0:
240,212,96159,1,8,0:0:0:0:
188,212,96231,1,8,0:0:0:0:
140,212,96302,1,8,0:0:0:0:
104,248,96374,6,0,B|52:248|4:248,1,100,4|0,0:0|0:0,0:0:0:0:
152,120,96659,2,0,B|204:120|252:120,1,100,8|2,0:0|0:0,0:0:0:0:
380,332,96945,2,0,B|240:332,1,100,2|2,0:0|0:0,0:0:0:0:
368,100,97231,2,0,B|472:100,1,100,8|0,0:0|0:0,0:0:0:0:
192,268,97516,1,2,0:0:0:0:
348,224,97659,1,2,0:0:0:0:
216,156,97802,1,8,0:0:0:0:
368,100,97945,1,0,0:0:0:0:
252,32,98088,5,2,0:0:0:0:
304,200,98231,1,2,0:0:0:0:
128,160,98374,1,8,0:0:0:0:
216,356,98516,5,2,0:0:0:0:
216,356,98659,2,0,B|192:308|212:252,1,100,2|0,0:0|0:0,0:0:0:0:
92,152,98945,2,0,B|140:128|196:148,1,100,8|0,0:0|0:0,0:0:0:0:
296,28,99231,2,0,B|320:76|300:132,1,100,0|2,0:0|0:0,0:0:0:0:
420,232,99517,2,0,B|372:256|316:236,1,100,8|0,0:0|0:0,0:0:0:0:
210,259,99802,5,2,0:0:0:0:
189,146,99945,1,2,0:0:0:0:
302,125,100088,1,8,0:0:0:0:
323,238,100231,1,0,0:0:0:0:
128,216,100374,5,2,0:0:0:0:
276,312,100516,1,2,0:0:0:0:
384,164,100659,1,8,0:0:0:0:
232,72,100802,1,2,0:0:0:0:
256,192,100945,6,0,B|284:148|328:112,1,100,2|0,0:0|0:0,0:0:0:0:
256,192,101231,2,0,B|228:236|184:272,1,100,8|0,0:0|0:0,0:0:0:0:
112,128,101516,2,0,B|140:80|184:48,1,100,2|2,0:0|0:0,0:0:0:0:
400,256,101802,2,0,B|372:304|328:336,1,100,8|2,0:0|0:0,0:0:0:0:
88,204,102088,5,2,0:0:0:0:
176,336,102231,1,2,0:0:0:0:
172,184,102374,5,8,0:0:0:0:
220,268,102516,1,0,0:0:0:0:
256,192,102659,5,2,0:0:0:0:
332,224,102802,5,2,0:0:0:0:
280,120,102945,1,8,0:0:0:0:
412,216,103088,5,2,0:0:0:0:
332,56,103231,2,0,B|272:40|208:40,1,100,2|0,0:0|0:0,0:0:0:0:
180,328,103516,2,0,B|240:344|304:344,1,100,8|0,0:0|0:0,0:0:0:0:
120,116,103802,2,0,B|104:176|104:240,1,100,2|2,0:0|0:0,0:0:0:0:
392,268,104088,2,0,B|408:208|408:144,1,100,8|0,0:0|0:0,0:0:0:0:
384,96,104374,5,2,0:0:0:0:
136,288,104516,1,2,0:0:0:0:
172,64,104659,1,8,0:0:0:0:
344,320,104801,1,8,0:0:0:0:
228,124,104945,5,2,0:0:0:0:
228,124,105016,1,2,0:0:0:0:
228,124,105088,1,2,0:0:0:0:
344,192,105231,1,8,0:0:0:0:
232,264,105374,1,8,0:0:0:0:
232,264,105445,1,8,0:0:0:0:
232,264,105516,1,4,1:2:0:0:
248,36,105802,5,0,3:2:0:0:
260,196,106088,1,8,0:0:0:0:
276,356,106374,1,0,3:0:0:0:
208,304,106516,1,0,3:0:0:0:
312,272,106659,5,0,3:0:0:0:
312,272,106802,1,0,3:0:0:0:
312,272,106945,1,0,3:0:0:0:
292,188,107088,1,0,3:0:0:0:
292,188,107159,1,0,3:0:0:0:
292,188,107231,1,8,0:0:0:0:
384,168,107374,1,0,3:0:0:0:
384,168,107445,1,0,3:0:0:0:
384,168,107516,1,0,3:0:0:0:
404,256,107659,1,0,3:0:0:0:
312,272,107802,5,4,3:2:0:0:
228,256,108088,1,0,3:0:0:0:
148,240,108374,1,8,0:0:0:0:
132,324,108516,1,2,0:0:0:0:
216,340,108659,1,0,3:0:0:0:
228,256,108802,1,0,3:0:0:0:
388,336,108945,5,0,3:0:0:0:
388,336,109088,1,0,3:0:0:0:
388,336,109231,1,0,3:0:0:0:
304,364,109374,1,0,3:0:0:0:
304,364,109445,1,0,3:0:0:0:
304,364,109516,1,8,0:0:0:0:
276,280,109659,1,0,3:0:0:0:
276,280,109731,1,0,3:0:0:0:
276,280,109802,1,8,0:0:0:0:
360,248,109945,1,8,0:0:0:0:
232,200,110088,5,4,3:2:0:0:
192,288,110374,1,0,3:0:0:0:
232,200,110659,1,8,0:0:0:0:
144,208,110802,1,0,0:0:0:0:
152,288,110945,1,0,3:0:0:0:
236,280,111088,1,0,3:0:0:0:
144,208,111231,5,0,3:0:0:0:
144,208,111374,1,0,3:0:0:0:
144,208,111516,1,0,3:0:0:0:
236,280,111659,1,0,3:0:0:0:
236,280,111731,1,0,3:0:0:0:
236,280,111802,1,8,0:0:0:0:
164,376,111945,1,0,3:0:0:0:
164,376,112016,1,0,3:0:0:0:
164,376,112088,1,0,3:0:0:0:
72,300,112231,1,0,3:0:0:0:
224,192,112374,6,0,B|272:188|316:192,1,74.9999977648259,4|0,3:2|0:0,0:0:0:0:
352,276,112659,2,0,B|314:279|277:277,1,74.9999977648259,0|0,3:0|0:0,0:0:0:0:
320,48,112945,2,0,B|324:132,1,74.9999977648259,8|0,0:0|0:0,0:0:0:0:
232,128,113231,1,0,3:0:0:0:
232,48,113374,1,0,3:0:0:0:
128,236,113516,5,0,3:0:0:0:
144,232,113588,1,0,3:0:0:0:
160,228,113659,1,0,3:0:0:0:
176,224,113731,1,0,3:0:0:0:
192,220,113802,1,0,3:0:0:0:
208,216,113874,1,0,3:0:0:0:
224,212,113945,1,0,3:0:0:0:
240,208,114016,1,0,3:0:0:0:
256,204,114088,1,8,0:0:0:0:
328,128,114231,5,0,3:0:0:0:
328,128,114302,1,0,3:0:0:0:
328,128,114374,1,8,0:0:0:0:
384,224,114516,1,8,0:0:0:0:
296,288,114659,1,4,0:0:0:0:
256,192,114802,12,4,116945,0:2:0:0:
256,192,117088,12,4,119231,0:2:0:0:
256,192,120374,5,2,0:0:0:0:
256,192,120945,5,2,0:0:0:0:
256,192,121516,5,4,0:2:0:0:
32,188,121802,1,2,0:0:0:0:
32,188,121874,1,0,0:0:0:0:
32,188,121945,1,0,0:0:0:0:
256,276,122088,5,2,0:0:0:0:
32,276,122374,1,2,0:0:0:0:
32,276,122445,1,0,0:0:0:0:
32,276,122516,1,0,0:0:0:0:
256,360,122659,5,2,0:0:0:0:
392,224,122802,1,2,0:0:0:0:
256,360,122945,1,8,0:0:0:0:
124,208,123088,1,8,0:0:0:0:
256,360,123231,5,8,0:0:0:0:
256,312,123302,1,8,0:0:0:0:
256,260,123374,1,8,0:0:0:0:
256,212,123445,1,8,0:0:0:0:
256,164,123516,5,8,0:0:0:0:
256,169,123588,1,8,0:0:0:0:
256,173,123659,1,8,0:0:0:0:
256,178,123731,1,8,0:0:0:0:
256,182,123802,2,0,B|176:218|108:162|128:82,1,200,4|8,0:0|0:0,0:0:0:0:
320,320,124231,2,0,B|272:352|216:344,1,100,0|2,0:0|0:0,0:0:0:0:
420,144,124516,2,0,B|428:200|396:252,1,100,0|8,0:0|0:0,0:0:0:0:
120,336,124802,2,0,B|64:328|16:292,1,100,2|0,0:0|0:0,0:0:0:0:
328,216,125088,6,0,B|280:244|228:240,1,100,2|8,0:0|0:0,0:0:0:0:
152,192,125374,1,0,0:0:0:0:
192,112,125516,1,2,0:0:0:0:
192,112,125588,1,2,0:0:0:0:
192,112,125659,1,2,0:0:0:0:
392,344,125802,5,8,0:0:0:0:
344,240,125945,1,0,0:0:0:0:
272,328,126088,2,0,B|188:324|164:212|252:172,1,200,4|8,0:0|0:0,0:0:0:0:
348,124,126516,2,0,B|352:72|344:16,1,100,0|2,0:0|0:0,0:0:0:0:
96,160,126802,2,0,B|92:92|96:52,1,100,0|8,0:0|0:0,0:0:0:0:
444,240,127088,6,0,B|440:188|440:140,1,100,2|2,0:0|0:0,0:0:0:0:
216,312,127374,2,0,B|216:244|212:184,1,100,2|8,0:0|0:0,0:0:0:0:
112,264,127659,1,2,0:0:0:0:
324,264,127802,1,2,0:0:0:0:
320,224,127874,1,2,0:0:0:0:
316,184,127945,1,2,0:0:0:0:
312,144,128016,1,2,0:0:0:0:
308,104,128088,1,8,0:0:0:0:
160,144,128231,1,8,0:0:0:0:
92,88,128374,6,0,B|132:44|204:60,1,100,4|0,0:0|0:0,0:0:0:0:
232,196,128659,2,0,B|192:240|120:224,1,100,8|0,0:0|0:0,0:0:0:0:
252,104,128945,6,0,B|308:96|348:128,1,100,2|2,0:0|0:0,0:0:0:0:
304,292,129231,2,0,B|248:300|208:268,1,100,8|2,0:0|0:0,0:0:0:0:
420,72,129516,6,0,B|448:124|428:176,1,100,2|2,0:0|0:0,0:0:0:0:
92,312,129802,2,0,B|64:260|84:208,1,100,8|2,0:0|0:0,0:0:0:0:
320,208,130088,5,2,0:0:0:0:
320,208,130159,1,2,0:0:0:0:
320,208,130231,1,2,0:0:0:0:
216,168,130374,1,8,0:0:0:0:
216,168,130659,5,4,0:0:0:0:
320,208,130802,1,0,0:0:0:0:
193,133,130945,1,8,0:0:0:0:
342,242,131088,1,0,0:0:0:0:
190,90,131231,1,2,0:0:0:0:
348,285,131374,1,2,0:0:0:0:
205,44,131516,1,8,0:0:0:0:
332,330,131659,1,2,0:0:0:0:
244,32,131802,5,2,0:0:0:0:
293,342,131945,1,2,0:0:0:0:
282,62,132088,1,8,0:0:0:0:
256,312,132231,1,2,0:0:0:0:
300,102,132374,1,2,0:0:0:0:
235,273,132517,1,2,0:0:0:0:
300,142,132659,1,8,0:0:0:0:
235,233,132802,1,8,0:0:0:0:
384,56,132945,6,0,B|476:80|492:204|396:272,1,240.000005722046,4|8,0:0|0:0,0:0:0:0:
88,196,133374,2,0,B|132:152|200:156,1,120.000002861023,0|2,0:0|0:0,0:0:0:0:
376,324,133659,2,0,B|248:349,1,120.000002861023,2|8,0:0|0:0,0:0:0:0:
196,52,133945,2,0,B|256:24|312:52,1,119.999996337891,2|0,0:0|0:0,0:0:0:0:
80,160,134231,2,0,B|48:40,1,119.999996337891,0|8,0:0|0:0,0:0:0:0:
416,160,134516,2,0,B|440:32,1,119.999996337891,2|2,0:0|0:0,0:0:0:0:
304,208,134802,1,2,0:0:0:0:
224,276,134945,5,8,0:0:0:0:
320,92,135088,1,0,0:0:0:0:
456,252,135231,2,0,B|320:280|368:176|224:192,1,239.999992675781,4|8,0:0|0:0,0:0:0:0:
92,336,135659,2,0,B|144:376|208:352,1,120.000002861023,0|2,0:0|0:0,0:0:0:0:
400,356,135945,2,0,B|440:304|416:240,1,120.000002861023,0|8,0:0|0:0,0:0:0:0:
212,68,136231,6,0,B|92:84,1,120.000002861023,2|0,0:0|0:0,0:0:0:0:
228,284,136516,2,0,B|220:148,1,120.000002861023,2|8,0:0|0:0,0:0:0:0:
128,224,136802,1,2,0:0:0:0:
316,212,136945,1,2,0:0:0:0:
348,176,137016,1,2,0:0:0:0:
396,168,137088,1,2,0:0:0:0:
440,184,137159,1,2,0:0:0:0:
468,224,137231,1,8,0:0:0:0:
344,296,137374,1,8,0:0:0:0:
256,36,137516,5,4,0:0:0:0:
256,344,137659,1,0,0:0:0:0:
179,56,137802,1,8,0:0:0:0:
333,323,137945,1,0,0:0:0:0:
122,113,138088,1,2,0:0:0:0:
389,267,138231,1,2,0:0:0:0:
101,190,138374,1,8,0:0:0:0:
409,190,138517,1,2,0:0:0:0:
120,268,138659,5,2,0:0:0:0:
387,113,138802,1,0,0:0:0:0:
177,325,138945,1,8,0:0:0:0:
331,58,139088,1,2,0:0:0:0:
254,347,139231,1,2,0:0:0:0:
254,39,139374,1,2,0:0:0:0:
256,192,139516,5,8,0:0:0:0:
256,192,139802,1,4,0:0:0:0:
152,104,139945,5,0,0:0:0:0:
360,288,140088,1,8,0:0:0:0:
152,280,140231,1,0,0:0:0:0:
360,104,140374,2,0,B|428:108|492:104,1,120.000002861023,2|2,0:0|0:0,0:0:0:0:
152,280,140659,2,0,B|60:276|12:280,1,120.000002861023,8|2,0:0|0:0,0:0:0:0:
376,336,140945,5,0,0:0:0:0:
396,196,141088,1,2,0:0:0:0:
136,48,141231,1,8,0:0:0:0:
116,188,141374,1,2,0:0:0:0:
320,128,141516,5,2,0:0:0:0:
272,116,141588,1,2,0:0:0:0:
224,108,141659,1,2,0:0:0:0:
212,156,141731,1,2,0:0:0:0:
204,204,141802,1,8,0:0:0:0:
252,216,141874,1,0,0:0:0:0:
300,224,141945,1,8,0:0:0:0:
312,176,142016,1,0,0:0:0:0:
320,128,142088,2,0,B|400:112|400:112|448:128|448:128|516:112,2,200,4|8|2,0:0|0:0|0:0,0:0:0:0:
264,300,142802,5,0,0:0:0:0:
264,300,142945,2,0,B|320:296|364:280,1,100,8|2,0:0|0:0,0:0:0:0:
168,344,143231,2,0,B|176:260|88:216|12:276,1,200,0|8,0:0|0:0,0:0:0:0:
80,344,143659,1,2,0:0:0:0:
220,192,143802,2,0,B|216:128|220:84,1,100,2|2,0:0|0:0,0:0:0:0:
28,44,144088,2,0,B|32:108|28:152,1,100,8|2,0:0|0:0,0:0:0:0:
264,300,144374,6,0,B|372:292|468:300,1,200,4|8,0:0|0:0,0:0:0:0:
360,212,144802,1,0,0:0:0:0:
172,312,144945,2,0,B|168:256|176:200,1,100,2|2,0:0|0:0,0:0:0:0:
256,48,145231,1,8,0:0:0:0:
256,172,145374,1,2,0:0:0:0:
120,104,145516,5,2,0:0:0:0:
392,104,145659,1,2,0:0:0:0:
156,224,145802,1,8,0:0:0:0:
344,224,145945,1,2,0:0:0:0:
252,332,146088,1,2,0:0:0:0:
212,324,146159,1,2,0:0:0:0:
172,316,146231,1,2,0:0:0:0:
132,308,146302,1,2,0:0:0:0:
92,300,146374,1,8,0:0:0:0:
52,196,146516,1,0,0:0:0:0:
300,328,146659,6,0,B|304:256|400:216|456:280,1,200,4|8,0:0|0:0,0:0:0:0:
252,224,147088,2,0,B|187:256|105:193|132:112,1,200,2|2,0:0|0:0,0:0:0:0:
384,32,147516,2,0,B|444:71|430:174|347:191,1,200,8|4,0:0|0:0,0:0:0:0:
355,189,148088,5,8,0:0:0:0:
256,120,148231,2,0,B|264:4,1,100,2|0,0:0|0:0,0:0:0:0:
248,208,148516,1,2,0:0:0:0:
161,244,148659,2,0,B|176:312|268:340|324:276,1,200,8|4,0:0|0:0,0:0:0:0:
248,208,149088,1,0,0:0:0:0:
332,104,149231,1,0,0:0:0:0:
396,240,149374,5,12,0:2:0:0:
256,128,149516,1,2,0:0:0:0:
88,192,149659,1,2,0:0:0:0:
328,188,149802,5,12,0:2:0:0:
264,48,149945,1,2,0:0:0:0:
176,172,150088,1,2,0:0:0:0:
356,312,150231,5,12,0:2:0:0:
264,48,150374,1,2,0:0:0:0:
144,292,150516,1,2,0:0:0:0:
408,152,150659,5,12,0:2:0:0:
376,116,150731,1,2,0:0:0:0:
328,108,150802,1,2,0:0:0:0:
280,124,150874,1,2,0:0:0:0:
252,164,150945,1,12,0:2:0:0:
252,164,151231,1,4,0:0:0:0:
300,304,151374,5,0,0:0:0:0:
184,244,151516,1,8,0:0:0:0:
344,184,151659,1,2,0:2:0:0:
204,100,151802,2,0,B|148:100|96:96,1,100,2|2,0:0|0:0,0:0:0:0:
328,276,152088,2,0,B|384:276|436:280,1,100,8|2,0:0|0:0,0:0:0:0:
224,340,152374,5,2,0:2:0:0:
176,172,152516,1,2,0:0:0:0:
120,276,152659,1,8,0:0:0:0:
288,228,152802,1,2,0:0:0:0:
65,131,152945,5,2,0:0:0:0:
79,83,153016,1,2,0:0:0:0:
120,53,153088,1,2,0:0:0:0:
169,52,153159,1,2,0:0:0:0:
214,73,153231,1,8,0:0:0:0:
360,180,153374,1,2,0:0:0:0:
360,180,153445,1,2,0:0:0:0:
360,180,153516,1,2,0:0:0:0:
288,44,153659,5,0,0:0:0:0:
288,228,153802,1,8,0:0:0:0:
448,140,153945,1,2,0:2:0:0:
200,152,154088,2,0,B|196:96|204:40,1,100,2|2,0:0|0:0,0:0:0:0:
372,204,154374,2,0,B|380:256|372:324,1,100,8|2,0:0|0:0,0:0:0:0:
264,260,154659,5,2,0:2:0:0:
476,248,154802,1,2,0:0:0:0:
264,260,154945,1,8,0:0:0:0:
476,248,155088,1,2,0:0:0:0:
368,64,155231,5,2,0:0:0:0:
325,37,155302,1,2,0:0:0:0:
275,28,155374,1,2,0:0:0:0:
230,49,155445,1,2,0:0:0:0:
206,92,155516,1,8,0:0:0:0:
214,141,155588,1,0,0:0:0:0:
206,190,155659,1,8,0:0:0:0:
161,213,155731,1,0,0:0:0:0:
111,205,155802,1,4,0:0:0:0:
48,88,155945,5,0,0:0:0:0:
272,184,156088,1,8,0:0:0:0:
80,304,156231,1,2,0:2:0:0:
144,124,156374,5,2,0:0:0:0:
240,296,156516,1,2,0:0:0:0:
352,84,156659,1,8,0:0:0:0:
240,296,156802,1,2,0:0:0:0:
448,216,156945,6,0,B|472:168|456:112,1,100,2|2,0:2|0:0,0:0:0:0:
64,168,157231,2,0,B|40:216|56:272,1,100,8|2,0:0|0:0,0:0:0:0:
336,216,157517,1,2,0:0:0:0:
372,180,157588,1,2,0:0:0:0:
372,128,157660,1,2,0:0:0:0:
352,84,157731,1,2,0:0:0:0:
304,68,157803,1,8,0:0:0:0:
328,312,157945,5,2,0:0:0:0:
328,312,158016,1,2,0:0:0:0:
328,312,158088,2,0,B|376:328|440:332,1,100,2|0,0:0|0:0,0:0:0:0:
232,160,158374,2,0,B|184:144|120:140,1,100,8|2,0:0|0:2,0:0:0:0:
392,236,158659,2,0,B|440:252|504:256,1,100,2|2,0:0|0:0,0:0:0:0:
296,84,158945,2,0,B|248:68|184:64,1,100,8|2,0:0|0:0,0:0:0:0:
124,244,159231,5,2,0:2:0:0:
348,164,159374,1,2,0:0:0:0:
232,340,159516,1,8,0:0:0:0:
172,40,159659,1,2,0:0:0:0:
256,196,159802,5,8,0:0:0:0:
260,204,159874,1,8,0:0:0:0:
264,212,159945,1,8,0:0:0:0:
268,220,160016,1,8,0:0:0:0:
272,228,160088,1,8,0:0:0:0:
276,236,160159,1,8,0:0:0:0:
280,244,160231,1,8,0:0:0:0:
284,252,160302,1,8,0:0:0:0:
288,260,160374,1,4,0:0:0:0:
256,192,168374,5,0,3:0:0:0:
256,192,168445,1,0,0:0:0:0:
256,192,168516,1,0,0:0:0:0:
256,192,168588,1,0,0:0:0:0:
256,192,168659,1,0,3:0:0:0:
256,192,168731,1,0,0:0:0:0:
256,192,168802,1,0,0:0:0:0:
256,192,168874,1,0,0:0:0:0:
256,192,168945,1,4,0:3:0:0:
256,192,169016,1,0,0:0:0:0:
256,192,169088,1,0,0:0:0:0:
256,192,169159,1,0,0:0:0:0:
256,192,169231,1,0,0:0:0:0:
256,192,169302,1,0,0:0:0:0:
256,192,169374,1,0,0:0:0:0:
256,192,169445,1,0,0:0:0:0:
260,196,169516,6,0,B|313:198|372:189,1,100,4|0,3:2|0:0,0:0:0:0:
424,136,169802,1,0,0:0:0:0:
420,272,169945,5,2,0:0:0:0:
380,348,170088,2,0,B|331:365|271:361,1,100,4|0,0:3|0:0,0:0:0:0:
152,208,170374,5,2,0:0:0:0:
192,280,170516,2,0,B|252:284|296:276,1,100,0|0,0:0|3:0,0:0:0:0:
48,204,170802,5,2,0:0:0:0:
32,308,170945,1,0,3:0:0:0:
128,264,171088,1,2,0:0:0:0:
192,48,171231,5,4,0:3:0:0:
156,192,171374,1,2,0:0:0:0:
52,96,171516,1,2,0:0:0:0:
296,264,171659,5,0,0:0:0:0:
296,264,171731,1,0,0:0:0:0:
296,264,171802,1,2,3:2:0:0:
348,140,171945,1,0,0:0:0:0:
296,264,172088,1,0,0:0:0:0:
236,212,172231,5,2,0:0:0:0:
368,220,172374,1,4,0:3:0:0:
236,212,172516,1,0,0:0:0:0:
268,132,172659,5,0,0:0:0:0:
296,264,172802,1,2,0:0:0:0:
268,132,172945,1,0,3:0:0:0:
348,140,173088,5,2,0:0:0:0:
236,212,173231,1,0,3:0:0:0:
348,140,173374,1,2,0:0:0:0:
368,220,173516,5,4,0:3:0:0:
268,132,173659,1,2,0:0:0:0:
368,220,173802,1,2,0:0:0:0:
316,56,173945,5,0,0:0:0:0:
316,56,174016,1,0,0:0:0:0:
316,56,174088,1,4,3:2:0:0:
220,76,174231,1,0,0:0:0:0:
124,96,174374,1,0,0:0:0:0:
348,76,174516,5,2,0:0:0:0:
252,96,174659,1,4,0:3:0:0:
156,116,174802,1,0,0:0:0:0:
380,96,174945,5,2,0:0:0:0:
284,116,175088,1,0,0:0:0:0:
188,136,175231,1,0,3:0:0:0:
412,120,175374,5,2,0:0:0:0:
316,140,175517,1,0,3:0:0:0:
220,160,175660,1,2,0:0:0:0:
444,144,175802,5,4,0:3:0:0:
348,164,175945,1,0,0:0:0:0:
252,184,176088,1,2,0:0:0:0:
104,224,176231,5,0,0:0:0:0:
104,224,176302,1,0,0:0:0:0:
104,224,176374,1,0,3:0:0:0:
68,136,176516,2,0,B|64:92|72:44,1,80
296,200,176802,2,0,B|316:284|284:380,1,160,2|0,0:0|0:0,0:0:0:0:
204,312,177231,1,0,0:0:0:0:
400,284,177374,2,0,B|424:204|396:120,1,160,2|0,0:0|0:0,0:0:0:0:
188,56,177802,2,0,B|172:96|188:148,1,80,0|0,3:0|0:0,0:0:0:0:
448,60,178088,5,4,0:3:0:0:
308,188,178231,1,0,0:0:0:0:
308,188,178302,1,0,3:0:0:0:
308,188,178374,1,0,3:0:0:0:
264,36,178516,1,0,3:0:0:0:
256,344,178659,5,0,3:0:0:0:
256,340,178731,1,0,0:0:0:0:
256,336,178802,1,0,0:0:0:0:
256,332,178874,1,0,0:0:0:0:
256,328,178945,1,0,3:0:0:0:
256,324,179016,1,0,0:0:0:0:
256,320,179088,1,0,0:0:0:0:
256,316,179159,1,0,0:0:0:0:
256,312,179231,1,4,3:3:0:0:
256,308,179302,1,0,0:0:0:0:
256,304,179374,1,0,0:0:0:0:
256,300,179445,1,0,0:0:0:0:
256,296,179516,1,0,3:0:0:0:
256,292,179588,1,0,0:0:0:0:
256,288,179659,1,0,0:0:0:0:
256,284,179731,1,0,0:0:0:0:
256,280,179802,5,0,3:0:0:0:
256,276,179874,1,0,0:0:0:0:
256,272,179945,1,0,0:0:0:0:
256,268,180016,1,0,0:0:0:0:
256,264,180088,1,0,3:0:0:0:
256,260,180159,1,0,0:0:0:0:
256,256,180231,1,0,0:0:0:0:
256,252,180302,1,0,0:0:0:0:
256,248,180374,1,4,3:3:0:0:
256,244,180445,1,0,0:0:0:0:
256,240,180516,1,0,0:0:0:0:
256,236,180588,1,0,0:0:0:0:
256,232,180659,1,0,3:0:0:0:
256,228,180731,1,0,0:0:0:0:
256,224,180802,1,0,0:0:0:0:
256,220,180874,1,0,0:0:0:0:
256,216,180945,5,0,3:0:0:0:
256,212,181016,1,0,0:0:0:0:
256,208,181088,1,0,0:0:0:0:
256,204,181159,1,0,0:0:0:0:
256,200,181231,1,0,3:0:0:0:
256,196,181302,1,0,0:0:0:0:
256,192,181374,1,0,0:0:0:0:
256,188,181445,1,0,0:0:0:0:
256,184,181516,1,4,3:3:0:0:
256,180,181588,1,0,0:0:0:0:
256,176,181659,1,0,0:0:0:0:
256,172,181731,1,0,0:0:0:0:
256,168,181802,1,0,3:0:0:0:
256,164,181874,1,0,0:0:0:0:
256,160,181945,1,0,0:0:0:0:
256,156,182016,1,0,0:0:0:0:
256,150,182088,6,0,L|256:103,30,25
265,169,183231,5,4,0:0:0:0:
236,264,183374,1,0,0:0:0:0:
164,196,183516,1,4,3:3:0:0:
320,176,183659,5,2,0:0:0:0:
212,308,183802,1,0,3:0:0:0:
152,148,183945,1,2,0:0:0:0:
368,180,184088,5,4,3:3:0:0:
188,352,184231,1,2,0:0:0:0:
136,100,184374,1,2,3:2:0:0:
320,176,184516,5,2,0:2:0:0:
212,308,184659,1,4,3:3:0:0:
152,148,184802,1,2,0:0:0:0:
265,169,184945,5,2,3:2:0:0:
236,264,185088,1,0,0:0:0:0:
164,196,185231,2,0,B|220:196|276:192,1,100,4|2,3:0|0:0,0:0:0:0:
356,192,185516,5,0,3:0:0:0:
432,140,185659,1,2,0:0:0:0:
424,48,185802,1,4,3:3:0:0:
352,104,185945,1,2,0:0:0:0:
356,192,186088,5,2,3:2:0:0:
332,24,186231,1,2,0:0:0:0:
204,132,186374,1,4,3:0:0:0:
232,300,186516,1,2,0:0:0:0:
356,192,186659,5,2,3:2:0:0:
132,128,186802,1,0,0:0:0:0:
56,204,186945,5,4,3:0:0:0:
444,144,187088,1,2,0:0:0:0:
52,96,187231,5,2,3:2:0:0:
268,108,187374,1,0,0:0:0:0:
484,132,187516,1,2,3:2:0:0:
484,132,187588,1,0,0:0:0:0:
484,132,187659,1,0,0:0:0:0:
484,132,187731,1,0,0:0:0:0:
484,132,187802,1,4,3:2:0:0:
388,80,187945,5,0,0:0:0:0:
408,188,188088,1,4,3:0:0:0:
324,28,188231,5,2,0:0:0:0:
136,184,188374,1,0,3:0:0:0:
364,256,188516,1,2,0:0:0:0:
312,104,188659,5,4,3:0:0:0:
56,196,188802,1,2,0:0:0:0:
324,192,188945,1,0,3:0:0:0:
232,176,189088,5,2,0:0:0:0:
260,352,189231,1,4,3:0:0:0:
324,192,189374,1,2,0:0:0:0:
416,264,189516,5,2,3:2:0:0:
236,28,189659,1,0,0:0:0:0:
144,312,189802,1,4,3:0:0:0:
236,28,189945,1,2,0:0:0:0:
208,248,190088,6,0,B|264:260|308:228,1,100,0|0,3:0|0:0,0:0:0:0:
344,160,190374,1,4,3:0:0:0:
160,168,190516,2,0,B|84:208|8:160|20:76,1,200,2|0,0:0|0:0,0:0:0:0:
256,176,190945,1,4,3:0:0:0:
320,248,191088,2,0,B|396:288|472:240|460:156,1,200,2|0,0:0|0:0,0:0:0:0:
232,328,191516,2,0,B|184:292|132:304,1,100,4|2,3:3|0:2,0:0:0:0:
32,232,191802,6,0,B|56:360,1,100,2|0,3:2|0:0,0:0:0:0:
480,152,192088,2,0,B|456:24,1,100,4|0,3:0|0:0,0:0:0:0:
256,192,192374,1,4,0:0:0:0:
472,132,195802,5,0,0:0:0:0:
466,112,195874,1,0,0:0:0:0:
454,95,195945,1,0,0:0:0:0:
440,80,196016,1,0,0:0:0:0:
423,68,196088,1,4,0:3:0:0:
404,59,196159,1,0,0:0:0:0:
384,62,196231,1,0,0:0:0:0:
366,71,196302,1,0,0:0:0:0:
354,87,196374,1,0,0:0:0:0:
338,99,196445,1,0,0:0:0:0:
318,107,196516,1,0,0:0:0:0:
298,111,196588,1,0,0:0:0:0:
278,107,196659,1,4,0:3:0:0:
258,99,196731,1,0,0:0:0:0:
242,87,196802,1,0,0:0:0:0:
230,71,196874,1,0,0:0:0:0:
218,51,196945,6,0,B|158:-5|62:43|78:127,1,200,4|4,0:0|2:3,0:0:0:0:
112,236,198088,2,0,B|196:264|184:208|260:236,2,150
48,308,199231,6,0,B|132:380|252:320,1,200,4|4,0:2|2:3,0:0:0:0:
192,188,200374,2,0,B|172:128|200:88|200:88|180:36,2,150
376,272,201516,5,4,0:0:0:0:
144,336,201659,1,0,0:0:0:0:
80,104,201802,1,8,0:0:0:0:
312,40,201945,1,0,0:0:0:0:
264,328,202088,5,2,0:0:0:0:
75,221,202231,1,2,0:0:0:0:
182,32,202374,1,8,0:0:0:0:
370,139,202517,1,2,0:0:0:0:
168,304,202659,5,2,0:0:0:0:
115,114,202802,1,2,0:0:0:0:
303,62,202945,1,8,0:0:0:0:
355,250,203088,1,2,0:0:0:0:
104,224,203231,5,2,0:0:0:0:
190,69,203374,1,2,0:0:0:0:
343,155,203517,1,8,0:0:0:0:
257,308,203660,1,0,0:0:0:0:
192,232,203802,5,4,0:0:0:0:
288,216,203945,1,0,0:0:0:0:
272,120,204088,1,8,0:0:0:0:
176,136,204231,1,0,0:0:0:0:
132,194,204374,5,2,0:0:0:0:
250,278,204517,1,2,0:0:0:0:
334,159,204660,1,8,0:0:0:0:
216,73,204803,1,2,0:0:0:0:
123,102,204945,5,2,0:0:0:0:
154,286,205088,1,2,0:0:0:0:
340,255,205231,1,8,0:0:0:0:
310,66,205374,1,2,0:0:0:0:
204,28,205516,5,2,0:0:0:0:
56,212,205659,1,2,0:0:0:0:
272,344,205802,1,8,0:0:0:0:
408,148,205945,1,8,0:0:0:0:
240,124,206088,6,0,B|168:148|160:256|248:280,1,200,4|8,0:0|0:0,0:0:0:0:
328,224,206516,1,0,0:0:0:0:
328,328,206659,1,2,0:0:0:0:
420,276,206802,2,0,B|440:224|416:172,1,100,2|8,0:0|0:0,0:0:0:0:
164,84,207088,6,0,B|372:72,1,200,2|2,0:0|0:0,0:0:0:0:
196,192,207516,2,0,B|320:184,1,100,8|2,0:0|0:0,0:0:0:0:
100,300,207802,2,0,B|36:320,2,50,2|2|2,0:0|0:0|0:0,0:0:0:0:
256,340,208088,1,8,0:0:0:0:
412,292,208231,1,2,0:0:0:0:
164,84,208374,6,0,B|88:76|52:180|108:232,1,200,4|8,0:0|0:0,0:0:0:0:
340,184,208802,1,0,0:0:0:0:
268,96,208945,1,2,0:0:0:0:
184,240,209088,1,2,0:0:0:0:
292,288,209231,1,8,0:0:0:0:
424,144,209374,6,0,B|440:88|412:44,1,100,2|2,0:0|0:0,0:0:0:0:
248,192,209659,1,2,0:0:0:0:
344,108,209802,1,8,0:0:0:0:
292,288,209945,1,2,0:0:0:0:
64,136,210088,5,2,0:0:0:0:
108,115,210159,1,2,0:0:0:0:
160,111,210231,1,2,0:0:0:0:
204,131,210302,1,2,0:0:0:0:
252,139,210374,1,8,0:0:0:0:
300,131,210445,1,8,0:0:0:0:
344,108,210516,1,8,0:0:0:0:
392,100,210588,1,8,0:0:0:0:
440,112,210659,2,0,B|428:156|436:220,1,100,4|0,0:0|0:0,0:0:0:0:
180,356,210945,5,8,0:0:0:0:
256,292,211088,1,0,0:0:0:0:
168,264,211231,1,2,0:0:0:0:
332,360,211374,5,2,0:0:0:0:
308,192,211516,1,8,0:0:0:0:
460,256,211659,1,2,0:0:0:0:
168,264,211802,5,2,0:0:0:0:
364,276,211945,1,2,0:0:0:0:
88,256,212088,5,8,0:0:0:0:
448,280,212231,1,2,0:0:0:0:
224,268,212374,5,2,0:0:0:0:
300,272,212516,1,2,0:0:0:0:
164,340,212659,5,8,0:0:0:0:
256,132,212802,1,0,0:0:0:0:
224,268,212945,5,4,0:0:0:0:
344,148,213088,2,0,B|392:188|368:256,1,100,0|8,0:0|0:0,0:0:0:0:
304,328,213374,1,0,0:0:0:0:
208,48,213516,1,2,0:0:0:0:
344,148,213659,1,2,0:0:0:0:
192,200,213802,1,8,0:0:0:0:
320,44,213945,1,2,0:0:0:0:
48,144,214088,5,2,0:0:0:0:
48,144,214231,1,2,0:0:0:0:
464,244,214374,1,8,0:0:0:0:
464,244,214516,1,2,0:0:0:0:
236,352,214659,5,2,0:0:0:0:
176,368,214731,1,2,0:0:0:0:
120,352,214802,1,2,0:0:0:0:
92,296,214874,1,2,0:0:0:0:
104,236,214945,1,8,0:0:0:0:
192,200,215088,1,8,0:0:0:0:
320,44,215231,6,0,B|336:128|456:160|512:80,1,240.000005722046,4|8,0:0|0:0,0:0:0:0:
388,204,215659,2,0,B|320:192|264:236,2,120.000002861023,0|2|2,0:0|0:0|0:0,0:0:0:0:
464,280,216088,1,8,0:0:0:0:
236,352,216231,2,0,B|168:360|116:320,1,120.000002861023,2|0,0:0|0:0,0:0:0:0:
236,32,216516,2,0,B|168:24|116:64,1,120.000002861023,2|8,0:0|0:0,0:0:0:0:
464,280,216802,2,0,B|396:320|324:308,1,120.000002861023,2|2,0:0|0:0,0:0:0:0:
464,104,217088,2,0,B|396:64|324:76,1,120.000002861023,2|8,0:0|0:0,0:0:0:0:
80,192,217374,5,2,0:0:0:0:
136,268,217516,2,0,B|196:228|204:144|144:88|72:100,1,240.000005722046,4|8,0:0|0:0,0:0:0:0:
256,240,217945,2,0,B|304:284|376:280,1,120.000002861023,0|2,0:0|0:0,0:0:0:0:
368,32,218231,2,0,B|304:28|256:72,1,120.000002861023,0|8,0:0|0:0,0:0:0:0:
472,220,218516,2,0,B|496:156|464:100,1,120.000002861023,2|2,0:0|0:0,0:0:0:0:
348,156,218802,5,2,0:0:0:0:
296,360,218945,1,8,0:0:0:0:
140,228,219088,1,2,0:0:0:0:
212,132,219231,5,2,0:0:0:0:
224,336,219374,1,2,0:0:0:0:
36,256,219516,1,8,0:0:0:0:
348,224,219659,1,8,0:0:0:0:
208,24,219802,6,0,B|144:28|88:36,1,120.000002861023,4|0,0:0|0:0,0:0:0:0:
424,144,220088,2,0,B|420:80|412:24,1,120.000002861023,8|0,0:0|0:0,0:0:0:0:
304,360,220374,2,0,B|368:356|424:348,1,120.000002861023,2|2,0:0|0:0,0:0:0:0:
88,240,220660,2,0,B|92:304|100:360,1,120.000002861023,8|2,0:0|0:0,0:0:0:0:
464,284,220945,5,0,0:2:0:0:
288,196,221088,1,2,0:0:0:0:
200,372,221231,1,8,0:0:0:0:
288,196,221374,1,2,0:0:0:0:
108,116,221516,1,2,0:0:0:0:
288,196,221659,1,2,0:0:0:0:
372,20,221802,1,8,0:0:0:0:
288,196,221945,1,0,0:0:0:0:
336,120,222088,5,4,0:0:0:0:
336,276,222231,1,0,0:0:0:0:
180,276,222374,1,8,0:0:0:0:
180,120,222517,1,0,0:0:0:0:
384,40,222659,5,2,0:0:0:0:
384,360,222802,1,2,0:0:0:0:
128,360,222945,1,8,0:0:0:0:
128,40,223088,1,2,0:0:0:0:
408,96,223231,5,2,0:0:0:0:
256,352,223374,1,2,0:0:0:0:
88,96,223516,1,8,0:0:0:0:
256,200,223659,1,2,0:0:0:0:
376,264,223802,5,2,0:0:0:0:
316,276,223874,1,2,0:0:0:0:
256,280,223945,1,2,0:0:0:0:
196,276,224016,1,2,0:0:0:0:
136,264,224088,1,8,0:0:0:0:
256,108,224231,1,8,0:0:0:0:
464,256,224374,6,0,B|420:192|456:108,1,139.99999666214,4|0,0:0|0:0,0:0:0:0:
48,128,224659,2,0,B|92:192|56:276,1,139.99999666214,8|2,0:0|0:0,0:0:0:0:
320,28,224945,2,0,B|256:72|172:36,1,139.99999666214,8|2,0:0|0:0,0:0:0:0:
192,356,225231,2,0,B|256:312|340:348,1,139.99999666214,8|2,0:0|0:0,0:0:0:0:
185,101,225516,6,0,B|48:128,1,139.99999666214,8|2,0:0|0:0,0:0:0:0:
118,330,225802,2,0,B|256:304,1,139.99999666214,8|2,0:0|0:0,0:0:0:0:
326,101,226088,2,0,B|464:128,1,139.99999666214,8|2,0:0|0:0,0:0:0:0:
393,330,226374,2,0,B|256:304,1,139.99999666214,8|2,0:0|0:0,0:0:0:0:
36,96,226659,6,0,B|200:56,1,139.999995727539,12|2,0:0|0:0,0:0:0:0:
256,304,226945,2,0,B|104:344,1,139.99999666214,8|2,0:0|0:0,0:0:0:0:
328,164,227231,2,0,B|488:212,1,139.99999666214,8|2,0:0|0:0,0:0:0:0:
49,204,227516,2,0,B|212:156,1,139.99999666214,8|2,0:0|0:0,0:0:0:0:
391,339,227802,2,0,B|256:304,1,139.99999666214,8|2,0:0|0:0,0:0:0:0:
339,62,228088,2,0,B|476:96,1,139.999995727539,8|2,0:0|0:0,0:0:0:0:
252,36,228374,5,8,0:0:0:0:
256,304,228516,1,2,0:0:0:0:
96,44,228659,1,8,0:0:0:0:
400,48,228802,5,8,0:0:0:0:
400,48,228874,1,8,0:0:0:0:
400,48,228945,2,0,B|440:112|412:184,1,139.999995727539,4|0,0:0|0:0,0:0:0:0:
164,144,229231,2,0,B|232:92|336:128,1,139.99999666214,8|0,0:0|0:0,0:0:0:0:
376,320,229516,5,2,0:0:0:0:
312,236,229659,1,2,0:0:0:0:
276,328,229802,1,8,0:0:0:0:
400,232,229945,1,2,0:0:0:0:
32,352,230088,6,0,B|32:276|32:208,1,139.999995727539,2|2,0:0|0:0,0:0:0:0:
480,32,230374,2,0,B|480:100|480:176,1,139.999995727539,8|2,0:0|0:0,0:0:0:0:
340,164,230659,5,2,0:0:0:0:
340,164,230731,1,2,0:0:0:0:
340,164,230802,1,2,0:0:0:0:
176,212,230945,1,8,0:0:0:0:
368,248,231088,1,0,0:0:0:0:
136,136,231231,1,4,0:0:0:0:
408,120,231374,5,0,0:0:0:0:
256,320,231516,1,8,0:0:0:0:
256,84,231659,1,0,0:0:0:0:
144,320,231802,5,2,0:0:0:0:
368,320,231945,1,2,0:0:0:0:
144,64,232088,1,8,0:0:0:0:
368,64,232231,1,2,0:0:0:0:
156,192,232374,6,0,B|76:176|88:216|8:192,1,139.99999666214,2|0,0:0|0:0,0:1:0:0:
356,192,232659,2,0,B|436:208|424:168|504:192,1,139.99999666214,10|0,0:0|0:0,0:1:0:0:
256,24,232945,5,2,0:0:0:0:
256,80,233016,1,2,0:0:0:0:
256,136,233088,1,2,0:0:0:0:
256,192,233159,1,2,0:0:0:0:
256,248,233231,1,8,0:0:0:0:
256,352,233374,1,8,0:0:0:0:
184,160,233516,6,0,B|132:80|4:120|0:216,2,240.000005722046,4|8|2,0:0|0:0|0:0,0:0:0:0:
424,172,234374,1,8,0:0:0:0:
328,160,234516,1,2,0:0:0:0:
360,252,234659,2,0,B|448:268|500:256,1,120.000002861023,0|2,0:0|0:0,0:0:0:0:
256,352,234945,5,8,0:0:0:0:
144,112,235088,1,2,0:0:0:0:
256,272,235231,1,2,0:0:0:0:
256,272,235302,1,2,0:0:0:0:
256,272,235374,1,2,0:0:0:0:
416,52,235516,5,8,0:0:0:0:
136,200,235659,1,2,0:0:0:0:
392,340,235802,2,0,B|440:300|428:216|360:196|360:196|372:136,2,240.000005722046,4|8|2,0:0|0:0|0:0,0:0:0:0:
160,360,236659,1,8,0:0:0:0:
152,276,236802,1,2,0:0:0:0:
256,336,236945,2,0,B|252:280|256:184,1,119.999996337891,0|2,0:0|0:0,0:0:0:0:
320,36,237231,5,8,0:0:0:0:
344,160,237374,1,2,0:0:0:0:
224,124,237516,1,2,0:0:0:0:
224,124,237588,1,2,0:0:0:0:
224,124,237659,1,2,0:0:0:0:
48,32,237802,5,8,0:0:0:0:
72,332,237945,1,0,0:0:0:0:
344,160,238088,2,0,B|444:176|464:300|372:344,1,240.000005722046,4|8,0:0|0:0,0:0:0:0:
172,228,238516,2,0,B|72:212|52:88|144:44,1,240.000005722046,2|2,0:0|0:0,0:0:0:0:
317,255,238945,2,0,B|313:347|201:387|133:327,1,239.999992675781,8|4,0:0|0:0,0:0:0:0:
137,330,239516,1,8,0:0:0:0:
416,332,239659,6,0,B|504:296|496:164|392:136,1,239.999992675781,2|2,0:0|0:0,0:0:0:0:
152,44,240088,2,0,B|56:84|72:216|176:240,1,239.999992675781,8|4,0:0|0:0,0:0:0:0:
260,204,240516,5,0,0:0:0:0:
224,288,240659,1,0,0:0:0:0:
188,160,240802,5,12,0:2:0:0:
352,224,240945,1,2,0:0:0:0:
144,236,241088,1,2,0:0:0:0:
332,140,241231,5,12,0:2:0:0:
280,352,241374,1,2,0:0:0:0:
212,88,241516,1,2,0:0:0:0:
416,160,241659,5,12,0:2:0:0:
144,328,241802,1,2,0:0:0:0:
300,44,241945,1,2,0:0:0:0:
46,207,242088,5,4,0:2:0:0:
89,237,242159,1,2,0:0:0:0:
142,248,242231,1,2,0:0:0:0:
194,238,242302,1,2,0:0:0:0:
243,215,242374,1,12,0:2:0:0:
289,189,242445,1,8,0:0:0:0:
342,181,242516,1,8,0:0:0:0:
395,192,242588,1,8,0:0:0:0:
442,217,242659,2,0,B|531:205|560:75|464:31,1,240.000005722046,4|8,0:0|0:0,0:0:0:0:
214,85,243088,5,2,0:2:0:0:
214,85,243231,2,0,B|142:82|82:73,1,120.000002861023,2|2,0:0|0:0,0:0:0:0:
298,299,243516,2,0,B|370:302|430:311,1,120.000002861023,8|2,0:0|0:0,0:0:0:0:
157,338,243802,5,2,0:2:0:0:
256,164,243945,1,2,0:0:0:0:
132,128,244088,1,8,0:0:0:0:
256,364,244231,1,2,0:0:0:0:
353,123,244374,1,2,0:0:0:0:
329,81,244445,1,2,0:0:0:0:
287,58,244516,1,2,0:0:0:0:
238,55,244588,1,2,0:0:0:0:
198,81,244659,1,8,0:0:0:0:
347,222,244802,5,2,0:0:0:0:
347,222,244874,1,2,0:0:0:0:
347,222,244945,2,0,B|432:260|520:176|464:84,1,239.999992675781,2|8,0:0|0:0,0:0:0:0:
140,140,245374,1,2,0:2:0:0:
140,140,245516,2,0,B|128:260,1,120.000002861023,2|2,0:0|0:0,0:0:0:0:
372,148,245802,2,0,B|384:28,1,120.000002861023,8|2,0:0|0:0,0:0:0:0:
248,340,246088,5,2,0:2:0:0:
236,56,246231,1,2,0:0:0:0:
464,184,246374,1,8,0:0:0:0:
172,196,246517,1,2,0:0:0:0:
408,240,246659,5,2,0:0:0:0:
392,196,246731,1,2,0:0:0:0:
352,172,246802,1,2,0:0:0:0:
304,172,246874,1,2,0:0:0:0:
264,200,246945,1,8,0:0:0:0:
248,244,247016,1,0,0:0:0:0:
208,272,247088,1,8,0:0:0:0:
160,280,247159,1,8,0:0:0:0:
112,272,247231,2,0,B|11:285|-29:157|47:93,1,240.000005722046,4|8,0:0|0:0,0:0:0:0:
140,48,247659,5,2,0:2:0:0:
232,296,247802,2,0,B|188:352|112:336,1,120.000002861023,2|2,0:0|0:0,0:0:0:0:
280,88,248088,2,0,B|324:32|400:48,1,120.000002861023,8|2,0:0|0:0,0:0:0:0:
352,248,248374,5,2,0:2:0:0:
172,172,248516,1,2,0:0:0:0:
296,352,248659,1,8,0:0:0:0:
360,128,248802,1,2,0:0:0:0:
152,312,248945,5,2,0:0:0:0:
100,328,249016,1,2,0:0:0:0:
48,316,249088,1,2,0:0:0:0:
20,268,249159,1,2,0:0:0:0:
20,212,249231,1,8,0:0:0:0:
72,92,249374,5,2,0:0:0:0:
72,92,249445,1,2,0:0:0:0:
72,92,249516,2,0,B|148:92|324:92,1,240.000005722046,2|8,0:0|0:0,0:0:0:0:
404,40,249945,5,2,0:2:0:0:
452,252,250088,2,0,B|392:280|320:244,1,120.000002861023,2|2,0:0|0:0,0:0:0:0:
180,120,250374,1,8,0:0:0:0:
335,251,250516,1,2,0:0:0:0:
288,124,250659,5,2,0:2:0:0:
228,280,250802,1,2,0:0:0:0:
232,40,250945,5,8,0:0:0:0:
296,340,251088,1,2,0:0:0:0:
116,256,251231,5,2,0:0:0:0:
112,252,251302,1,2,0:0:0:0:
108,248,251374,1,2,0:0:0:0:
104,244,251445,1,2,0:0:0:0:
100,240,251516,1,8,0:0:0:0:
96,236,251588,1,8,0:0:0:0:
92,232,251659,1,8,0:0:0:0:
88,228,251731,1,8,0:0:0:0:
84,224,251802,1,12,0:0:0:0:
136,144,251945,1,0,0:0:0:0:
204,320,252088,5,8,0:0:0:0:
112,344,252231,1,2,0:0:0:0:
212,188,252374,5,8,0:0:0:0:
276,260,252516,1,2,0:0:0:0:
360,84,252659,5,8,0:0:0:0:
328,180,252802,1,2,0:0:0:0:
144,52,252945,5,8,0:0:0:0:
264,40,253088,1,2,0:0:0:0:
112,240,253231,5,8,0:0:0:0:
68,136,253374,1,2,0:0:0:0:
272,120,253516,5,8,0:0:0:0:
240,236,253659,1,2,0:0:0:0:
168,156,253802,1,8,0:0:0:0:
440,96,253945,5,2,0:0:0:0:
440,96,254016,1,2,0:0:0:0:
440,96,254088,1,8,0:0:0:0:
304,216,254231,1,2,0:0:0:0:
452,344,254374,5,8,0:0:0:0:
436,204,254516,1,2,0:0:0:0:
252,344,254659,5,8,0:0:0:0:
168,232,254802,1,2,0:0:0:0:
296,272,254945,5,8,0:0:0:0:
336,96,255088,1,2,0:0:0:0:
80,116,255231,5,8,0:0:0:0:
236,152,255374,1,2,0:0:0:0:
96,192,255516,5,8,0:0:0:0:
205,74,255659,1,2,0:0:0:0:
174,209,255802,5,8,0:0:0:0:
126,56,255945,1,2,0:0:0:0:
24,172,256088,1,8,0:0:0:0:
216,360,256231,5,8,0:0:0:0:
216,360,256302,1,8,0:0:0:0:
216,360,256374,1,4,0:0:0:0:
432,272,256516,1,2,0:0:0:0:
288,336,256659,5,8,0:0:0:0:
428,180,256802,1,2,0:0:0:0:
360,304,256945,5,8,0:0:0:0:
424,96,257088,1,2,0:0:0:0:
432,272,257231,5,8,0:0:0:0:
420,12,257374,1,2,0:0:0:0:
432,272,257516,5,8,0:0:0:0:
144,248,257659,1,2,0:0:0:0:
428,180,257802,5,8,0:0:0:0:
184,344,257945,1,2,0:0:0:0:
440,360,258088,5,8,0:0:0:0:
176,160,258231,1,2,0:0:0:0:
368,320,258374,5,8,0:0:0:0:
240,240,258516,1,2,0:0:0:0:
240,240,258588,1,2,0:0:0:0:
240,240,258659,1,4,0:0:0:0:
256,32,258802,5,2,0:0:0:0:
368,320,258945,1,8,0:0:0:0:
256,32,259088,1,2,0:0:0:0:
104,252,259231,1,8,0:0:0:0:
256,32,259374,1,2,0:0:0:0:
256,352,259516,1,8,0:0:0:0:
256,32,259659,1,2,0:0:0:0:
80,344,259802,5,8,0:0:0:0:
480,192,259945,1,2,0:0:0:0:
80,40,260088,1,8,0:0:0:0:
252,184,260231,5,2,0:0:0:0:
244,192,260302,1,0,0:0:0:0:
240,180,260374,1,8,0:0:0:0:
251,179,260445,1,8,0:0:0:0:
260,184,260516,1,8,0:0:0:0:
248,188,260588,1,8,0:0:0:0:
252,176,260659,1,8,0:0:0:0:
264,184,260731,1,8,0:0:0:0:
256,192,260802,1,8,0:0:0:0:
244,192,260874,1,8,0:0:0:0:
