osu file format v14

[General]
AudioFilename: audio.mp3
AudioLeadIn: 0
PreviewTime: 59516
Countdown: 0
SampleSet: Normal
StackLeniency: 0.3
Mode: 0
LetterboxInBreaks: 0
WidescreenStoryboard: 0

[Editor]
Bookmarks: 142088
DistanceSpacing: 1.1
BeatDivisor: 4
GridSize: 4
TimelineZoom: 1.9

[Metadata]
Title:Hades: The rise
TitleUnicode:Hades: The rise
Artist:Yousei Teikoku
ArtistUnicode:妖精帝國
Creator:Delis
Version:Hard
Source:
Tags:metanoia Mirash
BeatmapID:1411797
BeatmapSetID:662526

[Difficulty]
HPDrainRate:5
CircleSize:4
OverallDifficulty:7
ApproachRate:8
SliderMultiplier:1.5
SliderTickRate:1

[Events]
//Background and Video events
0,0,"BG.jpg",0,0
//Break Periods
2,28001,31624
2,50859,52195
2,53145,54481
2,87430,95624
2,114859,116195
2,117145,118481
2,151430,159624
//Storyboard Layer 0 (Background)
//Storyboard Layer 1 (Fail)
//Storyboard Layer 2 (Pass)
//Storyboard Layer 3 (Foreground)
//Storyboard Sound Samples

[TimingPoints]
374,285.714285714286,4,2,1,60,1,0
18659,-100,4,1,1,50,0,0
41516,-125,4,2,1,50,0,0
50802,-125,4,1,1,50,0,0
57445,-100,4,1,1,50,0,0
59516,-100,4,1,1,60,0,0
87231,-100,4,1,1,50,0,0
105516,-125,4,2,1,50,0,0
114802,-125,4,1,1,50,0,0
121445,-100,4,1,1,50,0,0
123516,-100,4,1,1,60,0,0
151231,-100,4,1,1,50,0,0
160374,-200,4,1,1,50,0,0
168374,-100,4,1,1,50,0,0
169516,-100,4,2,1,50,0,0
178659,-100,4,2,1,30,0,0
179231,-100,4,2,1,60,0,0
179302,-100,4,2,1,30,0,0
180374,-100,4,2,1,60,0,0
180445,-100,4,2,1,30,0,0
181516,-100,4,2,1,60,0,0
181588,-100,4,2,1,30,0,0
181802,-100,4,2,1,60,0,0
181874,-100,4,2,1,30,0,0
182088,-100,4,1,1,32,0,0
182159,-100,4,1,1,34,0,0
182231,-100,4,1,1,36,0,0
182302,-100,4,1,1,38,0,0
182374,-100,4,1,1,40,0,0
182445,-100,4,1,1,42,0,0
182516,-100,4,1,1,44,0,0
182588,-100,4,1,1,46,0,0
182659,-100,4,1,1,48,0,0
182731,-100,4,1,1,50,0,0
182802,-100,4,1,1,52,0,0
182874,-100,4,1,1,54,0,0
182945,-100,4,1,1,56,0,0
183016,-100,4,1,1,58,0,0
183088,-100,4,1,1,60,0,0
183231,-100,4,2,1,60,0,0
195802,-100,4,1,1,50,0,0
196945,-200,4,1,1,60,0,0
201231,-200,4,1,1,40,0,0
201516,-200,4,1,1,60,0,0
201659,-100,4,1,1,60,0,0
224374,-100,4,1,1,70,0,0
233516,-100,4,1,1,65,0,0

[Colours]
Combo1 : 54,95,91
Combo2 : 107,46,67
Combo3 : 16,82,141
Combo4 : 134,0,134

[HitObjects]
40,160,7231,5,4,0:2:0:0:
144,312,7802,1,4,0:2:0:0:
224,96,8374,2,0,B|264:92|304:92,1,75,4|0,0:2|3:0,0:0:0:0:
380,72,8659,1,8,0:0:0:0:
456,112,8802,2,0,B|496:100,5,37.5,0|0|0|0|0|0,3:0|3:0|3:0|3:0|3:0|3:0,0:0:0:0:
432,144,9231,2,0,B|380:160|368:236|408:272,1,150,0|4,3:0|0:0,0:0:0:0:
256,204,9802,5,0,1:0:0:0:
188,256,9945,2,0,B|132:288|68:252|68:176,1,150,2|0,0:0|3:0,0:0:0:0:
76,120,10374,2,0,B|84:60|80:32,1,75,0|0,1:0|3:0,0:0:0:0:
160,92,10659,2,0,B|232:64|328:84,1,150,2|0,0:2|1:0,0:0:0:0:
384,120,11088,1,2,3:2:0:0:
344,200,11231,2,0,B|340:300,1,75,0|0,3:0|3:0,0:0:0:0:
260,292,11516,2,0,B|160:296,1,75,0|0,1:2|3:0,0:0:0:0:
116,244,11802,6,0,B|64:268|4:228|16:168,1,150,2|0,3:2|1:0,0:0:0:0:
68,104,12231,2,0,B|120:80|180:120|168:180,1,150,2|0,0:2|3:0,0:0:0:0:
248,128,12659,2,0,B|252:32,1,75,0|0,1:0|3:0,0:0:0:0:
332,88,12945,2,0,B|380:88|416:92,1,75,2|0,0:2|3:0,0:0:0:0:
452,176,13231,2,0,B|404:176|368:172,1,75,0|2,1:0|3:2,0:0:0:0:
296,208,13516,2,0,B|284:164,3,37.5,0|0|0|0,3:0|3:0|3:0|3:0,0:0:0:0:
304,232,13802,2,0,B|232:224|204:228,1,75,0|0,1:0|0:0,0:0:0:0:
80,276,14088,6,0,B|100:324|172:336|208:292,1,150,4|0,0:0|1:0,0:0:0:0:
152,216,14516,2,0,B|132:168|60:156|24:200,1,150,2|0,0:2|3:0,0:0:0:0:
36,104,14945,2,0,B|52:28,1,75,0|0,1:0|3:0,0:0:0:0:
124,84,15231,2,0,B|212:76,1,75,2|0,0:2|3:0,0:0:0:0:
272,128,15516,2,0,B|288:36,1,75,0|2,1:0|3:2,0:0:0:0:
376,72,15802,2,0,B|388:16,3,37.5,0|0|0|0,3:0|3:0|3:0|3:0,0:0:0:0:
368,100,16088,2,0,B|416:96|456:120,1,75,0|0,1:0|3:0,0:0:0:0:
484,192,16374,6,0,B|456:240|388:248|352:204,1,150,2|0,3:2|1:0,0:0:0:0:
312,284,16802,2,0,B|284:236|216:228|180:272,1,150,2|0,0:2|3:0,0:0:0:0:
116,336,17231,2,0,B|156:352|216:356,1,75,0|0,1:0|3:0,0:0:0:0:
272,364,17516,2,0,B|312:356|364:352,1,75,2|0,0:2|3:0,0:0:0:0:
400,280,17802,2,0,B|448:312|464:344,1,75,0|2,1:0|3:2,0:0:0:0:
488,240,18088,2,0,B|476:152,1,75,0|0,3:0|3:0,0:0:0:0:
488,80,18374,1,8,0:0:0:0:
408,48,18516,5,0,3:0:0:0:
408,48,18588,1,0,3:0:0:0:
408,48,18659,2,0,B|240:60,1,150,4|8,0:0|0:0,0:0:0:0:
120,216,19231,2,0,B|288:204,1,150,2|8,0:0|0:0,0:0:0:0:
352,196,19659,1,0,0:0:0:0:
356,280,19802,2,0,B|320:288|260:288,1,75,2|2,0:0|0:0,0:0:0:0:
200,292,20088,2,0,B|124:284|44:296,1,150,8|2,0:0|0:0,0:0:0:0:
50,295,20516,1,2,0:0:0:0:
24,212,20659,1,8,0:0:0:0:
24,212,20802,1,2,0:0:0:0:
60,132,20945,6,0,B|100:120|144:128,1,75,2|0,0:0|0:0,0:0:0:0:
216,88,21231,2,0,B|220:144|292:176|344:136,2,150,8|2|8,0:0|0:0|0:0,0:0:0:0:
216,88,22088,2,0,B|268:68|312:60,1,75,2|2,0:0|0:0,0:0:0:0:
248,176,22374,2,0,B|212:192|152:204,1,75,8|0,0:0|0:0,0:0:0:0:
92,188,22659,1,2,0:0:0:0:
92,188,22802,1,2,0:0:0:0:
52,80,22945,1,8,0:0:0:0:
52,80,23088,1,8,0:0:0:0:
160,116,23231,6,0,B|256:104|288:24,1,150,4|8,0:0|0:0,0:0:0:0:
352,268,23802,2,0,B|256:280|224:360,1,150,2|8,0:0|0:0,0:0:0:0:
230,345,24231,1,0,0:0:0:0:
196,256,24374,2,0,B|184:188|180:156,1,75,2|2,0:0|0:0,0:0:0:0:
116,136,24659,2,0,B|288:152,1,150,8|2,0:0|0:0,0:0:0:0:
348,152,25088,1,2,0:0:0:0:
348,152,25231,2,0,B|416:156|448:160,1,75,8|2,0:0|0:0,0:0:0:0:
468,228,25516,5,2,0:0:0:0:
392,76,25802,1,8,0:0:0:0:
300,252,26088,1,2,0:0:0:0:
232,96,26374,1,8,0:0:0:0:
232,96,26659,2,0,B|144:104,1,75,2|2,0:0|0:0,0:0:0:0:
128,188,26945,2,0,B|216:180,1,75,8|2,0:0|0:0,0:0:0:0:
292,160,27231,1,2,0:0:0:0:
292,160,27302,1,2,0:0:0:0:
292,160,27374,1,2,0:0:0:0:
380,192,27516,2,0,B|420:200,4,37.5,8|8|8|8|4,0:0|0:0|0:0|0:0|0:0,0:0:0:0:
188,304,32374,6,0,B|108:332|120:272|40:304,2,150,4|8|2,0:0|0:0|0:0,0:0:0:0:
256,248,33088,1,2,0:0:0:0:
256,248,33231,2,0,B|244:160,1,75,8|0,0:0|0:0,0:0:0:0:
204,96,33516,2,0,B|176:124|128:116,1,75,2|2,0:0|0:0,0:0:0:0:
104,224,33802,2,0,B|132:196|180:204,1,75,8|0,0:0|0:0,0:0:0:0:
52,144,34088,2,0,B|40:52,1,75,2|2,0:0|0:0,0:0:0:0:
126,41,34374,2,0,B|136:132,1,75,8|2,0:0|0:0,0:0:0:0:
240,176,34659,6,0,B|232:88|224:28,1,150,2|8,0:0|0:0,0:0:0:0:
308,60,35088,1,0,0:0:0:0:
308,60,35231,2,0,B|384:44|464:52,1,150,2|8,0:0|0:0,0:0:0:0:
456,268,35802,2,0,B|368:280,1,75,2|2,0:0|0:0,0:0:0:0:
304,248,36088,2,0,B|216:260,1,75,8|0,0:0|0:0,0:0:0:0:
156,308,36374,1,2,0:0:0:0:
156,308,36516,1,2,0:0:0:0:
96,240,36659,1,8,0:0:0:0:
96,240,36802,1,2,0:0:0:0:
168,184,36945,6,0,B|176:140|164:100,1,75,4|0,0:0|0:0,0:0:0:0:
104,40,37231,2,0,B|120:92|192:104|232:64,1,150,8|2,0:0|0:0,0:0:0:0:
280,136,37659,1,2,0:0:0:0:
280,136,37802,2,0,B|360:160,1,75,8|0,0:0|0:0,0:0:0:0:
424,112,38088,2,0,B|440:148|432:200,1,75,2|2,0:0|0:0,0:0:0:0:
368,240,38374,2,0,B|364:288|360:324,1,75,8|0,0:0|0:0,0:0:0:0:
280,352,38659,2,0,B|192:348,1,75,2|2,0:0|0:0,0:0:0:0:
124,368,38945,2,0,B|132:328|120:284,1,75,8|0,0:0|0:0,0:0:0:0:
72,224,39231,6,0,B|40:164|62:108|62:108|104:124,1,150,2|8,0:0|0:0,0:0:0:0:
236,200,39802,2,0,B|281:204|321:200,1,75,2|2,0:0|0:0,0:0:0:0:
388,156,40088,2,0,B|444:124|440:52|376:32,1,150,8|2,0:0|0:0,0:0:0:0:
320,80,40516,1,0,0:0:0:0:
248,36,40659,2,0,B|204:40|160:44,1,75,8|8,0:0|0:0,0:0:0:0:
104,96,40945,2,0,B|64:80,2,37.5,2|0|2,0:0|0:0|0:0,0:0:0:0:
184,128,41231,1,8,0:0:0:0:
124,184,41374,5,8,0:0:0:0:
124,184,41445,1,8,0:0:0:0:
124,184,41516,2,0,B|92:252|140:316,1,120,4|0,3:2|3:0,0:0:0:0:
260,328,42088,2,0,B|320:280|400:304,1,120,8|0,0:0|3:0,0:0:0:0:
456,324,42516,1,0,3:0:0:0:
436,240,42659,2,0,B|416:104,1,120,0|0,3:0|3:0,0:0:0:0:
244,68,43231,2,0,B|264:204,1,120,8|0,0:0|3:0,0:0:0:0:
116,300,43802,2,0,B|96:164,1,120,4|0,3:2|3:0,0:0:0:0:
216,304,44374,6,0,B|252:332|300:324|320:280,1,120,8|0,0:0|3:0,0:0:0:0:
360,212,44802,1,0,0:0:0:0:
280,212,44945,2,0,B|272:76,1,120,0|0,3:0|3:0,0:0:0:0:
196,140,45374,1,0,3:0:0:0:
128,100,45516,2,0,B|92:104|56:104,1,60,8|0,0:0|3:0,0:0:0:0:
12,168,45802,1,8,0:0:0:0:
88,204,45945,1,8,0:0:0:0:
16,260,46088,5,4,3:2:0:0:
184,344,46374,1,0,3:0:0:0:
336,212,46659,2,0,B|320:76,1,120,8|0,0:0|3:0,0:0:0:0:
321,92,47088,1,0,3:0:0:0:
252,44,47231,2,0,B|192:32|132:40,1,120,0|0,3:0|3:0,0:0:0:0:
88,204,47802,2,0,B|156:216|208:208,1,120,8|0,0:0|3:0,0:0:0:0:
404,136,48374,2,0,B|332:128|276:132,1,120,4|0,3:2|3:0,0:0:0:0:
208,328,48945,5,8,0:2:0:0:
208,328,49231,2,0,B|280:336,1,60,0|0,3:0|0:0,0:0:0:0:
344,304,49516,2,0,B|352:256,3,30,0|0|0|0,3:0|3:0|3:0|3:0,0:0:0:0:
332,248,49802,2,0,B|340:200,3,30,0|0|0|0,3:0|3:0|3:0|3:0,0:0:0:0:
332,188,50088,2,0,B|280:200|248:196,1,60,8|0,0:0|3:0,0:0:0:0:
196,168,50374,1,8,0:0:0:0:
196,168,50516,1,8,0:0:0:0:
224,96,50659,1,4,0:2:0:0:
256,192,52945,5,0,0:0:0:0:
256,192,55231,5,0,0:0:0:0:
256,192,56374,5,2,0:0:0:0:
284,308,56945,5,2,0:0:0:0:
172,268,57516,6,0,B|16:260,1,150,4|2,0:2|0:0,0:0:0:0:
344,192,58088,2,0,B|496:200,1,150,2|2,0:0|0:0,0:0:0:0:
260,52,58659,2,0,B|176:60,1,75,2|0,0:0|0:0,0:0:0:0:
108,112,58945,2,0,B|172:120|212:180,1,112.5,8|2,0:0|0:0,0:0:0:0:
216,200,59231,2,0,B|272:176,3,37.5,8|8|8|8,0:0|0:0|0:0|0:0,0:0:0:0:
192,232,59516,2,0,B|140:220,3,37.5,8|8|8|8,0:0|0:0|0:0|0:0,0:0:0:0:
220,264,59802,6,0,B|252:316|216:376|152:372,1,150,4|0,0:0|0:0,0:0:0:0:
104,312,60231,2,0,B|60:300|16:300,1,75,0|2,0:0|0:0,0:0:0:0:
88,228,60516,2,0,B|96:192|96:148,1,75,2|8,0:2|0:0,0:0:0:0:
72,76,60802,1,2,0:0:0:0:
72,76,61088,1,2,0:0:0:0:
156,112,61231,1,8,0:0:0:0:
192,40,61374,2,0,B|252:28|296:24,1,75,2|2,0:0|0:0,0:0:0:0:
340,68,61659,1,2,0:0:0:0:
412,112,61802,2,0,B|416:156|408:204,1,75,8|2,0:0|0:0,0:0:0:0:
356,296,62088,6,0,B|320:344|252:336|232:276,1,150,4|8,0:0|0:0,0:0:0:0:
240,200,62516,2,0,B|252:120,1,75,0|2,0:0|0:0,0:0:0:0:
132,164,62802,2,0,B|120:240,1,75,0|8,0:0|0:0,0:0:0:0:
200,216,63088,2,0,B|224:36,1,150,2|2,0:0|0:0,0:0:0:0:
312,36,63516,2,0,B|356:28|404:32,1,75,8|2,0:0|0:0,0:0:0:0:
464,80,63802,2,0,B|468:160,1,75,2|2,0:0|0:0,0:0:0:0:
448,240,64088,1,8,0:0:0:0:
448,240,64231,1,8,0:0:0:0:
340,200,64374,6,0,B|260:160|192:224,2,150,4|8|2,0:0|0:0|0:0,0:0:0:0:
300,272,65088,1,2,0:0:0:0:
368,328,65231,2,0,B|408:332|448:312,1,75,8|2,0:0|0:0,0:0:0:0:
504,252,65516,2,0,B|488:164,1,75,2|2,0:0|0:0,0:0:0:0:
392,148,65802,2,0,B|372:188|388:232,1,75,8|0,0:0|0:0,0:0:0:0:
300,272,66088,1,2,0:0:0:0:
300,272,66159,1,2,0:0:0:0:
300,272,66231,2,0,B|252:276|208:284,1,75,2|8,0:0|0:0,0:0:0:0:
44,136,66659,6,0,B|104:144|104:144|136:164|136:164|204:172,1,150,4|8,0:2|0:0,0:0:0:0:
256,112,67088,1,0,0:0:0:0:
320,172,67231,2,0,B|396:164,1,75,2|2,0:0|0:0,0:0:0:0:
428,68,67516,2,0,B|396:88|348:80,1,75,8|2,0:0|0:0,0:0:0:0:
284,32,67802,2,0,B|228:12|172:52|172:108,1,150,0|8,0:0|0:0,0:0:0:0:
204,180,68231,1,2,0:0:0:0:
160,256,68374,2,0,B|104:284|44:252|48:192,1,150,2|8,0:0|0:0,0:0:0:0:
88,120,68802,1,8,0:0:0:0:
204,180,68945,6,0,B|276:184|360:176,1,150,4|8,0:0|0:0,0:0:0:0:
396,256,69374,2,0,B|296:260,1,75,0|2,0:0|0:0,0:0:0:0:
276,344,69659,2,0,B|372:340,1,75,0|8,0:0|0:0,0:0:0:0:
224,264,69945,2,0,B|176:240|112:260|92:308,1,150,2|2,0:0|0:0,0:0:0:0:
94,303,70374,1,8,0:0:0:0:
80,216,70516,2,0,B|84:176|72:132,1,75,2|2,0:0|0:0,0:0:0:0:
44,60,70802,1,2,0:0:0:0:
132,72,70945,2,0,B|180:72|240:80,1,75,8|2,0:0|0:0,0:0:0:0:
296,32,71231,6,0,B|348:60|344:136|280:160,1,150,4|8,0:0|0:0,0:0:0:0:
212,160,71659,2,0,B|164:156|128:168,1,75,0|2,0:0|0:0,0:0:0:0:
176,244,71945,2,0,B|112:268|88:304,1,75,0|8,0:0|0:0,0:0:0:0:
188,336,72231,2,0,B|272:372|328:304,1,150,2|2,0:0|0:0,0:0:0:0:
372,236,72659,1,8,0:0:0:0:
320,164,72802,2,0,B|312:124|304:76,1,75,2|2,0:0|0:0,0:0:0:0:
388,44,73088,1,2,0:0:0:0:
388,44,73159,1,2,0:0:0:0:
388,44,73231,2,0,B|400:108|400:144,1,75,8|8,0:0|0:0,0:0:0:0:
232,136,73516,6,0,B|144:136|68:108,2,150,4|8|2,0:0|0:0|0:0,0:0:0:0:
180,216,74231,1,2,0:0:0:0:
180,216,74374,2,0,B|124:204|72:200,1,75,8|2,0:0|0:0,0:0:0:0:
232,288,74659,2,0,B|196:304|136:296,1,75,2|2,0:0|0:0,0:0:0:0:
288,220,74945,2,0,B|312:188|304:144,1,75,8|2,0:0|0:0,0:0:0:0:
268,72,75231,1,2,0:0:0:0:
268,72,75302,1,0,0:0:0:0:
268,72,75374,1,2,0:0:0:0:
356,36,75516,1,8,0:0:0:0:
136,144,75802,6,0,B|48:132,1,75,4|0,0:0|0:0,0:0:0:0:
61,250,76088,2,0,B|144:240,1,75,8|0,0:0|0:0,0:0:0:0:
220,196,76374,2,0,B|228:240|220:288,1,75,2|2,0:0|0:0,0:0:0:0:
304,316,76659,2,0,B|340:236|300:156,1,150,8|2,0:0|0:0,0:0:0:0:
396,184,77088,1,2,0:0:0:0:
396,184,77231,2,0,B|440:188|472:168,1,75,8|2,0:0|0:0,0:0:0:0:
500,84,77516,2,0,B|516:28,4,37.5,2|2|2|2|8,0:0|0:0|0:0|0:0|0:0,0:0:0:0:
416,104,77945,1,8,0:0:0:0:
340,48,78088,6,0,B|268:16|192:40,2,150,4|8|2,0:0|0:0|0:0,0:0:0:0:
296,116,78802,1,0,0:0:0:0:
296,116,78945,2,0,B|300:208,1,75,8|0,0:0|0:0,0:0:0:0:
256,264,79231,2,0,B|212:272|180:244,2,75,0|2|8,0:0|0:0|0:0,0:0:0:0:
328,312,79659,2,0,B|348:260|420:240|472:284,1,150,2|2,0:0|0:0,0:0:0:0:
408,180,80088,5,8,0:0:0:0:
408,180,80374,2,0,B|248:192,1,150,4|8,0:0|0:0,0:0:0:0:
248,104,80802,1,0,0:0:0:0:
248,104,80945,2,0,B|316:96|344:100,1,75,2|2,0:0|0:0,0:0:0:0:
164,144,81231,2,0,B|156:100|160:48,1,75,8|2,0:0|0:0,0:0:0:0:
204,220,81516,2,0,B|160:228|108:224,2,75,0|2|8,0:0|0:0|0:0,0:0:0:0:
288,196,81945,2,0,B|340:160|396:184|396:184|428:144,1,150,2|2,0:0|0:0,0:0:0:0:
464,88,82374,5,8,0:0:0:0:
464,88,82659,2,0,B|512:116|516:192|464:224,1,150,4|8,0:0|0:0,0:0:0:0:
420,288,83088,2,0,B|372:260|368:184|420:152,1,150,2|2,0:0|0:0,0:0:0:0:
473,215,83516,2,0,B|324:232,1,150,8|4,0:0|0:0,0:0:0:0:
132,152,84088,1,8,0:0:0:0:
180,80,84231,2,0,B|232:100|240:176|196:212,1,150,2|2,0:0|0:0,0:0:0:0:
128,240,84659,2,0,B|60:248|44:184|44:184|0:220,1,150,8|4,0:0|0:0,0:0:0:0:
204,316,85231,5,2,0:2:0:0:
204,316,85374,2,0,B|304:308,1,75,12|2,0:2|0:0,0:0:0:0:
320,236,85659,1,2,0:0:0:0:
320,236,85802,2,0,B|400:248,1,75,12|2,0:2|0:0,0:0:0:0:
472,280,86088,1,2,0:2:0:0:
472,280,86231,2,0,B|468:196,1,75,12|2,0:2|0:0,0:0:0:0:
420,116,86516,1,2,0:0:0:0:
420,116,86659,2,0,B|340:152|264:104,2,150,12|4|4,0:2|0:2|0:0,0:0:0:0:
340,260,96374,6,0,B|320:312|252:328|200:276,1,150,4|8,0:0|0:0,0:0:0:0:
214,288,96945,2,0,B|220:252|220:208,1,75,2|2,0:0|0:0,0:0:0:0:
208,128,97231,1,8,0:0:0:0:
288,160,97374,1,0,0:0:0:0:
320,80,97516,2,0,B|360:60|408:76,2,75,2|2|8,0:0|0:0|0:0,0:0:0:0:
240,44,97945,1,0,0:0:0:0:
156,56,98088,2,0,B|72:72,1,75,2|2,0:0|0:0,0:0:0:0:
32,144,98374,2,0,B|44:232,1,75,8|2,0:0|0:0,0:0:0:0:
64,304,98659,6,0,B|148:268|212:336,1,150,2|8,0:0|0:0,0:0:0:0:
380,232,99231,2,0,B|400:144,2,75,0|2|8,0:0|0:0|0:0,0:0:0:0:
196,160,99802,2,0,B|172:64,1,75,2|2,0:0|0:0,0:0:0:0:
92,80,100088,2,0,B|116:176,1,75,8|0,0:0|0:0,0:0:0:0:
144,228,100374,2,0,B|172:316,1,75,2|2,0:0|0:0,0:0:0:0:
68,276,100659,2,0,B|40:188,1,75,8|2,0:0|0:0,0:0:0:0:
196,160,100945,6,0,B|280:148|368:152,2,150,2|8|2,0:0|0:0|0:0,0:0:0:0:
144,228,101659,1,2,0:0:0:0:
148,312,101802,2,0,B|184:336|232:328,1,75,8|2,0:0|0:0,0:0:0:0:
292,280,102088,2,0,B|328:260|372:272,1,75,2|2,0:0|0:0,0:0:0:0:
436,224,102374,2,0,B|456:260|444:304,2,75,8|0|2,0:0|0:0|0:0,0:0:0:0:
388,148,102802,1,2,0:0:0:0:
388,148,102945,2,0,B|408:40,1,75,8|2,0:0|0:0,0:0:0:0:
480,128,103231,5,2,0:0:0:0:
288,208,103516,1,8,0:0:0:0:
164,56,103802,1,2,0:0:0:0:
288,208,104088,1,8,0:0:0:0:
144,348,104374,2,0,B|132:308|140:252,1,75,2|2,0:0|0:0,0:0:0:0:
164,192,104659,1,8,0:0:0:0:
164,192,104802,1,8,0:0:0:0:
112,120,104945,2,0,B|68:108,2,37.5,2|2|2,0:0|0:0|0:0,0:0:0:0:
164,56,105231,2,0,B|204:64|244:40,1,75,8|8,0:0|0:0,0:0:0:0:
244,36,105445,1,8,0:0:0:0:
248,28,105516,1,4,1:2:0:0:
256,192,105802,5,0,3:2:0:0:
272,356,106088,2,0,B|416:336,1,120,8|0,0:0|3:0,0:0:0:0:
468,308,106516,1,0,3:0:0:0:
404,252,106659,2,0,B|380:184|424:128,1,120,0|0,3:0|3:0,0:0:0:0:
304,40,107231,2,0,B|256:88|176:64,1,120,8|0,0:0|3:0,0:0:0:0:
20,48,107802,6,0,B|40:184,1,120,4|0,3:2|3:0,0:0:0:0:
37,166,108374,1,8,0:0:0:0:
168,264,108659,2,0,B|176:188,1,60,0|0,3:0|3:0,0:0:0:0:
240,152,108945,2,0,B|272:160|304:144,2,60,0|0|0,3:0|3:0|3:0,0:0:0:0:
176,104,109374,1,0,3:0:0:0:
112,68,109516,2,0,B|72:64|40:80,1,60,8|0,0:0|3:0,0:0:0:0:
12,144,109802,1,8,0:0:0:0:
84,176,109945,1,8,0:0:0:0:
24,232,110088,6,0,B|44:372,1,120,4|0,3:2|3:0,0:0:0:0:
192,264,110659,2,0,B|252:232|320:260,1,120,8|0,0:0|3:0,0:0:0:0:
380,292,111088,1,0,3:0:0:0:
380,292,111231,2,0,B|424:156,2,120,0|0|8,3:0|3:0|0:0,0:0:0:0:
176,348,112088,1,0,3:0:0:0:
100,152,112374,6,0,B|156:120|236:140,1,120,4|0,3:2|3:0,0:0:0:0:
380,192,112945,1,8,0:0:0:0:
380,192,113231,2,0,B|360:108,1,60,0|0,3:0|3:0,0:0:0:0:
348,52,113516,2,0,B|384:24,3,30,0|0|0|0,3:0|3:0|3:0|3:0,0:0:0:0:
408,48,113802,2,0,B|452:60,3,30,0|0|0|0,3:0|3:0|3:0|3:0,0:0:0:0:
472,80,114088,2,0,B|476:116|468:164,1,60,8|0,0:0|3:0,0:0:0:0:
456,216,114374,1,8,0:0:0:0:
456,216,114516,1,8,0:0:0:0:
488,296,114659,1,4,0:0:0:0:
104,292,116945,5,0,0:0:0:0:
260,40,119231,5,0,0:0:0:0:
256,196,120374,5,2,0:0:0:0:
256,196,120945,5,2,0:0:0:0:
256,196,121516,6,0,B|180:168|100:184,1,150,4|2,0:2|0:0,0:0:0:0:
344,248,122088,2,0,B|372:172|356:92,1,150,2|2,0:0|0:0,0:0:0:0:
240,308,122659,2,0,B|316:336|396:320,1,150,2|8,0:0|0:0,0:0:0:0:
464,272,123088,1,8,0:0:0:0:
428,184,123231,2,0,B|440:132,3,37.5,8|8|8|8,0:0|0:0|0:0|0:0,0:0:0:0:
416,112,123516,2,0,B|428:64,3,37.5,8|8|8|8,0:0|0:0|0:0|0:0,0:0:0:0:
404,40,123802,6,0,B|248:56,1,150,4|8,0:0|0:0,0:0:0:0:
104,48,124231,2,0,B|208:64,1,75,0|2,0:0|0:0,0:0:0:0:
220,144,124516,2,0,B|116:128,1,75,0|8,0:0|0:0,0:0:0:0:
68,120,124802,2,0,B|12:184|56:272,1,150,2|2,0:0|0:0,0:0:0:0:
124,312,125231,1,8,0:0:0:0:
196,260,125374,2,0,B|376:276,1,150,0|2,0:0|0:0,0:0:0:0:
384,344,125802,1,8,0:0:0:0:
484,176,126088,6,0,B|480:124|412:88|360:128,1,150,4|8,0:0|0:0,0:0:0:0:
296,164,126516,2,0,B|240:180|208:176,1,75,0|2,0:0|0:0,0:0:0:0:
140,136,126802,2,0,B|132:96|132:56,1,75,0|8,0:0|0:0,0:0:0:0:
56,108,127088,1,2,0:0:0:0:
56,108,127231,1,2,0:0:0:0:
72,192,127374,2,0,B|56:288,1,75,2|8,0:0|0:0,0:0:0:0:
112,332,127659,2,0,B|128:284|192:260|240:304,1,150,2|2,0:0|0:0,0:0:0:0:
308,340,128088,1,8,0:0:0:0:
388,328,128231,1,8,0:0:0:0:
432,260,128374,6,0,B|424:156,1,75,4|0,0:0|0:0,0:0:0:0:
332,184,128659,2,0,B|324:28,1,150,8|2,0:0|0:0,0:0:0:0:
248,80,129088,1,2,0:0:0:0:
248,80,129231,2,0,B|184:80|152:84,1,75,8|2,0:0|0:0,0:0:0:0:
96,48,129516,2,0,B|44:56|8:44,2,75,2|2|8,0:0|0:0|0:0,0:0:0:0:
173,82,129945,1,2,0:0:0:0:
104,140,130088,1,2,0:0:0:0:
104,140,130159,1,2,0:0:0:0:
104,140,130231,2,0,B|88:180|104:232,1,75,2|8,0:0|0:0,0:0:0:0:
256,344,130659,6,0,B|292:272|224:264|256:196,2,150,4|8|2,0:0|0:0|0:0,0:0:0:0:
184,304,131374,1,2,0:0:0:0:
168,228,131516,2,0,B|168:188|176:140,1,75,8|2,0:0|0:0,0:0:0:0:
248,92,131802,2,0,B|328:68|424:80,1,150,2|8,0:0|0:0,0:0:0:0:
396,77,132231,1,2,0:0:0:0:
372,156,132374,2,0,B|360:256,1,75,2|2,0:0|0:0,0:0:0:0:
424,304,132659,1,8,0:0:0:0:
424,304,132802,1,8,0:0:0:0:
288,264,132945,6,0,B|236:228|172:256|160:320,1,150,4|8,0:0|0:0,0:0:0:0:
136,216,133374,2,0,B|44:240|-4:164,1,150,0|2,0:0|0:0,0:0:0:0:
88,136,133802,1,8,0:0:0:0:
88,136,133945,2,0,B|188:120,1,75,2|0,0:0|0:0,0:0:0:0:
240,168,134231,2,0,B|336:152,1,75,0|8,0:0|0:0,0:0:0:0:
264,84,134516,2,0,B|364:68,1,75,2|2,0:0|0:0,0:0:0:0:
400,136,134802,2,0,B|380:224,1,75,2|8,0:0|0:0,0:0:0:0:
284,340,135231,6,0,B|232:376|168:352|152:296,1,150,4|8,0:0|0:0,0:0:0:0:
168,224,135659,2,0,B|152:140,1,75,0|2,0:0|0:0,0:0:0:0:
72,140,135945,2,0,B|92:232,1,75,0|8,0:0|0:0,0:0:0:0:
128,72,136231,2,0,B|216:88,1,75,2|0,0:0|0:0,0:0:0:0:
308,176,136516,2,0,B|224:160,1,75,2|8,0:0|0:0,0:0:0:0:
296,84,136802,2,0,B|468:68,1,150,2|2,0:0|0:0,0:0:0:0:
404,164,137231,2,0,B|504:152,1,75,8|8,0:0|0:0,0:0:0:0:
464,280,137516,6,0,B|436:228|364:224|328:276,1,150,4|8,0:0|0:0,0:0:0:0:
272,320,137945,1,0,0:0:0:0:
208,264,138088,2,0,B|180:316|108:320|72:268,1,150,2|8,0:0|0:0,0:0:0:0:
44,196,138516,1,2,0:0:0:0:
124,208,138659,2,0,B|144:32,1,150,2|8,0:0|0:0,0:0:0:0:
140,58,139088,1,2,0:0:0:0:
216,104,139231,2,0,B|264:108|316:112,1,75,2|2,0:0|0:0,0:0:0:0:
368,72,139516,1,8,0:0:0:0:
452,256,139802,6,0,B|408:272|364:260,2,75,4|0|8,0:0|0:0|0:0,0:0:0:0:
408,180,140231,1,0,0:0:0:0:
324,200,140374,2,0,B|284:204|236:200,1,75,2|2,0:0|0:0,0:0:0:0:
276,288,140659,2,0,B|236:292|192:284,1,75,8|2,0:0|0:0,0:0:0:0:
156,204,140945,2,0,B|88:188|0:192,2,150,0|8|2,0:0|0:0|0:0,0:0:0:0:
192,120,141659,1,2,0:0:0:0:
108,108,141802,1,8,0:0:0:0:
108,108,141945,1,8,0:0:0:0:
256,44,142088,6,0,B|219:81|218:149|259:206,1,150,4|8,0:0|0:0,0:0:0:0:
321,152,142516,1,0,0:0:0:0:
393,112,142659,2,0,B|409:148|389:200,1,75,2|0,0:0|0:0,0:0:0:0:
360,261,142945,2,0,B|324:273|272:257,1,75,8|2,0:0|0:0,0:0:0:0:
139,331,143231,6,0,B|204:358|301:334,1,150,0|8,0:0|0:0,0:0:0:0:
368,344,143659,1,2,0:0:0:0:
448,364,143802,2,0,B|468:368|484:380,2,37.5,2|0|2,0:0|0:0|0:0,0:0:0:0:
500,300,144088,2,0,B|484:267|495:212,1,75,8|0,0:0|0:0,0:0:0:0:
416,149,144374,6,0,B|348:175|255:152,1,150,4|8,0:0|0:0,0:0:0:0:
208,97,144802,1,0,0:0:0:0:
126,111,144945,2,0,B|134:154|197:190,1,75,2|2,0:0|0:0,0:0:0:0:
182,252,145231,2,0,B|138:252|78:273,1,75,8|2,0:0|0:0,0:0:0:0:
36,223,145516,2,0,B|44:182|35:148,1,75,2|2,0:0|0:0,0:0:0:0:
18,67,145802,2,0,B|59:75|93:66,1,75,8|2,0:0|0:0,0:0:0:0:
167,102,146088,2,0,B|181:125|183:155,2,37.5,2|2|2,0:0|0:0|0:0,0:0:0:0:
226,37,146374,2,0,B|261:30|301:41,1,75,8|0,0:0|0:0,0:0:0:0:
427,87,146659,6,0,B|445:187|356:179|394:308,1,225,4|2,0:0|0:0,0:0:0:0:
310,284,147231,2,0,B|220:269|161:334,1,150,0|8,0:0|0:0,0:0:0:0:
11,132,147802,2,0,B|132:160|230:73,1,225,4|2,0:0|0:0,0:0:0:0:
324,41,148374,2,0,B|307:75|322:137,1,75,0|2,0:0|0:0,0:0:0:0:
395,194,148659,1,8,0:0:0:0:
395,194,148945,6,0,B|420:230|415:297,2,75,4|0|0,0:0|0:0|0:0,0:0:0:0:
326,289,149374,1,12,0:2:0:0:
326,289,149516,2,0,B|303:261|305:211,1,75,2|2,0:0|0:0,0:0:0:0:
231,179,149802,2,0,B|195:183|161:204,2,75,12|2|2,0:2|0:0|0:0,0:0:0:0:
145,280,150231,1,12,0:2:0:0:
145,280,150374,2,0,B|104:284|71:258,1,75,2|2,0:0|0:0,0:0:0:0:
40,184,150659,2,0,B|60:184|84:188,2,37.5,12|0|0,0:2|0:2|0:2,0:2:0:0:
40,100,150945,6,0,B|100:115|189:109,1,150,12|4,0:2|0:0,0:0:0:0:
15,197,160374,6,0,B|76:175|175:197,1,150,4|0,0:0|0:0,0:0:0:0:
163,194,161516,5,2,0:0:0:0:
163,194,161802,1,2,0:0:0:0:
259,137,162088,2,0,B|234:212|292:217|270:291,1,150,4|2,0:3|0:0,0:0:0:0:
272,282,163802,5,2,0:0:0:0:
272,282,164088,1,2,0:0:0:0:
272,282,164374,1,4,0:3:0:0:
497,197,164945,6,0,B|436:175|337:197,1,150,4|0,0:2|0:0,0:0:0:0:
349,194,166087,5,2,0:0:0:0:
349,194,166373,1,2,0:0:0:0:
253,137,166659,2,0,B|278:212|220:217|242:291,1,150,4|2,0:3|0:0,0:0:0:0:
307,329,167516,1,0,0:0:0:0:
388,317,167802,1,0,0:0:0:0:
430,246,168088,1,0,0:0:0:0:
385,170,168374,6,0,B|364:159|344:158,3,37.5,0|0|0|0,3:0|0:0|0:0|0:0,0:0:0:0:
315,135,168659,2,0,B|326:114|327:94,3,37.5,0|0|0|0,3:0|0:0|0:0|0:0,0:0:0:0:
360,76,168945,2,0,B|383:81|402:76,3,37.5,4|0|0|0,0:3|0:0|0:0|0:0,0:0:0:0:
437,92,169230,2,0,B|431:115|436:134,3,37.5,0|0|0|0,0:0|0:0|0:0|0:0,0:0:0:0:
466,156,169516,6,0,B|484:194|466:252,1,75,4|0,3:2|0:0,0:0:0:0:
424,296,169802,1,0,0:0:0:0:
424,296,169945,1,2,0:0:0:0:
348,254,170088,2,0,B|330:292|348:350,1,75,4|0,0:3|0:0,0:0:0:0:
270,304,170374,2,0,B|232:286|174:304,1,75,2|0,0:0|0:0,0:0:0:0:
207,223,170659,2,0,B|225:185|207:127,1,75,0|2,3:2|0:0,0:0:0:0:
277,109,170945,1,0,3:0:0:0:
277,109,171088,1,2,0:0:0:0:
277,109,171231,2,0,B|311:101|370:106,2,75,4|2|2,0:3|0:0|0:0,0:0:0:0:
121,54,171802,6,0,B|84:63|47:46,1,75,2|0,3:2|0:0,0:0:0:0:
40,129,172088,2,0,B|47:168|29:207,1,75,0|2,0:0|0:0,0:0:0:0:
20,285,172374,2,0,B|57:294|86:331,1,75,4|0,0:3|0:0,0:0:0:0:
150,279,172659,2,0,B|167:243|205:222,1,75,0|2,0:0|0:0,0:0:0:0:
280,254,172945,2,0,B|321:259|391:248,2,75,0|2|0,3:0|0:0|3:0,0:0:0:0:
265,172,173374,1,2,0:0:0:0:
346,99,173516,2,0,B|334:133|346:180,1,75,4|2,0:3|0:0,0:0:0:0:
255,84,173802,2,0,B|187:79|123:111,1,112.5,2|0,0:0|0:0,0:0:0:0:
115,124,174088,6,0,B|73:116|46:95,2,75,4|0|0,3:2|0:0|0:0,0:0:0:0:
93,195,174516,5,2,0:0:0:0:
103,238,174659,1,4,0:3:0:0:
113,281,174802,1,0,0:0:0:0:
184,303,174945,6,0,B|176:345|155:372,2,75,2|0|0,0:0|0:0|3:0,0:0:0:0:
255,279,175374,5,2,0:0:0:0:
255,279,175516,2,0,B|310:270|348:280,1,75,0|2,3:0|0:0,0:0:0:0:
400,316,175802,1,4,0:3:0:0:
400,316,175945,1,0,0:0:0:0:
400,316,176088,1,2,0:0:0:0:
470,159,176374,6,0,L|387:180,1,75,0|0,3:0|0:0,0:0:0:0:
330,128,176659,2,0,L|384:58,1,75,0|2,0:0|0:0,0:0:0:0:
447,25,176945,2,0,L|499:90,1,75,4|0,0:3|0:0,0:0:0:0:
477,176,177231,2,0,L|392:167,1,75,0|2,0:0|0:0,0:0:0:0:
316,113,177516,2,0,L|378:55,1,75,0|0,0:0|0:0,0:0:0:0:
468,28,177802,2,0,L|510:103,1,75,0|0,3:0|0:0,0:0:0:0:
447,154,178088,1,4,0:3:0:0:
475,231,178231,2,0,B|486:233|512:226,2,37.5,0|0|0,0:0|3:0|3:0,0:0:0:0:
426,297,178516,1,0,3:0:0:0:
497,339,178659,6,0,B|489:363|489:395,63,37.5,0|0|0|0|0|0|0|0|4|0|0|0|0|0|0|0|0|0|0|0|0|0|0|0|4|0|0|0|0|0|0|0|0|0|0|0|0|0|0|0|4|0|0|0|0|0|0|0|0|0|0|0|0|0|0|0|0|0|0|0|0|0|0|0,3:0|0:0|0:0|0:0|3:0|0:0|0:0|0:0|3:3|0:0|0:0|0:0|3:0|0:0|0:0|0:0|3:0|0:0|0:0|0:0|3:0|0:0|0:0|0:0|3:3|0:0|0:0|0:0|3:0|0:0|0:0|0:0|3:0|0:0|0:0|0:0|3:0|0:0|0:0|0:0|3:3|0:0|0:0|0:0|3:0|0:0|0:0|0:0|0:0|2:0|0:0|2:0|0:0|2:0|0:0|2:0|0:0|2:0|0:0|2:0|0:0|2:0|0:0|2:0,0:0:0:0:
448,381,183231,6,0,B|412:373|370:377,1,75,4|0,0:0|0:0,0:0:0:0:
303,332,183516,1,4,3:3:0:0:
255,265,183659,6,0,B|291:257|333:261,1,75,2|0,0:0|3:0,0:0:0:0:
412,255,183944,1,2,0:0:0:0:
468,182,184088,6,0,B|432:174|390:178,1,75,4|2,3:3|0:0,0:0:0:0:
298,169,184373,1,2,3:2:0:0:
334,94,184516,2,0,B|342:64|344:18,2,75,2|4|2,0:2|3:3|0:0,0:0:0:0:
251,99,184945,2,0,B|214:87|158:90,1,75,2|0,3:2|0:0,0:0:0:0:
103,129,185231,1,4,3:0:0:0:
0,283,185516,5,0,3:0:0:0:
46,224,185659,1,2,0:0:0:0:
46,224,185802,2,0,B|22:192|26:142,1,75,4|2,3:3|0:0,0:0:0:0:
103,129,186088,2,0,B|143:133|186:158,1,75,2|2,3:2|0:0,0:0:0:0:
165,234,186374,2,0,B|108:281|75:285,2,75,4|2|2,3:0|0:0|3:2,0:0:0:0:
241,203,186802,2,0,B|280:204|323:230,1,75,0|4,0:0|3:0,0:0:0:0:
381,270,187088,2,0,B|409:299|427:356,1,75,2|2,0:0|3:2,0:0:0:0:
476,273,187374,1,0,0:0:0:0:
476,273,187516,2,0,L|488:194,1,75,2|0,3:2|0:0,0:0:0:0:
407,71,187802,6,0,B|421:104|405:169,1,75,4|0,3:2|0:0,0:0:0:0:
327,154,188088,2,0,B|288:145|261:103,1,75,4|0,3:0|0:0,0:0:0:0:
261,28,188374,2,0,B|302:16|341:26,1,75,0|2,3:0|0:0,0:0:0:0:
196,81,188659,6,0,B|157:82|121:57,1,75,4|2,3:0|0:0,0:0:0:0:
45,82,188945,2,0,B|53:121|48:185,1,75,0|2,3:0|0:0,0:0:0:0:
114,209,189231,2,0,B|139:185|206:174,1,75,4|2,3:0|0:0,0:0:0:0:
256,216,189516,2,0,B|255:269|243:317,2,75,2|0|4,3:2|0:0|3:0,0:0:0:0:
402,323,190088,6,0,B|391:283|356:244,1,75,0|0,3:0|0:0,0:0:0:0:
447,235,190374,2,0,B|453:194|431:146,1,75,4|2,3:0|0:0,0:0:0:0:
354,160,190659,2,0,B|365:120|400:81,1,75,0|0,0:0|0:0,0:0:0:0:
318,0,190945,2,0,B|303:32|309:73,1,75,4|2,3:0|0:0,0:0:0:0:
269,145,191231,2,0,B|232:153|176:142,1,75,0|0,0:0|0:0,0:0:0:0:
116,117,191516,1,4,3:3:0:0:
116,117,191659,1,2,0:2:0:0:
44,158,191802,6,0,B|33:194|42:236,1,75,2|0,3:2|0:0,0:0:0:0:
109,280,192088,1,4,3:0:0:0:
256,192,192374,12,0,195516,0:0:0:0:
236,195,195802,6,0,B|260:194|285:195,15,37.5,0|0|0|0|4|0|0|0|0|0|0|0|4|0|0|0,0:0|0:0|0:0|0:0|0:3|0:0|0:0|0:0|0:0|0:0|0:0|0:0|0:3|0:0|0:0|0:0,0:0:0:0:
273,194,196945,6,0,L|269:356,1,150,4|4,0:0|2:3,0:0:0:0:
418,364,198088,6,0,L|423:239,1,112.5,0|0,0:0|0:0,0:0:0:0:
361,210,198659,2,0,L|367:46,1,150,0|4,0:0|0:2,0:0:0:0:
87,37,200374,6,0,L|83:164,1,112.5,0|0,0:0|0:0,0:0:0:0:
149,192,200945,2,0,L|143:356,1,150,4|4,0:3|0:0,0:0:0:0:
209,376,201659,1,0,0:0:0:0:
278,331,201802,2,0,B|306:322|358:331,1,75,8|0,0:0|0:0,0:0:0:0:
414,274,202088,2,0,B|388:244|375:195,1,75,2|2,0:0|0:0,0:0:0:0:
300,182,202374,1,8,0:0:0:0:
300,182,202516,1,2,0:0:0:0:
218,192,202659,6,0,B|196:221|194:288,1,75,2|2,0:0|0:0,0:0:0:0:
151,148,202945,2,0,B|167:118|172:61,1,75,8|2,0:0|0:0,0:0:0:0:
252,64,203231,2,0,L|265:108,2,37.5,2|0|2,0:0|0:0|0:0,0:0:0:0:
325,29,203516,2,0,B|366:46|385:75,1,75,8|0,0:0|0:0,0:0:0:0:
490,178,203802,6,0,B|454:164|392:165,1,75,4|0,0:0|0:0,0:0:0:0:
343,205,204088,2,0,B|329:241|330:303,1,75,8|0,0:0|0:0,0:0:0:0:
383,342,204374,2,0,B|419:356|481:355,1,75,2|2,0:0|0:0,0:0:0:0:
305,362,204659,2,0,B|269:348|207:349,1,75,8|2,0:0|0:0,0:0:0:0:
148,348,204945,1,2,0:0:0:0:
148,348,205088,1,2,0:0:0:0:
202,268,205231,2,0,B|196:236|223:178,1,75,8|2,0:0|0:0,0:0:0:0:
295,175,205516,2,0,L|332:196,2,37.5,2|0|2,0:0|0:0|0:0,0:0:0:0:
320,93,205802,2,0,B|275:95|229:86,1,75,8|2,0:0|0:0,0:0:0:0:
168,57,206088,6,0,B|163:141|111:192,1,150,4|8,0:0|0:0,0:0:0:0:
29,180,206516,2,0,B|27:243|43:286,2,75,0|2|2,0:0|0:0|0:0,0:0:0:0:
13,98,206945,1,8,0:0:0:0:
13,98,207088,2,0,B|77:81|162:104,1,150,2|2,0:0|0:0,0:0:0:0:
279,218,207659,2,0,B|216:235|131:212,1,150,2|2,0:0|0:0,0:0:0:0:
112,292,208088,1,8,0:0:0:0:
183,350,208231,5,2,0:0:0:0:
183,350,208302,1,0,0:0:0:0:
183,350,208374,2,0,B|263:331|337:351,1,150,4|8,0:0|0:0,0:0:0:0:
408,321,208802,2,0,B|410:257|389:206,1,112.5,0|0,0:0|2:0,0:0:0:0:
390,210,209088,2,0,B|349:216|299:238,1,75,2|8,0:0|0:0,0:0:0:0:
235,222,209374,2,0,B|246:191|250:146,1,75,2|0,0:0|0:0,0:0:0:0:
307,89,209659,2,0,B|341:91|382:78,1,75,2|8,0:0|0:0,0:0:0:0:
234,74,209945,2,0,B|191:70|153:42,1,75,2|2,0:0|0:0,0:0:0:0:
115,117,210231,1,2,0:0:0:0:
32,115,210374,2,0,L|44:75,2,37.5,8|8|8,0:0|0:0|0:0,0:0:0:0:
11,195,210659,6,0,B|44:205|109:197,1,75,4|0,0:0|0:0,0:0:0:0:
165,220,210945,2,0,B|155:253|163:318,1,75,8|0,0:0|0:0,0:0:0:0:
210,361,211231,2,0,B|251:355|284:365,1,75,2|2,0:0|0:0,0:0:0:0:
358,328,211516,2,0,B|368:295|360:230,1,75,8|2,0:0|0:0,0:0:0:0:
308,190,211802,6,0,B|264:189|232:166,1,75,2|2,0:0|0:0,0:0:0:0:
154,156,212088,1,8,0:0:0:0:
154,156,212231,1,2,0:0:0:0:
202,89,212374,2,0,B|199:60|194:43,2,37.5,2|0|2,0:0|0:0|0:0,0:0:0:0:
293,96,212659,2,0,B|331:97|369:109,1,75,8|0,0:0|0:0,0:0:0:0:
394,186,212945,5,4,0:0:0:0:
394,186,213088,1,0,0:0:0:0:
437,256,213231,1,8,0:0:0:0:
355,269,213374,2,0,B|280:264|193:285,1,150,0|2,0:0|0:0,0:0:0:0:
136,237,213802,2,0,B|127:270|147:339,1,75,8|2,0:0|0:0,0:0:0:0:
63,217,214088,2,0,B|72:184|52:115,1,75,2|2,0:0|0:0,0:0:0:0:
119,85,214374,1,8,0:0:0:0:
119,85,214516,1,2,0:0:0:0:
196,114,214659,2,0,L|207:72,2,37.5,2|2|2,0:0|0:0|0:0,0:0:0:0:
273,145,214945,1,8,0:0:0:0:
239,220,215088,1,8,0:0:0:0:
276,329,215231,6,0,B|335:307|435:317,1,150,4|8,0:0|0:0,0:0:0:0:
475,251,215659,2,0,B|445:240|374:239,1,75,0|2,0:0|0:0,0:0:0:0:
414,160,215945,2,0,B|371:170|338:186,1,75,2|8,0:0|0:0,0:0:0:0:
290,118,216231,2,0,B|259:161|236:256,2,150,2|2|2,0:0|0:0|0:0,0:0:0:0:
363,79,216945,1,2,0:0:0:0:
363,79,217016,1,0,0:0:0:0:
363,79,217088,2,0,B|409:79|441:86,2,75,2|8|2,0:0|0:0|0:0,0:0:0:0:
290,38,217516,6,0,B|203:34|122:58,1,150,4|8,0:0|0:0,0:0:0:0:
58,62,217945,2,0,B|79:94|94:160,1,75,0|2,0:0|0:0,0:0:0:0:
147,187,218231,2,0,B|133:223|134:271,1,75,0|8,0:0|0:0,0:0:0:0:
95,333,218516,2,0,B|186:319|159:375|271:344,2,150,2|2|2,0:0|0:0|0:0,0:0:0:0:
233,241,219374,5,2,0:0:0:0:
233,241,219516,1,8,0:0:0:0:
233,241,219659,1,8,0:0:0:0:
308,275,219802,6,0,L|393:299,1,75,4|0,0:0|0:0,0:0:0:0:
449,248,220088,2,0,L|406:175,1,75,8|0,0:0|0:0,0:0:0:0:
342,135,220374,2,0,L|290:206,1,75,2|2,0:0|0:0,0:0:0:0:
307,291,220659,6,0,L|393:289,1,75,8|2,0:0|0:0,0:0:0:0:
453,238,220945,2,0,L|392:169,1,75,0|2,0:2|0:0,0:0:0:0:
322,133,221231,2,0,L|294:212,1,75,8|2,0:0|0:0,0:0:0:0:
220,235,221516,2,0,L|210:197,2,37.5,2|0|2,0:0|0:0|0:0,0:0:0:0:
149,278,221802,2,0,L|146:353,1,75,8|0,0:0|0:0,0:0:0:0:
63,344,222088,6,0,L|71:182,1,150,4|8,0:0|0:0,0:0:0:0:
134,142,222516,1,0,0:0:0:0:
209,109,222659,2,0,L|206:188,1,75,2|2,0:0|0:0,0:0:0:0:
285,157,222945,2,0,L|282:237,1,75,8|2,0:0|0:0,0:0:0:0:
339,291,223231,5,2,0:0:0:0:
339,291,223374,1,2,0:0:0:0:
368,216,223516,2,0,L|463:217,1,75,8|2,0:0|0:0,0:0:0:0:
511,264,223802,2,0,L|504:305,3,37.5,2|2|2|2,0:0|0:0|0:0|0:0,0:0:0:0:
483,336,224088,2,0,L|403:337,1,75,8|8,0:0|0:0,0:0:0:0:
309,362,224374,6,0,B|229:358|153:277,1,150,4|8,0:0|0:0,0:0:0:0:
207,223,224802,1,2,0:0:0:0:
133,186,224945,2,0,B|89:242|66:352,1,150,8|8,0:0|0:0,0:0:0:0:
25,164,225516,6,0,B|19:123|37:83,1,75,8|2,0:0|0:0,0:0:0:0:
112,117,225802,2,0,B|128:77|157:46,1,75,8|2,0:0|0:0,0:0:0:0:
214,106,226088,2,0,B|244:82|284:72,1,75,8|2,0:0|0:0,0:0:0:0:
353,112,226374,2,0,B|378:107|423:105,3,37.5,8|0|2|0,0:0|0:0|0:0|0:0,0:0:0:0:
349,127,226659,6,0,B|312:196|317:293,1,150,12|8,0:0|0:0,0:0:0:0:
379,326,227088,1,2,0:0:0:0:
456,295,227231,2,0,B|485:223|472:148,1,150,8|8,0:0|0:0,0:0:0:0:
311,150,227802,6,0,B|266:157|236:152,1,75,8|2,0:0|0:0,0:0:0:0:
216,232,228088,2,0,B|178:223|147:186,1,75,8|2,0:0|0:0,0:0:0:0:
85,241,228374,2,0,B|62:207|60:167,1,75,8|2,0:0|0:0,0:0:0:0:
123,117,228659,1,8,0:0:0:0:
123,117,228802,1,8,0:0:0:0:
79,46,228945,6,0,B|44:47|4:62,2,75,4|0|8,0:0|0:0|0:0,0:0:0:0:
162,46,229374,1,0,0:0:0:0:
248,52,229516,2,0,B|284:56|328:68,1,75,2|2,0:0|0:0,0:0:0:0:
401,96,229802,2,0,B|434:106|469:130,1,75,8|2,0:0|0:0,0:0:0:0:
392,228,230088,6,0,B|370:291|361:381,1,150,2|8,0:0|0:0,0:0:0:0:
361,374,230516,1,2,0:0:0:0:
279,370,230659,1,2,0:0:0:0:
279,370,230731,1,2,0:0:0:0:
279,370,230802,2,0,B|276:323|296:273,2,75,2|8|0,0:0|0:0|0:0,0:0:0:0:
219,239,231231,6,0,B|185:242|128:252,1,75,4|0,0:0|0:0,0:0:0:0:
75,294,231516,1,8,0:0:0:0:
3,252,231659,2,0,B|13:183|4:94,1,150,0|2,0:0|0:0,0:0:0:0:
72,53,232088,2,0,B|148:47|231:60,1,150,8|0,0:0|0:0,0:0:0:0:
283,113,232516,1,2,0:0:0:0:
283,113,232659,1,8,0:0:0:0:
365,103,232802,1,2,0:0:0:0:
365,103,232945,1,2,0:0:0:0:
447,95,233088,2,0,L|483:67,2,37.5,2|2|8,0:0|0:0|0:0,0:0:0:0:
459,177,233374,1,8,0:0:0:0:
469,280,233516,6,0,B|386:263|403:313|304:284,1,150,4|8,0:0|0:0,0:0:0:0:
255,239,233945,1,0,0:0:0:0:
200,300,234088,2,0,B|159:228|191:154,1,150,2|8,0:0|0:0,0:0:0:0:
347,105,234659,6,0,B|355:141|342:194,1,75,0|2,0:0|0:0,0:0:0:0:
265,156,234945,2,0,B|255:117|263:81,1,75,8|2,0:0|0:0,0:0:0:0:
322,23,235231,1,2,0:0:0:0:
322,23,235302,1,0,0:0:0:0:
322,23,235374,2,0,B|375:26|421:36,2,75,2|8|2,0:0|0:0|0:0,0:0:0:0:
180,23,235802,6,0,B|147:93|165:177,1,150,4|8,0:0|0:0,0:0:0:0:
224,226,236231,1,0,0:0:0:0:
145,250,236374,2,0,B|108:245|54:247,1,75,2|0,0:0|0:0,0:0:0:0:
51,326,236659,2,0,B|81:325|136:325,1,75,8|2,0:0|0:0,0:0:0:0:
272,294,236945,5,0,0:0:0:0:
272,294,237088,1,2,0:0:0:0:
339,341,237231,2,0,B|372:343|417:319,1,75,8|2,0:0|0:0,0:0:0:0:
416,239,237516,2,0,B|383:233|353:239,4,37.5,2|0|2|0|8,0:0|0:0|0:0|0:0|0:0,0:0:0:0:
361,82,238088,6,0,B|216:82|216:240,1,225,4|2,0:0|0:0,0:0:0:0:
275,276,238659,2,0,B|316:262|362:259,1,75,0|2,0:0|0:0,0:0:0:0:
197,293,238945,2,0,B|158:287|106:290,1,75,8|0,0:0|0:0,0:0:0:0:
67,208,239231,2,0,B|-14:261|19:376|102:377,1,225,4|2,0:0|0:0,0:0:0:0:
178,373,239802,2,0,B|210:362|275:360,1,75,0|2,0:0|0:0,0:0:0:0:
333,375,240088,1,8,0:0:0:0:
464,274,240374,6,0,B|418:267|377:273,1,75,4|0,0:0|0:0,0:0:0:0:
310,296,240659,1,0,0:0:0:0:
249,239,240802,6,0,B|295:232|336:238,1,75,12|2,0:2|0:0,0:0:0:0:
403,261,241087,1,2,0:0:0:0:
461,201,241231,6,0,B|415:194|374:200,1,75,12|2,0:2|0:0,0:0:0:0:
307,223,241516,1,2,0:0:0:0:
251,161,241659,6,0,B|297:154|325:158,1,75,12|2,0:2|0:0,0:0:0:0:
405,183,241944,1,2,0:0:0:0:
390,101,242088,6,0,B|398:85|402:62,3,37.5,4|2|2|2,0:2|0:0|0:0|0:0,0:0:0:0:
368,40,242374,2,0,B|352:32|329:28,3,37.5,12|8|8|8,0:2|0:0|0:0|0:0,0:0:0:0:
300,54,242659,6,0,B|222:60|138:40,1,150,4|8,0:0|0:0,0:0:0:0:
74,74,243088,2,0,B|80:152|60:236,1,150,2|2,0:2|0:0,0:0:0:0:
6,283,243516,1,8,0:0:0:0:
6,283,243659,1,2,0:0:0:0:
86,301,243802,6,0,B|172:297|135:337|250:323,1,150,2|8,0:2|0:0,0:0:0:0:
299,276,244231,2,0,B|374:275|476:322,1,150,2|2,0:0|0:0,0:0:0:0:
505,252,244659,2,0,B|477:230|455:220,4,37.5,8|0|2|2|2,0:0|0:0|0:0|0:0|0:0,0:0:0:0:
429,104,245231,5,8,0:0:0:0:
350,77,245374,2,0,B|332:158|407:222,1,150,2|2,0:2|0:0,0:0:0:0:
317,236,245802,2,0,B|249:197|154:196,2,150,8|2|8,0:0|0:2|0:0,0:0:0:0:
339,315,246516,1,2,0:0:0:0:
409,270,246659,2,0,B|416:293|423:321,4,37.5,2|2|2|2|8,0:0|0:0|0:0|0:0|0:0,0:0:0:0:
339,315,247088,1,8,0:0:0:0:
247,309,247231,6,0,B|152:305|89:255,1,150,4|8,0:0|0:0,0:0:0:0:
22,275,247659,1,2,0:2:0:0:
57,200,247802,2,0,B|79:132|60:36,1,150,2|8,0:0|0:0,0:0:0:0:
141,77,248231,1,2,0:0:0:0:
214,38,248374,6,0,B|250:39|310:65,1,75,2|2,0:2|0:0,0:0:0:0:
338,119,248659,2,0,B|308:143|273:194,1,75,8|2,0:0|0:0,0:0:0:0:
207,150,248945,1,2,0:0:0:0:
207,150,249016,1,2,0:0:0:0:
207,150,249088,2,0,B|201:185|215:230,2,75,2|8|2,0:0|0:0|0:0,0:0:0:0:
124,154,249516,6,0,B|108:230|141:324,1,150,2|8,0:0|0:0,0:0:0:0:
216,313,249945,2,0,B|271:297|385:307,1,150,2|2,0:2|0:0,0:0:0:0:
376,223,250374,2,0,B|430:243|471:248,1,75,8|2,0:0|0:0,0:0:0:0:
306,169,250659,6,0,B|362:155|443:93,1,150,2|8,0:2|0:0,0:0:0:0:
426,15,251088,1,2,0:0:0:0:
344,29,251231,1,2,0:0:0:0:
344,29,251302,1,2,0:0:0:0:
344,29,251374,2,0,L|262:50,1,75,2|8,0:0|0:0,0:0:0:0:
195,15,251659,1,8,0:0:0:0:
90,74,251802,6,0,B|117:107|117:107|123:167,1,75,12|0,0:0|0:0,0:0:0:0:
216,172,252088,2,0,B|189:205|189:205|183:265,1,75,8|2,0:0|0:0,0:0:0:0:
88,248,252374,2,0,B|115:281|115:281|121:341,1,75,8|2,0:0|0:0,0:0:0:0:
207,319,252659,2,0,B|180:352|180:352|174:412,1,75,8|2,0:0|0:0,0:0:0:0:
260,383,252945,6,0,B|287:350|287:350|293:290,1,75,8|2,0:0|0:0,0:0:0:0:
380,278,253231,2,0,B|353:245|353:245|347:185,1,75,8|2,0:0|0:0,0:0:0:0:
248,164,253516,2,0,B|275:131|275:131|281:71,1,75,8|2,0:0|0:0,0:0:0:0:
384,59,253802,5,8,0:0:0:0:
384,59,253874,1,0,0:0:0:0:
384,59,253945,2,0,B|390:92|446:135,2,75,2|8|2,0:0|0:0|0:0,0:0:0:0:
312,16,254374,2,0,B|275:29|213:12,1,75,8|2,0:0|0:0,0:0:0:0:
167,61,254659,2,0,B|180:98|163:160,1,75,8|2,0:0|0:0,0:0:0:0:
235,184,254945,2,0,B|272:171|334:188,1,75,8|2,0:0|0:0,0:0:0:0:
384,216,255231,5,8,0:0:0:0:
384,216,255374,1,2,0:0:0:0:
384,216,255516,2,0,B|380:175|390:124,1,75,8|2,0:0|0:0,0:0:0:0:
457,208,255802,2,0,B|464:248|447:304,1,75,8|2,0:0|0:0,0:0:0:0:
381,324,256088,1,8,0:0:0:0:
309,281,256231,5,8,0:0:0:0:
309,281,256302,1,8,0:0:0:0:
309,281,256374,2,0,B|245:287|209:308,1,75,4|2,0:0|0:0,0:0:0:0:
164,254,256659,2,0,B|190:195|190:153,1,75,8|2,0:0|0:0,0:0:0:0:
239,118,256945,2,0,B|276:170|312:191,1,75,8|2,0:0|0:0,0:0:0:0:
312,253,257231,6,0,B|247:258|212:280,1,75,8|2,0:0|0:0,0:0:0:0:
162,236,257516,2,0,B|188:177|188:135,1,75,8|2,0:0|0:0,0:0:0:0:
234,97,257802,2,0,B|271:149|307:170,2,75,8|2|8,0:0|0:0|0:0,0:0:0:0:
152,81,258231,1,2,0:0:0:0:
152,81,258374,2,0,B|116:94|65:99,1,75,8|2,0:0|0:0,0:0:0:0:
21,156,258659,5,4,0:0:0:0:
21,156,258802,1,2,0:0:0:0:
57,229,258945,1,8,0:0:0:0:
57,229,259088,1,2,0:0:0:0:
121,280,259231,2,0,B|152:263|197:259,1,75,8|2,0:0|0:0,0:0:0:0:
99,358,259516,2,0,B|68:350|19:346,1,75,8|2,0:0|0:0,0:0:0:0:
184,343,259802,6,0,L|217:359,3,37.5,8|0|2|0,0:0|0:0|0:0|0:0,0:0:0:0:
256,344,260088,2,0,L|283:367,3,37.5,8|0|2|0,0:0|0:0|0:0|0:0,0:0:0:0:
322,352,260374,2,0,L|342:382,8,37.5,8|8|8|8|8|8|8|8|0,0:0|0:0|0:0|0:0|0:0|0:0|0:0|0:0|0:0,0:0:0:0:
