osu file format v14

[General]
AudioFilename: audio.mp3
AudioLeadIn: 0
PreviewTime: 196945
Countdown: 0
SampleSet: None
StackLeniency: 0.7
Mode: 3
LetterboxInBreaks: 0
SpecialStyle: 0
WidescreenStoryboard: 0

[Editor]
DistanceSpacing: 0.8
BeatDivisor: 4
GridSize: 32
TimelineZoom: 2.4

[Metadata]
Title:Hades: The Rise
TitleUnicode:Hades: The Rise
Artist:Yousei Teikoku
ArtistUnicode:Yousei Teikoku
Creator:Raediaufar
Version:Hard
Source:
Tags:stamina speed jack 210 bpm no sv rock gothic
BeatmapID:1849779
BeatmapSetID:885006

[Difficulty]
HPDrainRate:9
CircleSize:4
OverallDifficulty:9
ApproachRate:5
SliderMultiplier:1.4
SliderTickRate:1

[Events]
//Background and Video events
0,0,"ranko.jpg",0,0
//Break Periods
//Storyboard Layer 0 (Background)
//Storyboard Layer 1 (Fail)
//Storyboard Layer 2 (Pass)
//Storyboard Layer 3 (Foreground)
//Storyboard Sound Samples

[TimingPoints]
374,285.714285714286,4,2,0,30,1,0
374,-100,4,2,0,5,0,0
7231,-100,4,2,0,30,0,0
59802,-100,4,2,0,30,0,1
87231,-100,4,2,0,30,0,0
123802,-100,4,2,0,30,0,1
151231,-100,4,2,0,30,0,0
201516,-100,4,2,0,30,0,1
242659,-100,4,2,0,30,0,0

[HitObjects]
64,192,374,5,0,0:0:0:0:
192,192,516,1,0,0:0:0:0:
320,192,659,1,0,0:0:0:0:
64,192,802,1,0,0:0:0:0:
448,192,1516,1,0,0:0:0:0:
320,192,1659,1,0,0:0:0:0:
192,192,1802,1,0,0:0:0:0:
448,192,1945,1,0,0:0:0:0:
64,192,2659,1,0,0:0:0:0:
192,192,2802,1,0,0:0:0:0:
320,192,2945,1,0,0:0:0:0:
448,192,3088,1,0,0:0:0:0:
448,192,3802,1,0,0:0:0:0:
320,192,3945,1,0,0:0:0:0:
192,192,4088,1,0,0:0:0:0:
64,192,4231,1,0,0:0:0:0:
64,192,4945,1,0,0:0:0:0:
192,192,5088,1,0,0:0:0:0:
320,192,5231,1,0,0:0:0:0:
192,192,5374,1,0,0:0:0:0:
448,192,6088,1,0,0:0:0:0:
320,192,6231,1,0,0:0:0:0:
192,192,6374,1,0,0:0:0:0:
320,192,6516,1,0,0:0:0:0:
64,192,7231,1,0,0:0:0:0:
192,192,7231,1,0,0:0:0:0:
448,192,7231,1,0,0:0:0:0:
192,192,7802,1,0,0:0:0:0:
320,192,7802,1,0,0:0:0:0:
448,192,7802,1,0,0:0:0:0:
320,192,8374,1,0,0:0:0:0:
448,192,8374,1,0,0:0:0:0:
320,192,8516,1,0,0:0:0:0:
448,192,8516,1,0,0:0:0:0:
448,192,8659,1,0,0:0:0:0:
64,192,8659,1,0,0:0:0:0:
192,192,8659,1,0,0:0:0:0:
320,192,8802,1,0,0:0:0:0:
448,192,8802,1,0,0:0:0:0:
64,192,8874,1,0,0:0:0:0:
320,192,8945,1,0,0:0:0:0:
448,192,8945,1,0,0:0:0:0:
64,192,9016,1,0,0:0:0:0:
320,192,9088,1,0,0:0:0:0:
448,192,9088,1,0,0:0:0:0:
64,192,9159,1,0,0:0:0:0:
320,192,9231,1,0,0:0:0:0:
448,192,9231,1,0,0:0:0:0:
64,192,9266,1,0,0:0:0:0:
192,192,9302,1,0,0:0:0:0:
320,192,9338,1,0,0:0:0:0:
448,192,9374,1,0,0:0:0:0:
64,192,9409,1,0,0:0:0:0:
192,192,9445,1,0,0:0:0:0:
320,192,9481,1,0,0:0:0:0:
448,192,9516,1,0,0:0:0:0:
64,192,9516,1,0,0:0:0:0:
192,192,9516,1,0,0:0:0:0:
448,192,9659,1,0,0:0:0:0:
320,192,9659,1,0,0:0:0:0:
64,192,9659,1,0,0:0:0:0:
192,192,9802,1,0,0:0:0:0:
320,192,9802,1,0,0:0:0:0:
64,192,9945,1,0,0:0:0:0:
448,192,9945,1,0,0:0:0:0:
320,192,9945,1,0,0:0:0:0:
192,192,10088,1,0,0:0:0:0:
64,192,10088,1,0,0:0:0:0:
320,192,10088,1,0,0:0:0:0:
448,192,10231,1,0,0:0:0:0:
192,192,10231,1,0,0:0:0:0:
64,192,10374,1,0,0:0:0:0:
448,192,10374,1,0,0:0:0:0:
320,192,10374,1,0,0:0:0:0:
192,192,10516,1,0,0:0:0:0:
320,192,10516,1,0,0:0:0:0:
64,192,10659,1,0,0:0:0:0:
192,192,10659,1,0,0:0:0:0:
448,192,10659,1,0,0:0:0:0:
64,192,10802,1,0,0:0:0:0:
320,192,10802,1,0,0:0:0:0:
448,192,10802,1,0,0:0:0:0:
192,192,10945,1,0,0:0:0:0:
320,192,11088,1,0,0:0:0:0:
448,192,11088,1,0,0:0:0:0:
64,192,11088,1,0,0:0:0:0:
64,192,11231,1,0,0:0:0:0:
192,192,11231,1,0,0:0:0:0:
448,192,11302,1,0,0:0:0:0:
64,192,11374,1,0,0:0:0:0:
192,192,11374,1,0,0:0:0:0:
448,192,11445,1,0,0:0:0:0:
64,192,11516,1,0,0:0:0:0:
192,192,11516,1,0,0:0:0:0:
448,192,11588,1,0,0:0:0:0:
64,192,11659,1,0,0:0:0:0:
192,192,11659,1,0,0:0:0:0:
448,192,11731,1,0,0:0:0:0:
64,192,11802,1,0,0:0:0:0:
192,192,11802,1,0,0:0:0:0:
320,192,11802,1,0,0:0:0:0:
320,192,11945,1,0,0:0:0:0:
448,192,11945,1,0,0:0:0:0:
192,192,11945,1,0,0:0:0:0:
64,192,12088,1,0,0:0:0:0:
448,192,12088,1,0,0:0:0:0:
64,192,12231,1,0,0:0:0:0:
192,192,12231,1,0,0:0:0:0:
320,192,12231,1,0,0:0:0:0:
192,192,12374,1,0,0:0:0:0:
448,192,12374,1,0,0:0:0:0:
320,192,12374,1,0,0:0:0:0:
64,192,12516,1,0,0:0:0:0:
320,192,12516,1,0,0:0:0:0:
64,192,12659,1,0,0:0:0:0:
192,192,12659,1,0,0:0:0:0:
448,192,12659,1,0,0:0:0:0:
320,192,12802,1,0,0:0:0:0:
448,192,12802,1,0,0:0:0:0:
64,192,12945,1,0,0:0:0:0:
192,192,12945,1,0,0:0:0:0:
320,192,12945,1,0,0:0:0:0:
64,192,13088,1,0,0:0:0:0:
448,192,13088,1,0,0:0:0:0:
192,192,13088,1,0,0:0:0:0:
320,192,13231,1,0,0:0:0:0:
64,192,13374,1,0,0:0:0:0:
448,192,13374,1,0,0:0:0:0:
320,192,13374,1,0,0:0:0:0:
448,192,13516,1,0,0:0:0:0:
192,192,13516,1,0,0:0:0:0:
320,192,13588,1,0,0:0:0:0:
192,192,13659,1,0,0:0:0:0:
448,192,13659,1,0,0:0:0:0:
320,192,13731,1,0,0:0:0:0:
448,192,13802,1,0,0:0:0:0:
192,192,13802,1,0,0:0:0:0:
320,192,13874,1,0,0:0:0:0:
448,192,13945,1,0,0:0:0:0:
192,192,13945,1,0,0:0:0:0:
320,192,14016,1,0,0:0:0:0:
448,192,14088,1,0,0:0:0:0:
192,192,14088,1,0,0:0:0:0:
64,192,14088,1,0,0:0:0:0:
64,192,14231,1,0,0:0:0:0:
320,192,14231,1,0,0:0:0:0:
448,192,14231,1,0,0:0:0:0:
192,192,14374,1,0,0:0:0:0:
64,192,14516,1,0,0:0:0:0:
448,192,14516,1,0,0:0:0:0:
192,192,14516,1,0,0:0:0:0:
320,192,14659,1,0,0:0:0:0:
448,192,14659,1,0,0:0:0:0:
192,192,14659,1,0,0:0:0:0:
64,192,14802,1,0,0:0:0:0:
320,192,14802,1,0,0:0:0:0:
64,192,14945,1,0,0:0:0:0:
320,192,14945,1,0,0:0:0:0:
448,192,14945,1,0,0:0:0:0:
192,192,15088,1,0,0:0:0:0:
320,192,15088,1,0,0:0:0:0:
64,192,15231,1,0,0:0:0:0:
448,192,15231,1,0,0:0:0:0:
192,192,15231,1,0,0:0:0:0:
64,192,15374,1,0,0:0:0:0:
320,192,15374,1,0,0:0:0:0:
448,192,15374,1,0,0:0:0:0:
192,192,15516,1,0,0:0:0:0:
320,192,15516,1,0,0:0:0:0:
64,192,15659,1,0,0:0:0:0:
192,192,15659,1,0,0:0:0:0:
448,192,15659,1,0,0:0:0:0:
64,192,15802,1,0,0:0:0:0:
320,192,15802,1,0,0:0:0:0:
192,192,15874,1,0,0:0:0:0:
64,192,15945,1,0,0:0:0:0:
320,192,15945,1,0,0:0:0:0:
192,192,16016,1,0,0:0:0:0:
64,192,16088,1,0,0:0:0:0:
320,192,16088,1,0,0:0:0:0:
192,192,16159,1,0,0:0:0:0:
64,192,16231,1,0,0:0:0:0:
320,192,16231,1,0,0:0:0:0:
192,192,16302,1,0,0:0:0:0:
64,192,16374,1,0,0:0:0:0:
320,192,16374,1,0,0:0:0:0:
448,192,16374,1,0,0:0:0:0:
192,192,16516,1,0,0:0:0:0:
320,192,16516,1,0,0:0:0:0:
448,192,16516,1,0,0:0:0:0:
64,192,16659,1,0,0:0:0:0:
192,192,16659,1,0,0:0:0:0:
320,192,16802,1,0,0:0:0:0:
448,192,16802,1,0,0:0:0:0:
64,192,16802,1,0,0:0:0:0:
64,192,16945,1,0,0:0:0:0:
192,192,16945,1,0,0:0:0:0:
320,192,16945,1,0,0:0:0:0:
64,192,17088,1,0,0:0:0:0:
448,192,17088,1,0,0:0:0:0:
448,192,17231,1,0,0:0:0:0:
320,192,17231,1,0,0:0:0:0:
192,192,17231,1,0,0:0:0:0:
64,192,17374,1,0,0:0:0:0:
192,192,17374,1,0,0:0:0:0:
64,192,17516,1,0,0:0:0:0:
448,192,17516,1,0,0:0:0:0:
320,192,17516,1,0,0:0:0:0:
64,192,17659,1,0,0:0:0:0:
192,192,17659,1,0,0:0:0:0:
448,192,17659,1,0,0:0:0:0:
192,192,17802,1,0,0:0:0:0:
320,192,17802,1,0,0:0:0:0:
448,192,17945,1,0,0:0:0:0:
64,192,17945,1,0,0:0:0:0:
320,192,17945,1,0,0:0:0:0:
64,192,18088,1,0,0:0:0:0:
192,192,18088,1,0,0:0:0:0:
320,192,18159,1,0,0:0:0:0:
448,192,18159,1,0,0:0:0:0:
64,192,18231,1,0,0:0:0:0:
192,192,18231,1,0,0:0:0:0:
320,192,18302,1,0,0:0:0:0:
448,192,18302,1,0,0:0:0:0:
64,192,18374,1,0,0:0:0:0:
192,192,18374,1,0,0:0:0:0:
320,192,18445,1,0,0:0:0:0:
448,192,18445,1,0,0:0:0:0:
64,192,18516,1,0,0:0:0:0:
192,192,18516,1,0,0:0:0:0:
320,192,18588,1,0,0:0:0:0:
448,192,18588,1,0,0:0:0:0:
448,192,18659,1,0,0:0:0:0:
192,192,18659,1,0,0:0:0:0:
64,192,18659,1,0,0:0:0:0:
320,192,18659,1,0,0:0:0:0:
64,192,18945,1,0,0:0:0:0:
448,192,18945,1,0,0:0:0:0:
320,192,18945,1,0,0:0:0:0:
64,192,19088,1,0,0:0:0:0:
448,192,19088,1,0,0:0:0:0:
192,192,19231,1,0,0:0:0:0:
448,192,19231,1,0,0:0:0:0:
320,192,19374,1,0,0:0:0:0:
64,192,19374,1,0,0:0:0:0:
64,192,19516,1,0,0:0:0:0:
192,192,19516,1,0,0:0:0:0:
448,192,19516,1,0,0:0:0:0:
192,192,19659,1,0,0:0:0:0:
320,192,19659,1,0,0:0:0:0:
64,192,19802,128,0,19945:0:0:0:0:
320,192,19802,128,0,19945:0:0:0:0:
192,192,19945,128,0,20088:0:0:0:0:
64,192,20088,128,0,20374:0:0:0:0:
448,192,20088,128,0,20231:0:0:0:0:
320,192,20088,1,0,0:0:0:0:
320,192,20231,128,0,20374:0:0:0:0:
448,192,20374,128,0,20516:0:0:0:0:
192,192,20374,128,0,20516:0:0:0:0:
64,192,20516,128,0,20659:0:0:0:0:
320,192,20659,128,0,20945:0:0:0:0:
448,192,20659,128,0,20802:0:0:0:0:
192,192,20659,1,0,0:0:0:0:
64,192,20802,128,0,20945:0:0:0:0:
192,192,20945,1,0,0:0:0:0:
448,192,20945,1,0,0:0:0:0:
448,192,21231,1,0,0:0:0:0:
192,192,21231,1,0,0:0:0:0:
64,192,21231,1,0,0:0:0:0:
320,192,21374,1,0,0:0:0:0:
192,192,21374,1,0,0:0:0:0:
64,192,21516,1,0,0:0:0:0:
448,192,21516,1,0,0:0:0:0:
64,192,21659,1,0,0:0:0:0:
320,192,21659,1,0,0:0:0:0:
64,192,21802,1,0,0:0:0:0:
448,192,21802,1,0,0:0:0:0:
192,192,21802,1,0,0:0:0:0:
192,192,21945,1,0,0:0:0:0:
320,192,21945,1,0,0:0:0:0:
448,192,22088,1,0,0:0:0:0:
320,192,22088,1,0,0:0:0:0:
64,192,22088,128,0,22231:0:0:0:0:
192,192,22231,128,0,22374:0:0:0:0:
448,192,22231,1,0,0:0:0:0:
320,192,22374,128,0,22516:0:0:0:0:
448,192,22374,1,0,0:0:0:0:
64,192,22374,1,0,0:0:0:0:
192,192,22516,128,0,22659:0:0:0:0:
64,192,22516,1,0,0:0:0:0:
64,192,22659,128,0,22802:0:0:0:0:
320,192,22659,1,0,0:0:0:0:
192,192,22802,128,0,22945:0:0:0:0:
448,192,22802,1,0,0:0:0:0:
320,192,22945,128,0,23088:0:0:0:0:
64,192,22945,1,0,0:0:0:0:
448,192,22945,1,0,0:0:0:0:
192,192,23088,1,0,0:0:0:0:
64,192,23088,1,0,0:0:0:0:
448,192,23088,1,0,0:0:0:0:
64,192,23231,1,0,0:0:0:0:
192,192,23231,1,0,0:0:0:0:
320,192,23231,1,0,0:0:0:0:
448,192,23231,1,0,0:0:0:0:
64,192,23516,1,0,0:0:0:0:
192,192,23516,1,0,0:0:0:0:
448,192,23516,1,0,0:0:0:0:
192,192,23659,1,0,0:0:0:0:
320,192,23659,1,0,0:0:0:0:
448,192,23802,1,0,0:0:0:0:
192,192,23802,1,0,0:0:0:0:
64,192,23945,1,0,0:0:0:0:
448,192,23945,1,0,0:0:0:0:
448,192,24088,1,0,0:0:0:0:
320,192,24088,1,0,0:0:0:0:
64,192,24088,1,0,0:0:0:0:
192,192,24231,1,0,0:0:0:0:
320,192,24231,1,0,0:0:0:0:
448,192,24374,128,0,24516:0:0:0:0:
192,192,24374,128,0,24516:0:0:0:0:
64,192,24516,128,0,24659:0:0:0:0:
320,192,24516,1,0,0:0:0:0:
320,192,24659,128,0,24802:0:0:0:0:
448,192,24659,128,0,24802:0:0:0:0:
192,192,24659,1,0,0:0:0:0:
192,192,24802,128,0,24945:0:0:0:0:
64,192,24802,1,0,0:0:0:0:
64,192,24945,128,0,25088:0:0:0:0:
448,192,24945,128,0,25088:0:0:0:0:
320,192,25088,128,0,25231:0:0:0:0:
192,192,25088,1,0,0:0:0:0:
192,192,25231,128,0,25374:0:0:0:0:
448,192,25231,1,0,0:0:0:0:
64,192,25231,128,0,25374:0:0:0:0:
320,192,25374,128,0,25516:0:0:0:0:
448,192,25374,1,0,0:0:0:0:
448,192,25516,1,0,0:0:0:0:
64,192,25516,1,0,0:0:0:0:
192,192,25516,1,0,0:0:0:0:
64,192,25802,1,0,0:0:0:0:
448,192,25802,1,0,0:0:0:0:
320,192,25802,1,0,0:0:0:0:
64,192,25945,1,0,0:0:0:0:
192,192,25945,1,0,0:0:0:0:
320,192,26088,1,0,0:0:0:0:
448,192,26088,1,0,0:0:0:0:
320,192,26231,1,0,0:0:0:0:
448,192,26231,1,0,0:0:0:0:
64,192,26374,1,0,0:0:0:0:
320,192,26374,1,0,0:0:0:0:
448,192,26374,1,0,0:0:0:0:
64,192,26516,1,0,0:0:0:0:
192,192,26516,1,0,0:0:0:0:
448,192,26659,1,0,0:0:0:0:
192,192,26659,1,0,0:0:0:0:
320,192,26802,1,0,0:0:0:0:
64,192,26802,1,0,0:0:0:0:
64,192,26945,1,0,0:0:0:0:
192,192,26945,1,0,0:0:0:0:
448,192,26945,1,0,0:0:0:0:
448,192,27088,1,0,0:0:0:0:
320,192,27088,1,0,0:0:0:0:
192,192,27088,1,0,0:0:0:0:
64,192,27231,1,0,0:0:0:0:
320,192,27231,1,0,0:0:0:0:
192,192,27231,1,0,0:0:0:0:
64,192,27374,1,0,0:0:0:0:
320,192,27374,1,0,0:0:0:0:
448,192,27374,1,0,0:0:0:0:
64,192,27516,1,0,0:0:0:0:
448,192,27516,1,0,0:0:0:0:
192,192,27588,1,0,0:0:0:0:
320,192,27588,1,0,0:0:0:0:
64,192,27659,1,0,0:0:0:0:
448,192,27659,1,0,0:0:0:0:
192,192,27731,1,0,0:0:0:0:
320,192,27731,1,0,0:0:0:0:
64,192,27802,1,0,0:0:0:0:
448,192,27802,1,0,0:0:0:0:
192,192,27802,1,0,0:0:0:0:
320,192,27945,1,0,0:0:0:0:
448,192,27945,1,0,0:0:0:0:
64,192,27945,1,0,0:0:0:0:
192,192,28088,1,0,0:0:0:0:
320,192,28088,1,0,0:0:0:0:
64,192,28231,1,0,0:0:0:0:
448,192,28231,1,0,0:0:0:0:
192,192,28231,1,0,0:0:0:0:
320,192,28374,1,0,0:0:0:0:
448,192,28374,1,0,0:0:0:0:
64,192,28374,1,0,0:0:0:0:
448,192,28516,1,0,0:0:0:0:
192,192,28516,1,0,0:0:0:0:
192,192,28659,1,0,0:0:0:0:
320,192,28659,1,0,0:0:0:0:
64,192,28659,1,0,0:0:0:0:
64,192,28802,1,0,0:0:0:0:
320,192,28802,1,0,0:0:0:0:
192,192,28945,1,0,0:0:0:0:
448,192,28945,1,0,0:0:0:0:
320,192,28945,1,0,0:0:0:0:
64,192,29088,1,0,0:0:0:0:
192,192,29088,1,0,0:0:0:0:
448,192,29088,1,0,0:0:0:0:
320,192,29231,1,0,0:0:0:0:
64,192,29374,1,0,0:0:0:0:
192,192,29374,1,0,0:0:0:0:
448,192,29374,1,0,0:0:0:0:
320,192,29516,1,0,0:0:0:0:
448,192,29516,1,0,0:0:0:0:
192,192,29588,1,0,0:0:0:0:
320,192,29659,1,0,0:0:0:0:
448,192,29659,1,0,0:0:0:0:
192,192,29731,1,0,0:0:0:0:
320,192,29802,1,0,0:0:0:0:
448,192,29802,1,0,0:0:0:0:
192,192,29874,1,0,0:0:0:0:
320,192,29945,1,0,0:0:0:0:
448,192,29945,1,0,0:0:0:0:
192,192,30016,1,0,0:0:0:0:
320,192,30088,1,0,0:0:0:0:
448,192,30088,1,0,0:0:0:0:
64,192,30088,1,0,0:0:0:0:
64,192,30231,1,0,0:0:0:0:
192,192,30231,1,0,0:0:0:0:
320,192,30231,1,0,0:0:0:0:
448,192,30374,1,0,0:0:0:0:
320,192,30374,1,0,0:0:0:0:
64,192,30516,1,0,0:0:0:0:
192,192,30516,1,0,0:0:0:0:
448,192,30516,1,0,0:0:0:0:
448,192,30659,1,0,0:0:0:0:
320,192,30659,1,0,0:0:0:0:
192,192,30659,1,0,0:0:0:0:
64,192,30802,1,0,0:0:0:0:
192,192,30802,1,0,0:0:0:0:
64,192,30945,1,0,0:0:0:0:
320,192,30945,1,0,0:0:0:0:
448,192,30945,1,0,0:0:0:0:
192,192,31088,1,0,0:0:0:0:
320,192,31088,1,0,0:0:0:0:
64,192,31231,1,0,0:0:0:0:
192,192,31231,1,0,0:0:0:0:
448,192,31231,1,0,0:0:0:0:
448,192,31374,1,0,0:0:0:0:
320,192,31374,1,0,0:0:0:0:
192,192,31374,1,0,0:0:0:0:
64,192,31516,1,0,0:0:0:0:
320,192,31516,1,0,0:0:0:0:
192,192,31659,1,0,0:0:0:0:
320,192,31659,1,0,0:0:0:0:
448,192,31659,1,0,0:0:0:0:
64,192,31802,1,0,0:0:0:0:
192,192,31802,1,0,0:0:0:0:
448,192,31802,1,0,0:0:0:0:
320,192,31874,1,0,0:0:0:0:
448,192,31945,1,0,0:0:0:0:
64,192,31945,1,0,0:0:0:0:
192,192,32016,1,0,0:0:0:0:
64,192,32088,1,0,0:0:0:0:
320,192,32088,1,0,0:0:0:0:
448,192,32088,1,0,0:0:0:0:
192,192,32159,1,0,0:0:0:0:
64,192,32231,1,0,0:0:0:0:
320,192,32231,1,0,0:0:0:0:
448,192,32302,1,0,0:0:0:0:
64,192,32374,1,0,0:0:0:0:
192,192,32374,1,0,0:0:0:0:
320,192,32374,1,0,0:0:0:0:
64,192,32659,1,0,0:0:0:0:
320,192,32659,1,0,0:0:0:0:
448,192,32659,1,0,0:0:0:0:
320,192,32802,1,0,0:0:0:0:
448,192,32802,1,0,0:0:0:0:
64,192,32945,1,0,0:0:0:0:
192,192,32945,1,0,0:0:0:0:
64,192,33088,1,0,0:0:0:0:
192,192,33088,1,0,0:0:0:0:
64,192,33231,1,0,0:0:0:0:
320,192,33231,1,0,0:0:0:0:
448,192,33231,1,0,0:0:0:0:
192,192,33374,1,0,0:0:0:0:
320,192,33374,1,0,0:0:0:0:
192,192,33516,1,0,0:0:0:0:
448,192,33516,1,0,0:0:0:0:
64,192,33659,128,0,33802:0:0:0:0:
320,192,33659,1,0,0:0:0:0:
448,192,33802,128,0,33945:0:0:0:0:
320,192,33802,1,0,0:0:0:0:
192,192,33802,1,0,0:0:0:0:
320,192,33945,1,0,0:0:0:0:
192,192,33945,128,0,34088:0:0:0:0:
320,192,34088,128,0,34231:0:0:0:0:
64,192,34088,1,0,0:0:0:0:
64,192,34231,1,0,0:0:0:0:
192,192,34231,128,0,34374:0:0:0:0:
64,192,34374,1,0,0:0:0:0:
448,192,34374,128,0,34516:0:0:0:0:
320,192,34374,1,0,0:0:0:0:
64,192,34516,128,0,34659:0:0:0:0:
320,192,34659,1,0,0:0:0:0:
448,192,34659,1,0,0:0:0:0:
64,192,34945,1,0,0:0:0:0:
192,192,34945,1,0,0:0:0:0:
448,192,34945,1,0,0:0:0:0:
64,192,35088,1,0,0:0:0:0:
320,192,35088,1,0,0:0:0:0:
192,192,35231,1,0,0:0:0:0:
320,192,35231,1,0,0:0:0:0:
192,192,35374,1,0,0:0:0:0:
448,192,35374,1,0,0:0:0:0:
320,192,35516,1,0,0:0:0:0:
448,192,35516,1,0,0:0:0:0:
64,192,35516,1,0,0:0:0:0:
64,192,35659,1,0,0:0:0:0:
192,192,35659,1,0,0:0:0:0:
320,192,35802,1,0,0:0:0:0:
448,192,35802,1,0,0:0:0:0:
192,192,35945,128,0,36088:0:0:0:0:
64,192,35945,1,0,0:0:0:0:
320,192,36088,128,0,36231:0:0:0:0:
448,192,36088,1,0,0:0:0:0:
64,192,36088,1,0,0:0:0:0:
448,192,36231,128,0,36374:0:0:0:0:
192,192,36231,1,0,0:0:0:0:
64,192,36374,128,0,36516:0:0:0:0:
192,192,36374,1,0,0:0:0:0:
192,192,36516,128,0,36659:0:0:0:0:
320,192,36516,1,0,0:0:0:0:
320,192,36659,128,0,36802:0:0:0:0:
448,192,36659,1,0,0:0:0:0:
64,192,36659,1,0,0:0:0:0:
192,192,36802,1,0,0:0:0:0:
64,192,36802,1,0,0:0:0:0:
448,192,36802,1,0,0:0:0:0:
64,192,36945,1,0,0:0:0:0:
320,192,36945,1,0,0:0:0:0:
192,192,36945,1,0,0:0:0:0:
448,192,36945,1,0,0:0:0:0:
64,192,37231,1,0,0:0:0:0:
320,192,37231,1,0,0:0:0:0:
448,192,37231,1,0,0:0:0:0:
192,192,37374,1,0,0:0:0:0:
320,192,37374,1,0,0:0:0:0:
192,192,37516,1,0,0:0:0:0:
320,192,37516,1,0,0:0:0:0:
192,192,37659,1,0,0:0:0:0:
320,192,37659,1,0,0:0:0:0:
64,192,37802,1,0,0:0:0:0:
192,192,37802,1,0,0:0:0:0:
448,192,37802,1,0,0:0:0:0:
64,192,37945,1,0,0:0:0:0:
448,192,37945,1,0,0:0:0:0:
64,192,38088,1,0,0:0:0:0:
448,192,38088,1,0,0:0:0:0:
448,192,38231,1,0,0:0:0:0:
64,192,38231,128,0,38374:0:0:0:0:
192,192,38374,128,0,38516:0:0:0:0:
320,192,38374,1,0,0:0:0:0:
448,192,38374,1,0,0:0:0:0:
320,192,38516,128,0,38659:0:0:0:0:
64,192,38516,1,0,0:0:0:0:
448,192,38659,128,0,38802:0:0:0:0:
64,192,38659,1,0,0:0:0:0:
192,192,38659,1,0,0:0:0:0:
320,192,38802,1,0,0:0:0:0:
192,192,38802,128,0,38945:0:0:0:0:
64,192,38945,128,0,39088:0:0:0:0:
448,192,38945,1,0,0:0:0:0:
320,192,38945,1,0,0:0:0:0:
448,192,39088,128,0,39231:0:0:0:0:
192,192,39088,1,0,0:0:0:0:
320,192,39231,1,0,0:0:0:0:
64,192,39231,1,0,0:0:0:0:
192,192,39374,1,0,0:0:0:0:
320,192,39374,1,0,0:0:0:0:
64,192,39516,1,0,0:0:0:0:
448,192,39516,1,0,0:0:0:0:
192,192,39516,1,0,0:0:0:0:
64,192,39659,1,0,0:0:0:0:
320,192,39659,1,0,0:0:0:0:
320,192,39802,1,0,0:0:0:0:
448,192,39802,1,0,0:0:0:0:
64,192,39945,1,0,0:0:0:0:
192,192,39945,1,0,0:0:0:0:
64,192,40088,1,0,0:0:0:0:
320,192,40088,1,0,0:0:0:0:
448,192,40088,1,0,0:0:0:0:
192,192,40231,1,0,0:0:0:0:
320,192,40231,1,0,0:0:0:0:
192,192,40374,1,0,0:0:0:0:
320,192,40374,1,0,0:0:0:0:
192,192,40516,1,0,0:0:0:0:
320,192,40516,1,0,0:0:0:0:
64,192,40659,1,0,0:0:0:0:
448,192,40659,1,0,0:0:0:0:
320,192,40659,1,0,0:0:0:0:
320,192,40802,1,0,0:0:0:0:
448,192,40802,1,0,0:0:0:0:
64,192,40802,1,0,0:0:0:0:
64,192,40945,1,0,0:0:0:0:
192,192,40945,1,0,0:0:0:0:
320,192,41088,1,0,0:0:0:0:
448,192,41088,1,0,0:0:0:0:
64,192,41231,1,0,0:0:0:0:
192,192,41231,1,0,0:0:0:0:
448,192,41231,1,0,0:0:0:0:
64,192,41374,1,0,0:0:0:0:
320,192,41374,1,0,0:0:0:0:
448,192,41374,1,0,0:0:0:0:
448,192,41445,1,0,0:0:0:0:
320,192,41445,1,0,0:0:0:0:
64,192,41445,1,0,0:0:0:0:
64,192,41516,1,0,0:0:0:0:
192,192,41516,1,0,0:0:0:0:
64,192,41802,1,0,0:0:0:0:
192,192,41802,1,0,0:0:0:0:
448,192,42088,1,0,0:0:0:0:
320,192,42088,128,0,42659:0:0:0:0:
64,192,42088,1,0,0:0:0:0:
192,192,42231,1,0,0:0:0:0:
192,192,42374,1,0,0:0:0:0:
192,192,42516,1,0,0:0:0:0:
192,192,42659,128,0,43231:0:0:0:0:
448,192,42659,1,0,0:0:0:0:
448,192,42802,1,0,0:0:0:0:
448,192,42945,1,0,0:0:0:0:
448,192,43088,1,0,0:0:0:0:
64,192,43231,1,0,0:0:0:0:
320,192,43231,1,0,0:0:0:0:
448,192,43231,128,0,43802:0:0:0:0:
64,192,43374,1,0,0:0:0:0:
192,192,43445,1,0,0:0:0:0:
64,192,43516,1,0,0:0:0:0:
64,192,43659,1,0,0:0:0:0:
64,192,43802,128,0,44516:0:0:0:0:
320,192,43802,1,0,0:0:0:0:
320,192,44088,1,0,0:0:0:0:
320,192,44374,1,0,0:0:0:0:
448,192,44374,1,0,0:0:0:0:
320,192,44516,1,0,0:0:0:0:
192,192,44659,1,0,0:0:0:0:
448,192,44802,1,0,0:0:0:0:
448,192,44945,128,0,45516:0:0:0:0:
64,192,44945,1,0,0:0:0:0:
64,192,45088,1,0,0:0:0:0:
64,192,45231,1,0,0:0:0:0:
64,192,45374,1,0,0:0:0:0:
320,192,45445,1,0,0:0:0:0:
64,192,45516,1,0,0:0:0:0:
192,192,45516,128,0,46088:0:0:0:0:
320,192,45659,1,0,0:0:0:0:
64,192,45731,1,0,0:0:0:0:
448,192,45802,1,0,0:0:0:0:
320,192,45802,1,0,0:0:0:0:
64,192,45945,1,0,0:0:0:0:
448,192,46088,128,0,46802:0:0:0:0:
320,192,46088,1,0,0:0:0:0:
64,192,46088,1,0,0:0:0:0:
64,192,46374,1,0,0:0:0:0:
320,192,46374,1,0,0:0:0:0:
64,192,46659,1,0,0:0:0:0:
192,192,46659,1,0,0:0:0:0:
320,192,46659,1,0,0:0:0:0:
64,192,46802,1,0,0:0:0:0:
320,192,46945,1,0,0:0:0:0:
192,192,47088,1,0,0:0:0:0:
64,192,47231,128,0,47802:0:0:0:0:
448,192,47231,1,0,0:0:0:0:
448,192,47374,1,0,0:0:0:0:
448,192,47516,1,0,0:0:0:0:
448,192,47659,1,0,0:0:0:0:
320,192,47731,1,0,0:0:0:0:
192,192,47802,128,0,48088:0:0:0:0:
448,192,47802,1,0,0:0:0:0:
320,192,47945,1,0,0:0:0:0:
64,192,48016,1,0,0:0:0:0:
448,192,48088,128,0,48374:0:0:0:0:
320,192,48088,1,0,0:0:0:0:
64,192,48231,1,0,0:0:0:0:
192,192,48302,1,0,0:0:0:0:
320,192,48374,1,0,0:0:0:0:
64,192,48374,128,0,49516:0:0:0:0:
320,192,48659,1,0,0:0:0:0:
192,192,48945,1,0,0:0:0:0:
320,192,48945,1,0,0:0:0:0:
448,192,48945,1,0,0:0:0:0:
448,192,49088,1,0,0:0:0:0:
192,192,49231,1,0,0:0:0:0:
320,192,49374,1,0,0:0:0:0:
192,192,49516,1,0,0:0:0:0:
448,192,49516,1,0,0:0:0:0:
320,192,49588,1,0,0:0:0:0:
64,192,49659,1,0,0:0:0:0:
448,192,49659,1,0,0:0:0:0:
192,192,49731,1,0,0:0:0:0:
64,192,49802,1,0,0:0:0:0:
448,192,49802,1,0,0:0:0:0:
320,192,49874,1,0,0:0:0:0:
192,192,49945,1,0,0:0:0:0:
64,192,49945,1,0,0:0:0:0:
448,192,50016,1,0,0:0:0:0:
192,192,50088,1,0,0:0:0:0:
64,192,50088,1,0,0:0:0:0:
320,192,50088,1,0,0:0:0:0:
448,192,50159,1,0,0:0:0:0:
64,192,50231,1,0,0:0:0:0:
320,192,50231,1,0,0:0:0:0:
192,192,50302,1,0,0:0:0:0:
448,192,50374,1,0,0:0:0:0:
64,192,50374,1,0,0:0:0:0:
320,192,50374,1,0,0:0:0:0:
320,192,50516,1,0,0:0:0:0:
192,192,50516,1,0,0:0:0:0:
64,192,50659,1,0,0:0:0:0:
448,192,50659,1,0,0:0:0:0:
320,192,50659,1,0,0:0:0:0:
192,192,50659,1,0,0:0:0:0:
64,192,50945,1,0,0:0:0:0:
192,192,50945,1,0,0:0:0:0:
320,192,50945,1,0,0:0:0:0:
448,192,50945,1,0,0:0:0:0:
320,192,51231,128,0,51802:0:0:0:0:
192,192,51802,128,0,52374:0:0:0:0:
448,192,52374,128,0,52945:0:0:0:0:
64,192,52945,128,0,53659:0:0:0:0:
192,192,52945,1,0,0:0:0:0:
320,192,52945,1,0,0:0:0:0:
192,192,54088,128,0,54659:0:0:0:0:
320,192,54659,128,0,55231:0:0:0:0:
448,192,55231,128,0,55802:0:0:0:0:
192,192,55231,1,0,0:0:0:0:
64,192,55231,1,0,0:0:0:0:
64,192,56374,128,0,56945:0:0:0:0:
192,192,56374,1,0,0:0:0:0:
192,192,56945,128,0,57516:0:0:0:0:
320,192,56945,1,0,0:0:0:0:
320,192,57516,128,0,58945:0:0:0:0:
448,192,57516,1,0,0:0:0:0:
64,192,57516,1,0,0:0:0:0:
64,192,57802,1,0,0:0:0:0:
192,192,57802,1,0,0:0:0:0:
64,192,58088,1,0,0:0:0:0:
192,192,58088,1,0,0:0:0:0:
448,192,58374,1,0,0:0:0:0:
192,192,58374,1,0,0:0:0:0:
64,192,58659,1,0,0:0:0:0:
192,192,58659,1,0,0:0:0:0:
64,192,58802,1,0,0:0:0:0:
192,192,58802,1,0,0:0:0:0:
64,192,58945,1,0,0:0:0:0:
192,192,58945,1,0,0:0:0:0:
448,192,58945,1,0,0:0:0:0:
320,192,59088,1,0,0:0:0:0:
448,192,59088,1,0,0:0:0:0:
64,192,59231,1,0,0:0:0:0:
192,192,59231,1,0,0:0:0:0:
320,192,59302,1,0,0:0:0:0:
448,192,59302,1,0,0:0:0:0:
64,192,59374,1,0,0:0:0:0:
192,192,59374,1,0,0:0:0:0:
320,192,59445,1,0,0:0:0:0:
448,192,59445,1,0,0:0:0:0:
64,192,59516,1,0,0:0:0:0:
192,192,59516,1,0,0:0:0:0:
320,192,59588,1,0,0:0:0:0:
448,192,59588,1,0,0:0:0:0:
64,192,59659,1,0,0:0:0:0:
192,192,59659,1,0,0:0:0:0:
320,192,59731,1,0,0:0:0:0:
448,192,59731,1,0,0:0:0:0:
64,192,59802,1,0,0:0:0:0:
192,192,59802,1,0,0:0:0:0:
448,192,59802,1,0,0:0:0:0:
320,192,59874,1,0,0:0:0:0:
192,192,59945,1,0,0:0:0:0:
64,192,60016,1,0,0:0:0:0:
192,192,60088,1,0,0:0:0:0:
320,192,60088,1,0,0:0:0:0:
448,192,60088,1,0,0:0:0:0:
64,192,60159,1,0,0:0:0:0:
192,192,60231,1,0,0:0:0:0:
448,192,60231,1,0,0:0:0:0:
320,192,60302,1,0,0:0:0:0:
64,192,60374,1,0,0:0:0:0:
448,192,60374,1,0,0:0:0:0:
192,192,60445,1,0,0:0:0:0:
320,192,60516,1,0,0:0:0:0:
64,192,60516,1,0,0:0:0:0:
448,192,60588,1,0,0:0:0:0:
64,192,60659,1,0,0:0:0:0:
320,192,60659,1,0,0:0:0:0:
192,192,60659,1,0,0:0:0:0:
448,192,60731,1,0,0:0:0:0:
64,192,60802,1,0,0:0:0:0:
192,192,60802,1,0,0:0:0:0:
320,192,60874,1,0,0:0:0:0:
448,192,60945,1,0,0:0:0:0:
192,192,60945,1,0,0:0:0:0:
64,192,61016,1,0,0:0:0:0:
448,192,61088,1,0,0:0:0:0:
320,192,61088,1,0,0:0:0:0:
192,192,61159,1,0,0:0:0:0:
448,192,61231,1,0,0:0:0:0:
320,192,61231,1,0,0:0:0:0:
64,192,61231,1,0,0:0:0:0:
192,192,61302,1,0,0:0:0:0:
320,192,61374,1,0,0:0:0:0:
64,192,61374,1,0,0:0:0:0:
192,192,61445,1,0,0:0:0:0:
64,192,61516,1,0,0:0:0:0:
448,192,61516,1,0,0:0:0:0:
192,192,61588,1,0,0:0:0:0:
320,192,61588,1,0,0:0:0:0:
64,192,61659,1,0,0:0:0:0:
448,192,61659,1,0,0:0:0:0:
192,192,61731,1,0,0:0:0:0:
64,192,61802,1,0,0:0:0:0:
448,192,61802,1,0,0:0:0:0:
320,192,61802,1,0,0:0:0:0:
320,192,61945,1,0,0:0:0:0:
448,192,61945,1,0,0:0:0:0:
64,192,62088,1,0,0:0:0:0:
192,192,62088,1,0,0:0:0:0:
320,192,62088,1,0,0:0:0:0:
448,192,62159,1,0,0:0:0:0:
320,192,62231,1,0,0:0:0:0:
192,192,62302,1,0,0:0:0:0:
64,192,62374,1,0,0:0:0:0:
448,192,62374,1,0,0:0:0:0:
320,192,62374,1,0,0:0:0:0:
192,192,62445,1,0,0:0:0:0:
64,192,62516,1,0,0:0:0:0:
320,192,62516,1,0,0:0:0:0:
448,192,62588,1,0,0:0:0:0:
64,192,62659,1,0,0:0:0:0:
192,192,62659,1,0,0:0:0:0:
320,192,62731,1,0,0:0:0:0:
448,192,62802,1,0,0:0:0:0:
64,192,62802,1,0,0:0:0:0:
192,192,62874,1,0,0:0:0:0:
64,192,62945,1,0,0:0:0:0:
320,192,62945,1,0,0:0:0:0:
448,192,62945,1,0,0:0:0:0:
192,192,63016,1,0,0:0:0:0:
448,192,63088,1,0,0:0:0:0:
320,192,63088,1,0,0:0:0:0:
64,192,63159,1,0,0:0:0:0:
192,192,63231,1,0,0:0:0:0:
320,192,63231,1,0,0:0:0:0:
448,192,63302,1,0,0:0:0:0:
64,192,63374,1,0,0:0:0:0:
320,192,63374,1,0,0:0:0:0:
192,192,63445,1,0,0:0:0:0:
64,192,63516,1,0,0:0:0:0:
320,192,63516,1,0,0:0:0:0:
448,192,63516,1,0,0:0:0:0:
192,192,63588,1,0,0:0:0:0:
64,192,63659,1,0,0:0:0:0:
448,192,63659,1,0,0:0:0:0:
320,192,63731,1,0,0:0:0:0:
64,192,63802,1,0,0:0:0:0:
192,192,63802,1,0,0:0:0:0:
320,192,63874,1,0,0:0:0:0:
448,192,63874,1,0,0:0:0:0:
64,192,63945,1,0,0:0:0:0:
192,192,63945,1,0,0:0:0:0:
320,192,64016,1,0,0:0:0:0:
448,192,64016,1,0,0:0:0:0:
64,192,64088,1,0,0:0:0:0:
192,192,64088,1,0,0:0:0:0:
448,192,64088,1,0,0:0:0:0:
64,192,64231,1,0,0:0:0:0:
192,192,64231,1,0,0:0:0:0:
448,192,64231,1,0,0:0:0:0:
64,192,64374,1,0,0:0:0:0:
192,192,64374,1,0,0:0:0:0:
448,192,64374,1,0,0:0:0:0:
320,192,64374,128,0,64516:0:0:0:0:
192,192,64516,128,0,64659:0:0:0:0:
64,192,64516,1,0,0:0:0:0:
64,192,64659,128,0,64802:0:0:0:0:
320,192,64659,1,0,0:0:0:0:
448,192,64659,1,0,0:0:0:0:
320,192,64802,128,0,64945:0:0:0:0:
192,192,64802,1,0,0:0:0:0:
448,192,64945,128,0,65088:0:0:0:0:
64,192,64945,1,0,0:0:0:0:
192,192,65088,128,0,65231:0:0:0:0:
64,192,65088,1,0,0:0:0:0:
320,192,65231,128,0,65374:0:0:0:0:
448,192,65231,1,0,0:0:0:0:
64,192,65231,1,0,0:0:0:0:
448,192,65374,1,0,0:0:0:0:
192,192,65374,128,0,65516:0:0:0:0:
320,192,65516,128,0,65659:0:0:0:0:
64,192,65516,1,0,0:0:0:0:
448,192,65659,128,0,65802:0:0:0:0:
192,192,65659,1,0,0:0:0:0:
64,192,65802,1,0,0:0:0:0:
320,192,65802,1,0,0:0:0:0:
192,192,65802,128,0,65945:0:0:0:0:
320,192,65945,128,0,66088:0:0:0:0:
64,192,65945,1,0,0:0:0:0:
192,192,66088,1,0,0:0:0:0:
64,192,66088,1,0,0:0:0:0:
448,192,66159,1,0,0:0:0:0:
320,192,66159,1,0,0:0:0:0:
192,192,66231,1,0,0:0:0:0:
64,192,66231,1,0,0:0:0:0:
64,192,66374,1,0,0:0:0:0:
448,192,66374,1,0,0:0:0:0:
320,192,66374,1,0,0:0:0:0:
448,192,66516,1,0,0:0:0:0:
192,192,66516,1,0,0:0:0:0:
448,192,66659,128,0,66802:0:0:0:0:
192,192,66659,1,0,0:0:0:0:
320,192,66802,128,0,66945:0:0:0:0:
64,192,66802,1,0,0:0:0:0:
192,192,66945,128,0,67088:0:0:0:0:
448,192,66945,1,0,0:0:0:0:
64,192,66945,1,0,0:0:0:0:
64,192,67088,128,0,67231:0:0:0:0:
320,192,67088,1,0,0:0:0:0:
448,192,67231,128,0,67374:0:0:0:0:
192,192,67231,1,0,0:0:0:0:
320,192,67374,128,0,67516:0:0:0:0:
64,192,67374,128,0,67516:0:0:0:0:
192,192,67516,128,0,67659:0:0:0:0:
448,192,67516,128,0,67659:0:0:0:0:
64,192,67659,128,0,67802:0:0:0:0:
320,192,67659,1,0,0:0:0:0:
320,192,67802,128,0,67945:0:0:0:0:
448,192,67802,1,0,0:0:0:0:
448,192,67945,128,0,68088:0:0:0:0:
192,192,67945,1,0,0:0:0:0:
192,192,68088,128,0,68231:0:0:0:0:
320,192,68088,1,0,0:0:0:0:
320,192,68231,128,0,68374:0:0:0:0:
64,192,68231,1,0,0:0:0:0:
192,192,68374,1,0,0:0:0:0:
448,192,68374,1,0,0:0:0:0:
64,192,68445,1,0,0:0:0:0:
320,192,68445,1,0,0:0:0:0:
192,192,68516,1,0,0:0:0:0:
448,192,68516,1,0,0:0:0:0:
64,192,68588,1,0,0:0:0:0:
320,192,68588,1,0,0:0:0:0:
192,192,68659,1,0,0:0:0:0:
448,192,68659,1,0,0:0:0:0:
64,192,68659,1,0,0:0:0:0:
64,192,68802,1,0,0:0:0:0:
192,192,68802,1,0,0:0:0:0:
448,192,68802,1,0,0:0:0:0:
64,192,68945,1,0,0:0:0:0:
320,192,68945,1,0,0:0:0:0:
448,192,68945,1,0,0:0:0:0:
192,192,69016,1,0,0:0:0:0:
320,192,69088,1,0,0:0:0:0:
448,192,69159,1,0,0:0:0:0:
64,192,69231,1,0,0:0:0:0:
192,192,69231,1,0,0:0:0:0:
320,192,69231,1,0,0:0:0:0:
448,192,69302,1,0,0:0:0:0:
64,192,69374,1,0,0:0:0:0:
320,192,69374,1,0,0:0:0:0:
192,192,69445,1,0,0:0:0:0:
64,192,69516,1,0,0:0:0:0:
448,192,69516,1,0,0:0:0:0:
320,192,69588,1,0,0:0:0:0:
64,192,69659,1,0,0:0:0:0:
192,192,69659,1,0,0:0:0:0:
448,192,69731,1,0,0:0:0:0:
64,192,69802,1,0,0:0:0:0:
192,192,69802,1,0,0:0:0:0:
320,192,69802,1,0,0:0:0:0:
448,192,69874,1,0,0:0:0:0:
64,192,69945,1,0,0:0:0:0:
192,192,69945,1,0,0:0:0:0:
320,192,70016,1,0,0:0:0:0:
448,192,70088,1,0,0:0:0:0:
64,192,70088,1,0,0:0:0:0:
192,192,70159,1,0,0:0:0:0:
320,192,70231,1,0,0:0:0:0:
448,192,70231,1,0,0:0:0:0:
64,192,70302,1,0,0:0:0:0:
192,192,70374,1,0,0:0:0:0:
320,192,70374,1,0,0:0:0:0:
448,192,70374,1,0,0:0:0:0:
64,192,70445,1,0,0:0:0:0:
192,192,70516,1,0,0:0:0:0:
320,192,70516,1,0,0:0:0:0:
448,192,70588,1,0,0:0:0:0:
64,192,70659,1,0,0:0:0:0:
320,192,70659,1,0,0:0:0:0:
192,192,70731,1,0,0:0:0:0:
64,192,70802,1,0,0:0:0:0:
320,192,70802,1,0,0:0:0:0:
192,192,70874,1,0,0:0:0:0:
320,192,70945,1,0,0:0:0:0:
448,192,70945,1,0,0:0:0:0:
64,192,71088,1,0,0:0:0:0:
192,192,71088,1,0,0:0:0:0:
64,192,71231,1,0,0:0:0:0:
320,192,71231,1,0,0:0:0:0:
448,192,71231,1,0,0:0:0:0:
192,192,71302,1,0,0:0:0:0:
320,192,71374,1,0,0:0:0:0:
448,192,71445,1,0,0:0:0:0:
64,192,71516,1,0,0:0:0:0:
192,192,71516,1,0,0:0:0:0:
320,192,71516,1,0,0:0:0:0:
448,192,71588,1,0,0:0:0:0:
64,192,71659,1,0,0:0:0:0:
192,192,71659,1,0,0:0:0:0:
448,192,71731,1,0,0:0:0:0:
64,192,71802,1,0,0:0:0:0:
320,192,71802,1,0,0:0:0:0:
192,192,71874,1,0,0:0:0:0:
64,192,71945,1,0,0:0:0:0:
448,192,71945,1,0,0:0:0:0:
320,192,72016,1,0,0:0:0:0:
192,192,72088,1,0,0:0:0:0:
64,192,72088,1,0,0:0:0:0:
448,192,72088,1,0,0:0:0:0:
320,192,72159,1,0,0:0:0:0:
192,192,72231,1,0,0:0:0:0:
448,192,72231,1,0,0:0:0:0:
64,192,72302,1,0,0:0:0:0:
192,192,72374,1,0,0:0:0:0:
320,192,72374,1,0,0:0:0:0:
448,192,72445,1,0,0:0:0:0:
64,192,72516,1,0,0:0:0:0:
192,192,72516,1,0,0:0:0:0:
320,192,72588,1,0,0:0:0:0:
448,192,72659,1,0,0:0:0:0:
192,192,72659,1,0,0:0:0:0:
64,192,72659,1,0,0:0:0:0:
320,192,72731,1,0,0:0:0:0:
192,192,72802,1,0,0:0:0:0:
64,192,72874,1,0,0:0:0:0:
192,192,72945,1,0,0:0:0:0:
320,192,72945,1,0,0:0:0:0:
64,192,73016,1,0,0:0:0:0:
448,192,73016,1,0,0:0:0:0:
192,192,73088,1,0,0:0:0:0:
320,192,73088,1,0,0:0:0:0:
64,192,73159,1,0,0:0:0:0:
448,192,73159,1,0,0:0:0:0:
192,192,73231,1,0,0:0:0:0:
320,192,73231,1,0,0:0:0:0:
192,192,73374,1,0,0:0:0:0:
320,192,73374,1,0,0:0:0:0:
64,192,73516,128,0,73659:0:0:0:0:
448,192,73516,128,0,73659:0:0:0:0:
192,192,73659,128,0,73802:0:0:0:0:
64,192,73802,128,0,74088:0:0:0:0:
320,192,73802,128,0,73945:0:0:0:0:
448,192,73802,1,0,0:0:0:0:
192,192,73945,128,0,74088:0:0:0:0:
448,192,74088,128,0,74231:0:0:0:0:
320,192,74088,128,0,74231:0:0:0:0:
64,192,74231,128,0,74374:0:0:0:0:
320,192,74374,1,0,0:0:0:0:
192,192,74374,128,0,74659:0:0:0:0:
448,192,74374,128,0,74516:0:0:0:0:
64,192,74516,128,0,74659:0:0:0:0:
320,192,74659,128,0,74802:0:0:0:0:
448,192,74659,128,0,74802:0:0:0:0:
192,192,74802,128,0,74945:0:0:0:0:
448,192,74945,1,0,0:0:0:0:
64,192,74945,128,0,75231:0:0:0:0:
320,192,74945,128,0,75088:0:0:0:0:
448,192,75088,128,0,75231:0:0:0:0:
320,192,75231,1,0,0:0:0:0:
192,192,75231,128,0,75516:0:0:0:0:
64,192,75302,1,0,0:0:0:0:
448,192,75374,1,0,0:0:0:0:
320,192,75516,1,0,0:0:0:0:
448,192,75516,1,0,0:0:0:0:
64,192,75516,1,0,0:0:0:0:
192,192,75659,1,0,0:0:0:0:
320,192,75659,1,0,0:0:0:0:
64,192,75802,1,0,0:0:0:0:
320,192,75802,1,0,0:0:0:0:
448,192,75802,1,0,0:0:0:0:
64,192,75945,1,0,0:0:0:0:
192,192,75945,1,0,0:0:0:0:
448,192,75945,1,0,0:0:0:0:
192,192,76088,1,0,0:0:0:0:
320,192,76088,1,0,0:0:0:0:
448,192,76088,1,0,0:0:0:0:
64,192,76231,1,0,0:0:0:0:
192,192,76231,1,0,0:0:0:0:
320,192,76231,1,0,0:0:0:0:
448,192,76374,1,0,0:0:0:0:
64,192,76374,1,0,0:0:0:0:
320,192,76516,1,0,0:0:0:0:
64,192,76516,1,0,0:0:0:0:
192,192,76659,1,0,0:0:0:0:
64,192,76659,1,0,0:0:0:0:
448,192,76659,1,0,0:0:0:0:
320,192,76802,1,0,0:0:0:0:
448,192,76802,1,0,0:0:0:0:
192,192,76945,1,0,0:0:0:0:
320,192,76945,1,0,0:0:0:0:
64,192,77088,1,0,0:0:0:0:
320,192,77088,1,0,0:0:0:0:
448,192,77231,1,0,0:0:0:0:
64,192,77231,1,0,0:0:0:0:
320,192,77231,1,0,0:0:0:0:
448,192,77374,1,0,0:0:0:0:
192,192,77374,1,0,0:0:0:0:
64,192,77516,1,0,0:0:0:0:
320,192,77516,1,0,0:0:0:0:
192,192,77588,1,0,0:0:0:0:
448,192,77588,1,0,0:0:0:0:
64,192,77659,1,0,0:0:0:0:
320,192,77659,1,0,0:0:0:0:
64,192,77802,1,0,0:0:0:0:
192,192,77802,1,0,0:0:0:0:
448,192,77802,1,0,0:0:0:0:
448,192,77945,1,0,0:0:0:0:
192,192,77945,1,0,0:0:0:0:
64,192,77945,1,0,0:0:0:0:
64,192,78088,1,0,0:0:0:0:
448,192,78088,1,0,0:0:0:0:
320,192,78088,128,0,78945:0:0:0:0:
64,192,78231,1,0,0:0:0:0:
64,192,78374,1,0,0:0:0:0:
192,192,78374,1,0,0:0:0:0:
448,192,78374,1,0,0:0:0:0:
448,192,78516,1,0,0:0:0:0:
192,192,78659,1,0,0:0:0:0:
192,192,78802,1,0,0:0:0:0:
448,192,78802,1,0,0:0:0:0:
64,192,78945,1,0,0:0:0:0:
448,192,78945,1,0,0:0:0:0:
192,192,78945,128,0,79231:0:0:0:0:
320,192,79088,1,0,0:0:0:0:
448,192,79231,128,0,79516:0:0:0:0:
64,192,79231,1,0,0:0:0:0:
320,192,79374,1,0,0:0:0:0:
64,192,79516,128,0,79659:0:0:0:0:
192,192,79516,1,0,0:0:0:0:
320,192,79516,1,0,0:0:0:0:
320,192,79659,128,0,80088:0:0:0:0:
448,192,79659,1,0,0:0:0:0:
64,192,79802,1,0,0:0:0:0:
448,192,79802,1,0,0:0:0:0:
192,192,79874,1,0,0:0:0:0:
64,192,79945,1,0,0:0:0:0:
192,192,80088,1,0,0:0:0:0:
448,192,80088,1,0,0:0:0:0:
64,192,80088,128,0,80374:0:0:0:0:
320,192,80231,1,0,0:0:0:0:
192,192,80374,1,0,0:0:0:0:
320,192,80374,1,0,0:0:0:0:
448,192,80374,1,0,0:0:0:0:
64,192,80445,1,0,0:0:0:0:
192,192,80516,1,0,0:0:0:0:
320,192,80588,1,0,0:0:0:0:
64,192,80659,1,0,0:0:0:0:
448,192,80659,1,0,0:0:0:0:
192,192,80659,1,0,0:0:0:0:
320,192,80731,1,0,0:0:0:0:
64,192,80802,1,0,0:0:0:0:
448,192,80802,1,0,0:0:0:0:
192,192,80874,1,0,0:0:0:0:
64,192,80945,1,0,0:0:0:0:
320,192,80945,1,0,0:0:0:0:
448,192,81016,1,0,0:0:0:0:
192,192,81088,1,0,0:0:0:0:
64,192,81088,1,0,0:0:0:0:
320,192,81159,1,0,0:0:0:0:
448,192,81231,1,0,0:0:0:0:
192,192,81231,1,0,0:0:0:0:
64,192,81231,1,0,0:0:0:0:
320,192,81302,1,0,0:0:0:0:
192,192,81374,1,0,0:0:0:0:
448,192,81374,1,0,0:0:0:0:
64,192,81445,1,0,0:0:0:0:
320,192,81516,1,0,0:0:0:0:
448,192,81516,1,0,0:0:0:0:
64,192,81588,1,0,0:0:0:0:
192,192,81659,1,0,0:0:0:0:
320,192,81659,1,0,0:0:0:0:
448,192,81731,1,0,0:0:0:0:
64,192,81802,1,0,0:0:0:0:
192,192,81802,1,0,0:0:0:0:
320,192,81802,1,0,0:0:0:0:
448,192,81874,1,0,0:0:0:0:
64,192,81945,1,0,0:0:0:0:
320,192,81945,1,0,0:0:0:0:
192,192,82016,1,0,0:0:0:0:
64,192,82088,1,0,0:0:0:0:
448,192,82088,1,0,0:0:0:0:
192,192,82159,1,0,0:0:0:0:
320,192,82159,1,0,0:0:0:0:
64,192,82231,1,0,0:0:0:0:
448,192,82231,1,0,0:0:0:0:
192,192,82302,1,0,0:0:0:0:
320,192,82302,1,0,0:0:0:0:
64,192,82374,1,0,0:0:0:0:
320,192,82374,1,0,0:0:0:0:
448,192,82374,1,0,0:0:0:0:
192,192,82516,1,0,0:0:0:0:
320,192,82516,1,0,0:0:0:0:
64,192,82659,1,0,0:0:0:0:
192,192,82659,1,0,0:0:0:0:
448,192,82659,1,0,0:0:0:0:
320,192,82731,1,0,0:0:0:0:
192,192,82802,1,0,0:0:0:0:
448,192,82802,1,0,0:0:0:0:
64,192,82874,1,0,0:0:0:0:
192,192,82945,1,0,0:0:0:0:
320,192,82945,1,0,0:0:0:0:
448,192,83016,1,0,0:0:0:0:
64,192,83088,1,0,0:0:0:0:
192,192,83088,1,0,0:0:0:0:
320,192,83088,1,0,0:0:0:0:
448,192,83159,1,0,0:0:0:0:
64,192,83231,1,0,0:0:0:0:
192,192,83231,1,0,0:0:0:0:
320,192,83302,1,0,0:0:0:0:
448,192,83374,1,0,0:0:0:0:
64,192,83374,1,0,0:0:0:0:
192,192,83445,1,0,0:0:0:0:
320,192,83516,1,0,0:0:0:0:
448,192,83516,1,0,0:0:0:0:
64,192,83516,1,0,0:0:0:0:
192,192,83588,1,0,0:0:0:0:
448,192,83659,1,0,0:0:0:0:
64,192,83659,1,0,0:0:0:0:
320,192,83731,1,0,0:0:0:0:
64,192,83802,1,0,0:0:0:0:
192,192,83802,1,0,0:0:0:0:
448,192,83802,1,0,0:0:0:0:
320,192,83874,1,0,0:0:0:0:
192,192,83945,1,0,0:0:0:0:
64,192,83945,1,0,0:0:0:0:
320,192,84016,1,0,0:0:0:0:
448,192,84088,1,0,0:0:0:0:
192,192,84088,1,0,0:0:0:0:
64,192,84159,1,0,0:0:0:0:
320,192,84231,1,0,0:0:0:0:
448,192,84231,1,0,0:0:0:0:
192,192,84231,1,0,0:0:0:0:
64,192,84302,1,0,0:0:0:0:
448,192,84374,1,0,0:0:0:0:
320,192,84374,1,0,0:0:0:0:
192,192,84445,1,0,0:0:0:0:
320,192,84516,1,0,0:0:0:0:
448,192,84516,1,0,0:0:0:0:
192,192,84588,1,0,0:0:0:0:
64,192,84659,1,0,0:0:0:0:
320,192,84659,1,0,0:0:0:0:
448,192,84659,1,0,0:0:0:0:
192,192,84731,1,0,0:0:0:0:
320,192,84802,1,0,0:0:0:0:
64,192,84802,1,0,0:0:0:0:
448,192,84874,1,0,0:0:0:0:
64,192,84945,128,0,85016:0:0:0:0:
192,192,84945,128,0,85016:0:0:0:0:
320,192,84945,128,0,85016:0:0:0:0:
64,192,85088,128,0,85159:0:0:0:0:
192,192,85088,128,0,85159:0:0:0:0:
64,192,85231,128,0,85302:0:0:0:0:
192,192,85231,128,0,85302:0:0:0:0:
64,192,85374,128,0,85445:0:0:0:0:
320,192,85374,128,0,85445:0:0:0:0:
448,192,85374,128,0,85445:0:0:0:0:
192,192,85374,128,0,85445:0:0:0:0:
320,192,85516,128,0,85588:0:0:0:0:
448,192,85516,128,0,85588:0:0:0:0:
320,192,85659,128,0,85731:0:0:0:0:
448,192,85659,128,0,85731:0:0:0:0:
320,192,85802,128,0,85874:0:0:0:0:
448,192,85802,128,0,85874:0:0:0:0:
192,192,85802,128,0,85874:0:0:0:0:
64,192,85802,128,0,85874:0:0:0:0:
192,192,85945,128,0,86016:0:0:0:0:
320,192,85945,128,0,86016:0:0:0:0:
192,192,86088,128,0,86159:0:0:0:0:
320,192,86088,128,0,86159:0:0:0:0:
64,192,86231,128,0,86302:0:0:0:0:
192,192,86231,128,0,86302:0:0:0:0:
320,192,86231,128,0,86302:0:0:0:0:
448,192,86231,128,0,86302:0:0:0:0:
64,192,86374,128,0,86445:0:0:0:0:
448,192,86374,128,0,86445:0:0:0:0:
64,192,86516,128,0,86588:0:0:0:0:
448,192,86516,128,0,86588:0:0:0:0:
64,192,86659,128,0,86731:0:0:0:0:
448,192,86659,128,0,86731:0:0:0:0:
192,192,86659,128,0,86731:0:0:0:0:
320,192,86659,128,0,86731:0:0:0:0:
192,192,86802,128,0,86874:0:0:0:0:
320,192,86802,128,0,86874:0:0:0:0:
64,192,86945,128,0,87016:0:0:0:0:
192,192,86945,128,0,87016:0:0:0:0:
320,192,86945,128,0,87016:0:0:0:0:
448,192,86945,128,0,87016:0:0:0:0:
192,192,87088,128,0,87159:0:0:0:0:
320,192,87088,128,0,87159:0:0:0:0:
64,192,87231,1,0,0:0:0:0:
320,192,87231,1,0,0:0:0:0:
448,192,87231,1,0,0:0:0:0:
192,192,87374,1,0,0:0:0:0:
320,192,87374,1,0,0:0:0:0:
64,192,87374,1,0,0:0:0:0:
448,192,87516,1,0,0:0:0:0:
192,192,87516,1,0,0:0:0:0:
64,192,87659,1,0,0:0:0:0:
192,192,87659,1,0,0:0:0:0:
448,192,87659,1,0,0:0:0:0:
64,192,87802,1,0,0:0:0:0:
320,192,87802,1,0,0:0:0:0:
448,192,87802,1,0,0:0:0:0:
192,192,87945,1,0,0:0:0:0:
320,192,87945,1,0,0:0:0:0:
64,192,88088,1,0,0:0:0:0:
192,192,88088,1,0,0:0:0:0:
448,192,88088,1,0,0:0:0:0:
320,192,88231,1,0,0:0:0:0:
448,192,88231,1,0,0:0:0:0:
64,192,88374,1,0,0:0:0:0:
192,192,88374,1,0,0:0:0:0:
448,192,88374,1,0,0:0:0:0:
64,192,88516,1,0,0:0:0:0:
320,192,88516,1,0,0:0:0:0:
448,192,88516,1,0,0:0:0:0:
64,192,88659,1,0,0:0:0:0:
192,192,88659,1,0,0:0:0:0:
320,192,88802,1,0,0:0:0:0:
448,192,88802,1,0,0:0:0:0:
192,192,88802,1,0,0:0:0:0:
64,192,88945,1,0,0:0:0:0:
448,192,88945,1,0,0:0:0:0:
320,192,89016,1,0,0:0:0:0:
64,192,89088,1,0,0:0:0:0:
448,192,89088,1,0,0:0:0:0:
320,192,89159,1,0,0:0:0:0:
64,192,89231,1,0,0:0:0:0:
448,192,89231,1,0,0:0:0:0:
320,192,89302,1,0,0:0:0:0:
448,192,89374,1,0,0:0:0:0:
64,192,89374,1,0,0:0:0:0:
320,192,89445,1,0,0:0:0:0:
448,192,89516,1,0,0:0:0:0:
64,192,89516,1,0,0:0:0:0:
192,192,89516,1,0,0:0:0:0:
64,192,89659,1,0,0:0:0:0:
192,192,89659,1,0,0:0:0:0:
320,192,89659,1,0,0:0:0:0:
448,192,89802,1,0,0:0:0:0:
192,192,89802,1,0,0:0:0:0:
64,192,89945,1,0,0:0:0:0:
320,192,89945,1,0,0:0:0:0:
448,192,89945,1,0,0:0:0:0:
64,192,90088,1,0,0:0:0:0:
192,192,90088,1,0,0:0:0:0:
448,192,90088,1,0,0:0:0:0:
192,192,90231,1,0,0:0:0:0:
320,192,90231,1,0,0:0:0:0:
64,192,90374,1,0,0:0:0:0:
448,192,90374,1,0,0:0:0:0:
320,192,90374,1,0,0:0:0:0:
64,192,90516,1,0,0:0:0:0:
192,192,90516,1,0,0:0:0:0:
192,192,90659,1,0,0:0:0:0:
320,192,90659,1,0,0:0:0:0:
448,192,90659,1,0,0:0:0:0:
64,192,90802,1,0,0:0:0:0:
192,192,90802,1,0,0:0:0:0:
320,192,90802,1,0,0:0:0:0:
448,192,90945,1,0,0:0:0:0:
64,192,90945,1,0,0:0:0:0:
192,192,91088,1,0,0:0:0:0:
320,192,91088,1,0,0:0:0:0:
448,192,91088,1,0,0:0:0:0:
64,192,91231,1,0,0:0:0:0:
320,192,91231,1,0,0:0:0:0:
192,192,91302,1,0,0:0:0:0:
64,192,91374,1,0,0:0:0:0:
320,192,91374,1,0,0:0:0:0:
192,192,91445,1,0,0:0:0:0:
64,192,91516,1,0,0:0:0:0:
320,192,91516,1,0,0:0:0:0:
192,192,91588,1,0,0:0:0:0:
64,192,91659,1,0,0:0:0:0:
320,192,91659,1,0,0:0:0:0:
192,192,91731,1,0,0:0:0:0:
64,192,91802,1,0,0:0:0:0:
320,192,91802,1,0,0:0:0:0:
448,192,91802,1,0,0:0:0:0:
192,192,91945,1,0,0:0:0:0:
320,192,91945,1,0,0:0:0:0:
448,192,91945,1,0,0:0:0:0:
64,192,92088,1,0,0:0:0:0:
192,192,92088,1,0,0:0:0:0:
320,192,92231,1,0,0:0:0:0:
448,192,92231,1,0,0:0:0:0:
64,192,92231,1,0,0:0:0:0:
64,192,92374,1,0,0:0:0:0:
192,192,92374,1,0,0:0:0:0:
320,192,92374,1,0,0:0:0:0:
448,192,92516,1,0,0:0:0:0:
192,192,92516,1,0,0:0:0:0:
64,192,92659,1,0,0:0:0:0:
320,192,92659,1,0,0:0:0:0:
192,192,92659,1,0,0:0:0:0:
320,192,92802,1,0,0:0:0:0:
448,192,92802,1,0,0:0:0:0:
64,192,92945,1,0,0:0:0:0:
192,192,92945,1,0,0:0:0:0:
448,192,92945,1,0,0:0:0:0:
448,192,93088,1,0,0:0:0:0:
320,192,93088,1,0,0:0:0:0:
64,192,93088,1,0,0:0:0:0:
64,192,93231,1,0,0:0:0:0:
192,192,93231,1,0,0:0:0:0:
448,192,93374,1,0,0:0:0:0:
320,192,93374,1,0,0:0:0:0:
192,192,93374,1,0,0:0:0:0:
64,192,93516,1,0,0:0:0:0:
192,192,93516,1,0,0:0:0:0:
448,192,93588,1,0,0:0:0:0:
64,192,93659,1,0,0:0:0:0:
192,192,93659,1,0,0:0:0:0:
448,192,93731,1,0,0:0:0:0:
64,192,93802,1,0,0:0:0:0:
192,192,93802,1,0,0:0:0:0:
448,192,93874,1,0,0:0:0:0:
64,192,93945,1,0,0:0:0:0:
192,192,93945,1,0,0:0:0:0:
448,192,94016,1,0,0:0:0:0:
64,192,94088,1,0,0:0:0:0:
192,192,94088,1,0,0:0:0:0:
320,192,94088,1,0,0:0:0:0:
192,192,94231,1,0,0:0:0:0:
320,192,94231,1,0,0:0:0:0:
448,192,94231,1,0,0:0:0:0:
64,192,94374,1,0,0:0:0:0:
448,192,94374,1,0,0:0:0:0:
64,192,94516,1,0,0:0:0:0:
448,192,94516,1,0,0:0:0:0:
320,192,94516,1,0,0:0:0:0:
64,192,94659,1,0,0:0:0:0:
192,192,94659,1,0,0:0:0:0:
448,192,94659,1,0,0:0:0:0:
192,192,94802,1,0,0:0:0:0:
320,192,94802,1,0,0:0:0:0:
64,192,94945,1,0,0:0:0:0:
192,192,94945,1,0,0:0:0:0:
448,192,94945,1,0,0:0:0:0:
320,192,95088,1,0,0:0:0:0:
448,192,95088,1,0,0:0:0:0:
192,192,95231,1,0,0:0:0:0:
320,192,95231,1,0,0:0:0:0:
64,192,95231,1,0,0:0:0:0:
192,192,95374,1,0,0:0:0:0:
320,192,95374,1,0,0:0:0:0:
448,192,95374,1,0,0:0:0:0:
64,192,95516,1,0,0:0:0:0:
448,192,95516,1,0,0:0:0:0:
64,192,95659,1,0,0:0:0:0:
192,192,95659,1,0,0:0:0:0:
320,192,95659,1,0,0:0:0:0:
320,192,95802,1,0,0:0:0:0:
448,192,95802,1,0,0:0:0:0:
64,192,95874,1,0,0:0:0:0:
192,192,95874,1,0,0:0:0:0:
320,192,95945,1,0,0:0:0:0:
448,192,95945,1,0,0:0:0:0:
64,192,96016,1,0,0:0:0:0:
192,192,96016,1,0,0:0:0:0:
320,192,96088,1,0,0:0:0:0:
448,192,96088,1,0,0:0:0:0:
64,192,96159,1,0,0:0:0:0:
192,192,96159,1,0,0:0:0:0:
320,192,96231,1,0,0:0:0:0:
448,192,96231,1,0,0:0:0:0:
192,192,96302,1,0,0:0:0:0:
64,192,96302,1,0,0:0:0:0:
448,192,96374,1,0,0:0:0:0:
320,192,96374,1,0,0:0:0:0:
192,192,96374,1,0,0:0:0:0:
64,192,96374,1,0,0:0:0:0:
64,192,96659,1,0,0:0:0:0:
192,192,96659,1,0,0:0:0:0:
448,192,96659,1,0,0:0:0:0:
320,192,96802,1,0,0:0:0:0:
448,192,96802,1,0,0:0:0:0:
320,192,96945,1,0,0:0:0:0:
448,192,96945,1,0,0:0:0:0:
320,192,97088,1,0,0:0:0:0:
448,192,97088,1,0,0:0:0:0:
64,192,97231,1,0,0:0:0:0:
320,192,97231,1,0,0:0:0:0:
448,192,97231,1,0,0:0:0:0:
64,192,97374,1,0,0:0:0:0:
192,192,97374,1,0,0:0:0:0:
320,192,97516,128,0,97802:0:0:0:0:
448,192,97516,128,0,97659:0:0:0:0:
192,192,97659,128,0,97945:0:0:0:0:
64,192,97802,128,0,98088:0:0:0:0:
448,192,97802,128,0,98088:0:0:0:0:
320,192,97945,128,0,98231:0:0:0:0:
192,192,98088,128,0,98374:0:0:0:0:
64,192,98231,128,0,98516:0:0:0:0:
448,192,98231,128,0,98516:0:0:0:0:
320,192,98374,128,0,98659:0:0:0:0:
192,192,98516,128,0,98659:0:0:0:0:
448,192,98659,1,0,0:0:0:0:
64,192,98659,1,0,0:0:0:0:
64,192,98945,1,0,0:0:0:0:
320,192,98945,1,0,0:0:0:0:
448,192,98945,1,0,0:0:0:0:
192,192,99088,1,0,0:0:0:0:
320,192,99088,1,0,0:0:0:0:
192,192,99231,1,0,0:0:0:0:
320,192,99231,1,0,0:0:0:0:
192,192,99374,1,0,0:0:0:0:
320,192,99374,1,0,0:0:0:0:
64,192,99516,1,0,0:0:0:0:
192,192,99516,1,0,0:0:0:0:
448,192,99516,1,0,0:0:0:0:
192,192,99659,1,0,0:0:0:0:
320,192,99659,1,0,0:0:0:0:
64,192,99802,128,0,99945:0:0:0:0:
192,192,99802,128,0,100088:0:0:0:0:
320,192,99945,128,0,100231:0:0:0:0:
448,192,100088,128,0,100374:0:0:0:0:
64,192,100088,128,0,100374:0:0:0:0:
192,192,100231,128,0,100516:0:0:0:0:
320,192,100374,128,0,100659:0:0:0:0:
448,192,100516,128,0,100802:0:0:0:0:
64,192,100516,1,0,0:0:0:0:
192,192,100659,1,0,0:0:0:0:
64,192,100659,1,0,0:0:0:0:
64,192,100802,1,0,0:0:0:0:
192,192,100802,1,0,0:0:0:0:
320,192,100802,1,0,0:0:0:0:
64,192,100945,1,0,0:0:0:0:
192,192,100945,1,0,0:0:0:0:
320,192,100945,1,0,0:0:0:0:
448,192,100945,1,0,0:0:0:0:
64,192,101231,1,0,0:0:0:0:
192,192,101231,1,0,0:0:0:0:
448,192,101231,1,0,0:0:0:0:
64,192,101374,1,0,0:0:0:0:
448,192,101374,1,0,0:0:0:0:
192,192,101516,1,0,0:0:0:0:
320,192,101516,1,0,0:0:0:0:
192,192,101659,1,0,0:0:0:0:
320,192,101659,1,0,0:0:0:0:
64,192,101802,1,0,0:0:0:0:
448,192,101802,1,0,0:0:0:0:
320,192,101802,1,0,0:0:0:0:
64,192,101945,1,0,0:0:0:0:
448,192,101945,1,0,0:0:0:0:
192,192,102088,128,0,102231:0:0:0:0:
448,192,102088,1,0,0:0:0:0:
320,192,102231,128,0,102374:0:0:0:0:
64,192,102231,1,0,0:0:0:0:
192,192,102374,128,0,102516:0:0:0:0:
448,192,102374,1,0,0:0:0:0:
64,192,102374,1,0,0:0:0:0:
448,192,102516,128,0,102659:0:0:0:0:
320,192,102516,1,0,0:0:0:0:
64,192,102659,128,0,102802:0:0:0:0:
192,192,102659,1,0,0:0:0:0:
448,192,102802,128,0,102945:0:0:0:0:
320,192,102802,1,0,0:0:0:0:
64,192,102945,128,0,103088:0:0:0:0:
192,192,102945,1,0,0:0:0:0:
320,192,102945,1,0,0:0:0:0:
192,192,103088,128,0,103231:0:0:0:0:
448,192,103088,1,0,0:0:0:0:
320,192,103231,1,0,0:0:0:0:
448,192,103231,1,0,0:0:0:0:
64,192,103516,1,0,0:0:0:0:
192,192,103516,1,0,0:0:0:0:
448,192,103516,1,0,0:0:0:0:
320,192,103659,1,0,0:0:0:0:
448,192,103659,1,0,0:0:0:0:
64,192,103802,1,0,0:0:0:0:
320,192,103802,1,0,0:0:0:0:
192,192,103945,1,0,0:0:0:0:
448,192,103945,1,0,0:0:0:0:
64,192,104088,1,0,0:0:0:0:
192,192,104088,1,0,0:0:0:0:
448,192,104088,1,0,0:0:0:0:
320,192,104231,1,0,0:0:0:0:
448,192,104231,1,0,0:0:0:0:
64,192,104374,128,0,104516:0:0:0:0:
320,192,104374,1,0,0:0:0:0:
192,192,104516,128,0,104659:0:0:0:0:
448,192,104516,1,0,0:0:0:0:
64,192,104659,128,0,104802:0:0:0:0:
320,192,104659,1,0,0:0:0:0:
448,192,104659,1,0,0:0:0:0:
192,192,104802,128,0,104945:0:0:0:0:
320,192,104802,1,0,0:0:0:0:
448,192,104945,128,0,105088:0:0:0:0:
64,192,104945,1,0,0:0:0:0:
192,192,105016,1,0,0:0:0:0:
64,192,105088,1,0,0:0:0:0:
320,192,105088,128,0,105231:0:0:0:0:
192,192,105231,1,0,0:0:0:0:
64,192,105231,1,0,0:0:0:0:
448,192,105231,128,0,105374:0:0:0:0:
64,192,105374,1,0,0:0:0:0:
192,192,105374,1,0,0:0:0:0:
64,192,105445,1,0,0:0:0:0:
192,192,105445,1,0,0:0:0:0:
320,192,105516,1,0,0:0:0:0:
448,192,105516,1,0,0:0:0:0:
320,192,105802,1,0,0:0:0:0:
448,192,105802,1,0,0:0:0:0:
192,192,106088,128,0,106659:0:0:0:0:
448,192,106088,1,0,0:0:0:0:
448,192,106231,1,0,0:0:0:0:
448,192,106374,1,0,0:0:0:0:
448,192,106516,1,0,0:0:0:0:
320,192,106659,128,0,107231:0:0:0:0:
64,192,106659,1,0,0:0:0:0:
64,192,106802,1,0,0:0:0:0:
64,192,106945,1,0,0:0:0:0:
64,192,107088,1,0,0:0:0:0:
192,192,107159,1,0,0:0:0:0:
64,192,107231,128,0,107516:0:0:0:0:
448,192,107231,1,0,0:0:0:0:
448,192,107374,1,0,0:0:0:0:
320,192,107445,1,0,0:0:0:0:
192,192,107516,1,0,0:0:0:0:
192,192,107659,1,0,0:0:0:0:
192,192,107802,1,0,0:0:0:0:
64,192,107802,1,0,0:0:0:0:
320,192,107802,1,0,0:0:0:0:
192,192,108088,1,0,0:0:0:0:
320,192,108088,1,0,0:0:0:0:
64,192,108374,1,0,0:0:0:0:
320,192,108374,1,0,0:0:0:0:
448,192,108374,1,0,0:0:0:0:
192,192,108659,1,0,0:0:0:0:
64,192,108945,1,0,0:0:0:0:
192,192,108945,128,0,109516:0:0:0:0:
64,192,109088,1,0,0:0:0:0:
64,192,109231,1,0,0:0:0:0:
64,192,109374,1,0,0:0:0:0:
320,192,109516,128,0,110088:0:0:0:0:
448,192,109516,1,0,0:0:0:0:
64,192,109516,1,0,0:0:0:0:
448,192,109659,1,0,0:0:0:0:
192,192,109731,1,0,0:0:0:0:
448,192,109802,1,0,0:0:0:0:
448,192,109945,1,0,0:0:0:0:
64,192,110088,1,0,0:0:0:0:
192,192,110088,1,0,0:0:0:0:
448,192,110088,1,0,0:0:0:0:
64,192,110374,1,0,0:0:0:0:
192,192,110374,1,0,0:0:0:0:
320,192,110659,1,0,0:0:0:0:
448,192,110659,1,0,0:0:0:0:
64,192,110659,1,0,0:0:0:0:
192,192,110802,1,0,0:0:0:0:
320,192,110802,1,0,0:0:0:0:
192,192,111088,1,0,0:0:0:0:
448,192,111088,1,0,0:0:0:0:
64,192,111231,128,0,111802:0:0:0:0:
320,192,111231,1,0,0:0:0:0:
320,192,111374,1,0,0:0:0:0:
320,192,111516,1,0,0:0:0:0:
320,192,111659,1,0,0:0:0:0:
192,192,111731,1,0,0:0:0:0:
448,192,111802,128,0,112374:0:0:0:0:
320,192,111802,1,0,0:0:0:0:
192,192,111945,1,0,0:0:0:0:
192,192,112088,1,0,0:0:0:0:
192,192,112231,1,0,0:0:0:0:
64,192,112374,1,0,0:0:0:0:
192,192,112374,1,0,0:0:0:0:
320,192,112374,1,0,0:0:0:0:
192,192,112659,1,0,0:0:0:0:
448,192,112659,1,0,0:0:0:0:
64,192,112945,1,0,0:0:0:0:
320,192,112945,1,0,0:0:0:0:
448,192,112945,1,0,0:0:0:0:
192,192,113231,1,0,0:0:0:0:
320,192,113231,1,0,0:0:0:0:
64,192,113516,1,0,0:0:0:0:
448,192,113516,1,0,0:0:0:0:
320,192,113588,1,0,0:0:0:0:
192,192,113659,1,0,0:0:0:0:
448,192,113659,1,0,0:0:0:0:
64,192,113731,1,0,0:0:0:0:
320,192,113802,1,0,0:0:0:0:
448,192,113802,1,0,0:0:0:0:
64,192,113874,1,0,0:0:0:0:
192,192,113945,1,0,0:0:0:0:
320,192,113945,1,0,0:0:0:0:
448,192,114016,1,0,0:0:0:0:
64,192,114088,1,0,0:0:0:0:
192,192,114088,1,0,0:0:0:0:
320,192,114088,1,0,0:0:0:0:
448,192,114159,1,0,0:0:0:0:
64,192,114231,1,0,0:0:0:0:
320,192,114231,1,0,0:0:0:0:
192,192,114302,1,0,0:0:0:0:
64,192,114374,1,0,0:0:0:0:
448,192,114374,1,0,0:0:0:0:
320,192,114374,1,0,0:0:0:0:
192,192,114516,1,0,0:0:0:0:
64,192,114659,1,0,0:0:0:0:
320,192,114659,1,0,0:0:0:0:
448,192,114659,1,0,0:0:0:0:
192,192,114945,1,0,0:0:0:0:
64,192,114945,1,0,0:0:0:0:
320,192,115231,128,0,115802:0:0:0:0:
192,192,115802,128,0,116374:0:0:0:0:
64,192,116374,128,0,116659:0:0:0:0:
448,192,116945,128,0,117659:0:0:0:0:
64,192,116945,1,0,0:0:0:0:
192,192,116945,1,0,0:0:0:0:
192,192,118088,128,0,118659:0:0:0:0:
448,192,118659,128,0,119231:0:0:0:0:
320,192,119231,1,0,0:0:0:0:
192,192,119231,1,0,0:0:0:0:
64,192,119231,128,0,119945:0:0:0:0:
448,192,120374,1,0,0:0:0:0:
192,192,120374,128,0,120945:0:0:0:0:
320,192,120945,128,0,121516:0:0:0:0:
64,192,120945,1,0,0:0:0:0:
448,192,121516,128,0,122945:0:0:0:0:
192,192,121516,1,0,0:0:0:0:
64,192,121802,1,0,0:0:0:0:
192,192,121802,1,0,0:0:0:0:
64,192,122088,1,0,0:0:0:0:
192,192,122088,1,0,0:0:0:0:
64,192,122374,1,0,0:0:0:0:
192,192,122374,1,0,0:0:0:0:
64,192,122659,1,0,0:0:0:0:
192,192,122659,1,0,0:0:0:0:
64,192,122802,1,0,0:0:0:0:
192,192,122802,1,0,0:0:0:0:
64,192,122945,1,0,0:0:0:0:
192,192,122945,1,0,0:0:0:0:
320,192,122945,1,0,0:0:0:0:
320,192,123088,1,0,0:0:0:0:
448,192,123088,1,0,0:0:0:0:
64,192,123231,1,0,0:0:0:0:
192,192,123231,1,0,0:0:0:0:
320,192,123302,1,0,0:0:0:0:
448,192,123302,1,0,0:0:0:0:
64,192,123374,1,0,0:0:0:0:
192,192,123374,1,0,0:0:0:0:
320,192,123445,1,0,0:0:0:0:
448,192,123445,1,0,0:0:0:0:
64,192,123516,1,0,0:0:0:0:
192,192,123516,1,0,0:0:0:0:
320,192,123588,1,0,0:0:0:0:
448,192,123588,1,0,0:0:0:0:
64,192,123659,1,0,0:0:0:0:
192,192,123659,1,0,0:0:0:0:
320,192,123731,1,0,0:0:0:0:
448,192,123731,1,0,0:0:0:0:
64,192,123802,1,0,0:0:0:0:
192,192,123802,1,0,0:0:0:0:
448,192,123802,1,0,0:0:0:0:
320,192,123874,1,0,0:0:0:0:
192,192,123945,1,0,0:0:0:0:
320,192,124016,1,0,0:0:0:0:
64,192,124088,1,0,0:0:0:0:
448,192,124088,1,0,0:0:0:0:
192,192,124088,1,0,0:0:0:0:
320,192,124159,1,0,0:0:0:0:
448,192,124231,1,0,0:0:0:0:
192,192,124231,1,0,0:0:0:0:
320,192,124302,1,0,0:0:0:0:
64,192,124374,1,0,0:0:0:0:
192,192,124374,1,0,0:0:0:0:
320,192,124445,1,0,0:0:0:0:
448,192,124516,1,0,0:0:0:0:
64,192,124516,1,0,0:0:0:0:
192,192,124588,1,0,0:0:0:0:
320,192,124659,1,0,0:0:0:0:
64,192,124659,1,0,0:0:0:0:
448,192,124659,1,0,0:0:0:0:
192,192,124731,1,0,0:0:0:0:
320,192,124802,1,0,0:0:0:0:
448,192,124802,1,0,0:0:0:0:
192,192,124874,1,0,0:0:0:0:
64,192,124945,1,0,0:0:0:0:
448,192,124945,1,0,0:0:0:0:
320,192,125016,1,0,0:0:0:0:
192,192,125088,1,0,0:0:0:0:
448,192,125088,1,0,0:0:0:0:
64,192,125159,1,0,0:0:0:0:
192,192,125231,1,0,0:0:0:0:
320,192,125231,1,0,0:0:0:0:
448,192,125231,1,0,0:0:0:0:
64,192,125302,1,0,0:0:0:0:
320,192,125374,1,0,0:0:0:0:
192,192,125374,1,0,0:0:0:0:
448,192,125445,1,0,0:0:0:0:
64,192,125516,1,0,0:0:0:0:
192,192,125516,1,0,0:0:0:0:
448,192,125588,1,0,0:0:0:0:
192,192,125659,1,0,0:0:0:0:
64,192,125659,1,0,0:0:0:0:
320,192,125731,1,0,0:0:0:0:
448,192,125802,1,0,0:0:0:0:
64,192,125802,1,0,0:0:0:0:
192,192,125874,1,0,0:0:0:0:
448,192,125945,1,0,0:0:0:0:
64,192,125945,1,0,0:0:0:0:
192,192,126016,1,0,0:0:0:0:
64,192,126088,1,0,0:0:0:0:
320,192,126088,1,0,0:0:0:0:
448,192,126088,1,0,0:0:0:0:
192,192,126159,1,0,0:0:0:0:
320,192,126231,1,0,0:0:0:0:
448,192,126302,1,0,0:0:0:0:
64,192,126374,1,0,0:0:0:0:
192,192,126374,1,0,0:0:0:0:
320,192,126374,1,0,0:0:0:0:
448,192,126445,1,0,0:0:0:0:
192,192,126516,1,0,0:0:0:0:
320,192,126516,1,0,0:0:0:0:
64,192,126588,1,0,0:0:0:0:
192,192,126659,1,0,0:0:0:0:
448,192,126659,1,0,0:0:0:0:
320,192,126731,1,0,0:0:0:0:
64,192,126802,1,0,0:0:0:0:
448,192,126802,1,0,0:0:0:0:
192,192,126874,1,0,0:0:0:0:
448,192,126945,1,0,0:0:0:0:
64,192,126945,1,0,0:0:0:0:
320,192,126945,1,0,0:0:0:0:
192,192,127016,1,0,0:0:0:0:
64,192,127088,1,0,0:0:0:0:
448,192,127088,1,0,0:0:0:0:
320,192,127159,1,0,0:0:0:0:
448,192,127231,1,0,0:0:0:0:
192,192,127231,1,0,0:0:0:0:
64,192,127302,1,0,0:0:0:0:
448,192,127374,1,0,0:0:0:0:
320,192,127374,1,0,0:0:0:0:
192,192,127445,1,0,0:0:0:0:
64,192,127516,1,0,0:0:0:0:
320,192,127516,1,0,0:0:0:0:
448,192,127516,1,0,0:0:0:0:
192,192,127588,1,0,0:0:0:0:
64,192,127659,1,0,0:0:0:0:
320,192,127659,1,0,0:0:0:0:
448,192,127731,1,0,0:0:0:0:
192,192,127802,1,0,0:0:0:0:
320,192,127802,1,0,0:0:0:0:
64,192,127874,1,0,0:0:0:0:
320,192,127945,1,0,0:0:0:0:
448,192,127945,1,0,0:0:0:0:
64,192,128016,1,0,0:0:0:0:
320,192,128088,1,0,0:0:0:0:
448,192,128088,1,0,0:0:0:0:
64,192,128159,1,0,0:0:0:0:
320,192,128231,1,0,0:0:0:0:
448,192,128231,1,0,0:0:0:0:
64,192,128302,1,0,0:0:0:0:
320,192,128374,128,0,128516:0:0:0:0:
448,192,128374,128,0,128516:0:0:0:0:
64,192,128516,128,0,128659:0:0:0:0:
192,192,128516,128,0,128659:0:0:0:0:
320,192,128659,128,0,128802:0:0:0:0:
448,192,128659,128,0,128802:0:0:0:0:
64,192,128802,128,0,128945:0:0:0:0:
192,192,128802,128,0,129088:0:0:0:0:
320,192,128945,128,0,129088:0:0:0:0:
64,192,129088,128,0,129231:0:0:0:0:
448,192,129088,128,0,129231:0:0:0:0:
192,192,129231,128,0,129374:0:0:0:0:
320,192,129231,128,0,129374:0:0:0:0:
64,192,129374,128,0,129516:0:0:0:0:
448,192,129374,128,0,129659:0:0:0:0:
320,192,129516,128,0,129659:0:0:0:0:
64,192,129659,128,0,129802:0:0:0:0:
192,192,129659,128,0,129802:0:0:0:0:
320,192,129802,128,0,129945:0:0:0:0:
448,192,129802,128,0,129945:0:0:0:0:
64,192,129945,128,0,130088:0:0:0:0:
192,192,129945,128,0,130088:0:0:0:0:
448,192,130088,1,0,0:0:0:0:
320,192,130088,1,0,0:0:0:0:
64,192,130159,1,0,0:0:0:0:
192,192,130159,1,0,0:0:0:0:
320,192,130231,1,0,0:0:0:0:
448,192,130231,1,0,0:0:0:0:
64,192,130374,1,0,0:0:0:0:
192,192,130374,1,0,0:0:0:0:
448,192,130374,1,0,0:0:0:0:
192,192,130516,1,0,0:0:0:0:
320,192,130516,1,0,0:0:0:0:
64,192,130659,128,0,130802:0:0:0:0:
320,192,130659,1,0,0:0:0:0:
192,192,130802,128,0,130945:0:0:0:0:
448,192,130802,1,0,0:0:0:0:
320,192,130945,128,0,131088:0:0:0:0:
448,192,130945,1,0,0:0:0:0:
64,192,130945,1,0,0:0:0:0:
448,192,131088,128,0,131231:0:0:0:0:
192,192,131088,1,0,0:0:0:0:
64,192,131231,1,0,0:0:0:0:
320,192,131231,128,0,131374:0:0:0:0:
192,192,131374,128,0,131516:0:0:0:0:
448,192,131374,1,0,0:0:0:0:
64,192,131516,128,0,131659:0:0:0:0:
320,192,131516,1,0,0:0:0:0:
448,192,131516,1,0,0:0:0:0:
192,192,131659,128,0,131802:0:0:0:0:
320,192,131659,1,0,0:0:0:0:
448,192,131802,128,0,131945:0:0:0:0:
64,192,131802,128,0,131945:0:0:0:0:
320,192,131945,128,0,132088:0:0:0:0:
192,192,131945,1,0,0:0:0:0:
192,192,132088,128,0,132231:0:0:0:0:
64,192,132088,1,0,0:0:0:0:
448,192,132088,128,0,132231:0:0:0:0:
64,192,132231,128,0,132374:0:0:0:0:
320,192,132231,1,0,0:0:0:0:
192,192,132374,1,0,0:0:0:0:
448,192,132374,1,0,0:0:0:0:
320,192,132445,1,0,0:0:0:0:
64,192,132445,1,0,0:0:0:0:
192,192,132516,1,0,0:0:0:0:
448,192,132516,1,0,0:0:0:0:
320,192,132659,1,0,0:0:0:0:
448,192,132659,1,0,0:0:0:0:
64,192,132659,1,0,0:0:0:0:
320,192,132802,1,0,0:0:0:0:
448,192,132802,1,0,0:0:0:0:
64,192,132802,1,0,0:0:0:0:
64,192,132945,1,0,0:0:0:0:
192,192,132945,1,0,0:0:0:0:
320,192,132945,1,0,0:0:0:0:
448,192,133016,1,0,0:0:0:0:
320,192,133088,1,0,0:0:0:0:
192,192,133159,1,0,0:0:0:0:
64,192,133231,1,0,0:0:0:0:
320,192,133231,1,0,0:0:0:0:
448,192,133231,1,0,0:0:0:0:
192,192,133302,1,0,0:0:0:0:
448,192,133374,1,0,0:0:0:0:
64,192,133374,1,0,0:0:0:0:
320,192,133445,1,0,0:0:0:0:
192,192,133516,1,0,0:0:0:0:
64,192,133516,1,0,0:0:0:0:
320,192,133588,1,0,0:0:0:0:
448,192,133659,1,0,0:0:0:0:
192,192,133659,1,0,0:0:0:0:
64,192,133731,1,0,0:0:0:0:
192,192,133802,1,0,0:0:0:0:
320,192,133802,1,0,0:0:0:0:
448,192,133802,1,0,0:0:0:0:
64,192,133874,1,0,0:0:0:0:
192,192,133945,1,0,0:0:0:0:
320,192,133945,1,0,0:0:0:0:
448,192,134016,1,0,0:0:0:0:
64,192,134088,1,0,0:0:0:0:
192,192,134088,1,0,0:0:0:0:
320,192,134159,1,0,0:0:0:0:
448,192,134231,1,0,0:0:0:0:
64,192,134231,1,0,0:0:0:0:
320,192,134302,1,0,0:0:0:0:
192,192,134374,1,0,0:0:0:0:
64,192,134374,1,0,0:0:0:0:
448,192,134374,1,0,0:0:0:0:
320,192,134445,1,0,0:0:0:0:
64,192,134516,1,0,0:0:0:0:
448,192,134516,1,0,0:0:0:0:
192,192,134588,1,0,0:0:0:0:
320,192,134659,1,0,0:0:0:0:
448,192,134659,1,0,0:0:0:0:
192,192,134731,1,0,0:0:0:0:
64,192,134802,1,0,0:0:0:0:
320,192,134802,1,0,0:0:0:0:
448,192,134874,1,0,0:0:0:0:
64,192,134945,1,0,0:0:0:0:
192,192,134945,1,0,0:0:0:0:
320,192,134945,1,0,0:0:0:0:
64,192,135088,1,0,0:0:0:0:
192,192,135088,1,0,0:0:0:0:
320,192,135231,1,0,0:0:0:0:
448,192,135231,1,0,0:0:0:0:
192,192,135231,1,0,0:0:0:0:
64,192,135302,1,0,0:0:0:0:
192,192,135374,1,0,0:0:0:0:
320,192,135445,1,0,0:0:0:0:
64,192,135516,1,0,0:0:0:0:
448,192,135516,1,0,0:0:0:0:
192,192,135516,1,0,0:0:0:0:
320,192,135588,1,0,0:0:0:0:
448,192,135659,1,0,0:0:0:0:
64,192,135659,1,0,0:0:0:0:
192,192,135731,1,0,0:0:0:0:
320,192,135802,1,0,0:0:0:0:
448,192,135802,1,0,0:0:0:0:
192,192,135874,1,0,0:0:0:0:
64,192,135945,1,0,0:0:0:0:
320,192,135945,1,0,0:0:0:0:
448,192,136016,1,0,0:0:0:0:
64,192,136088,1,0,0:0:0:0:
192,192,136088,1,0,0:0:0:0:
320,192,136088,1,0,0:0:0:0:
448,192,136159,1,0,0:0:0:0:
320,192,136231,1,0,0:0:0:0:
192,192,136231,1,0,0:0:0:0:
64,192,136302,1,0,0:0:0:0:
192,192,136374,1,0,0:0:0:0:
320,192,136374,1,0,0:0:0:0:
448,192,136445,1,0,0:0:0:0:
64,192,136516,1,0,0:0:0:0:
192,192,136516,1,0,0:0:0:0:
320,192,136588,1,0,0:0:0:0:
448,192,136659,1,0,0:0:0:0:
192,192,136659,1,0,0:0:0:0:
64,192,136659,1,0,0:0:0:0:
320,192,136731,1,0,0:0:0:0:
192,192,136802,1,0,0:0:0:0:
448,192,136802,1,0,0:0:0:0:
64,192,136874,1,0,0:0:0:0:
320,192,136945,1,0,0:0:0:0:
448,192,136945,1,0,0:0:0:0:
64,192,137016,1,0,0:0:0:0:
192,192,137016,1,0,0:0:0:0:
320,192,137088,1,0,0:0:0:0:
448,192,137088,1,0,0:0:0:0:
64,192,137159,1,0,0:0:0:0:
192,192,137159,1,0,0:0:0:0:
320,192,137231,1,0,0:0:0:0:
448,192,137231,1,0,0:0:0:0:
320,192,137374,1,0,0:0:0:0:
448,192,137374,1,0,0:0:0:0:
64,192,137516,1,0,0:0:0:0:
192,192,137516,1,0,0:0:0:0:
448,192,137516,1,0,0:0:0:0:
192,192,137659,1,0,0:0:0:0:
320,192,137659,1,0,0:0:0:0:
64,192,137802,1,0,0:0:0:0:
448,192,137802,1,0,0:0:0:0:
192,192,137802,1,0,0:0:0:0:
64,192,137945,1,0,0:0:0:0:
192,192,137945,1,0,0:0:0:0:
64,192,138088,1,0,0:0:0:0:
192,192,138088,1,0,0:0:0:0:
64,192,138231,1,0,0:0:0:0:
192,192,138231,1,0,0:0:0:0:
192,192,138374,1,0,0:0:0:0:
320,192,138374,1,0,0:0:0:0:
448,192,138374,1,0,0:0:0:0:
320,192,138516,1,0,0:0:0:0:
448,192,138516,1,0,0:0:0:0:
320,192,138659,1,0,0:0:0:0:
448,192,138659,1,0,0:0:0:0:
320,192,138802,1,0,0:0:0:0:
448,192,138802,1,0,0:0:0:0:
64,192,138945,1,0,0:0:0:0:
192,192,138945,1,0,0:0:0:0:
448,192,138945,1,0,0:0:0:0:
192,192,139088,1,0,0:0:0:0:
320,192,139088,1,0,0:0:0:0:
192,192,139231,1,0,0:0:0:0:
320,192,139231,1,0,0:0:0:0:
192,192,139374,1,0,0:0:0:0:
320,192,139374,1,0,0:0:0:0:
64,192,139516,1,0,0:0:0:0:
320,192,139516,1,0,0:0:0:0:
448,192,139516,1,0,0:0:0:0:
64,192,139659,1,0,0:0:0:0:
448,192,139659,1,0,0:0:0:0:
64,192,139802,1,0,0:0:0:0:
192,192,139802,1,0,0:0:0:0:
448,192,139874,1,0,0:0:0:0:
192,192,139945,1,0,0:0:0:0:
320,192,139945,1,0,0:0:0:0:
64,192,140016,1,0,0:0:0:0:
320,192,140088,1,0,0:0:0:0:
448,192,140088,1,0,0:0:0:0:
192,192,140088,1,0,0:0:0:0:
64,192,140231,1,0,0:0:0:0:
320,192,140231,1,0,0:0:0:0:
192,192,140374,1,0,0:0:0:0:
448,192,140374,1,0,0:0:0:0:
320,192,140516,1,0,0:0:0:0:
448,192,140516,1,0,0:0:0:0:
64,192,140659,1,0,0:0:0:0:
192,192,140659,1,0,0:0:0:0:
448,192,140659,1,0,0:0:0:0:
192,192,140802,1,0,0:0:0:0:
320,192,140802,1,0,0:0:0:0:
64,192,140945,1,0,0:0:0:0:
320,192,140945,1,0,0:0:0:0:
448,192,140945,1,0,0:0:0:0:
192,192,141088,1,0,0:0:0:0:
320,192,141088,1,0,0:0:0:0:
64,192,141231,1,0,0:0:0:0:
192,192,141231,1,0,0:0:0:0:
448,192,141231,1,0,0:0:0:0:
320,192,141374,1,0,0:0:0:0:
448,192,141374,1,0,0:0:0:0:
64,192,141516,1,0,0:0:0:0:
192,192,141516,1,0,0:0:0:0:
448,192,141588,1,0,0:0:0:0:
64,192,141659,1,0,0:0:0:0:
192,192,141659,1,0,0:0:0:0:
448,192,141731,1,0,0:0:0:0:
64,192,141802,1,0,0:0:0:0:
192,192,141802,1,0,0:0:0:0:
320,192,141802,1,0,0:0:0:0:
64,192,141945,1,0,0:0:0:0:
192,192,141945,1,0,0:0:0:0:
320,192,141945,1,0,0:0:0:0:
192,192,142088,1,0,0:0:0:0:
320,192,142088,1,0,0:0:0:0:
448,192,142088,1,0,0:0:0:0:
64,192,142159,1,0,0:0:0:0:
192,192,142231,1,0,0:0:0:0:
320,192,142302,1,0,0:0:0:0:
448,192,142374,1,0,0:0:0:0:
192,192,142374,1,0,0:0:0:0:
64,192,142374,1,0,0:0:0:0:
320,192,142445,1,0,0:0:0:0:
192,192,142516,1,0,0:0:0:0:
64,192,142588,1,0,0:0:0:0:
320,192,142659,1,0,0:0:0:0:
448,192,142659,1,0,0:0:0:0:
64,192,142731,1,0,0:0:0:0:
192,192,142802,1,0,0:0:0:0:
320,192,142874,1,0,0:0:0:0:
448,192,142945,1,0,0:0:0:0:
192,192,142945,1,0,0:0:0:0:
64,192,142945,1,0,0:0:0:0:
320,192,143016,1,0,0:0:0:0:
192,192,143088,1,0,0:0:0:0:
64,192,143159,1,0,0:0:0:0:
448,192,143231,1,0,0:0:0:0:
192,192,143231,1,0,0:0:0:0:
320,192,143302,1,0,0:0:0:0:
448,192,143374,1,0,0:0:0:0:
320,192,143445,1,0,0:0:0:0:
192,192,143516,1,0,0:0:0:0:
64,192,143516,1,0,0:0:0:0:
448,192,143516,1,0,0:0:0:0:
320,192,143588,1,0,0:0:0:0:
192,192,143659,1,0,0:0:0:0:
64,192,143731,1,0,0:0:0:0:
320,192,143802,1,0,0:0:0:0:
448,192,143802,1,0,0:0:0:0:
192,192,143874,1,0,0:0:0:0:
320,192,143945,1,0,0:0:0:0:
448,192,143945,1,0,0:0:0:0:
192,192,144016,1,0,0:0:0:0:
320,192,144088,1,0,0:0:0:0:
448,192,144088,1,0,0:0:0:0:
64,192,144088,1,0,0:0:0:0:
192,192,144231,1,0,0:0:0:0:
448,192,144231,1,0,0:0:0:0:
64,192,144374,1,0,0:0:0:0:
192,192,144374,1,0,0:0:0:0:
320,192,144374,1,0,0:0:0:0:
448,192,144445,1,0,0:0:0:0:
320,192,144516,1,0,0:0:0:0:
192,192,144588,1,0,0:0:0:0:
64,192,144659,1,0,0:0:0:0:
448,192,144659,1,0,0:0:0:0:
320,192,144659,1,0,0:0:0:0:
192,192,144731,1,0,0:0:0:0:
320,192,144802,1,0,0:0:0:0:
448,192,144874,1,0,0:0:0:0:
64,192,144945,1,0,0:0:0:0:
192,192,144945,1,0,0:0:0:0:
448,192,145016,1,0,0:0:0:0:
320,192,145088,1,0,0:0:0:0:
192,192,145159,1,0,0:0:0:0:
64,192,145231,1,0,0:0:0:0:
320,192,145231,1,0,0:0:0:0:
448,192,145231,1,0,0:0:0:0:
192,192,145302,1,0,0:0:0:0:
320,192,145374,1,0,0:0:0:0:
448,192,145445,1,0,0:0:0:0:
64,192,145516,1,0,0:0:0:0:
192,192,145516,1,0,0:0:0:0:
320,192,145588,1,0,0:0:0:0:
192,192,145659,1,0,0:0:0:0:
64,192,145731,1,0,0:0:0:0:
192,192,145802,1,0,0:0:0:0:
320,192,145802,1,0,0:0:0:0:
448,192,145802,1,0,0:0:0:0:
64,192,145874,1,0,0:0:0:0:
192,192,145945,1,0,0:0:0:0:
320,192,146016,1,0,0:0:0:0:
448,192,146088,1,0,0:0:0:0:
192,192,146088,1,0,0:0:0:0:
64,192,146159,1,0,0:0:0:0:
320,192,146159,1,0,0:0:0:0:
192,192,146231,1,0,0:0:0:0:
448,192,146231,1,0,0:0:0:0:
320,192,146302,1,0,0:0:0:0:
64,192,146302,1,0,0:0:0:0:
448,192,146374,1,0,0:0:0:0:
192,192,146374,1,0,0:0:0:0:
64,192,146374,1,0,0:0:0:0:
64,192,146659,1,0,0:0:0:0:
192,192,146659,1,0,0:0:0:0:
320,192,146659,1,0,0:0:0:0:
448,192,146659,1,0,0:0:0:0:
320,192,146802,1,0,0:0:0:0:
448,192,146802,1,0,0:0:0:0:
320,192,146945,1,0,0:0:0:0:
448,192,146945,1,0,0:0:0:0:
64,192,147088,1,0,0:0:0:0:
192,192,147088,1,0,0:0:0:0:
320,192,147088,1,0,0:0:0:0:
448,192,147088,1,0,0:0:0:0:
64,192,147231,1,0,0:0:0:0:
192,192,147231,1,0,0:0:0:0:
64,192,147374,1,0,0:0:0:0:
192,192,147374,1,0,0:0:0:0:
64,192,147516,1,0,0:0:0:0:
192,192,147516,1,0,0:0:0:0:
320,192,147516,1,0,0:0:0:0:
448,192,147516,1,0,0:0:0:0:
192,192,147659,1,0,0:0:0:0:
320,192,147659,1,0,0:0:0:0:
64,192,147802,1,0,0:0:0:0:
192,192,147802,1,0,0:0:0:0:
320,192,147802,1,0,0:0:0:0:
448,192,147802,1,0,0:0:0:0:
64,192,147945,1,0,0:0:0:0:
448,192,147945,1,0,0:0:0:0:
64,192,148088,1,0,0:0:0:0:
448,192,148088,1,0,0:0:0:0:
64,192,148231,1,0,0:0:0:0:
192,192,148231,1,0,0:0:0:0:
448,192,148231,1,0,0:0:0:0:
320,192,148231,1,0,0:0:0:0:
192,192,148374,1,0,0:0:0:0:
320,192,148374,1,0,0:0:0:0:
320,192,148516,1,0,0:0:0:0:
192,192,148516,1,0,0:0:0:0:
64,192,148659,1,0,0:0:0:0:
192,192,148659,1,0,0:0:0:0:
320,192,148659,1,0,0:0:0:0:
448,192,148659,1,0,0:0:0:0:
64,192,148802,1,0,0:0:0:0:
448,192,148802,1,0,0:0:0:0:
192,192,148945,128,0,149088:0:0:0:0:
320,192,148945,1,0,0:0:0:0:
448,192,148945,1,0,0:0:0:0:
64,192,149088,128,0,149231:0:0:0:0:
320,192,149088,1,0,0:0:0:0:
192,192,149231,128,0,149374:0:0:0:0:
448,192,149231,1,0,0:0:0:0:
64,192,149374,128,0,149516:0:0:0:0:
320,192,149374,1,0,0:0:0:0:
448,192,149374,1,0,0:0:0:0:
192,192,149516,128,0,149659:0:0:0:0:
320,192,149516,1,0,0:0:0:0:
448,192,149516,1,0,0:0:0:0:
64,192,149659,128,0,149802:0:0:0:0:
320,192,149659,1,0,0:0:0:0:
192,192,149802,128,0,149945:0:0:0:0:
320,192,149802,1,0,0:0:0:0:
448,192,149802,1,0,0:0:0:0:
64,192,149945,128,0,150088:0:0:0:0:
448,192,149945,1,0,0:0:0:0:
192,192,150088,128,0,150231:0:0:0:0:
320,192,150088,1,0,0:0:0:0:
64,192,150231,128,0,150374:0:0:0:0:
320,192,150231,1,0,0:0:0:0:
448,192,150231,1,0,0:0:0:0:
192,192,150374,128,0,150516:0:0:0:0:
448,192,150374,1,0,0:0:0:0:
64,192,150516,128,0,150659:0:0:0:0:
448,192,150516,1,0,0:0:0:0:
320,192,150659,1,0,0:0:0:0:
448,192,150659,1,0,0:0:0:0:
192,192,150659,128,0,150802:0:0:0:0:
320,192,150802,1,0,0:0:0:0:
64,192,150802,128,0,150945:0:0:0:0:
320,192,150945,1,0,0:0:0:0:
448,192,150945,1,0,0:0:0:0:
192,192,150945,1,0,0:0:0:0:
64,192,151231,1,0,0:0:0:0:
192,192,151231,1,0,0:0:0:0:
320,192,151231,1,0,0:0:0:0:
192,192,151374,1,0,0:0:0:0:
320,192,151374,1,0,0:0:0:0:
448,192,151374,1,0,0:0:0:0:
64,192,151516,1,0,0:0:0:0:
448,192,151516,1,0,0:0:0:0:
64,192,151659,1,0,0:0:0:0:
192,192,151659,1,0,0:0:0:0:
448,192,151659,1,0,0:0:0:0:
64,192,151802,1,0,0:0:0:0:
192,192,151802,1,0,0:0:0:0:
320,192,151802,1,0,0:0:0:0:
320,192,151945,1,0,0:0:0:0:
448,192,151945,1,0,0:0:0:0:
64,192,152088,1,0,0:0:0:0:
192,192,152088,1,0,0:0:0:0:
320,192,152088,1,0,0:0:0:0:
64,192,152231,1,0,0:0:0:0:
448,192,152231,1,0,0:0:0:0:
192,192,152374,1,0,0:0:0:0:
320,192,152374,1,0,0:0:0:0:
448,192,152374,1,0,0:0:0:0:
192,192,152516,1,0,0:0:0:0:
320,192,152516,1,0,0:0:0:0:
64,192,152516,1,0,0:0:0:0:
64,192,152659,1,0,0:0:0:0:
192,192,152659,1,0,0:0:0:0:
320,192,152802,1,0,0:0:0:0:
448,192,152802,1,0,0:0:0:0:
64,192,152802,1,0,0:0:0:0:
448,192,152945,1,0,0:0:0:0:
192,192,152945,1,0,0:0:0:0:
320,192,153016,1,0,0:0:0:0:
192,192,153088,1,0,0:0:0:0:
448,192,153088,1,0,0:0:0:0:
320,192,153159,1,0,0:0:0:0:
192,192,153231,1,0,0:0:0:0:
448,192,153231,1,0,0:0:0:0:
320,192,153302,1,0,0:0:0:0:
192,192,153374,1,0,0:0:0:0:
448,192,153374,1,0,0:0:0:0:
320,192,153445,1,0,0:0:0:0:
64,192,153516,1,0,0:0:0:0:
192,192,153516,1,0,0:0:0:0:
448,192,153516,1,0,0:0:0:0:
64,192,153659,1,0,0:0:0:0:
320,192,153659,1,0,0:0:0:0:
448,192,153659,1,0,0:0:0:0:
192,192,153802,1,0,0:0:0:0:
320,192,153802,1,0,0:0:0:0:
64,192,153945,1,0,0:0:0:0:
192,192,153945,1,0,0:0:0:0:
448,192,153945,1,0,0:0:0:0:
64,192,154088,1,0,0:0:0:0:
192,192,154088,1,0,0:0:0:0:
320,192,154088,1,0,0:0:0:0:
320,192,154231,1,0,0:0:0:0:
448,192,154231,1,0,0:0:0:0:
64,192,154374,1,0,0:0:0:0:
448,192,154374,1,0,0:0:0:0:
320,192,154374,1,0,0:0:0:0:
64,192,154516,1,0,0:0:0:0:
192,192,154516,1,0,0:0:0:0:
192,192,154659,1,0,0:0:0:0:
320,192,154659,1,0,0:0:0:0:
448,192,154659,1,0,0:0:0:0:
64,192,154802,1,0,0:0:0:0:
192,192,154802,1,0,0:0:0:0:
448,192,154802,1,0,0:0:0:0:
320,192,154945,1,0,0:0:0:0:
448,192,154945,1,0,0:0:0:0:
192,192,155088,1,0,0:0:0:0:
320,192,155088,1,0,0:0:0:0:
64,192,155088,1,0,0:0:0:0:
64,192,155231,1,0,0:0:0:0:
448,192,155231,1,0,0:0:0:0:
192,192,155302,1,0,0:0:0:0:
448,192,155374,1,0,0:0:0:0:
64,192,155374,1,0,0:0:0:0:
192,192,155445,1,0,0:0:0:0:
64,192,155516,1,0,0:0:0:0:
448,192,155516,1,0,0:0:0:0:
192,192,155588,1,0,0:0:0:0:
448,192,155659,1,0,0:0:0:0:
64,192,155659,1,0,0:0:0:0:
192,192,155731,1,0,0:0:0:0:
320,192,155802,1,0,0:0:0:0:
64,192,155802,1,0,0:0:0:0:
448,192,155802,1,0,0:0:0:0:
64,192,155945,1,0,0:0:0:0:
192,192,155945,1,0,0:0:0:0:
320,192,155945,1,0,0:0:0:0:
448,192,156088,1,0,0:0:0:0:
192,192,156088,1,0,0:0:0:0:
320,192,156231,1,0,0:0:0:0:
64,192,156231,1,0,0:0:0:0:
192,192,156231,1,0,0:0:0:0:
64,192,156374,1,0,0:0:0:0:
320,192,156374,1,0,0:0:0:0:
448,192,156374,1,0,0:0:0:0:
192,192,156516,1,0,0:0:0:0:
320,192,156516,1,0,0:0:0:0:
64,192,156659,1,0,0:0:0:0:
448,192,156659,1,0,0:0:0:0:
192,192,156659,1,0,0:0:0:0:
320,192,156802,1,0,0:0:0:0:
448,192,156802,1,0,0:0:0:0:
64,192,156945,1,0,0:0:0:0:
192,192,156945,1,0,0:0:0:0:
320,192,156945,1,0,0:0:0:0:
448,192,157088,1,0,0:0:0:0:
192,192,157088,1,0,0:0:0:0:
64,192,157088,1,0,0:0:0:0:
320,192,157231,1,0,0:0:0:0:
192,192,157231,1,0,0:0:0:0:
448,192,157374,1,0,0:0:0:0:
64,192,157374,1,0,0:0:0:0:
320,192,157374,1,0,0:0:0:0:
64,192,157516,1,0,0:0:0:0:
192,192,157516,1,0,0:0:0:0:
320,192,157588,1,0,0:0:0:0:
448,192,157659,1,0,0:0:0:0:
192,192,157659,1,0,0:0:0:0:
64,192,157731,1,0,0:0:0:0:
320,192,157802,1,0,0:0:0:0:
448,192,157802,1,0,0:0:0:0:
192,192,157802,1,0,0:0:0:0:
64,192,157874,1,0,0:0:0:0:
192,192,157945,1,0,0:0:0:0:
448,192,157945,1,0,0:0:0:0:
320,192,158016,1,0,0:0:0:0:
64,192,158088,1,0,0:0:0:0:
448,192,158088,1,0,0:0:0:0:
192,192,158088,1,0,0:0:0:0:
64,192,158231,1,0,0:0:0:0:
320,192,158231,1,0,0:0:0:0:
448,192,158231,1,0,0:0:0:0:
64,192,158374,1,0,0:0:0:0:
192,192,158374,1,0,0:0:0:0:
320,192,158516,1,0,0:0:0:0:
448,192,158516,1,0,0:0:0:0:
192,192,158516,1,0,0:0:0:0:
64,192,158659,1,0,0:0:0:0:
192,192,158659,1,0,0:0:0:0:
320,192,158659,1,0,0:0:0:0:
448,192,158802,1,0,0:0:0:0:
64,192,158802,1,0,0:0:0:0:
64,192,158945,1,0,0:0:0:0:
192,192,158945,1,0,0:0:0:0:
448,192,158945,1,0,0:0:0:0:
320,192,159088,1,0,0:0:0:0:
192,192,159088,1,0,0:0:0:0:
64,192,159231,1,0,0:0:0:0:
448,192,159231,1,0,0:0:0:0:
192,192,159231,1,0,0:0:0:0:
64,192,159374,1,0,0:0:0:0:
320,192,159374,1,0,0:0:0:0:
448,192,159374,1,0,0:0:0:0:
64,192,159516,1,0,0:0:0:0:
192,192,159516,1,0,0:0:0:0:
320,192,159588,1,0,0:0:0:0:
448,192,159659,1,0,0:0:0:0:
64,192,159659,1,0,0:0:0:0:
320,192,159731,1,0,0:0:0:0:
64,192,159802,1,0,0:0:0:0:
192,192,159802,1,0,0:0:0:0:
320,192,159874,1,0,0:0:0:0:
448,192,159874,1,0,0:0:0:0:
64,192,159945,1,0,0:0:0:0:
192,192,159945,1,0,0:0:0:0:
320,192,160016,1,0,0:0:0:0:
448,192,160016,1,0,0:0:0:0:
64,192,160088,1,0,0:0:0:0:
192,192,160088,1,0,0:0:0:0:
320,192,160159,1,0,0:0:0:0:
448,192,160159,1,0,0:0:0:0:
64,192,160231,1,0,0:0:0:0:
192,192,160231,1,0,0:0:0:0:
320,192,160302,1,0,0:0:0:0:
448,192,160302,1,0,0:0:0:0:
64,192,160374,1,0,0:0:0:0:
192,192,160374,1,0,0:0:0:0:
320,192,161516,1,0,0:0:0:0:
448,192,161516,1,0,0:0:0:0:
320,192,161802,1,0,0:0:0:0:
448,192,161802,1,0,0:0:0:0:
192,192,162088,1,0,0:0:0:0:
64,192,162659,1,0,0:0:0:0:
192,192,162659,1,0,0:0:0:0:
64,192,163802,1,0,0:0:0:0:
192,192,163802,1,0,0:0:0:0:
64,192,164088,1,0,0:0:0:0:
192,192,164088,1,0,0:0:0:0:
320,192,164374,1,0,0:0:0:0:
64,192,164945,1,0,0:0:0:0:
192,192,164945,1,0,0:0:0:0:
448,192,164945,1,0,0:0:0:0:
320,192,166088,1,0,0:0:0:0:
448,192,166088,1,0,0:0:0:0:
320,192,166374,1,0,0:0:0:0:
448,192,166374,1,0,0:0:0:0:
64,192,166659,1,0,0:0:0:0:
64,192,167231,1,0,0:0:0:0:
192,192,167231,1,0,0:0:0:0:
64,192,168374,1,0,0:0:0:0:
192,192,168409,1,0,0:0:0:0:
448,192,168445,1,0,0:0:0:0:
320,192,168481,1,0,0:0:0:0:
64,192,168516,1,0,0:0:0:0:
192,192,168552,1,0,0:0:0:0:
448,192,168588,1,0,0:0:0:0:
320,192,168624,1,0,0:0:0:0:
64,192,168659,1,0,0:0:0:0:
192,192,168695,1,0,0:0:0:0:
448,192,168731,1,0,0:0:0:0:
320,192,168766,1,0,0:0:0:0:
64,192,168802,1,0,0:0:0:0:
192,192,168838,1,0,0:0:0:0:
448,192,168874,1,0,0:0:0:0:
320,192,168909,1,0,0:0:0:0:
64,192,168945,1,0,0:0:0:0:
192,192,168981,1,0,0:0:0:0:
320,192,169016,1,0,0:0:0:0:
448,192,169052,1,0,0:0:0:0:
64,192,169088,1,0,0:0:0:0:
192,192,169124,1,0,0:0:0:0:
320,192,169159,1,0,0:0:0:0:
448,192,169195,1,0,0:0:0:0:
64,192,169231,1,0,0:0:0:0:
192,192,169266,1,0,0:0:0:0:
320,192,169302,1,0,0:0:0:0:
448,192,169338,1,0,0:0:0:0:
64,192,169374,1,0,0:0:0:0:
192,192,169409,1,0,0:0:0:0:
320,192,169445,1,0,0:0:0:0:
448,192,169481,1,0,0:0:0:0:
64,192,169516,1,0,0:0:0:0:
192,192,169516,1,0,0:0:0:0:
192,192,169659,1,0,0:0:0:0:
320,192,169659,1,0,0:0:0:0:
320,192,169802,1,0,0:0:0:0:
448,192,169802,1,0,0:0:0:0:
64,192,169945,1,0,0:0:0:0:
448,192,169945,1,0,0:0:0:0:
192,192,170088,1,0,0:0:0:0:
320,192,170088,1,0,0:0:0:0:
64,192,170231,1,0,0:0:0:0:
320,192,170231,1,0,0:0:0:0:
192,192,170374,1,0,0:0:0:0:
448,192,170374,1,0,0:0:0:0:
320,192,170516,1,0,0:0:0:0:
448,192,170516,1,0,0:0:0:0:
64,192,170802,1,0,0:0:0:0:
320,192,170802,1,0,0:0:0:0:
64,192,170945,1,0,0:0:0:0:
448,192,170945,1,0,0:0:0:0:
192,192,171088,1,0,0:0:0:0:
448,192,171088,1,0,0:0:0:0:
320,192,171231,1,0,0:0:0:0:
192,192,171231,1,0,0:0:0:0:
64,192,171374,1,0,0:0:0:0:
192,192,171374,1,0,0:0:0:0:
320,192,171516,1,0,0:0:0:0:
448,192,171516,1,0,0:0:0:0:
64,192,171802,1,0,0:0:0:0:
448,192,171802,1,0,0:0:0:0:
192,192,171945,1,0,0:0:0:0:
320,192,171945,1,0,0:0:0:0:
64,192,172088,1,0,0:0:0:0:
320,192,172088,1,0,0:0:0:0:
192,192,172231,1,0,0:0:0:0:
448,192,172231,1,0,0:0:0:0:
192,192,172516,1,0,0:0:0:0:
320,192,172516,1,0,0:0:0:0:
64,192,172659,1,0,0:0:0:0:
320,192,172659,1,0,0:0:0:0:
64,192,172802,1,0,0:0:0:0:
448,192,172802,1,0,0:0:0:0:
320,192,173088,1,0,0:0:0:0:
448,192,173088,1,0,0:0:0:0:
64,192,173231,1,0,0:0:0:0:
192,192,173231,1,0,0:0:0:0:
192,192,173374,1,0,0:0:0:0:
320,192,173374,1,0,0:0:0:0:
64,192,173516,1,0,0:0:0:0:
448,192,173516,1,0,0:0:0:0:
192,192,173659,1,0,0:0:0:0:
320,192,173659,1,0,0:0:0:0:
320,192,173802,1,0,0:0:0:0:
448,192,173802,1,0,0:0:0:0:
64,192,174088,1,0,0:0:0:0:
448,192,174088,1,0,0:0:0:0:
320,192,174088,1,0,0:0:0:0:
192,192,174231,1,0,0:0:0:0:
320,192,174231,1,0,0:0:0:0:
64,192,174374,1,0,0:0:0:0:
192,192,174374,1,0,0:0:0:0:
448,192,174516,1,0,0:0:0:0:
320,192,174516,1,0,0:0:0:0:
448,192,174659,1,0,0:0:0:0:
192,192,174659,1,0,0:0:0:0:
64,192,174802,1,0,0:0:0:0:
448,192,174802,1,0,0:0:0:0:
64,192,174945,1,0,0:0:0:0:
192,192,174945,1,0,0:0:0:0:
64,192,175088,1,0,0:0:0:0:
320,192,175088,1,0,0:0:0:0:
448,192,175231,1,0,0:0:0:0:
64,192,175231,1,0,0:0:0:0:
192,192,175374,1,0,0:0:0:0:
448,192,175374,1,0,0:0:0:0:
64,192,175516,1,0,0:0:0:0:
192,192,175516,1,0,0:0:0:0:
448,192,175802,1,0,0:0:0:0:
192,192,175802,1,0,0:0:0:0:
320,192,175945,1,0,0:0:0:0:
64,192,175945,1,0,0:0:0:0:
64,192,176088,1,0,0:0:0:0:
192,192,176088,1,0,0:0:0:0:
64,192,176374,1,0,0:0:0:0:
192,192,176374,1,0,0:0:0:0:
64,192,176516,1,0,0:0:0:0:
192,192,176516,1,0,0:0:0:0:
320,192,176659,1,0,0:0:0:0:
448,192,176659,1,0,0:0:0:0:
320,192,176802,1,0,0:0:0:0:
448,192,176802,1,0,0:0:0:0:
64,192,177088,1,0,0:0:0:0:
320,192,177088,1,0,0:0:0:0:
192,192,177231,1,0,0:0:0:0:
448,192,177231,1,0,0:0:0:0:
320,192,177374,1,0,0:0:0:0:
448,192,177374,1,0,0:0:0:0:
64,192,177659,1,0,0:0:0:0:
192,192,177659,1,0,0:0:0:0:
192,192,177802,1,0,0:0:0:0:
320,192,177802,1,0,0:0:0:0:
64,192,177945,1,0,0:0:0:0:
448,192,177945,1,0,0:0:0:0:
320,192,178088,1,0,0:0:0:0:
448,192,178088,1,0,0:0:0:0:
64,192,178231,1,0,0:0:0:0:
192,192,178231,1,0,0:0:0:0:
64,192,178374,1,0,0:0:0:0:
448,192,178374,1,0,0:0:0:0:
64,192,178659,1,0,0:0:0:0:
192,192,178659,1,0,0:0:0:0:
448,192,178659,1,0,0:0:0:0:
320,192,178731,1,0,0:0:0:0:
192,192,178802,1,0,0:0:0:0:
320,192,178874,1,0,0:0:0:0:
64,192,178945,1,0,0:0:0:0:
192,192,178945,1,0,0:0:0:0:
448,192,178945,1,0,0:0:0:0:
320,192,179016,1,0,0:0:0:0:
192,192,179088,1,0,0:0:0:0:
448,192,179159,1,0,0:0:0:0:
192,192,179231,1,0,0:0:0:0:
320,192,179302,1,0,0:0:0:0:
64,192,179374,1,0,0:0:0:0:
192,192,179445,1,0,0:0:0:0:
448,192,179516,1,0,0:0:0:0:
192,192,179588,1,0,0:0:0:0:
320,192,179659,1,0,0:0:0:0:
64,192,179731,1,0,0:0:0:0:
192,192,179802,1,0,0:0:0:0:
448,192,179874,1,0,0:0:0:0:
320,192,179945,1,0,0:0:0:0:
64,192,180016,1,0,0:0:0:0:
192,192,180088,1,0,0:0:0:0:
448,192,180159,1,0,0:0:0:0:
192,192,180231,1,0,0:0:0:0:
320,192,180302,1,0,0:0:0:0:
64,192,180374,1,0,0:0:0:0:
448,192,180445,1,0,0:0:0:0:
320,192,180516,1,0,0:0:0:0:
64,192,180588,1,0,0:0:0:0:
192,192,180659,1,0,0:0:0:0:
448,192,180731,1,0,0:0:0:0:
192,192,180802,1,0,0:0:0:0:
320,192,180874,1,0,0:0:0:0:
64,192,180945,1,0,0:0:0:0:
320,192,181016,1,0,0:0:0:0:
448,192,181088,1,0,0:0:0:0:
64,192,181159,1,0,0:0:0:0:
192,192,181231,1,0,0:0:0:0:
448,192,181302,1,0,0:0:0:0:
192,192,181374,1,0,0:0:0:0:
320,192,181445,1,0,0:0:0:0:
64,192,181516,1,0,0:0:0:0:
320,192,181588,1,0,0:0:0:0:
448,192,181659,1,0,0:0:0:0:
64,192,181731,1,0,0:0:0:0:
320,192,181802,1,0,0:0:0:0:
192,192,181874,1,0,0:0:0:0:
448,192,181945,1,0,0:0:0:0:
64,192,182016,1,0,0:0:0:0:
192,192,182088,1,0,0:0:0:0:
448,192,182159,1,0,0:0:0:0:
320,192,182231,1,0,0:0:0:0:
64,192,182302,1,0,0:0:0:0:
320,192,182374,1,0,0:0:0:0:
192,192,182445,1,0,0:0:0:0:
448,192,182516,1,0,0:0:0:0:
320,192,182588,1,0,0:0:0:0:
64,192,182659,1,0,0:0:0:0:
192,192,182695,1,0,0:0:0:0:
320,192,182731,1,0,0:0:0:0:
448,192,182766,1,0,0:0:0:0:
64,192,182802,1,0,0:0:0:0:
192,192,182838,1,0,0:0:0:0:
320,192,182874,1,0,0:0:0:0:
448,192,182909,1,0,0:0:0:0:
64,192,182945,1,0,0:0:0:0:
192,192,182981,1,0,0:0:0:0:
320,192,183016,1,0,0:0:0:0:
448,192,183052,1,0,0:0:0:0:
64,192,183088,1,0,0:0:0:0:
192,192,183124,1,0,0:0:0:0:
320,192,183159,1,0,0:0:0:0:
448,192,183195,1,0,0:0:0:0:
64,192,183231,1,0,0:0:0:0:
320,192,183231,1,0,0:0:0:0:
192,192,183231,1,0,0:0:0:0:
192,192,183374,1,0,0:0:0:0:
320,192,183374,1,0,0:0:0:0:
320,192,183516,1,0,0:0:0:0:
448,192,183516,1,0,0:0:0:0:
64,192,183516,1,0,0:0:0:0:
64,192,183659,1,0,0:0:0:0:
192,192,183659,1,0,0:0:0:0:
320,192,183802,1,0,0:0:0:0:
448,192,183802,1,0,0:0:0:0:
64,192,183945,1,0,0:0:0:0:
448,192,183945,1,0,0:0:0:0:
64,192,184088,1,0,0:0:0:0:
192,192,184088,1,0,0:0:0:0:
320,192,184088,1,0,0:0:0:0:
320,192,184231,1,0,0:0:0:0:
448,192,184231,1,0,0:0:0:0:
64,192,184374,1,0,0:0:0:0:
448,192,184374,1,0,0:0:0:0:
64,192,184516,1,0,0:0:0:0:
192,192,184516,1,0,0:0:0:0:
320,192,184659,1,0,0:0:0:0:
448,192,184659,1,0,0:0:0:0:
192,192,184659,1,0,0:0:0:0:
448,192,184802,1,0,0:0:0:0:
64,192,184945,1,0,0:0:0:0:
192,192,184945,1,0,0:0:0:0:
192,192,185088,1,0,0:0:0:0:
320,192,185088,1,0,0:0:0:0:
448,192,185231,1,0,0:0:0:0:
320,192,185231,1,0,0:0:0:0:
64,192,185231,1,0,0:0:0:0:
64,192,185374,1,0,0:0:0:0:
320,192,185516,1,0,0:0:0:0:
448,192,185516,1,0,0:0:0:0:
192,192,185659,1,0,0:0:0:0:
320,192,185659,1,0,0:0:0:0:
64,192,185802,1,0,0:0:0:0:
448,192,185802,1,0,0:0:0:0:
192,192,185802,1,0,0:0:0:0:
320,192,185945,1,0,0:0:0:0:
64,192,185945,1,0,0:0:0:0:
192,192,186088,1,0,0:0:0:0:
448,192,186088,1,0,0:0:0:0:
320,192,186231,1,0,0:0:0:0:
448,192,186231,1,0,0:0:0:0:
64,192,186374,1,0,0:0:0:0:
192,192,186374,1,0,0:0:0:0:
320,192,186374,1,0,0:0:0:0:
64,192,186516,1,0,0:0:0:0:
448,192,186516,1,0,0:0:0:0:
320,192,186659,1,0,0:0:0:0:
448,192,186659,1,0,0:0:0:0:
64,192,186802,1,0,0:0:0:0:
192,192,186802,1,0,0:0:0:0:
64,192,186945,1,0,0:0:0:0:
320,192,186945,1,0,0:0:0:0:
448,192,186945,1,0,0:0:0:0:
192,192,187088,1,0,0:0:0:0:
320,192,187088,1,0,0:0:0:0:
64,192,187231,1,0,0:0:0:0:
448,192,187231,1,0,0:0:0:0:
448,192,187374,1,0,0:0:0:0:
64,192,187516,1,0,0:0:0:0:
192,192,187516,1,0,0:0:0:0:
320,192,187516,1,0,0:0:0:0:
64,192,187659,1,0,0:0:0:0:
192,192,187659,1,0,0:0:0:0:
320,192,187802,1,0,0:0:0:0:
448,192,187802,1,0,0:0:0:0:
192,192,187802,1,0,0:0:0:0:
64,192,187945,1,0,0:0:0:0:
448,192,187945,1,0,0:0:0:0:
448,192,188088,1,0,0:0:0:0:
320,192,188088,1,0,0:0:0:0:
64,192,188088,1,0,0:0:0:0:
192,192,188231,1,0,0:0:0:0:
320,192,188231,1,0,0:0:0:0:
64,192,188374,1,0,0:0:0:0:
192,192,188374,1,0,0:0:0:0:
320,192,188516,1,0,0:0:0:0:
448,192,188516,1,0,0:0:0:0:
64,192,188659,1,0,0:0:0:0:
192,192,188659,1,0,0:0:0:0:
320,192,188659,1,0,0:0:0:0:
448,192,188802,1,0,0:0:0:0:
64,192,188802,1,0,0:0:0:0:
320,192,188945,1,0,0:0:0:0:
448,192,188945,1,0,0:0:0:0:
192,192,189088,1,0,0:0:0:0:
320,192,189088,1,0,0:0:0:0:
64,192,189231,1,0,0:0:0:0:
192,192,189231,1,0,0:0:0:0:
448,192,189231,1,0,0:0:0:0:
64,192,189374,1,0,0:0:0:0:
192,192,189516,1,0,0:0:0:0:
448,192,189516,1,0,0:0:0:0:
320,192,189659,1,0,0:0:0:0:
64,192,189659,1,0,0:0:0:0:
64,192,189802,1,0,0:0:0:0:
448,192,189802,1,0,0:0:0:0:
192,192,189802,1,0,0:0:0:0:
192,192,189945,1,0,0:0:0:0:
320,192,190088,1,0,0:0:0:0:
448,192,190088,1,0,0:0:0:0:
64,192,190231,1,0,0:0:0:0:
448,192,190231,1,0,0:0:0:0:
64,192,190374,1,0,0:0:0:0:
192,192,190374,1,0,0:0:0:0:
320,192,190374,1,0,0:0:0:0:
320,192,190516,1,0,0:0:0:0:
448,192,190516,1,0,0:0:0:0:
64,192,190659,1,0,0:0:0:0:
320,192,190802,1,0,0:0:0:0:
448,192,190802,1,0,0:0:0:0:
64,192,190945,1,0,0:0:0:0:
192,192,190945,1,0,0:0:0:0:
448,192,190945,1,0,0:0:0:0:
64,192,191088,1,0,0:0:0:0:
448,192,191088,1,0,0:0:0:0:
192,192,191231,1,0,0:0:0:0:
448,192,191374,1,0,0:0:0:0:
320,192,191374,1,0,0:0:0:0:
64,192,191516,1,0,0:0:0:0:
320,192,191516,1,0,0:0:0:0:
192,192,191516,1,0,0:0:0:0:
64,192,191659,1,0,0:0:0:0:
448,192,191659,1,0,0:0:0:0:
320,192,191802,1,0,0:0:0:0:
448,192,191802,1,0,0:0:0:0:
64,192,191945,1,0,0:0:0:0:
192,192,191945,1,0,0:0:0:0:
64,192,192088,1,0,0:0:0:0:
320,192,192088,1,0,0:0:0:0:
448,192,192088,1,0,0:0:0:0:
64,192,192374,1,0,0:0:0:0:
192,192,192374,1,0,0:0:0:0:
448,192,192374,1,0,0:0:0:0:
64,192,195802,1,0,0:0:0:0:
192,192,195802,1,0,0:0:0:0:
320,192,195874,1,0,0:0:0:0:
448,192,195945,1,0,0:0:0:0:
64,192,195945,1,0,0:0:0:0:
192,192,196016,1,0,0:0:0:0:
320,192,196088,1,0,0:0:0:0:
448,192,196088,1,0,0:0:0:0:
192,192,196159,1,0,0:0:0:0:
64,192,196231,1,0,0:0:0:0:
448,192,196231,1,0,0:0:0:0:
320,192,196302,1,0,0:0:0:0:
192,192,196374,1,0,0:0:0:0:
64,192,196374,1,0,0:0:0:0:
320,192,196445,1,0,0:0:0:0:
448,192,196516,1,0,0:0:0:0:
64,192,196516,1,0,0:0:0:0:
192,192,196588,1,0,0:0:0:0:
320,192,196659,1,0,0:0:0:0:
448,192,196659,1,0,0:0:0:0:
192,192,196731,1,0,0:0:0:0:
64,192,196802,1,0,0:0:0:0:
448,192,196802,1,0,0:0:0:0:
320,192,196874,1,0,0:0:0:0:
64,192,196945,1,0,0:0:0:0:
192,192,196945,1,0,0:0:0:0:
448,192,196945,1,0,0:0:0:0:
320,192,198088,128,0,198516:0:0:0:0:
192,192,198516,128,0,198945:0:0:0:0:
64,192,198945,128,0,199159:0:0:0:0:
320,192,199231,1,0,0:0:0:0:
448,192,199231,1,0,0:0:0:0:
64,192,199231,1,0,0:0:0:0:
192,192,200374,128,0,200802:0:0:0:0:
320,192,200802,1,0,0:0:0:0:
64,192,200945,1,0,0:0:0:0:
192,192,200945,1,0,0:0:0:0:
448,192,201016,1,0,0:0:0:0:
320,192,201088,1,0,0:0:0:0:
192,192,201159,1,0,0:0:0:0:
64,192,201231,1,0,0:0:0:0:
192,192,201266,1,0,0:0:0:0:
320,192,201302,1,0,0:0:0:0:
448,192,201338,1,0,0:0:0:0:
64,192,201374,1,0,0:0:0:0:
192,192,201409,1,0,0:0:0:0:
320,192,201445,1,0,0:0:0:0:
448,192,201481,1,0,0:0:0:0:
64,192,201516,1,0,0:0:0:0:
192,192,201516,1,0,0:0:0:0:
320,192,201516,1,0,0:0:0:0:
448,192,201588,1,0,0:0:0:0:
320,192,201659,1,0,0:0:0:0:
192,192,201731,1,0,0:0:0:0:
64,192,201802,1,0,0:0:0:0:
320,192,201802,1,0,0:0:0:0:
448,192,201802,1,0,0:0:0:0:
192,192,201874,1,0,0:0:0:0:
64,192,201945,1,0,0:0:0:0:
320,192,201945,1,0,0:0:0:0:
192,192,202016,1,0,0:0:0:0:
64,192,202088,1,0,0:0:0:0:
320,192,202088,1,0,0:0:0:0:
448,192,202159,1,0,0:0:0:0:
192,192,202231,1,0,0:0:0:0:
320,192,202231,1,0,0:0:0:0:
64,192,202302,1,0,0:0:0:0:
192,192,202374,1,0,0:0:0:0:
448,192,202374,1,0,0:0:0:0:
320,192,202374,1,0,0:0:0:0:
64,192,202445,1,0,0:0:0:0:
192,192,202516,1,0,0:0:0:0:
448,192,202516,1,0,0:0:0:0:
320,192,202588,1,0,0:0:0:0:
192,192,202659,1,0,0:0:0:0:
448,192,202659,1,0,0:0:0:0:
320,192,202731,1,0,0:0:0:0:
192,192,202802,1,0,0:0:0:0:
448,192,202802,1,0,0:0:0:0:
64,192,202874,1,0,0:0:0:0:
192,192,202945,1,0,0:0:0:0:
320,192,202945,1,0,0:0:0:0:
448,192,202945,1,0,0:0:0:0:
64,192,203016,1,0,0:0:0:0:
192,192,203088,1,0,0:0:0:0:
320,192,203088,1,0,0:0:0:0:
448,192,203159,1,0,0:0:0:0:
64,192,203231,1,0,0:0:0:0:
192,192,203231,1,0,0:0:0:0:
320,192,203302,1,0,0:0:0:0:
448,192,203302,1,0,0:0:0:0:
64,192,203374,1,0,0:0:0:0:
192,192,203374,1,0,0:0:0:0:
320,192,203445,1,0,0:0:0:0:
448,192,203445,1,0,0:0:0:0:
448,192,203516,1,0,0:0:0:0:
192,192,203516,1,0,0:0:0:0:
64,192,203516,1,0,0:0:0:0:
192,192,203659,1,0,0:0:0:0:
320,192,203659,1,0,0:0:0:0:
64,192,203802,128,0,203945:0:0:0:0:
448,192,203802,128,0,203945:0:0:0:0:
192,192,203945,128,0,204088:0:0:0:0:
320,192,203945,128,0,204088:0:0:0:0:
64,192,204088,128,0,204231:0:0:0:0:
448,192,204088,128,0,204231:0:0:0:0:
192,192,204231,128,0,204516:0:0:0:0:
320,192,204231,128,0,204374:0:0:0:0:
448,192,204374,128,0,204516:0:0:0:0:
320,192,204516,128,0,204659:0:0:0:0:
64,192,204516,128,0,204659:0:0:0:0:
192,192,204659,128,0,204802:0:0:0:0:
448,192,204659,128,0,204802:0:0:0:0:
64,192,204802,128,0,204945:0:0:0:0:
320,192,204802,128,0,205088:0:0:0:0:
448,192,204945,128,0,205088:0:0:0:0:
64,192,205088,128,0,205231:0:0:0:0:
192,192,205088,128,0,205231:0:0:0:0:
320,192,205231,128,0,205374:0:0:0:0:
448,192,205231,128,0,205374:0:0:0:0:
64,192,205374,128,0,205516:0:0:0:0:
192,192,205374,128,0,205516:0:0:0:0:
320,192,205516,1,0,0:0:0:0:
448,192,205516,1,0,0:0:0:0:
192,192,205588,1,0,0:0:0:0:
64,192,205659,1,0,0:0:0:0:
448,192,205659,1,0,0:0:0:0:
64,192,205802,1,0,0:0:0:0:
192,192,205802,1,0,0:0:0:0:
320,192,205802,1,0,0:0:0:0:
192,192,205945,1,0,0:0:0:0:
320,192,205945,1,0,0:0:0:0:
448,192,205945,1,0,0:0:0:0:
64,192,206088,1,0,0:0:0:0:
320,192,206088,1,0,0:0:0:0:
448,192,206088,1,0,0:0:0:0:
192,192,206159,1,0,0:0:0:0:
320,192,206231,1,0,0:0:0:0:
448,192,206302,1,0,0:0:0:0:
64,192,206374,1,0,0:0:0:0:
192,192,206374,1,0,0:0:0:0:
320,192,206374,1,0,0:0:0:0:
448,192,206445,1,0,0:0:0:0:
192,192,206516,1,0,0:0:0:0:
320,192,206516,1,0,0:0:0:0:
64,192,206588,1,0,0:0:0:0:
192,192,206659,1,0,0:0:0:0:
448,192,206659,1,0,0:0:0:0:
320,192,206731,1,0,0:0:0:0:
64,192,206802,1,0,0:0:0:0:
448,192,206802,1,0,0:0:0:0:
192,192,206874,1,0,0:0:0:0:
320,192,206945,1,0,0:0:0:0:
448,192,206945,1,0,0:0:0:0:
64,192,206945,1,0,0:0:0:0:
192,192,207016,1,0,0:0:0:0:
320,192,207088,1,0,0:0:0:0:
64,192,207088,1,0,0:0:0:0:
448,192,207159,1,0,0:0:0:0:
192,192,207231,1,0,0:0:0:0:
64,192,207231,1,0,0:0:0:0:
448,192,207302,1,0,0:0:0:0:
320,192,207374,1,0,0:0:0:0:
192,192,207374,1,0,0:0:0:0:
64,192,207445,1,0,0:0:0:0:
192,192,207516,1,0,0:0:0:0:
320,192,207516,1,0,0:0:0:0:
448,192,207516,1,0,0:0:0:0:
64,192,207588,1,0,0:0:0:0:
320,192,207659,1,0,0:0:0:0:
448,192,207659,1,0,0:0:0:0:
192,192,207731,1,0,0:0:0:0:
64,192,207802,1,0,0:0:0:0:
448,192,207802,1,0,0:0:0:0:
192,192,207874,1,0,0:0:0:0:
320,192,207874,1,0,0:0:0:0:
64,192,207945,1,0,0:0:0:0:
448,192,207945,1,0,0:0:0:0:
192,192,208016,1,0,0:0:0:0:
320,192,208016,1,0,0:0:0:0:
64,192,208088,1,0,0:0:0:0:
448,192,208088,1,0,0:0:0:0:
320,192,208088,1,0,0:0:0:0:
64,192,208231,1,0,0:0:0:0:
192,192,208231,1,0,0:0:0:0:
192,192,208374,1,0,0:0:0:0:
320,192,208374,1,0,0:0:0:0:
448,192,208374,1,0,0:0:0:0:
64,192,208445,1,0,0:0:0:0:
192,192,208516,1,0,0:0:0:0:
320,192,208588,1,0,0:0:0:0:
448,192,208659,1,0,0:0:0:0:
64,192,208659,1,0,0:0:0:0:
192,192,208659,1,0,0:0:0:0:
320,192,208731,1,0,0:0:0:0:
64,192,208802,1,0,0:0:0:0:
448,192,208802,1,0,0:0:0:0:
192,192,208874,1,0,0:0:0:0:
64,192,208945,1,0,0:0:0:0:
320,192,208945,1,0,0:0:0:0:
448,192,209016,1,0,0:0:0:0:
64,192,209088,1,0,0:0:0:0:
192,192,209088,1,0,0:0:0:0:
320,192,209159,1,0,0:0:0:0:
448,192,209231,1,0,0:0:0:0:
192,192,209231,1,0,0:0:0:0:
64,192,209231,1,0,0:0:0:0:
320,192,209302,1,0,0:0:0:0:
192,192,209374,1,0,0:0:0:0:
448,192,209374,1,0,0:0:0:0:
64,192,209445,1,0,0:0:0:0:
320,192,209516,1,0,0:0:0:0:
448,192,209516,1,0,0:0:0:0:
192,192,209588,1,0,0:0:0:0:
64,192,209659,1,0,0:0:0:0:
320,192,209659,1,0,0:0:0:0:
448,192,209731,1,0,0:0:0:0:
64,192,209802,1,0,0:0:0:0:
192,192,209802,1,0,0:0:0:0:
320,192,209802,1,0,0:0:0:0:
448,192,209874,1,0,0:0:0:0:
320,192,209945,1,0,0:0:0:0:
192,192,209945,1,0,0:0:0:0:
64,192,210016,1,0,0:0:0:0:
320,192,210088,1,0,0:0:0:0:
448,192,210088,1,0,0:0:0:0:
192,192,210159,1,0,0:0:0:0:
320,192,210231,1,0,0:0:0:0:
448,192,210231,1,0,0:0:0:0:
192,192,210302,1,0,0:0:0:0:
448,192,210374,1,0,0:0:0:0:
320,192,210374,1,0,0:0:0:0:
64,192,210445,1,0,0:0:0:0:
192,192,210445,1,0,0:0:0:0:
320,192,210516,1,0,0:0:0:0:
448,192,210516,1,0,0:0:0:0:
64,192,210588,1,0,0:0:0:0:
192,192,210588,1,0,0:0:0:0:
448,192,210659,128,0,210802:0:0:0:0:
320,192,210659,128,0,210945:0:0:0:0:
192,192,210802,128,0,211088:0:0:0:0:
64,192,210945,128,0,211231:0:0:0:0:
448,192,210945,128,0,211231:0:0:0:0:
320,192,211088,128,0,211374:0:0:0:0:
192,192,211231,128,0,211516:0:0:0:0:
448,192,211374,128,0,211659:0:0:0:0:
64,192,211516,128,0,211802:0:0:0:0:
320,192,211516,128,0,211945:0:0:0:0:
192,192,211659,128,0,212088:0:0:0:0:
448,192,211802,128,0,211945:0:0:0:0:
64,192,211945,128,0,212231:0:0:0:0:
320,192,212088,128,0,212374:0:0:0:0:
448,192,212088,128,0,212516:0:0:0:0:
192,192,212231,128,0,212516:0:0:0:0:
64,192,212374,128,0,212659:0:0:0:0:
320,192,212516,128,0,212874:0:0:0:0:
192,192,212659,128,0,212874:0:0:0:0:
448,192,212659,128,0,212874:0:0:0:0:
64,192,212802,128,0,212874:0:0:0:0:
192,192,212945,1,0,0:0:0:0:
320,192,212945,1,0,0:0:0:0:
448,192,212945,1,0,0:0:0:0:
64,192,213088,1,0,0:0:0:0:
192,192,213088,1,0,0:0:0:0:
320,192,213231,1,0,0:0:0:0:
448,192,213231,1,0,0:0:0:0:
64,192,213231,1,0,0:0:0:0:
192,192,213374,1,0,0:0:0:0:
320,192,213374,1,0,0:0:0:0:
448,192,213516,1,0,0:0:0:0:
192,192,213516,1,0,0:0:0:0:
320,192,213659,1,0,0:0:0:0:
448,192,213659,1,0,0:0:0:0:
64,192,213802,1,0,0:0:0:0:
192,192,213802,1,0,0:0:0:0:
320,192,213802,1,0,0:0:0:0:
64,192,213945,1,0,0:0:0:0:
448,192,213945,1,0,0:0:0:0:
192,192,214088,1,0,0:0:0:0:
320,192,214088,1,0,0:0:0:0:
64,192,214231,1,0,0:0:0:0:
192,192,214231,1,0,0:0:0:0:
64,192,214374,1,0,0:0:0:0:
320,192,214374,1,0,0:0:0:0:
448,192,214374,1,0,0:0:0:0:
320,192,214516,1,0,0:0:0:0:
448,192,214516,1,0,0:0:0:0:
448,192,214659,1,0,0:0:0:0:
64,192,214659,1,0,0:0:0:0:
192,192,214731,1,0,0:0:0:0:
448,192,214802,1,0,0:0:0:0:
64,192,214802,1,0,0:0:0:0:
192,192,214874,1,0,0:0:0:0:
64,192,214945,1,0,0:0:0:0:
448,192,214945,1,0,0:0:0:0:
320,192,214945,1,0,0:0:0:0:
64,192,215088,1,0,0:0:0:0:
320,192,215088,1,0,0:0:0:0:
192,192,215088,1,0,0:0:0:0:
192,192,215231,1,0,0:0:0:0:
320,192,215231,1,0,0:0:0:0:
448,192,215231,1,0,0:0:0:0:
64,192,215302,1,0,0:0:0:0:
192,192,215374,1,0,0:0:0:0:
320,192,215445,1,0,0:0:0:0:
448,192,215516,1,0,0:0:0:0:
192,192,215516,1,0,0:0:0:0:
64,192,215516,1,0,0:0:0:0:
320,192,215588,1,0,0:0:0:0:
192,192,215659,1,0,0:0:0:0:
448,192,215659,1,0,0:0:0:0:
64,192,215731,1,0,0:0:0:0:
320,192,215802,1,0,0:0:0:0:
448,192,215802,1,0,0:0:0:0:
64,192,215874,1,0,0:0:0:0:
192,192,215945,1,0,0:0:0:0:
320,192,215945,1,0,0:0:0:0:
448,192,216016,1,0,0:0:0:0:
64,192,216088,1,0,0:0:0:0:
192,192,216088,1,0,0:0:0:0:
320,192,216088,1,0,0:0:0:0:
448,192,216159,1,0,0:0:0:0:
64,192,216231,1,0,0:0:0:0:
192,192,216231,1,0,0:0:0:0:
320,192,216302,1,0,0:0:0:0:
448,192,216374,1,0,0:0:0:0:
64,192,216374,1,0,0:0:0:0:
320,192,216445,1,0,0:0:0:0:
192,192,216516,1,0,0:0:0:0:
64,192,216516,1,0,0:0:0:0:
320,192,216588,1,0,0:0:0:0:
448,192,216659,1,0,0:0:0:0:
192,192,216659,1,0,0:0:0:0:
64,192,216659,1,0,0:0:0:0:
320,192,216731,1,0,0:0:0:0:
192,192,216802,1,0,0:0:0:0:
448,192,216802,1,0,0:0:0:0:
64,192,216874,1,0,0:0:0:0:
320,192,216945,1,0,0:0:0:0:
448,192,216945,1,0,0:0:0:0:
64,192,217016,1,0,0:0:0:0:
192,192,217016,1,0,0:0:0:0:
320,192,217088,1,0,0:0:0:0:
448,192,217088,1,0,0:0:0:0:
64,192,217231,1,0,0:0:0:0:
192,192,217231,1,0,0:0:0:0:
320,192,217231,1,0,0:0:0:0:
192,192,217374,1,0,0:0:0:0:
448,192,217374,1,0,0:0:0:0:
64,192,217516,1,0,0:0:0:0:
320,192,217516,1,0,0:0:0:0:
448,192,217516,1,0,0:0:0:0:
192,192,217588,1,0,0:0:0:0:
320,192,217659,1,0,0:0:0:0:
448,192,217731,1,0,0:0:0:0:
192,192,217802,1,0,0:0:0:0:
320,192,217802,1,0,0:0:0:0:
64,192,217802,1,0,0:0:0:0:
448,192,217874,1,0,0:0:0:0:
320,192,217945,1,0,0:0:0:0:
192,192,218016,1,0,0:0:0:0:
64,192,218088,1,0,0:0:0:0:
320,192,218088,1,0,0:0:0:0:
448,192,218159,1,0,0:0:0:0:
320,192,218231,1,0,0:0:0:0:
192,192,218231,1,0,0:0:0:0:
64,192,218302,1,0,0:0:0:0:
320,192,218374,1,0,0:0:0:0:
448,192,218374,1,0,0:0:0:0:
192,192,218374,1,0,0:0:0:0:
64,192,218445,1,0,0:0:0:0:
192,192,218516,1,0,0:0:0:0:
448,192,218516,1,0,0:0:0:0:
320,192,218588,1,0,0:0:0:0:
448,192,218659,1,0,0:0:0:0:
192,192,218659,1,0,0:0:0:0:
64,192,218731,1,0,0:0:0:0:
320,192,218802,1,0,0:0:0:0:
192,192,218802,1,0,0:0:0:0:
448,192,218874,1,0,0:0:0:0:
64,192,218945,1,0,0:0:0:0:
192,192,218945,1,0,0:0:0:0:
320,192,218945,1,0,0:0:0:0:
448,192,219016,1,0,0:0:0:0:
64,192,219088,1,0,0:0:0:0:
320,192,219088,1,0,0:0:0:0:
192,192,219159,1,0,0:0:0:0:
64,192,219231,1,0,0:0:0:0:
448,192,219231,1,0,0:0:0:0:
320,192,219302,1,0,0:0:0:0:
192,192,219302,1,0,0:0:0:0:
448,192,219374,1,0,0:0:0:0:
64,192,219374,1,0,0:0:0:0:
192,192,219516,1,0,0:0:0:0:
320,192,219516,1,0,0:0:0:0:
448,192,219516,1,0,0:0:0:0:
64,192,219659,1,0,0:0:0:0:
192,192,219659,1,0,0:0:0:0:
320,192,219659,1,0,0:0:0:0:
448,192,219802,128,0,220945:0:0:0:0:
320,192,219802,128,0,219874:0:0:0:0:
64,192,219802,128,0,219874:0:0:0:0:
192,192,219874,128,0,219945:0:0:0:0:
320,192,219945,128,0,220016:0:0:0:0:
192,192,220016,128,0,220088:0:0:0:0:
64,192,220088,128,0,220159:0:0:0:0:
320,192,220159,128,0,220231:0:0:0:0:
192,192,220231,128,0,220302:0:0:0:0:
64,192,220302,128,0,220374:0:0:0:0:
192,192,220374,128,0,220445:0:0:0:0:
320,192,220445,128,0,220516:0:0:0:0:
64,192,220516,128,0,220588:0:0:0:0:
192,192,220588,128,0,220659:0:0:0:0:
64,192,220659,128,0,220731:0:0:0:0:
320,192,220731,128,0,220802:0:0:0:0:
192,192,220802,128,0,220874:0:0:0:0:
64,192,220874,128,0,220945:0:0:0:0:
320,192,220945,128,0,222088:0:0:0:0:
192,192,220945,128,0,221016:0:0:0:0:
64,192,221016,128,0,221088:0:0:0:0:
448,192,221088,128,0,221159:0:0:0:0:
192,192,221159,128,0,221231:0:0:0:0:
64,192,221231,128,0,221302:0:0:0:0:
448,192,221302,128,0,221374:0:0:0:0:
192,192,221374,128,0,221445:0:0:0:0:
64,192,221445,128,0,221516:0:0:0:0:
192,192,221516,128,0,221588:0:0:0:0:
64,192,221588,128,0,221659:0:0:0:0:
448,192,221659,128,0,221731:0:0:0:0:
192,192,221731,128,0,221802:0:0:0:0:
64,192,221802,128,0,221874:0:0:0:0:
448,192,221874,128,0,221945:0:0:0:0:
192,192,221945,128,0,222016:0:0:0:0:
448,192,222016,128,0,222088:0:0:0:0:
64,192,222088,128,0,223231:0:0:0:0:
192,192,222088,128,0,222159:0:0:0:0:
320,192,222159,128,0,222231:0:0:0:0:
448,192,222231,128,0,222302:0:0:0:0:
320,192,222302,128,0,222374:0:0:0:0:
448,192,222374,128,0,222445:0:0:0:0:
320,192,222445,128,0,222516:0:0:0:0:
192,192,222516,128,0,222588:0:0:0:0:
320,192,222588,128,0,222659:0:0:0:0:
448,192,222659,128,0,222731:0:0:0:0:
192,192,222731,128,0,222802:0:0:0:0:
320,192,222802,128,0,222874:0:0:0:0:
448,192,222874,128,0,222945:0:0:0:0:
192,192,222945,128,0,223016:0:0:0:0:
448,192,223016,128,0,223088:0:0:0:0:
320,192,223088,128,0,223159:0:0:0:0:
192,192,223159,128,0,223231:0:0:0:0:
448,192,223231,128,0,224374:0:0:0:0:
320,192,223231,128,0,223302:0:0:0:0:
192,192,223302,128,0,223374:0:0:0:0:
64,192,223374,128,0,223445:0:0:0:0:
320,192,223445,128,0,223516:0:0:0:0:
64,192,223516,128,0,223588:0:0:0:0:
192,192,223588,128,0,223659:0:0:0:0:
64,192,223659,128,0,223731:0:0:0:0:
320,192,223731,128,0,223802:0:0:0:0:
192,192,223802,128,0,223874:0:0:0:0:
64,192,223874,128,0,223945:0:0:0:0:
192,192,223945,128,0,224016:0:0:0:0:
320,192,224016,128,0,224088:0:0:0:0:
192,192,224088,1,0,0:0:0:0:
64,192,224088,1,0,0:0:0:0:
320,192,224231,1,0,0:0:0:0:
192,192,224231,1,0,0:0:0:0:
64,192,224374,1,0,0:0:0:0:
192,192,224374,1,0,0:0:0:0:
320,192,224374,1,0,0:0:0:0:
192,192,224516,1,0,0:0:0:0:
320,192,224516,1,0,0:0:0:0:
64,192,224659,1,0,0:0:0:0:
320,192,224659,1,0,0:0:0:0:
448,192,224659,1,0,0:0:0:0:
192,192,224802,1,0,0:0:0:0:
320,192,224802,1,0,0:0:0:0:
64,192,224945,1,0,0:0:0:0:
448,192,224945,1,0,0:0:0:0:
192,192,224945,1,0,0:0:0:0:
192,192,225088,1,0,0:0:0:0:
320,192,225088,1,0,0:0:0:0:
64,192,225231,1,0,0:0:0:0:
448,192,225231,1,0,0:0:0:0:
320,192,225231,1,0,0:0:0:0:
192,192,225374,1,0,0:0:0:0:
320,192,225374,1,0,0:0:0:0:
320,192,225516,1,0,0:0:0:0:
448,192,225516,1,0,0:0:0:0:
192,192,225516,1,0,0:0:0:0:
64,192,225659,1,0,0:0:0:0:
192,192,225659,1,0,0:0:0:0:
192,192,225802,1,0,0:0:0:0:
448,192,225802,1,0,0:0:0:0:
320,192,225802,1,0,0:0:0:0:
320,192,225945,1,0,0:0:0:0:
448,192,225945,1,0,0:0:0:0:
64,192,226088,1,0,0:0:0:0:
192,192,226088,1,0,0:0:0:0:
448,192,226088,1,0,0:0:0:0:
64,192,226231,1,0,0:0:0:0:
192,192,226231,1,0,0:0:0:0:
320,192,226374,1,0,0:0:0:0:
448,192,226374,1,0,0:0:0:0:
64,192,226374,1,0,0:0:0:0:
320,192,226516,1,0,0:0:0:0:
448,192,226516,1,0,0:0:0:0:
64,192,226659,1,0,0:0:0:0:
192,192,226659,1,0,0:0:0:0:
320,192,226659,1,0,0:0:0:0:
64,192,226802,1,0,0:0:0:0:
448,192,226802,1,0,0:0:0:0:
192,192,226945,1,0,0:0:0:0:
320,192,226945,1,0,0:0:0:0:
448,192,226945,1,0,0:0:0:0:
64,192,227088,1,0,0:0:0:0:
448,192,227088,1,0,0:0:0:0:
64,192,227231,1,0,0:0:0:0:
192,192,227231,1,0,0:0:0:0:
320,192,227231,1,0,0:0:0:0:
448,192,227374,1,0,0:0:0:0:
192,192,227374,1,0,0:0:0:0:
320,192,227516,1,0,0:0:0:0:
448,192,227516,1,0,0:0:0:0:
64,192,227516,1,0,0:0:0:0:
64,192,227659,1,0,0:0:0:0:
320,192,227659,1,0,0:0:0:0:
192,192,227802,1,0,0:0:0:0:
320,192,227802,1,0,0:0:0:0:
448,192,227802,1,0,0:0:0:0:
64,192,227945,1,0,0:0:0:0:
448,192,227945,1,0,0:0:0:0:
64,192,228088,1,0,0:0:0:0:
192,192,228088,1,0,0:0:0:0:
320,192,228088,1,0,0:0:0:0:
192,192,228231,1,0,0:0:0:0:
448,192,228231,1,0,0:0:0:0:
448,192,228374,1,0,0:0:0:0:
320,192,228374,1,0,0:0:0:0:
64,192,228374,1,0,0:0:0:0:
64,192,228516,1,0,0:0:0:0:
448,192,228516,1,0,0:0:0:0:
64,192,228659,1,0,0:0:0:0:
192,192,228659,1,0,0:0:0:0:
320,192,228659,1,0,0:0:0:0:
192,192,228802,1,0,0:0:0:0:
448,192,228802,1,0,0:0:0:0:
64,192,228945,128,0,230088:0:0:0:0:
320,192,228945,128,0,229088:0:0:0:0:
192,192,228945,128,0,229088:0:0:0:0:
448,192,229088,128,0,229231:0:0:0:0:
192,192,229231,128,0,229374:0:0:0:0:
320,192,229231,128,0,229516:0:0:0:0:
448,192,229374,128,0,229659:0:0:0:0:
192,192,229516,128,0,229659:0:0:0:0:
320,192,229659,128,0,229802:0:0:0:0:
448,192,229802,128,0,229945:0:0:0:0:
192,192,229802,128,0,230231:0:0:0:0:
320,192,229945,128,0,230231:0:0:0:0:
448,192,230088,128,0,231231:0:0:0:0:
64,192,230231,128,0,230374:0:0:0:0:
192,192,230374,128,0,230659:0:0:0:0:
320,192,230374,128,0,230516:0:0:0:0:
64,192,230516,128,0,230659:0:0:0:0:
320,192,230659,1,0,0:0:0:0:
192,192,230731,1,0,0:0:0:0:
64,192,230802,1,0,0:0:0:0:
192,192,230945,1,0,0:0:0:0:
320,192,230945,1,0,0:0:0:0:
64,192,231088,1,0,0:0:0:0:
192,192,231231,1,0,0:0:0:0:
320,192,231231,1,0,0:0:0:0:
64,192,231231,1,0,0:0:0:0:
192,192,231374,1,0,0:0:0:0:
448,192,231374,1,0,0:0:0:0:
320,192,231374,1,0,0:0:0:0:
64,192,231516,1,0,0:0:0:0:
192,192,231516,1,0,0:0:0:0:
448,192,231516,1,0,0:0:0:0:
64,192,231659,1,0,0:0:0:0:
320,192,231659,1,0,0:0:0:0:
448,192,231659,1,0,0:0:0:0:
192,192,231802,1,0,0:0:0:0:
320,192,231802,1,0,0:0:0:0:
64,192,231945,1,0,0:0:0:0:
448,192,231945,1,0,0:0:0:0:
64,192,232088,1,0,0:0:0:0:
192,192,232088,1,0,0:0:0:0:
320,192,232088,1,0,0:0:0:0:
192,192,232231,1,0,0:0:0:0:
448,192,232231,1,0,0:0:0:0:
448,192,232374,1,0,0:0:0:0:
320,192,232374,1,0,0:0:0:0:
64,192,232374,1,0,0:0:0:0:
192,192,232516,1,0,0:0:0:0:
320,192,232516,1,0,0:0:0:0:
64,192,232659,1,0,0:0:0:0:
192,192,232659,1,0,0:0:0:0:
448,192,232659,1,0,0:0:0:0:
320,192,232802,1,0,0:0:0:0:
64,192,232802,1,0,0:0:0:0:
320,192,232945,1,0,0:0:0:0:
448,192,232945,1,0,0:0:0:0:
64,192,233016,1,0,0:0:0:0:
192,192,233016,1,0,0:0:0:0:
320,192,233088,1,0,0:0:0:0:
448,192,233088,1,0,0:0:0:0:
64,192,233231,1,0,0:0:0:0:
192,192,233231,1,0,0:0:0:0:
448,192,233231,1,0,0:0:0:0:
64,192,233374,1,0,0:0:0:0:
192,192,233374,1,0,0:0:0:0:
448,192,233374,1,0,0:0:0:0:
192,192,233516,1,0,0:0:0:0:
320,192,233516,1,0,0:0:0:0:
64,192,233516,1,0,0:0:0:0:
64,192,233659,1,0,0:0:0:0:
192,192,233659,1,0,0:0:0:0:
192,192,233802,1,0,0:0:0:0:
320,192,233802,1,0,0:0:0:0:
448,192,233802,1,0,0:0:0:0:
320,192,233945,1,0,0:0:0:0:
448,192,233945,1,0,0:0:0:0:
320,192,234088,1,0,0:0:0:0:
448,192,234088,1,0,0:0:0:0:
320,192,234231,1,0,0:0:0:0:
448,192,234231,1,0,0:0:0:0:
64,192,234374,1,0,0:0:0:0:
192,192,234374,1,0,0:0:0:0:
448,192,234374,1,0,0:0:0:0:
64,192,234516,1,0,0:0:0:0:
192,192,234516,1,0,0:0:0:0:
64,192,234659,1,0,0:0:0:0:
192,192,234659,1,0,0:0:0:0:
64,192,234802,1,0,0:0:0:0:
192,192,234802,1,0,0:0:0:0:
64,192,234945,1,0,0:0:0:0:
320,192,234945,1,0,0:0:0:0:
448,192,234945,1,0,0:0:0:0:
192,192,235088,1,0,0:0:0:0:
320,192,235088,1,0,0:0:0:0:
192,192,235231,1,0,0:0:0:0:
320,192,235231,1,0,0:0:0:0:
192,192,235374,1,0,0:0:0:0:
320,192,235374,1,0,0:0:0:0:
192,192,235516,1,0,0:0:0:0:
320,192,235516,1,0,0:0:0:0:
448,192,235516,1,0,0:0:0:0:
448,192,235659,1,0,0:0:0:0:
64,192,235659,1,0,0:0:0:0:
64,192,235802,1,0,0:0:0:0:
192,192,235802,1,0,0:0:0:0:
448,192,235874,1,0,0:0:0:0:
320,192,235945,1,0,0:0:0:0:
192,192,236016,1,0,0:0:0:0:
64,192,236088,1,0,0:0:0:0:
320,192,236088,1,0,0:0:0:0:
448,192,236088,1,0,0:0:0:0:
192,192,236159,1,0,0:0:0:0:
320,192,236231,1,0,0:0:0:0:
448,192,236302,1,0,0:0:0:0:
64,192,236374,1,0,0:0:0:0:
192,192,236374,1,0,0:0:0:0:
448,192,236445,1,0,0:0:0:0:
320,192,236516,1,0,0:0:0:0:
192,192,236588,1,0,0:0:0:0:
64,192,236659,1,0,0:0:0:0:
320,192,236659,1,0,0:0:0:0:
448,192,236659,1,0,0:0:0:0:
192,192,236731,1,0,0:0:0:0:
320,192,236802,1,0,0:0:0:0:
448,192,236874,1,0,0:0:0:0:
64,192,236945,1,0,0:0:0:0:
192,192,236945,1,0,0:0:0:0:
448,192,237016,1,0,0:0:0:0:
320,192,237088,1,0,0:0:0:0:
192,192,237159,1,0,0:0:0:0:
64,192,237231,1,0,0:0:0:0:
320,192,237231,1,0,0:0:0:0:
448,192,237231,1,0,0:0:0:0:
192,192,237374,1,0,0:0:0:0:
320,192,237374,1,0,0:0:0:0:
64,192,237516,1,0,0:0:0:0:
448,192,237516,1,0,0:0:0:0:
192,192,237588,1,0,0:0:0:0:
320,192,237588,1,0,0:0:0:0:
64,192,237659,1,0,0:0:0:0:
448,192,237659,1,0,0:0:0:0:
192,192,237731,1,0,0:0:0:0:
320,192,237731,1,0,0:0:0:0:
64,192,237802,1,0,0:0:0:0:
448,192,237802,1,0,0:0:0:0:
192,192,237802,1,0,0:0:0:0:
320,192,237945,1,0,0:0:0:0:
192,192,237945,1,0,0:0:0:0:
448,192,238088,1,0,0:0:0:0:
64,192,238088,1,0,0:0:0:0:
320,192,238159,1,0,0:0:0:0:
448,192,238231,1,0,0:0:0:0:
192,192,238231,1,0,0:0:0:0:
320,192,238302,1,0,0:0:0:0:
448,192,238374,1,0,0:0:0:0:
192,192,238374,1,0,0:0:0:0:
320,192,238445,1,0,0:0:0:0:
64,192,238516,1,0,0:0:0:0:
448,192,238516,1,0,0:0:0:0:
192,192,238588,1,0,0:0:0:0:
64,192,238659,1,0,0:0:0:0:
320,192,238659,1,0,0:0:0:0:
192,192,238731,1,0,0:0:0:0:
64,192,238802,1,0,0:0:0:0:
320,192,238802,1,0,0:0:0:0:
192,192,238874,1,0,0:0:0:0:
448,192,238945,1,0,0:0:0:0:
64,192,238945,1,0,0:0:0:0:
320,192,239016,1,0,0:0:0:0:
192,192,239088,1,0,0:0:0:0:
320,192,239159,1,0,0:0:0:0:
192,192,239231,1,0,0:0:0:0:
448,192,239231,1,0,0:0:0:0:
64,192,239231,1,0,0:0:0:0:
320,192,239302,1,0,0:0:0:0:
448,192,239374,1,0,0:0:0:0:
192,192,239374,1,0,0:0:0:0:
320,192,239445,1,0,0:0:0:0:
448,192,239516,1,0,0:0:0:0:
192,192,239516,1,0,0:0:0:0:
320,192,239588,1,0,0:0:0:0:
64,192,239659,1,0,0:0:0:0:
448,192,239659,1,0,0:0:0:0:
192,192,239731,1,0,0:0:0:0:
64,192,239802,1,0,0:0:0:0:
320,192,239802,1,0,0:0:0:0:
192,192,239874,1,0,0:0:0:0:
64,192,239945,1,0,0:0:0:0:
320,192,239945,1,0,0:0:0:0:
192,192,240016,1,0,0:0:0:0:
64,192,240088,1,0,0:0:0:0:
320,192,240088,1,0,0:0:0:0:
448,192,240088,1,0,0:0:0:0:
192,192,240159,1,0,0:0:0:0:
320,192,240231,1,0,0:0:0:0:
448,192,240302,1,0,0:0:0:0:
64,192,240374,128,0,240445:0:0:0:0:
192,192,240374,128,0,240445:0:0:0:0:
320,192,240374,128,0,240445:0:0:0:0:
64,192,240516,128,0,240588:0:0:0:0:
192,192,240516,128,0,240588:0:0:0:0:
64,192,240659,128,0,240731:0:0:0:0:
192,192,240659,128,0,240731:0:0:0:0:
64,192,240802,128,0,240874:0:0:0:0:
320,192,240802,128,0,240874:0:0:0:0:
448,192,240802,128,0,240874:0:0:0:0:
320,192,240945,128,0,241016:0:0:0:0:
448,192,240945,128,0,241016:0:0:0:0:
320,192,241088,128,0,241159:0:0:0:0:
448,192,241088,128,0,241159:0:0:0:0:
64,192,241231,128,0,241302:0:0:0:0:
192,192,241231,128,0,241302:0:0:0:0:
448,192,241231,128,0,241302:0:0:0:0:
64,192,241374,128,0,241445:0:0:0:0:
448,192,241374,128,0,241445:0:0:0:0:
64,192,241516,128,0,241588:0:0:0:0:
448,192,241516,128,0,241588:0:0:0:0:
448,192,241659,128,0,241731:0:0:0:0:
192,192,241659,128,0,241731:0:0:0:0:
320,192,241659,128,0,241731:0:0:0:0:
192,192,241802,128,0,241874:0:0:0:0:
320,192,241802,128,0,241874:0:0:0:0:
192,192,241945,128,0,242016:0:0:0:0:
320,192,241945,128,0,242016:0:0:0:0:
192,192,242088,128,0,242159:0:0:0:0:
320,192,242088,128,0,242159:0:0:0:0:
64,192,242088,128,0,242159:0:0:0:0:
192,192,242231,128,0,242302:0:0:0:0:
320,192,242231,128,0,242302:0:0:0:0:
192,192,242374,128,0,242445:0:0:0:0:
320,192,242374,128,0,242445:0:0:0:0:
448,192,242374,128,0,242445:0:0:0:0:
320,192,242516,128,0,242588:0:0:0:0:
192,192,242516,128,0,242588:0:0:0:0:
64,192,242659,1,0,0:0:0:0:
320,192,242659,1,0,0:0:0:0:
448,192,242659,1,0,0:0:0:0:
64,192,242802,1,0,0:0:0:0:
192,192,242802,1,0,0:0:0:0:
320,192,242802,1,0,0:0:0:0:
192,192,242945,1,0,0:0:0:0:
448,192,242945,1,0,0:0:0:0:
64,192,243088,1,0,0:0:0:0:
320,192,243088,1,0,0:0:0:0:
448,192,243088,1,0,0:0:0:0:
64,192,243231,1,0,0:0:0:0:
192,192,243231,1,0,0:0:0:0:
320,192,243231,1,0,0:0:0:0:
448,192,243374,1,0,0:0:0:0:
320,192,243374,1,0,0:0:0:0:
64,192,243516,1,0,0:0:0:0:
192,192,243516,1,0,0:0:0:0:
320,192,243659,1,0,0:0:0:0:
448,192,243659,1,0,0:0:0:0:
64,192,243802,1,0,0:0:0:0:
448,192,243802,1,0,0:0:0:0:
192,192,243802,1,0,0:0:0:0:
192,192,243945,1,0,0:0:0:0:
320,192,243945,1,0,0:0:0:0:
448,192,243945,1,0,0:0:0:0:
64,192,244088,1,0,0:0:0:0:
320,192,244088,1,0,0:0:0:0:
448,192,244231,1,0,0:0:0:0:
192,192,244231,1,0,0:0:0:0:
64,192,244231,1,0,0:0:0:0:
320,192,244374,1,0,0:0:0:0:
448,192,244374,1,0,0:0:0:0:
64,192,244445,1,0,0:0:0:0:
192,192,244445,1,0,0:0:0:0:
320,192,244516,1,0,0:0:0:0:
448,192,244516,1,0,0:0:0:0:
64,192,244588,1,0,0:0:0:0:
192,192,244588,1,0,0:0:0:0:
320,192,244659,1,0,0:0:0:0:
448,192,244659,1,0,0:0:0:0:
64,192,244731,1,0,0:0:0:0:
192,192,244731,1,0,0:0:0:0:
320,192,244802,1,0,0:0:0:0:
448,192,244802,1,0,0:0:0:0:
64,192,244874,1,0,0:0:0:0:
192,192,244874,1,0,0:0:0:0:
64,192,244945,1,0,0:0:0:0:
320,192,244945,1,0,0:0:0:0:
448,192,244945,1,0,0:0:0:0:
64,192,245088,1,0,0:0:0:0:
192,192,245088,1,0,0:0:0:0:
448,192,245088,1,0,0:0:0:0:
320,192,245231,1,0,0:0:0:0:
192,192,245231,1,0,0:0:0:0:
64,192,245374,1,0,0:0:0:0:
448,192,245374,1,0,0:0:0:0:
320,192,245374,1,0,0:0:0:0:
64,192,245516,1,0,0:0:0:0:
192,192,245516,1,0,0:0:0:0:
448,192,245516,1,0,0:0:0:0:
64,192,245659,1,0,0:0:0:0:
320,192,245659,1,0,0:0:0:0:
192,192,245802,1,0,0:0:0:0:
448,192,245802,1,0,0:0:0:0:
320,192,245802,1,0,0:0:0:0:
64,192,245945,1,0,0:0:0:0:
192,192,245945,1,0,0:0:0:0:
320,192,246088,1,0,0:0:0:0:
448,192,246088,1,0,0:0:0:0:
64,192,246088,1,0,0:0:0:0:
64,192,246231,1,0,0:0:0:0:
192,192,246231,1,0,0:0:0:0:
320,192,246231,1,0,0:0:0:0:
448,192,246374,1,0,0:0:0:0:
192,192,246374,1,0,0:0:0:0:
320,192,246516,1,0,0:0:0:0:
448,192,246516,1,0,0:0:0:0:
64,192,246516,1,0,0:0:0:0:
64,192,246659,1,0,0:0:0:0:
320,192,246659,1,0,0:0:0:0:
192,192,246731,1,0,0:0:0:0:
64,192,246802,1,0,0:0:0:0:
320,192,246802,1,0,0:0:0:0:
192,192,246874,1,0,0:0:0:0:
64,192,246945,1,0,0:0:0:0:
320,192,246945,1,0,0:0:0:0:
192,192,247016,1,0,0:0:0:0:
320,192,247088,1,0,0:0:0:0:
64,192,247088,1,0,0:0:0:0:
192,192,247159,1,0,0:0:0:0:
64,192,247231,1,0,0:0:0:0:
320,192,247231,1,0,0:0:0:0:
448,192,247231,1,0,0:0:0:0:
64,192,247374,1,0,0:0:0:0:
192,192,247374,1,0,0:0:0:0:
448,192,247374,1,0,0:0:0:0:
320,192,247516,1,0,0:0:0:0:
448,192,247516,1,0,0:0:0:0:
64,192,247659,1,0,0:0:0:0:
192,192,247659,1,0,0:0:0:0:
320,192,247659,1,0,0:0:0:0:
192,192,247802,1,0,0:0:0:0:
320,192,247802,1,0,0:0:0:0:
448,192,247802,1,0,0:0:0:0:
64,192,247945,1,0,0:0:0:0:
192,192,247945,1,0,0:0:0:0:
448,192,248088,1,0,0:0:0:0:
64,192,248088,1,0,0:0:0:0:
320,192,248088,1,0,0:0:0:0:
448,192,248231,1,0,0:0:0:0:
192,192,248231,1,0,0:0:0:0:
64,192,248374,1,0,0:0:0:0:
192,192,248374,1,0,0:0:0:0:
320,192,248374,1,0,0:0:0:0:
64,192,248516,1,0,0:0:0:0:
320,192,248516,1,0,0:0:0:0:
448,192,248516,1,0,0:0:0:0:
192,192,248659,1,0,0:0:0:0:
320,192,248659,1,0,0:0:0:0:
64,192,248802,1,0,0:0:0:0:
192,192,248802,1,0,0:0:0:0:
448,192,248802,1,0,0:0:0:0:
448,192,248945,1,0,0:0:0:0:
192,192,248945,1,0,0:0:0:0:
320,192,249016,1,0,0:0:0:0:
448,192,249088,1,0,0:0:0:0:
192,192,249088,1,0,0:0:0:0:
320,192,249159,1,0,0:0:0:0:
448,192,249231,1,0,0:0:0:0:
192,192,249231,1,0,0:0:0:0:
320,192,249302,1,0,0:0:0:0:
448,192,249374,1,0,0:0:0:0:
192,192,249374,1,0,0:0:0:0:
320,192,249445,1,0,0:0:0:0:
192,192,249516,1,0,0:0:0:0:
64,192,249516,1,0,0:0:0:0:
448,192,249516,1,0,0:0:0:0:
64,192,249659,1,0,0:0:0:0:
192,192,249659,1,0,0:0:0:0:
320,192,249659,1,0,0:0:0:0:
448,192,249802,1,0,0:0:0:0:
320,192,249802,1,0,0:0:0:0:
64,192,249945,1,0,0:0:0:0:
448,192,249945,1,0,0:0:0:0:
192,192,249945,1,0,0:0:0:0:
64,192,250088,1,0,0:0:0:0:
320,192,250088,1,0,0:0:0:0:
192,192,250088,1,0,0:0:0:0:
448,192,250231,1,0,0:0:0:0:
192,192,250231,1,0,0:0:0:0:
320,192,250374,1,0,0:0:0:0:
64,192,250374,1,0,0:0:0:0:
448,192,250374,1,0,0:0:0:0:
64,192,250516,1,0,0:0:0:0:
192,192,250516,1,0,0:0:0:0:
448,192,250659,1,0,0:0:0:0:
320,192,250659,1,0,0:0:0:0:
192,192,250659,1,0,0:0:0:0:
64,192,250802,1,0,0:0:0:0:
192,192,250802,1,0,0:0:0:0:
320,192,250802,1,0,0:0:0:0:
448,192,250945,1,0,0:0:0:0:
64,192,250945,1,0,0:0:0:0:
192,192,251088,1,0,0:0:0:0:
320,192,251088,1,0,0:0:0:0:
64,192,251088,1,0,0:0:0:0:
448,192,251231,1,0,0:0:0:0:
320,192,251231,1,0,0:0:0:0:
64,192,251302,1,0,0:0:0:0:
192,192,251302,1,0,0:0:0:0:
448,192,251374,1,0,0:0:0:0:
320,192,251374,1,0,0:0:0:0:
64,192,251445,1,0,0:0:0:0:
192,192,251445,1,0,0:0:0:0:
320,192,251516,1,0,0:0:0:0:
448,192,251516,1,0,0:0:0:0:
192,192,251588,1,0,0:0:0:0:
64,192,251588,1,0,0:0:0:0:
320,192,251659,1,0,0:0:0:0:
448,192,251659,1,0,0:0:0:0:
64,192,251731,1,0,0:0:0:0:
192,192,251731,1,0,0:0:0:0:
64,192,251802,1,0,0:0:0:0:
192,192,251802,1,0,0:0:0:0:
320,192,251802,1,0,0:0:0:0:
448,192,251802,1,0,0:0:0:0:
320,192,251945,1,0,0:0:0:0:
64,192,252088,1,0,0:0:0:0:
192,192,252088,1,0,0:0:0:0:
320,192,252088,1,0,0:0:0:0:
448,192,252088,1,0,0:0:0:0:
64,192,252231,1,0,0:0:0:0:
64,192,252374,1,0,0:0:0:0:
192,192,252374,1,0,0:0:0:0:
320,192,252374,1,0,0:0:0:0:
448,192,252374,1,0,0:0:0:0:
320,192,252516,1,0,0:0:0:0:
64,192,252659,1,0,0:0:0:0:
192,192,252659,1,0,0:0:0:0:
320,192,252659,1,0,0:0:0:0:
448,192,252659,1,0,0:0:0:0:
192,192,252802,1,0,0:0:0:0:
64,192,252945,1,0,0:0:0:0:
192,192,252945,1,0,0:0:0:0:
320,192,252945,1,0,0:0:0:0:
448,192,252945,1,0,0:0:0:0:
448,192,253088,1,0,0:0:0:0:
64,192,253231,1,0,0:0:0:0:
192,192,253231,1,0,0:0:0:0:
320,192,253231,1,0,0:0:0:0:
448,192,253231,1,0,0:0:0:0:
64,192,253374,1,0,0:0:0:0:
64,192,253516,1,0,0:0:0:0:
192,192,253516,1,0,0:0:0:0:
320,192,253516,1,0,0:0:0:0:
448,192,253516,1,0,0:0:0:0:
320,192,253659,1,0,0:0:0:0:
64,192,253802,1,0,0:0:0:0:
192,192,253802,1,0,0:0:0:0:
320,192,253802,1,0,0:0:0:0:
448,192,253802,1,0,0:0:0:0:
192,192,253945,1,0,0:0:0:0:
64,192,254088,1,0,0:0:0:0:
192,192,254088,1,0,0:0:0:0:
320,192,254088,1,0,0:0:0:0:
448,192,254088,1,0,0:0:0:0:
448,192,254231,1,0,0:0:0:0:
64,192,254374,1,0,0:0:0:0:
192,192,254374,1,0,0:0:0:0:
320,192,254374,1,0,0:0:0:0:
448,192,254374,1,0,0:0:0:0:
320,192,254516,1,0,0:0:0:0:
64,192,254659,1,0,0:0:0:0:
192,192,254659,1,0,0:0:0:0:
320,192,254659,1,0,0:0:0:0:
448,192,254659,1,0,0:0:0:0:
64,192,254802,1,0,0:0:0:0:
64,192,254945,1,0,0:0:0:0:
192,192,254945,1,0,0:0:0:0:
320,192,254945,1,0,0:0:0:0:
448,192,254945,1,0,0:0:0:0:
320,192,255088,1,0,0:0:0:0:
64,192,255231,1,0,0:0:0:0:
192,192,255231,1,0,0:0:0:0:
320,192,255231,1,0,0:0:0:0:
448,192,255231,1,0,0:0:0:0:
192,192,255374,1,0,0:0:0:0:
64,192,255516,1,0,0:0:0:0:
192,192,255516,1,0,0:0:0:0:
320,192,255516,1,0,0:0:0:0:
448,192,255516,1,0,0:0:0:0:
448,192,255659,1,0,0:0:0:0:
64,192,255802,1,0,0:0:0:0:
192,192,255802,1,0,0:0:0:0:
320,192,255802,1,0,0:0:0:0:
448,192,255802,1,0,0:0:0:0:
192,192,255945,1,0,0:0:0:0:
64,192,256088,1,0,0:0:0:0:
192,192,256088,1,0,0:0:0:0:
320,192,256088,1,0,0:0:0:0:
448,192,256088,1,0,0:0:0:0:
64,192,256231,1,0,0:0:0:0:
448,192,256231,1,0,0:0:0:0:
192,192,256302,1,0,0:0:0:0:
320,192,256302,1,0,0:0:0:0:
64,192,256374,1,0,0:0:0:0:
448,192,256374,1,0,0:0:0:0:
192,192,256374,1,0,0:0:0:0:
320,192,256445,1,0,0:0:0:0:
192,192,256516,1,0,0:0:0:0:
64,192,256588,1,0,0:0:0:0:
192,192,256659,1,0,0:0:0:0:
320,192,256659,1,0,0:0:0:0:
448,192,256659,1,0,0:0:0:0:
64,192,256731,1,0,0:0:0:0:
192,192,256802,1,0,0:0:0:0:
320,192,256874,1,0,0:0:0:0:
192,192,256945,1,0,0:0:0:0:
64,192,256945,1,0,0:0:0:0:
448,192,256945,1,0,0:0:0:0:
320,192,257016,1,0,0:0:0:0:
192,192,257088,1,0,0:0:0:0:
320,192,257159,1,0,0:0:0:0:
448,192,257231,1,0,0:0:0:0:
192,192,257231,1,0,0:0:0:0:
64,192,257231,1,0,0:0:0:0:
320,192,257302,1,0,0:0:0:0:
192,192,257374,1,0,0:0:0:0:
64,192,257445,1,0,0:0:0:0:
192,192,257516,1,0,0:0:0:0:
320,192,257516,1,0,0:0:0:0:
448,192,257516,1,0,0:0:0:0:
64,192,257588,1,0,0:0:0:0:
192,192,257659,1,0,0:0:0:0:
320,192,257731,1,0,0:0:0:0:
448,192,257802,1,0,0:0:0:0:
64,192,257802,1,0,0:0:0:0:
192,192,257802,1,0,0:0:0:0:
320,192,257874,1,0,0:0:0:0:
192,192,257945,1,0,0:0:0:0:
64,192,258016,1,0,0:0:0:0:
320,192,258088,1,0,0:0:0:0:
448,192,258088,1,0,0:0:0:0:
192,192,258088,1,0,0:0:0:0:
64,192,258159,1,0,0:0:0:0:
192,192,258231,1,0,0:0:0:0:
320,192,258302,1,0,0:0:0:0:
448,192,258374,1,0,0:0:0:0:
192,192,258374,1,0,0:0:0:0:
64,192,258374,1,0,0:0:0:0:
320,192,258445,1,0,0:0:0:0:
192,192,258516,1,0,0:0:0:0:
320,192,258588,1,0,0:0:0:0:
192,192,258659,1,0,0:0:0:0:
448,192,258659,1,0,0:0:0:0:
64,192,258659,1,0,0:0:0:0:
320,192,258731,1,0,0:0:0:0:
192,192,258802,1,0,0:0:0:0:
64,192,258874,1,0,0:0:0:0:
192,192,258945,1,0,0:0:0:0:
320,192,258945,1,0,0:0:0:0:
448,192,258945,1,0,0:0:0:0:
64,192,259016,1,0,0:0:0:0:
192,192,259088,1,0,0:0:0:0:
320,192,259159,1,0,0:0:0:0:
448,192,259231,1,0,0:0:0:0:
192,192,259231,1,0,0:0:0:0:
64,192,259231,1,0,0:0:0:0:
320,192,259302,1,0,0:0:0:0:
192,192,259374,1,0,0:0:0:0:
320,192,259445,1,0,0:0:0:0:
192,192,259516,1,0,0:0:0:0:
64,192,259516,1,0,0:0:0:0:
448,192,259516,1,0,0:0:0:0:
320,192,259588,1,0,0:0:0:0:
192,192,259659,1,0,0:0:0:0:
64,192,259731,1,0,0:0:0:0:
448,192,259802,1,0,0:0:0:0:
320,192,259838,1,0,0:0:0:0:
192,192,259874,1,0,0:0:0:0:
64,192,259909,1,0,0:0:0:0:
448,192,259945,1,0,0:0:0:0:
320,192,259981,1,0,0:0:0:0:
192,192,260016,1,0,0:0:0:0:
64,192,260052,1,0,0:0:0:0:
448,192,260088,1,0,0:0:0:0:
320,192,260124,1,0,0:0:0:0:
192,192,260159,1,0,0:0:0:0:
64,192,260195,1,0,0:0:0:0:
448,192,260231,1,0,0:0:0:0:
320,192,260266,1,0,0:0:0:0:
192,192,260302,1,0,0:0:0:0:
64,192,260338,1,0,0:0:0:0:
320,192,260374,1,0,0:0:0:0:
448,192,260374,1,0,0:0:0:0:
64,192,260445,1,0,0:0:0:0:
192,192,260445,1,0,0:0:0:0:
320,192,260516,1,0,0:0:0:0:
448,192,260516,1,0,0:0:0:0:
64,192,260588,1,0,0:0:0:0:
192,192,260588,1,0,0:0:0:0:
320,192,260659,1,0,0:0:0:0:
448,192,260659,1,0,0:0:0:0:
64,192,260731,1,0,0:0:0:0:
192,192,260731,1,0,0:0:0:0:
320,192,260802,1,0,0:0:0:0:
448,192,260802,1,0,0:0:0:0:
64,192,260874,1,0,0:0:0:0:
192,192,260874,1,0,0:0:0:0:
320,192,260945,1,0,0:0:0:0:
448,192,260945,1,0,0:0:0:0:
