osu file format v14

[General]
AudioFilename: audio.mp3
AudioLeadIn: 0
PreviewTime: 87292
Countdown: 0
SampleSet: None
StackLeniency: 0.5
Mode: 0
LetterboxInBreaks: 0
WidescreenStoryboard: 1

[Editor]
Bookmarks: 27616,30211,40589,45778,56157,66535,76914,87292,92481,102859,105535,106184,113238,121022,131400,136589,146968,157346,164157,166427,167724,178103,183292,193670,204049,211832,217022,227400,237778,248157,253346,255941,258535,268914,274103,279292,285778,296157,306535,310265,310589,310832,311076,311319,311562,311724,316914,325995,336373,346751,351941,361670
DistanceSpacing: 2.2
BeatDivisor: 4
GridSize: 4
TimelineZoom: 2.1

[Metadata]
Title:Hades: The End
TitleUnicode:Hades: The End
Artist:Yousei Teikoku
ArtistUnicode:妖精帝國
Creator:LwL
Version:Perishment
Source:
Tags:hades:the hadesthe other world symphonic gothic metal
BeatmapID:1626384
BeatmapSetID:471958

[Difficulty]
HPDrainRate:4
CircleSize:4.5
OverallDifficulty:9
ApproachRate:9.3
SliderMultiplier:2
SliderTickRate:1

[Events]
//Background and Video events
0,0,"hadesbg.jpg",0,0
//Break Periods
2,269114,272900
//Storyboard Layer 0 (Background)
//Storyboard Layer 1 (Fail)
//Storyboard Layer 2 (Pass)
//Storyboard Layer 3 (Foreground)
//Storyboard Sound Samples

[TimingPoints]
6860,324.324324324324,4,3,2,75,1,0
27454,-100,4,3,2,75,0,0
28914,-100,4,3,1,40,0,0
29238,-100,4,3,1,50,0,0
29562,-100,4,3,1,50,0,0
29724,-100,4,3,1,75,0,0
29805,-100,4,2,69,5,0,0
29887,-66.6666666666667,4,3,2,75,0,0
30049,-66.6666666666667,4,3,2,55,0,0
30211,-83.3333333333333,4,3,2,75,0,0
39941,-83.3333333333333,4,3,1,75,0,0
40589,-200,4,3,1,55,0,0
40914,-100,4,3,1,75,0,0
42211,-100,4,3,2,75,0,0
43184,-200,4,3,1,75,0,0
43508,-100,4,3,2,75,0,0
44968,-100,4,3,3,75,0,0
45292,-100,4,3,2,75,0,0
55670,-100,4,3,3,60,0,0
56157,-100,4,3,2,60,0,0
56400,-153.846153846154,4,2,69,5,0,0
56481,-100,4,3,2,75,0,0
58103,-153.846153846154,4,3,2,75,0,0
58346,-153.846153846154,4,2,69,5,0,0
58427,-153.846153846154,4,3,2,75,0,0
58670,-153.846153846154,4,2,69,5,0,0
58751,-100,4,3,2,75,0,0
58995,-153.846153846154,4,2,69,5,0,0
59076,-100,4,3,2,75,0,0
60697,-153.846153846154,4,3,2,75,0,0
60941,-153.846153846154,4,2,69,5,0,0
61022,-153.846153846154,4,3,2,75,0,0
61265,-153.846153846154,4,2,69,5,0,0
61346,-100,4,3,2,75,0,0
61589,-153.846153846154,4,2,69,5,0,0
61670,-100,4,3,2,75,0,0
63292,-153.846153846154,4,3,2,75,0,0
63535,-153.846153846154,4,2,69,5,0,0
63616,-153.846153846154,4,3,2,75,0,0
63859,-153.846153846154,4,2,69,5,0,0
63941,-100,4,3,2,75,0,0
64184,-153.846153846154,4,2,69,5,0,0
64265,-100,4,3,2,75,0,0
65887,-153.846153846154,4,3,2,75,0,0
66130,-153.846153846154,4,2,69,5,0,0
66211,-153.846153846154,4,3,2,75,0,0
66454,-153.846153846154,4,2,69,5,0,0
66535,-133.333333333333,4,3,2,75,0,0
76912,-100,4,3,2,75,0,0
88265,-100,4,3,2,75,0,0
89887,-100,4,3,2,75,0,0
91670,-100,4,2,69,5,0,0
91832,-100,4,3,2,75,0,0
92157,-100,4,3,3,45,0,0
92481,-100,4,3,2,75,0,0
97346,-100,4,3,3,45,0,0
97670,-100,4,3,2,75,0,0
99616,-200,4,3,2,75,0,0
100265,-100,4,3,3,55,0,0
102535,-100,4,3,2,75,0,0
102859,-76.9230769230769,4,3,2,75,0,1
107643,-76.9230769230769,4,3,2,40,0,1
107724,-76.9230769230769,4,3,2,75,0,1
107805,-76.9230769230769,4,3,2,40,0,1
107887,-76.9230769230769,4,3,2,75,0,1
107968,-76.9230769230769,4,3,2,40,0,1
108049,-76.9230769230769,4,3,2,75,0,1
120373,-76.9230769230769,4,3,2,75,0,0
120697,-76.9230769230769,4,3,2,45,0,0
121022,-83.3333333333333,4,3,2,75,0,1
131400,-200,4,3,1,55,0,1
131724,-100,4,3,1,75,0,0
133508,-100,4,3,2,75,0,0
147211,-153.846153846154,4,2,69,5,0,0
147292,-100,4,3,2,75,0,0
148914,-153.846153846154,4,3,2,75,0,0
149157,-153.846153846154,4,2,69,5,0,0
149238,-153.846153846154,4,3,2,75,0,0
149481,-153.846153846154,4,2,69,5,0,0
149562,-100,4,3,2,75,0,0
149805,-153.846153846154,4,2,69,5,0,0
149886,-100,4,3,2,75,0,0
151508,-153.846153846154,4,3,2,75,0,0
151751,-153.846153846154,4,2,69,5,0,0
151832,-153.846153846154,4,3,2,75,0,0
152075,-153.846153846154,4,2,69,5,0,0
152157,-100,4,3,2,75,0,0
152400,-153.846153846154,4,2,69,5,0,0
152481,-100,4,3,2,75,0,0
154103,-153.846153846154,4,3,2,75,0,0
154346,-153.846153846154,4,2,69,5,0,0
154427,-153.846153846154,4,3,2,75,0,0
154670,-153.846153846154,4,2,69,5,0,0
154751,-100,4,3,2,75,0,0
154995,-153.846153846154,4,2,69,5,0,0
155076,-100,4,3,2,75,0,0
157346,-133.333333333333,4,3,2,75,0,0
167724,-100,4,3,2,75,0,0
176968,-100,4,3,3,75,0,0
178103,-100,4,3,2,75,0,0
182481,-100,4,2,69,5,0,0
182643,-100,4,3,2,75,0,0
182968,-200,4,3,2,40,0,0
183211,-200,4,2,69,5,0,0
183292,-100,4,3,2,75,0,0
187832,-100,4,3,3,75,0,0
188481,-100,4,3,2,75,0,0
191076,-100,4,3,3,75,0,0
191724,-100,4,3,2,75,0,0
192211,-100,4,3,3,75,0,0
193022,-100,4,3,2,75,0,0
193670,-76.9230769230769,4,3,2,75,0,1
198454,-76.9230769230769,4,3,2,40,0,1
198535,-76.9230769230769,4,3,2,75,0,1
198616,-76.9230769230769,4,3,2,40,0,1
198698,-76.9230769230769,4,3,2,75,0,1
198779,-76.9230769230769,4,3,2,40,0,1
198860,-76.9230769230769,4,3,2,75,0,1
211508,-76.9230769230769,4,3,2,40,0,1
211832,-100,4,3,2,75,0,0
227400,-200,4,3,2,75,0,0
227968,-200,4,2,69,5,0,0
228049,-200,4,3,2,75,0,0
228617,-200,4,2,69,5,0,0
228697,-200,4,3,2,75,0,0
229265,-200,4,2,69,5,0,0
229346,-200,4,3,3,75,0,0
229995,-200,4,3,2,75,0,0
230563,-200,4,2,69,5,0,0
230643,-200,4,3,2,75,0,0
231211,-200,4,2,69,5,0,0
231292,-200,4,3,2,75,0,0
231697,-200,4,2,69,5,0,0
232184,-200,4,3,3,75,0,0
232589,-200,4,3,2,75,0,0
233157,-200,4,2,69,5,0,0
233238,-200,4,3,2,75,0,0
233806,-200,4,2,69,5,0,0
233887,-200,4,3,2,75,0,0
234455,-200,4,2,69,5,0,0
234535,-200,4,3,3,75,0,0
235184,-200,4,3,2,75,0,0
235752,-200,4,2,69,5,0,0
235832,-200,4,3,2,75,0,0
236400,-200,4,2,69,5,0,0
236481,-200,4,3,2,75,0,0
237778,-100,4,3,2,75,0,1
245562,-50,4,3,2,75,0,1
245968,-50,4,2,69,5,0,1
246049,-50,4,3,2,75,0,1
246130,-50,4,2,69,5,0,1
246211,-50,4,3,2,75,0,1
246616,-50,4,2,69,5,0,1
246697,-100,4,3,2,75,0,1
248157,-100,4,3,2,75,0,0
248724,-50,4,2,69,5,0,1
248805,-100,4,3,2,75,0,1
248968,-100,4,2,69,5,0,1
249049,-100,4,3,2,75,0,1
249211,-100,4,2,69,5,0,1
249292,-100,4,3,2,75,0,1
249373,-100,4,2,69,5,0,1
249454,-100,4,3,2,75,0,1
250022,-100,4,2,69,5,0,1
250103,-100,4,3,2,75,0,1
250265,-100,4,2,69,5,0,1
250346,-100,4,3,2,75,0,1
250508,-100,4,2,69,5,0,1
250589,-100,4,3,2,75,0,1
250670,-100,4,2,69,5,0,1
250751,-100,4,3,2,75,0,1
251319,-100,4,2,69,5,0,1
251400,-100,4,3,2,75,0,1
251562,-100,4,2,69,5,0,1
251643,-100,4,3,2,75,0,1
251805,-100,4,2,69,5,0,1
251886,-100,4,3,2,75,0,1
251968,-100,4,2,69,5,0,1
252049,-100,4,3,2,75,0,1
252292,-100,4,2,69,5,0,1
252373,-100,4,3,2,75,0,1
252616,-100,4,2,69,5,0,1
252697,-100,4,3,2,75,0,1
252941,-100,4,2,69,5,0,1
253022,-100,4,3,2,75,0,1
253265,-100,4,2,69,5,0,1
253346,-100,4,3,2,75,0,1
255941,-100,4,3,2,75,0,0
256751,-100,4,2,69,75,0,0
256805,-100,4,3,2,75,0,0
256968,-100,4,2,69,75,0,0
257022,-100,4,3,2,75,0,0
257184,-100,4,2,69,75,0,0
257238,-100,4,3,2,75,0,0
258535,-100,4,3,2,75,0,1
258697,-285.714285714286,4,3,2,75,0,1
261130,-66.6666666666667,4,3,2,75,0,1
261454,-100,4,3,2,75,0,1
265022,-50,4,3,2,75,0,1
265346,-100,4,3,2,75,0,1
267130,-50,4,3,2,75,0,1
268022,-50,4,2,69,75,0,1
268103,-50,4,3,2,75,0,1
268184,-50,4,2,69,75,0,1
268265,-50,4,3,2,75,0,1
268346,-50,4,2,69,75,0,1
268427,-50,4,3,2,75,0,1
268508,-50,4,2,69,75,0,1
268589,-50,4,3,2,75,0,1
268914,-100,4,3,2,75,0,0
273454,-232.558139534884,4,3,2,75,0,0
274022,-232.558139534884,4,2,69,5,0,0
274103,-100,4,3,2,75,0,0
276373,-200,4,3,2,75,0,0
276616,-200,4,2,69,75,0,0
276697,-100,4,3,2,75,0,0
278968,-66.6666666666667,4,3,2,75,0,0
279292,-100,4,3,2,75,0,0
279941,-100,4,3,2,50,0,0
280589,-100,4,3,2,75,0,0
282535,-100,4,3,2,50,0,0
283184,-100,4,3,2,75,0,0
284157,-66.6666666666667,4,3,2,75,0,0
284481,-66.6666666666667,4,2,69,5,0,0
285778,-200,4,3,2,75,0,0
286427,-200,4,3,2,50,0,0
287724,-200,4,3,2,75,0,0
289022,-200,4,3,2,50,0,0
289670,-200,4,3,2,75,0,0
291292,-200,4,3,2,50,0,0
292914,-200,4,3,2,75,0,0
294535,-200,4,3,1,75,0,0
294697,-100,4,3,2,75,0,0
296157,-76.9230769230769,4,3,2,75,0,1
300941,-76.9230769230769,4,2,69,5,0,1
301022,-76.9230769230769,4,3,2,75,0,1
301103,-76.9230769230769,4,2,69,5,0,1
301184,-76.9230769230769,4,3,2,75,0,1
301265,-76.9230769230769,4,2,69,5,0,1
301346,-76.9230769230769,4,3,2,75,0,1
305238,-76.9230769230769,4,3,3,75,0,1
306211,-76.9230769230769,4,3,2,75,0,1
324697,-76.9230769230769,4,3,2,75,0,0
325670,-76.9230769230769,4,3,2,45,0,0
325995,-83.3333333333333,4,3,2,75,0,1
336373,-83.3333333333333,4,3,2,75,0,1
346751,-83.3333333333333,4,3,2,75,0,0
351941,-294.117647058824,4,3,2,75,0,0
352103,-294.117647058824,4,3,4,70,0,0
353238,-294.117647058824,4,3,5,60,0,0
354535,-294.117647058824,4,3,4,50,0,0
355832,-294.117647058824,4,3,5,40,0,0
357130,-294.117647058824,4,3,4,30,0,0
358427,-294.117647058824,4,3,5,20,0,0
359724,-294.117647058824,4,3,4,10,0,0
361508,-294.117647058824,4,2,69,5,0,0

[Colours]
Combo1 : 0,142,210
Combo2 : 128,128,255
Combo3 : 102,0,204
Combo4 : 216,217,241

[HitObjects]
158,90,6859,6,8,L|218:86,2,50
94,226,7184,2,8,L|34:230,2,50
241,214,7508,1,0,0:0:0:0:
269,255,7670,1,0,0:0:0:0:
219,254,7832,1,0,0:0:0:0:
247,295,7995,1,0,0:0:0:0:
358,140,8157,6,8,L|361:90,2,50
222,204,8482,2,8,L|218:253,2,50
234,57,8805,1,0,0:0:0:0:
199,20,8968,1,0,0:0:0:0:
204,119,9130,1,0,0:0:0:0:
169,82,9293,1,0,0:0:0:0:
317,258,9454,6,8,L|377:262,2,50
253,122,9779,2,8,L|193:118,2,50
400,134,10103,1,0,0:0:0:0:
428,93,10265,1,0,0:0:0:0:
378,94,10427,1,0,0:0:0:0:
406,53,10589,1,0,0:0:0:0:
237,207,10751,6,8,L|234:257,2,50
373,143,11076,2,8,L|377:94,2,50
175,113,11400,5,0,0:0:0:0:
124,213,11562,1,10,0:0:0:0:
243,320,11724,1,0,0:0:0:0:
237,207,11886,1,10,0:0:0:0:
41,335,12049,6,8,L|37:395,2,50,8|8|8,0:0|0:0|0:0,0:0:0:0:
124,213,12374,2,8,L|128:153,2,50,8|8|8,0:0|0:0|0:0,0:0:0:0:
207,335,12697,1,0,0:0:0:0:
255,323,12859,1,0,0:0:0:0:
223,283,13022,1,0,0:0:0:0:
271,271,13184,1,0,0:0:0:0:
51,197,13345,6,8,L|-9:201,2,50,8|8|8,0:0|0:0|0:0,0:0:0:0:
173,115,13670,2,8,L|233:110,2,50,8|8|8,0:0|0:0|0:0,0:0:0:0:
51,33,13995,1,0,0:0:0:0:
98,16,14157,1,0,0:0:0:0:
51,104,14319,1,0,0:0:0:0:
98,87,14481,1,0,0:0:0:0:
27,269,14643,6,8,L|23:329,2,50,8|8|8,0:0|0:0|0:0,0:0:0:0:
163,204,14968,2,8,L|167:144,2,50,8|8|8,0:0|0:0|0:0,0:0:0:0:
299,269,15292,1,0,0:0:0:0:
347,257,15454,1,0,0:0:0:0:
315,217,15617,1,0,0:0:0:0:
363,205,15779,1,0,0:0:0:0:
279,49,15941,6,8,L|283:-11,2,50,8|8|8,0:0|0:0|0:0,0:0:0:0:
143,114,16266,2,8,L|139:174,2,50,8|8|8,0:0|0:0|0:0,0:0:0:0:
341,85,16589,5,0,0:0:0:0:
392,185,16751,1,10,0:0:0:0:
273,292,16913,1,0,0:0:0:0:
279,179,17076,1,10,0:0:0:0:
470,309,17238,6,8,L|466:369,2,50,8|8|8,0:0|0:0|0:0,0:0:0:0:
392,185,17562,2,8,L|396:125,2,50,8|8|8,0:0|0:0|0:0,0:0:0:0:
380,332,17887,1,0,0:0:0:0:
331,345,18049,1,0,0:0:0:0:
341,296,18211,1,0,0:0:0:0:
292,309,18373,1,0,0:0:0:0:
446,178,18535,6,8,L|506:174,2,50,8|8|8,0:0|0:0|0:0,0:0:0:0:
322,100,18859,2,8,L|262:104,2,50,8|8|8,0:0|0:0|0:0,0:0:0:0:
469,88,19184,1,0,0:0:0:0:
489,42,19346,1,0,0:0:0:0:
399,86,19508,1,0,0:0:0:0:
419,40,19670,1,0,0:0:0:0:
277,192,19832,6,8,L|273:252,2,50,8|8|8,0:0|0:0|0:0,0:0:0:0:
199,68,20156,2,8,L|203:8,2,50,8|8|8,0:0|0:0|0:0,0:0:0:0:
187,215,20481,1,0,0:0:0:0:
138,228,20643,1,0,0:0:0:0:
148,179,20805,1,0,0:0:0:0:
99,192,20967,1,0,0:0:0:0:
273,81,21130,6,8,L|333:77,2,50,8|8|8,0:0|0:0|0:0,0:0:0:0:
149,3,21454,2,8,L|89:7,2,50,8|8|8,0:0|0:0|0:0,0:0:0:0:
179,143,21778,5,0,0:0:0:0:
279,194,21940,1,10,0:0:0:0:
386,75,22102,1,0,0:0:0:0:
273,81,22265,1,10,0:0:0:0:
397,271,22427,6,8,L|401:331,2,50,8|8|8,0:0|0:0|0:0,0:0:0:0:
258,213,22751,2,8,L|254:153,2,50,8|8|8,0:0|0:0|0:0,0:0:0:0:
119,271,23076,1,0,0:0:0:0:
69,263,23238,1,0,0:0:0:0:
98,223,23400,1,0,0:0:0:0:
48,215,23562,1,0,0:0:0:0:
205,80,23724,6,8,L|265:76,2,50,8|8|8,0:0|0:0|0:0,0:0:0:0:
147,219,24048,2,8,L|87:223,2,50,8|8|8,0:0|0:0|0:0,0:0:0:0:
205,358,24373,1,0,0:0:0:0:
157,374,24535,1,0,0:0:0:0:
208,288,24697,1,0,0:0:0:0:
160,304,24859,1,0,0:0:0:0:
350,180,25022,6,8,L|354:120,2,50
211,238,25346,2,8,L|207:298,2,50,8|8|8,0:0|0:0|0:0,0:0:0:0:
72,180,25670,1,0,0:0:0:0:
22,188,25832,1,0,0:0:0:0:
51,228,25994,1,0,0:0:0:0:
1,236,26156,1,0,0:0:0:0:
158,370,26319,6,8,L|218:374,2,50,8|8|8,0:0|0:0|0:0,0:0:0:0:
100,231,26643,2,8,L|40:227,2,50,8|8|8,0:0|0:0|0:0,0:0:0:0:
335,142,26968,5,0,0:0:0:0:
167,87,27130,1,10,0:0:0:0:
305,239,27292,1,0,0:0:0:0:
267,67,27454,1,10,0:0:0:0:
300,65,28914,5,2,0:0:0:0:
300,65,29238,1,2,0:0:0:0:
300,65,29562,1,2,0:0:0:0:
260,70,29724,6,0,L|206:77,1,50
115,133,29887,6,0,L|325:168,1,150.000005722046,8|0,0:0|0:0,0:0:0:0:
110,336,30211,6,0,P|63:296|45:231,1,119.999996337891,2|0,0:0|0:0,0:0:0:0:
222,229,30535,1,0,0:0:0:0:
222,229,30616,1,0,0:0:0:0:
222,229,30697,1,8,0:0:0:0:
112,81,30859,5,0,0:0:0:0:
216,21,31022,1,8,0:0:0:0:
216,142,31184,1,0,0:0:0:0:
320,82,31347,1,8,0:0:0:0:
186,282,31508,6,0,P|211:349|255:382,1,119.999996337891,0|8,0:0|0:0,0:0:0:0:
371,251,31832,1,0,0:0:0:0:
371,251,31914,1,0,0:0:0:0:
371,251,31995,1,8,0:0:0:0:
199,83,32157,5,0,0:0:0:0:
91,236,32319,1,8,0:0:0:0:
288,145,32481,1,0,0:0:0:0:
101,129,32643,1,8,0:0:0:0:
317,281,32805,6,0,P|389:245|414:174,1,119.999996337891,0|8,0:0|0:0,0:0:0:0:
350,56,33130,1,0,0:0:0:0:
350,56,33211,1,0,0:0:0:0:
350,56,33292,1,8,0:0:0:0:
247,203,33454,5,0,0:0:0:0:
192,96,33616,1,8,0:0:0:0:
127,198,33778,1,0,0:0:0:0:
72,91,33940,1,8,0:0:0:0:
367,208,34103,6,0,P|342:277|282:317,1,119.999996337891,2|8,0:0|0:0,0:0:0:0:
129,281,34427,1,0,0:0:0:0:
129,281,34508,1,0,0:0:0:0:
129,281,34589,1,8,0:0:0:0:
342,71,34751,6,0,P|285:23|213:19,1,119.999996337891,2|8,0:0|0:0,0:0:0:0:
249,256,35076,1,0,0:0:0:0:
36,142,35238,1,8,0:0:0:0:
319,135,35400,6,0,P|370:179|386:240,1,119.999996337891,0|8,0:0|0:0,0:0:0:0:
282,375,35724,1,0,0:0:0:0:
282,375,35805,1,0,0:0:0:0:
282,375,35887,1,8,0:0:0:0:
205,211,36049,5,0,0:0:0:0:
170,325,36211,1,8,0:0:0:0:
89,238,36373,1,0,0:0:0:0:
54,352,36535,1,8,0:0:0:0:
63,122,36697,6,0,P|136:92|190:98,1,119.999996337891,0|8,0:0|0:0,0:0:0:0:
191,274,37022,1,0,0:0:0:0:
191,274,37103,1,0,0:0:0:0:
191,274,37184,1,8,0:0:0:0:
342,100,37346,5,0,0:0:0:0:
421,269,37508,1,8,0:0:0:0:
243,145,37670,1,0,0:0:0:0:
430,162,37832,1,8,0:0:0:0:
191,274,37994,6,0,P|126:226|114:151,1,119.999996337891,0|8,0:0|0:0,0:0:0:0:
174,24,38319,1,0,0:0:0:0:
174,24,38400,1,0,0:0:0:0:
174,24,38481,1,8,0:0:0:0:
288,160,38643,5,0,0:0:0:0:
343,53,38805,1,8,0:0:0:0:
409,155,38968,1,0,0:0:0:0:
464,48,39130,1,8,0:0:0:0:
413,269,39292,6,0,P|336:287|283:272,1,119.999996337891,0|8,0:0|0:0,0:0:0:0:
168,153,39616,1,0,0:0:0:0:
168,153,39697,1,0,0:0:0:0:
168,153,39778,1,8,0:0:0:0:
124,327,39941,5,8,0:0:0:0:
162,350,40022,1,8,0:0:0:0:
204,364,40103,1,8,0:0:0:0:
249,368,40184,1,8,0:0:0:0:
293,360,40265,1,8,0:0:0:0:
315,146,40427,1,0,0:0:0:0:
274,167,40508,1,0,0:0:0:0:
241,197,40589,6,0,P|216:252|216:297,1,100,2|10,0:0|0:0,0:0:0:0:
457,160,41238,1,0,0:0:0:0:
458,122,41319,1,0,0:0:0:0:
447,86,41400,1,0,0:0:0:0:
498,280,41562,1,0,0:0:0:0:
363,132,41724,1,0,0:0:0:0:
303,323,41887,1,0,0:0:0:0:
340,330,41968,1,0,0:0:0:0:
377,326,42049,1,0,0:0:0:0:
129,359,42211,5,10,0:0:0:0:
346,235,42373,1,0,0:0:0:0:
106,170,42535,1,0,0:0:0:0:
395,151,42697,2,0,B|440:192|415:238|415:238|449:285|403:331,1,200,10|0,0:0|0:0,0:0:0:0:
487,127,43184,6,0,P|461:86|396:59,1,100,2|10,0:0|0:0,0:0:0:0:
165,223,43832,1,0,0:0:0:0:
257,44,43995,1,8,0:0:0:0:
267,246,44157,1,0,0:0:0:0:
248,278,44238,1,0,0:0:0:0:
219,302,44319,1,0,0:0:0:0:
184,315,44400,1,0,0:0:0:0:
137,315,44481,5,8,0:0:0:0:
172,349,44562,1,8,0:0:0:0:
208,384,44643,1,8,0:0:0:0:
6,297,44805,5,0,0:0:0:0:
210,215,44968,1,8,0:0:0:0:
7,128,45130,1,0,0:0:0:0:
268,126,45292,2,0,B|292:154|292:154|278:176|303:185|303:185|314:239,1,100,10|0,0:0|0:0,0:0:0:0:
313,244,45535,1,0,0:0:0:0:
302,279,45616,1,0,0:0:0:0:
281,310,45697,1,0,0:0:0:0:
252,333,45778,6,0,P|186:352|130:344,1,100,2|0,0:0|0:0,0:0:0:0:
57,176,46103,2,0,P|123:157|179:165,1,100,8|0,0:0|0:0,0:0:0:0:
302,279,46427,1,0,0:0:0:0:
331,89,46589,1,0,0:0:0:0:
271,165,46751,1,8,0:0:0:0:
463,193,46914,6,0,L|457:303,1,100
455,316,47157,1,0,0:0:0:0:
454,341,47238,1,0,0:0:0:0:
256,370,47400,2,0,P|229:333|219:259,1,100,8|0,0:0|0:0,0:0:0:0:
347,129,47724,5,0,0:0:0:0:
154,87,47887,1,0,0:0:0:0:
265,187,48049,1,8,0:0:0:0:
120,155,48211,1,0,0:0:0:0:
297,315,48373,5,0,0:0:0:0:
273,321,48454,1,0,0:0:0:0:
249,328,48535,1,0,0:0:0:0:
199,134,48697,2,0,P|245:104|300:112,1,100,8|0,0:0|0:0,0:0:0:0:
430,248,49022,1,0,0:0:0:0:
481,54,49184,2,0,P|435:24|380:32,1,100,0|8,0:0|0:0,0:0:0:0:
201,257,49508,6,0,L|333:249,1,100,0|0,0:0|0:0,0:0:0:0:
95,32,49832,2,0,L|227:40,1,100,0|8,0:0|0:0,0:0:0:0:
35,339,50157,2,0,L|167:331,1,100,0|0,0:0|0:0,0:0:0:0:
109,134,50481,1,0,0:0:0:0:
199,252,50643,1,8,0:0:0:0:
181,105,50805,1,0,0:0:0:0:
322,296,50968,5,0,0:0:0:0:
330,273,51049,1,0,0:0:0:0:
340,250,51130,1,0,0:0:0:0:
123,242,51292,1,8,0:0:0:0:
239,59,51454,1,0,0:0:0:0:
231,276,51616,1,0,0:0:0:0:
130,85,51778,1,0,0:0:0:0:
222,143,51941,1,8,0:0:0:0:
30,245,52103,6,0,L|16:122,1,100,0|0,0:0|0:0,0:0:0:0:
15,120,52346,1,0,0:0:0:0:
12,95,52427,1,0,0:0:0:0:
194,13,52589,2,0,P|258:14|318:52,1,100,8|0,0:0|0:0,0:0:0:0:
172,191,52914,1,0,0:0:0:0:
322,206,53076,1,0,0:0:0:0:
210,105,53238,1,8,0:0:0:0:
360,120,53400,1,0,0:0:0:0:
194,13,53562,6,0,L|243:6,2,50
20,114,53887,2,0,L|162:128,1,100,8|0,0:0|0:0,0:0:0:0:
304,200,54211,2,0,L|162:214,1,100,0|0,0:0|0:0,0:0:0:0:
19,285,54535,2,0,L|161:299,1,100,8|0,0:0|0:0,0:0:0:0:
303,371,54859,2,0,L|96:391,1,200,0|8,0:0|0:0,0:0:0:0:
402,122,55508,5,0,0:0:0:0:
191,29,55670,1,8,0:0:0:0:
328,216,55832,1,8,0:0:0:0:
422,4,55995,1,8,0:0:0:0:
207,161,56157,6,0,B|175:207|191:258|191:258|145:263|130:296,1,150,2|0,0:0|0:0,0:0:0:0:
120,360,56481,1,0,0:0:0:0:
402,353,56805,1,0,0:0:0:0:
421,337,56886,1,0,0:0:0:0:
436,317,56967,1,0,0:0:0:0:
324,150,57130,1,8,0:0:0:0:
258,287,57292,1,0,0:0:0:0:
466,144,57454,5,0,0:0:0:0:
466,119,57535,1,0,0:0:0:0:
459,95,57616,1,0,0:0:0:0:
281,4,57778,1,8,0:0:0:0:
503,340,58103,6,0,L|392:298,1,97.4999955368044
379,255,58427,6,0,L|490:213,1,97.4999955368044,8|0,0:0|0:0,0:0:0:0:
495,134,58751,6,0,B|472:88|419:72|419:72|387:90|332:88,1,150
304,25,59076,1,0,0:0:0:0:
45,9,59400,1,0,0:0:0:0:
28,27,59481,1,0,0:0:0:0:
16,49,59562,1,0,0:0:0:0:
136,209,59724,1,8,0:0:0:0:
467,9,60049,5,0,0:0:0:0:
483,27,60130,1,0,0:0:0:0:
495,49,60211,1,0,0:0:0:0:
376,209,60373,1,8,0:0:0:0:
108,29,60697,6,0,L|90:128,1,97.4999955368044,0|0,0:0|0:0,0:0:0:0:
141,163,61022,6,0,L|159:64,1,97.4999955368044,8|0,0:0|0:0,0:0:0:0:
238,27,61346,6,0,B|285:58|300:103|300:103|323:84|379:88,1,150
433,111,61670,1,0,0:0:0:0:
318,361,61995,1,0,0:0:0:0:
291,363,62076,1,0,0:0:0:0:
266,361,62157,1,0,0:0:0:0:
222,165,62320,1,8,0:0:0:0:
366,209,62482,1,0,0:0:0:0:
120,264,62644,5,0,0:0:0:0:
100,247,62725,1,0,0:0:0:0:
88,226,62806,1,0,0:0:0:0:
144,33,62968,1,8,0:0:0:0:
467,213,63292,6,0,L|352:256,1,97.4999955368044,0|0,0:0|0:0,0:0:0:0:
322,222,63616,6,0,L|379:137,1,97.4999955368044,8|0,0:0|0:0,0:0:0:0:
341,60,63941,6,0,B|293:39|242:61|242:61|229:95|186:129,1,150
130,129,64265,1,0,0:0:0:0:
8,353,64589,1,0,0:0:0:0:
28,366,64670,1,0,0:0:0:0:
52,374,64751,1,0,0:0:0:0:
189,228,64913,1,8,0:0:0:0:
504,353,65238,5,0,0:0:0:0:
484,366,65319,1,0,0:0:0:0:
460,374,65400,1,0,0:0:0:0:
323,228,65562,1,8,0:0:0:0:
51,350,65887,6,0,L|67:250,1,97.4999955368044,2|0,0:0|0:0,0:0:0:0:
120,227,66212,6,0,L|231:268,1,97.4999955368044,10|0,0:0|0:0,0:0:0:0:
323,228,66535,5,0,0:0:0:0:
280,289,66697,1,0,0:0:0:0:
188,162,66859,2,0,L|195:60,1,75.0000028610231,8|0,0:0|0:0,0:0:0:0:
333,143,67184,1,0,0:0:0:0:
469,80,67346,2,0,L|462:-22,1,75.0000028610231,0|8,0:0|0:0,0:0:0:0:
512,228,67670,5,0,0:0:0:0:
368,348,67832,2,0,L|266:341,1,75.0000028610231,0|0,0:0|0:0,0:0:0:0:
219,118,68157,1,8,0:0:0:0:
394,182,68319,2,0,L|410:282,1,75.0000028610231
407,274,68562,1,0,0:0:0:0:
410,293,68643,1,0,0:0:0:0:
497,170,68805,1,8,0:0:0:0:
381,13,68968,6,0,L|294:21,1,75.0000028610231,0|0,0:0|0:0,0:0:0:0:
221,143,69292,1,0,0:0:0:0:
351,217,69454,2,0,L|344:306,1,75.0000028610231,8|0,0:0|0:0,0:0:0:0:
206,235,69778,1,0,0:0:0:0:
76,309,69940,2,0,L|83:398,1,75.0000028610231,0|8,0:0|0:0,0:0:0:0:
33,161,70265,5,0,0:0:0:0:
177,41,70427,2,0,L|279:48,1,75.0000028610231,0|0,0:0|0:0,0:0:0:0:
326,271,70752,1,8,0:0:0:0:
151,207,70914,2,0,L|135:107,1,75.0000028610231
136,113,71157,1,0,0:0:0:0:
133,94,71238,1,0,0:0:0:0:
367,140,71400,6,0,P|373:180|344:228,1,75.0000028610231,8|0,0:0|0:0,0:0:0:0:
265,37,71724,2,0,P|297:10|353:12,1,75.0000028610231,0|0,0:0|0:0,0:0:0:0:
456,86,72049,2,0,L|448:175,1,75.0000028610231,8|0,0:0|0:0,0:0:0:0:
306,113,72373,1,0,0:0:0:0:
171,178,72535,2,0,L|179:267,1,75.0000028610231,0|8,0:0|0:0,0:0:0:0:
56,63,72859,5,0,0:0:0:0:
193,0,73022,2,0,L|280:7,1,75.0000028610231,0|0,0:0|0:0,0:0:0:0:
280,243,73346,1,8,0:0:0:0:
156,155,73509,2,0,L|146:80,1,75.0000028610231
143,61,73751,1,0,0:0:0:0:
141,42,73832,1,0,0:0:0:0:
61,170,73995,1,8,0:0:0:0:
203,320,74157,6,0,L|297:315,1,75.0000028610231,0|0,0:0|0:0,0:0:0:0:
369,198,74481,1,0,0:0:0:0:
229,143,74643,2,0,L|236:58,1,75.0000028610231,8|0,0:0|0:0,0:0:0:0:
368,129,74968,1,0,0:0:0:0:
508,74,75130,2,0,L|501:-11,1,75.0000028610231,0|8,0:0|0:0,0:0:0:0:
494,223,75454,5,0,0:0:0:0:
313,273,75616,2,0,L|221:264,1,75.0000028610231,0|0,0:0|0:0,0:0:0:0:
289,46,75941,5,8,0:0:0:0:
407,203,76103,1,0,0:0:0:0:
424,235,76184,1,0,0:0:0:0:
429,272,76265,1,0,0:0:0:0:
422,309,76346,1,0,0:0:0:0:
402,341,76427,1,0,0:0:0:0:
373,364,76508,1,0,0:0:0:0:
319,379,76589,5,8,0:0:0:0:
284,334,76670,1,0,0:0:0:0:
248,290,76751,2,0,L|216:250,1,37.5000014305115
273,72,76914,6,0,P|325:91|360:142,1,100,2|0,0:0|0:0,0:0:0:0:
140,255,77238,1,8,0:0:0:0:
130,0,77400,2,0,P|77:-3|12:21,1,100,0|0,0:0|0:0,0:0:0:0:
233,165,77724,1,0,0:0:0:0:
3,261,77887,1,8,0:0:0:0:
155,63,78049,1,0,0:0:0:0:
116,361,78211,6,0,L|320:375,1,200,2|8,0:0|0:0,0:0:0:0:
512,143,78697,2,0,L|308:157,1,200,0|0,0:0|0:0,0:0:0:0:
398,32,79184,1,8,0:0:0:0:
398,32,79346,1,0,0:0:0:0:
104,91,79508,6,0,L|118:310,1,200,2|8,0:0|0:0,0:0:0:0:
405,378,79995,2,0,L|392:178,1,200,0|0,0:0|0:0,0:0:0:0:
218,79,80481,2,0,P|245:37|310:4,1,100,8|0,0:0|0:0,0:0:0:0:
472,176,80805,1,2,0:0:0:0:
325,211,80968,1,0,0:0:0:0:
369,67,81130,1,8,0:0:0:0:
437,361,81292,6,0,L|229:368,1,200,0|0,0:0|0:0,0:0:0:0:
329,249,81778,1,8,0:0:0:0:
190,305,81941,1,0,0:0:0:0:
155,292,82022,1,0,0:0:0:0:
126,251,82103,6,0,P|120:212|147:144,1,100,2|0,0:0|0:0,0:0:0:0:
374,195,82427,1,8,0:0:0:0:
206,0,82589,2,0,P|146:16|105:54,1,100,0|0,0:0|0:0,0:0:0:0:
360,123,82914,1,0,0:0:0:0:
168,286,83076,1,8,0:0:0:0:
253,49,83238,2,0,L|272:137,1,50
308,347,83400,6,0,L|546:356,1,200,2|8,0:0|0:0,0:0:0:0:
272,150,83887,2,0,L|34:159,1,200,0|0,0:0|0:0,0:0:0:0:
138,23,84373,1,8,0:0:0:0:
138,23,84535,1,0,0:0:0:0:
434,64,84697,6,0,L|411:276,1,200,2|8,0:0|0:0,0:0:0:0:
125,353,85184,2,0,L|146:154,1,200,0|0,0:0|0:0,0:0:0:0:
305,21,85670,2,0,P|339:55|349:143,1,100,8|0,0:0|0:0,0:0:0:0:
43,108,85995,6,0,L|244:39,1,200,2|8,0:0|0:0,0:0:0:0:
469,137,86481,2,0,L|268:206,1,200,0|8,0:0|0:0,0:0:0:0:
416,248,86968,1,0,0:0:0:0:
260,122,87130,1,0,0:0:0:0:
495,14,87292,5,2,0:0:0:0:
467,312,87454,1,0,0:0:0:0:
364,31,87778,5,0,0:0:0:0:
336,329,87940,1,0,0:0:0:0:
233,48,88265,5,8,0:0:0:0:
205,346,88427,1,8,0:0:0:0:
102,65,88751,5,0,0:0:0:0:
74,363,88913,1,8,0:0:0:0:
0,0,89238,5,8,0:0:0:0:
512,384,89562,1,8,0:0:0:0:
58,375,89887,5,2,0:0:0:0:
86,77,90049,1,0,0:0:0:0:
189,358,90373,5,0,0:0:0:0:
217,60,90535,1,0,0:0:0:0:
320,341,90860,5,8,0:0:0:0:
348,43,91022,1,8,0:0:0:0:
451,324,91346,5,8,0:0:0:0:
479,26,91508,2,0,P|422:11|371:30,1,100,8|0,0:0|0:0,0:0:0:0:
302,148,91832,1,8,0:0:0:0:
302,148,92157,5,8,0:0:0:0:
261,119,92238,1,8,0:0:0:0:
213,106,92319,1,8,0:0:0:0:
163,109,92400,1,8,0:0:0:0:
105,139,92481,6,0,P|84:228|137:348,1,200,10|0,0:0|0:0,0:0:0:0:
229,225,92968,1,0,0:0:0:0:
85,36,93130,2,0,P|128:8|199:6,1,100,10|0,0:0|0:0,0:0:0:0:
325,133,93454,1,0,0:0:0:0:
135,196,93616,2,0,P|137:261|177:308,2,100,0|0|0,0:0|0:0|0:0,0:0:0:0:
421,154,94103,5,0,0:0:0:0:
355,227,94265,1,0,0:0:0:0:
214,41,94427,2,0,P|263:35|308:54,1,100,10|0,0:0|0:0,0:0:0:0:
229,209,94751,2,0,P|179:214|134:195,1,100,0|0,0:0|0:0,0:0:0:0:
429,13,95076,6,0,P|439:61|422:108,1,100
217,95,95400,1,0,0:0:0:0:
308,54,95562,1,0,0:0:0:0:
143,278,95724,2,0,P|92:268|50:221,1,100,10|0,0:0|0:0,0:0:0:0:
116,52,96049,1,0,0:0:0:0:
231,211,96211,1,0,0:0:0:0:
292,77,96373,5,0,0:0:0:0:
256,64,96454,1,0,0:0:0:0:
219,62,96535,1,0,0:0:0:0:
158,142,96697,1,0,0:0:0:0:
169,240,96859,1,0,0:0:0:0:
356,138,97022,6,0,P|408:151|445:193,1,100,10|0,0:0|0:0,0:0:0:0:
448,218,97265,1,0,0:0:0:0:
435,266,97346,1,8,0:0:0:0:
409,308,97427,1,8,0:0:0:0:
370,339,97508,1,8,0:0:0:0:
324,357,97589,1,8,0:0:0:0:
259,358,97670,6,0,P|207:345|170:303,1,100,2|0,0:0|0:0,0:0:0:0:
208,54,97995,1,0,0:0:0:0:
389,227,98157,1,0,0:0:0:0:
86,154,98319,1,10,0:0:0:0:
86,154,98968,5,0,0:0:0:0:
93,190,99049,1,0,0:0:0:0:
114,221,99130,1,0,0:0:0:0:
352,194,99292,1,0,0:0:0:0:
210,2,99454,1,0,0:0:0:0:
244,300,99616,1,10,0:0:0:0:
244,300,100265,5,8,0:0:0:0:
268,203,100427,1,8,0:0:0:0:
171,263,100589,1,8,0:0:0:0:
300,295,100751,5,8,0:0:0:0:
222,165,100914,1,8,0:0:0:0:
181,336,101076,1,8,0:0:0:0:
288,144,101238,1,8,0:0:0:0:
401,333,101400,1,8,0:0:0:0:
171,263,101562,5,8,0:0:0:0:
150,249,101643,1,8,0:0:0:0:
133,231,101724,1,8,0:0:0:0:
120,209,101805,1,8,0:0:0:0:
112,185,101886,1,8,0:0:0:0:
110,160,101967,1,8,0:0:0:0:
114,136,102048,1,8,0:0:0:0:
123,112,102129,1,8,0:0:0:0:
137,92,102210,1,8,0:0:0:0:
155,75,102291,1,8,0:0:0:0:
177,62,102372,1,8,0:0:0:0:
201,55,102453,1,8,0:0:0:0:
251,51,102535,5,8,0:0:0:0:
263,99,102616,1,8,0:0:0:0:
288,142,102697,1,8,0:0:0:0:
325,176,102778,1,8,0:0:0:0:
369,198,102859,6,0,P|411:247|415:320,1,129.999994049073,8|8,0:0|0:0,0:0:0:0:
180,321,103184,2,0,P|138:272|134:199,1,129.999994049073,0|8,0:0|0:0,0:0:0:0:
393,84,103508,1,0,0:0:0:0:
380,54,103589,1,0,0:0:0:0:
356,31,103670,1,8,0:0:0:0:
134,103,103832,1,0,0:0:0:0:
361,309,103995,5,8,0:0:0:0:
341,335,104076,1,0,0:0:0:0:
317,356,104157,1,0,0:0:0:0:
289,373,104238,1,0,0:0:0:0:
258,383,104319,1,8,0:0:0:0:
89,170,104481,5,0,0:0:0:0:
212,130,104643,1,8,0:0:0:0:
160,384,104805,1,0,0:0:0:0:
119,261,104968,1,8,0:0:0:0:
375,313,105130,1,0,0:0:0:0:
345,327,105211,1,0,0:0:0:0:
314,335,105292,1,8,0:0:0:0:
214,54,105454,6,0,L|344:73,1,129.999994049073,2|8,0:0|0:0,0:0:0:0:
163,260,105778,1,0,0:0:0:0:
388,128,105941,1,8,0:0:0:0:
128,130,106103,1,0,0:0:0:0:
242,195,106265,1,8,0:0:0:0:
129,0,106427,1,0,0:0:0:0:
72,217,106589,6,0,P|126:264|183:277,1,129.999994049073,8|0,0:0|0:0,0:0:0:0:
352,137,106914,2,0,P|298:90|241:77,1,129.999994049073,8|0,0:0|0:0,0:0:0:0:
48,229,107238,2,0,P|102:276|159:289,1,129.999994049073,8|0,0:0|0:0,0:0:0:0:
328,149,107562,2,0,P|304:126|276:111,1,64.9999970245363,8|0,0:0|0:0,0:0:0:0:
109,173,107724,2,0,P|132:195|160:210,1,64.9999970245363,8|0,0:0|0:0,0:0:0:0:
355,20,107887,2,0,P|324:13|292:14,1,64.9999970245363,8|0,0:0|0:0,0:0:0:0:
157,288,108049,6,0,P|223:300|287:290,1,129.999994049073,10|8,0:0|0:0,0:0:0:0:
190,21,108373,1,0,0:0:0:0:
4,236,108535,1,8,0:0:0:0:
273,143,108697,1,0,0:0:0:0:
145,119,108859,1,8,0:0:0:0:
219,226,109022,1,0,0:0:0:0:
243,99,109184,1,8,0:0:0:0:
488,312,109346,6,0,P|407:341|313:344,1,129.999994049073,0|8,0:0|0:0,0:0:0:0:
145,119,109670,1,0,0:0:0:0:
450,43,109832,1,8,0:0:0:0:
224,261,109995,1,0,0:0:0:0:
261,136,110157,1,8,0:0:0:0:
324,251,110319,1,0,0:0:0:0:
199,215,110481,1,8,0:0:0:0:
450,43,110643,6,0,P|396:12|298:7,1,129.999994049073,2|8,0:0|0:0,0:0:0:0:
324,251,110968,1,0,0:0:0:0:
303,298,111049,1,0,0:0:0:0:
267,335,111130,1,8,0:0:0:0:
235,331,111211,1,0,0:0:0:0:
204,321,111292,2,0,P|176:306|147:281,1,64.9999970245363
157,161,111454,5,8,0:0:0:0:
186,118,111535,1,8,0:0:0:0:
199,67,111616,2,8,P|195:29|213:-10,1,64.9999970245363
329,15,111778,1,8,0:0:0:0:
361,53,111859,1,8,0:0:0:0:
379,115,111941,5,8,0:0:0:0:
334,162,112022,1,8,0:0:0:0:
290,210,112103,2,8,L|224:281,1,64.9999970245363
324,383,112265,5,8,0:0:0:0:
368,335,112346,1,8,0:0:0:0:
413,288,112427,2,8,L|478:217,1,64.9999970245363
264,333,112589,1,10,0:0:0:0:
0,57,112832,5,10,0:0:0:0:
433,42,113076,5,10,0:0:0:0:
454,248,113238,2,0,P|385:241|300:210,1,129.999994049073,2|8,0:0|0:0,0:0:0:0:
287,105,113562,1,0,0:0:0:0:
17,237,113724,6,0,P|39:316|89:371,1,129.999994049073,8|0,0:0|0:0,0:0:0:0:
197,370,114049,1,8,0:0:0:0:
152,61,114211,1,0,0:0:0:0:
179,43,114292,1,0,0:0:0:0:
209,33,114373,1,8,0:0:0:0:
436,246,114535,6,0,P|367:298|304:307,1,129.999994049073,0|8,0:0|0:0,0:0:0:0:
293,309,114778,1,0,0:0:0:0:
260,304,114859,1,0,0:0:0:0:
231,288,114941,1,0,0:0:0:0:
198,251,115022,2,0,L|211:104,1,129.999994049073,8|0,0:0|0:0,0:0:0:0:
115,292,115346,1,8,0:0:0:0:
321,182,115508,1,0,0:0:0:0:
302,53,115670,1,8,0:0:0:0:
475,306,115832,5,0,0:0:0:0:
344,311,115995,1,8,0:0:0:0:
455,242,116157,1,0,0:0:0:0:
209,121,116319,6,0,P|150:162|143:255,1,129.999994049073,8|0,0:0|0:0,0:0:0:0:
197,328,116643,1,8,0:0:0:0:
457,159,116805,1,0,0:0:0:0:
431,117,116886,1,0,0:0:0:0:
397,83,116967,1,8,0:0:0:0:
356,58,117048,1,0,0:0:0:0:
293,40,117129,5,0,0:0:0:0:
204,215,117292,1,8,0:0:0:0:
133,106,117454,1,0,0:0:0:0:
365,224,117616,2,0,L|346:363,1,129.999994049073,8|0,0:0|0:0,0:0:0:0:
464,195,117941,1,0,0:0:0:0:
225,253,118103,2,0,L|244:392,1,129.999994049073,0|8,0:0|0:0,0:0:0:0:
31,91,118427,6,0,P|84:35|159:11,1,129.999994049073,0|8,0:0|0:0,0:0:0:0:
164,12,118670,1,0,0:0:0:0:
195,20,118751,1,0,0:0:0:0:
224,32,118832,1,0,0:0:0:0:
264,60,118914,2,0,L|251:189,1,129.999994049073,8|0,0:0|0:0,0:0:0:0:
351,22,119238,1,8,0:0:0:0:
128,231,119400,6,0,P|163:284|220:314,1,129.999994049073,0|8,0:0|0:0,0:0:0:0:
458,93,119724,1,0,0:0:0:0:
264,60,119887,1,8,0:0:0:0:
416,186,120049,1,8,0:0:0:0:
429,232,120130,1,8,0:0:0:0:
429,281,120211,1,8,0:0:0:0:
416,328,120292,1,8,0:0:0:0:
380,381,120373,1,8,0:0:0:0:
380,381,120697,5,0,0:0:0:0:
380,381,121022,6,0,P|360:328|283:258,1,119.999996337891,10|8,0:0|0:0,0:0:0:0:
152,348,121346,1,0,0:0:0:0:
152,348,121427,1,0,0:0:0:0:
152,348,121508,1,8,0:0:0:0:
64,190,121670,5,0,0:0:0:0:
177,229,121832,1,8,0:0:0:0:
155,112,121995,1,0,0:0:0:0:
268,151,122157,1,8,0:0:0:0:
134,0,122319,6,0,P|81:25|42:98,1,119.999996337891,0|8,0:0|0:0,0:0:0:0:
194,182,122643,1,0,0:0:0:0:
194,182,122724,1,0,0:0:0:0:
194,182,122805,1,8,0:0:0:0:
393,46,122968,5,0,0:0:0:0:
426,222,123130,1,8,0:0:0:0:
279,69,123292,1,0,0:0:0:0:
447,128,123454,1,8,0:0:0:0:
180,217,123616,6,0,P|163:163|188:79,1,119.999996337891,0|8,0:0|0:0,0:0:0:0:
326,4,123941,1,0,0:0:0:0:
326,4,124022,1,0,0:0:0:0:
326,4,124103,1,8,0:0:0:0:
304,182,124265,5,0,0:0:0:0:
415,137,124427,1,8,0:0:0:0:
399,256,124589,1,0,0:0:0:0:
510,211,124751,1,8,0:0:0:0:
320,383,124914,6,0,P|261:329|255:264,1,119.999996337891,2|8,0:0|0:0,0:0:0:0:
317,124,125238,1,0,0:0:0:0:
317,124,125319,1,0,0:0:0:0:
317,124,125400,1,8,0:0:0:0:
53,1,125562,6,0,P|14:46|8:104,1,119.999996337891,2|8,0:0|0:0,0:0:0:0:
228,204,125887,1,0,0:0:0:0:
31,344,126049,1,8,0:0:0:0:
157,70,126211,6,0,P|214:73|268:110,1,119.999996337891,2|8,0:0|0:0,0:0:0:0:
152,247,126535,1,0,0:0:0:0:
152,247,126616,1,0,0:0:0:0:
152,247,126697,1,8,0:0:0:0:
331,275,126859,5,0,0:0:0:0:
252,183,127022,1,8,0:0:0:0:
372,161,127184,1,0,0:0:0:0:
293,69,127346,1,8,0:0:0:0:
501,132,127508,6,0,P|502:206|454:261,1,119.999996337891,0|8,0:0|0:0,0:0:0:0:
301,275,127832,1,0,0:0:0:0:
301,275,127914,1,0,0:0:0:0:
301,275,127995,1,8,0:0:0:0:
251,40,128157,5,0,0:0:0:0:
126,169,128319,1,8,0:0:0:0:
335,121,128481,1,0,0:0:0:0:
160,77,128643,1,8,0:0:0:0:
301,275,128805,6,0,P|272:333|196:371,1,119.999996337891,0|8,0:0|0:0,0:0:0:0:
63,287,129130,1,0,0:0:0:0:
63,287,129211,1,0,0:0:0:0:
63,287,129292,1,8,0:0:0:0:
207,164,129454,5,0,0:0:0:0:
90,137,129616,1,8,0:0:0:0:
172,50,129778,1,0,0:0:0:0:
55,23,129941,1,8,0:0:0:0:
287,15,130103,6,0,P|317:58|325:141,1,119.999996337891,0|8,0:0|0:0,0:0:0:0:
187,236,130427,1,0,0:0:0:0:
187,236,130508,1,0,0:0:0:0:
187,236,130589,1,8,0:0:0:0:
391,351,130751,5,8,0:0:0:0:
419,317,130832,1,8,0:0:0:0:
441,278,130913,1,8,0:0:0:0:
452,234,130994,1,8,0:0:0:0:
452,190,131075,1,8,0:0:0:0:
245,131,131237,1,0,0:0:0:0:
259,175,131318,1,0,0:0:0:0:
282,212,131400,6,0,P|331:246|376:253,1,100,2|10,0:0|0:0,0:0:0:0:
301,17,132049,1,0,0:0:0:0:
265,3,132130,1,0,0:0:0:0:
228,1,132211,1,8,0:0:0:0:
427,19,132373,1,0,0:0:0:0:
242,95,132535,1,0,0:0:0:0:
401,217,132698,1,8,0:0:0:0:
420,185,132779,1,0,0:0:0:0:
429,148,132860,1,0,0:0:0:0:
361,382,133022,5,0,0:0:0:0:
311,137,133184,1,0,0:0:0:0:
174,347,133346,1,0,0:0:0:0:
246,59,133508,2,0,B|299:30|334:69|334:69|390:54|417:113,1,200,10|0,0:0|0:0,0:0:0:0:
176,5,133995,5,0,0:0:0:0:
311,137,134157,1,8,0:0:0:0:
318,186,134238,1,8,0:0:0:0:
312,235,134319,1,8,0:0:0:0:
293,281,134400,1,8,0:0:0:0:
263,321,134481,1,10,0:0:0:0:
5,254,134643,5,8,0:0:0:0:
44,222,134724,1,8,0:0:0:0:
89,203,134805,1,8,0:0:0:0:
139,196,134886,1,8,0:0:0:0:
188,202,134967,1,10,0:0:0:0:
120,313,135130,1,0,0:0:0:0:
149,82,135292,1,0,0:0:0:0:
139,46,135373,1,0,0:0:0:0:
118,16,135454,1,0,0:0:0:0:
276,209,135616,5,2,0:0:0:0:
61,81,135778,1,0,0:0:0:0:
308,41,135941,1,0,0:0:0:0:
58,183,136103,1,2,0:0:0:0:
200,137,136265,1,8,0:0:0:0:
61,81,136427,1,8,0:0:0:0:
108,319,136589,6,0,P|169:335|243:323,1,100,10|0,0:0|0:0,0:0:0:0:
297,151,136914,2,0,P|236:135|162:147,1,100,8|0,0:0|0:0,0:0:0:0:
39,256,137238,1,0,0:0:0:0:
15,57,137400,1,0,0:0:0:0:
76,138,137562,1,8,0:0:0:0:
237,21,137724,6,0,L|370:24,1,100,0|0,0:0|0:0,0:0:0:0:
360,23,137968,1,0,0:0:0:0:
385,24,138049,1,0,0:0:0:0:
402,223,138211,2,0,P|339:238|267:217,1,100,8|0,0:0|0:0,0:0:0:0:
158,101,138535,5,0,0:0:0:0:
116,294,138698,1,0,0:0:0:0:
216,183,138859,1,8,0:0:0:0:
184,328,139022,1,0,0:0:0:0:
359,174,139184,5,0,0:0:0:0:
361,198,139265,1,0,0:0:0:0:
364,223,139346,1,0,0:0:0:0:
166,250,139508,1,8,0:0:0:0:
414,276,139670,1,0,0:0:0:0:
213,130,139832,1,0,0:0:0:0:
314,357,139995,1,0,0:0:0:0:
328,235,140157,1,8,0:0:0:0:
108,300,140319,6,0,L|-24:292,1,100,0|0,0:0|0:0,0:0:0:0:
214,75,140643,2,0,L|82:83,1,100,0|8,0:0|0:0,0:0:0:0:
314,357,140968,2,0,L|182:349,1,100,0|0,0:0|0:0,0:0:0:0:
192,156,141292,1,0,0:0:0:0:
154,301,141454,1,8,0:0:0:0:
116,158,141616,1,0,0:0:0:0:
13,345,141778,5,0,0:0:0:0:
17,320,141859,1,0,0:0:0:0:
21,295,141940,1,0,0:0:0:0:
235,205,142103,2,0,P|274:244|286:310,1,100,8|0,0:0|0:0,0:0:0:0:
367,103,142427,1,0,0:0:0:0:
168,123,142589,2,0,P|133:165|128:232,1,100,0|8,0:0|0:0,0:0:0:0:
258,358,142914,6,0,L|392:346,1,100,0|0,0:0|0:0,0:0:0:0:
381,346,143157,1,0,0:0:0:0:
406,344,143238,1,0,0:0:0:0:
410,144,143400,2,0,P|353:137|270:163,1,100,8|0,0:0|0:0,0:0:0:0:
179,293,143724,1,0,0:0:0:0:
115,104,143887,1,0,0:0:0:0:
86,251,144049,1,8,0:0:0:0:
37,109,144211,1,0,0:0:0:0:
4,339,144373,6,0,L|13:280,2,50,0|0|0,0:0|0:0|0:0,0:0:0:0:
158,212,144697,2,0,L|172:348,1,100,8|0,0:0|0:0,0:0:0:0:
360,369,145022,2,0,L|374:233,1,100,0|0,0:0|0:0,0:0:0:0:
214,144,145346,1,8,0:0:0:0:
411,174,145508,2,0,P|459:141|461:78,1,100,0|0,0:0|0:0,0:0:0:0:
462,78,145751,1,0,0:0:0:0:
442,61,145832,1,0,0:0:0:0:
472,280,145995,1,8,0:0:0:0:
472,280,146319,5,8,0:0:0:0:
442,303,146400,1,8,0:0:0:0:
408,316,146481,1,8,0:0:0:0:
265,136,146643,2,0,L|186:172,1,50
180,349,146805,1,0,0:0:0:0:
388,187,146968,6,0,B|431:148|479:155|479:155|473:101|504:75,1,150,2|8,0:0|0:0,0:0:0:0:
509,19,147292,1,0,0:0:0:0:
214,10,147616,1,0,0:0:0:0:
195,27,147697,1,0,0:0:0:0:
181,47,147778,1,0,0:0:0:0:
282,221,147941,1,8,0:0:0:0:
357,92,148103,1,0,0:0:0:0:
132,224,148265,5,0,0:0:0:0:
127,248,148346,1,0,0:0:0:0:
128,273,148427,1,0,0:0:0:0:
303,369,148589,1,8,0:0:0:0:
423,26,148914,6,0,L|463:118,1,97.4999955368044
434,169,149238,6,0,L|353:109,1,97.4999955368044,8|0,0:0|0:0,0:0:0:0:
268,98,149562,6,0,B|221:121|205:174|205:174|226:207|208:268,1,150,0|8,0:0|0:0,0:0:0:0:
169,297,149887,1,0,0:0:0:0:
11,74,150211,1,0,0:0:0:0:
26,54,150292,1,0,0:0:0:0:
46,39,150373,1,0,0:0:0:0:
268,98,150535,1,8,0:0:0:0:
11,310,150859,5,0,0:0:0:0:
26,330,150940,1,0,0:0:0:0:
46,345,151021,1,0,0:0:0:0:
268,286,151183,1,8,0:0:0:0:
404,29,151508,6,0,L|422:128,1,97.4999955368044,0|0,0:0|0:0,0:0:0:0:
371,163,151833,6,0,L|353:64,1,97.4999955368044,8|0,0:0|0:0,0:0:0:0:
274,27,152157,6,0,B|227:58|212:103|212:103|182:85|125:97,1,150,0|8,0:0|0:0,0:0:0:0:
78,120,152481,1,0,0:0:0:0:
194,361,152806,1,0,0:0:0:0:
221,363,152887,1,0,0:0:0:0:
246,361,152968,1,0,0:0:0:0:
290,165,153131,1,8,0:0:0:0:
146,209,153293,1,0,0:0:0:0:
392,264,153455,5,0,0:0:0:0:
412,247,153536,1,0,0:0:0:0:
424,226,153617,1,0,0:0:0:0:
368,33,153779,1,8,0:0:0:0:
59,217,154103,6,0,L|158:253,1,97.4999955368044,0|0,0:0|0:0,0:0:0:0:
198,215,154427,6,0,L|130:134,1,97.4999955368044,8|0,0:0|0:0,0:0:0:0:
177,60,154751,6,0,B|227:47|270:75|270:75|278:117|331:136,1,150,0|8,0:0|0:0,0:0:0:0:
376,138,155076,1,0,0:0:0:0:
503,346,155400,1,0,0:0:0:0:
482,359,155481,1,0,0:0:0:0:
458,368,155562,1,0,0:0:0:0:
317,228,155724,1,8,0:0:0:0:
9,346,156049,5,0,0:0:0:0:
29,359,156130,1,0,0:0:0:0:
53,368,156211,1,0,0:0:0:0:
195,228,156373,1,8,0:0:0:0:
4,99,156697,5,0,0:0:0:0:
143,43,156859,1,0,0:0:0:0:
112,267,157022,1,0,0:0:0:0:
134,296,157103,1,0,0:0:0:0:
166,315,157184,2,0,P|213:328|233:328,1,50,0|0,0:0|0:0,0:0:0:0:
306,201,157346,5,2,0:0:0:0:
232,233,157508,1,0,0:0:0:0:
444,259,157670,2,0,L|438:333,1,75.0000028610231,8|0,0:0|0:0,0:0:0:0:
297,281,157995,1,0,0:0:0:0:
149,309,158157,2,0,L|154:383,1,75.0000028610231,0|8,0:0|0:0,0:0:0:0:
91,168,158481,5,0,0:0:0:0:
250,70,158643,2,0,L|352:77,1,75.0000028610231,0|0,0:0|0:0,0:0:0:0:
399,300,158968,1,8,0:0:0:0:
224,236,159130,2,0,L|208:136,1,75.0000028610231
209,142,159373,1,0,0:0:0:0:
206,123,159454,1,0,0:0:0:0:
107,236,159616,1,8,0:0:0:0:
252,381,159778,6,0,L|343:376,1,75.0000028610231,0|0,0:0|0:0,0:0:0:0:
385,237,160103,1,0,0:0:0:0:
246,179,160265,2,0,L|254:79,1,75.0000028610231,8|0,0:0|0:0,0:0:0:0:
390,156,160589,1,0,0:0:0:0:
512,75,160751,2,0,L|504:-25,1,75.0000028610231,0|8,0:0|0:0,0:0:0:0:
479,226,161076,5,0,0:0:0:0:
320,328,161238,2,0,L|218:321,1,75.0000028610231,0|0,0:0|0:0,0:0:0:0:
171,98,161563,1,8,0:0:0:0:
346,162,161725,2,0,L|362:262,1,75.0000028610231,0|0,0:0|0:0,0:0:0:0:
361,256,161968,1,0,0:0:0:0:
364,275,162049,1,0,0:0:0:0:
134,229,162211,6,0,P|128:189|157:141,1,75.0000028610231,8|0,0:0|0:0,0:0:0:0:
236,332,162535,2,0,P|204:359|148:357,1,75.0000028610231,0|0,0:0|0:0,0:0:0:0:
45,283,162860,2,0,L|53:194,1,75.0000028610231,8|0,0:0|0:0,0:0:0:0:
195,251,163184,1,0,0:0:0:0:
335,198,163346,2,0,L|327:109,1,75.0000028610231,0|8,0:0|0:0,0:0:0:0:
405,334,163670,5,0,0:0:0:0:
260,384,163832,2,0,L|173:377,1,75.0000028610231,0|0,0:0|0:0,0:0:0:0:
173,141,164156,1,8,0:0:0:0:
297,229,164319,2,0,L|307:304,1,75.0000028610231
308,321,164562,1,0,0:0:0:0:
310,340,164643,1,0,0:0:0:0:
396,216,164805,1,8,0:0:0:0:
238,78,164968,6,0,L|139:87,1,75.0000028610231,0|0,0:0|0:0,0:0:0:0:
80,209,165292,1,0,0:0:0:0:
217,268,165454,2,0,L|212:367,1,75.0000028610231,8|0,0:0|0:0,0:0:0:0:
346,273,165778,1,0,0:0:0:0:
492,309,165941,2,0,L|497:408,1,75.0000028610231,0|8,0:0|0:0,0:0:0:0:
510,160,166265,5,0,0:0:0:0:
331,94,166427,2,0,L|256:100,1,75.0000028610231,0|0,0:0|0:0,0:0:0:0:
244,337,166751,1,8,0:0:0:0:
368,249,166914,2,0,L|378:174,1,75.0000028610231,0|0,0:0|0:0,0:0:0:0:
468,363,167238,5,0,0:0:0:0:
243,227,167400,1,8,0:0:0:0:
467,233,167562,1,8,0:0:0:0:
194,381,167724,6,0,P|149:347|128:283,1,100,0|0,0:0|0:0,0:0:0:0:
350,187,168049,1,8,0:0:0:0:
135,56,168211,2,0,P|94:84|71:128,1,100,0|0,0:0|0:0,0:0:0:0:
321,123,168535,1,0,0:0:0:0:
141,297,168697,1,8,0:0:0:0:
210,57,168859,1,0,0:0:0:0:
284,349,169022,6,0,L|514:365,1,200,2|8,0:0|0:0,0:0:0:0:
512,71,169508,2,0,L|282:87,1,200,0|0,0:0|0:0,0:0:0:0:
401,206,169995,1,8,0:0:0:0:
401,206,170157,1,0,0:0:0:0:
167,17,170319,6,0,L|148:221,1,200,2|8,0:0|0:0,0:0:0:0:
413,356,170805,2,0,L|394:152,1,200,0|0,0:0|0:0,0:0:0:0:
232,64,171292,2,0,P|260:23|316:5,1,100,8|0,0:0|0:0,0:0:0:0:
472,181,171616,1,2,0:0:0:0:
266,250,171778,2,0,L|246:188,1,50
370,72,171941,1,8,0:0:0:0:
436,362,172103,6,0,L|218:349,1,200,2|0,0:0|0:0,0:0:0:0:
326,215,172589,1,8,0:0:0:0:
177,275,172751,1,0,0:0:0:0:
141,262,172832,1,0,0:0:0:0:
103,230,172914,6,0,P|86:164|94:109,1,100,2|0,0:0|0:0,0:0:0:0:
337,138,173238,1,8,0:0:0:0:
98,20,173400,2,0,P|32:38|-11:72,1,100,0|0,0:0|0:0,0:0:0:0:
233,159,173724,1,0,0:0:0:0:
1,257,173887,1,8,0:0:0:0:
153,57,174049,1,0,0:0:0:0:
116,357,174211,6,0,L|340:367,1,200,2|8,0:0|0:0,0:0:0:0:
511,140,174697,2,0,L|287:150,1,200,0|0,0:0|0:0,0:0:0:0:
411,261,175184,1,8,0:0:0:0:
411,261,175346,1,0,0:0:0:0:
120,332,175508,6,0,L|113:102,1,200,10|0,0:0|0:0,0:0:0:0:
385,1,175995,2,0,L|378:231,1,200,10|0,0:0|0:0,0:0:0:0:
219,279,176481,2,0,P|192:225|220:147,1,100,10|0,0:0|0:0,0:0:0:0:
486,229,176805,5,8,0:0:0:0:
357,308,176968,1,8,0:0:0:0:
224,77,177130,1,8,0:0:0:0:
353,156,177293,1,8,0:0:0:0:
207,378,177454,1,8,0:0:0:0:
171,365,177535,1,8,0:0:0:0:
141,341,177616,2,0,P|119:311|111:276,1,50,8|0,0:0|0:0,0:0:0:0:
169,162,177778,2,0,P|191:192|199:227,1,50,8|0,0:0|0:0,0:0:0:0:
47,187,177941,2,0,P|25:157|17:122,1,50,8|0,0:0|0:0,0:0:0:0:
86,1,178103,5,8,0:0:0:0:
114,299,178265,1,8,0:0:0:0:
212,17,178589,5,8,0:0:0:0:
240,315,178751,1,8,0:0:0:0:
338,33,179076,5,8,0:0:0:0:
366,331,179238,1,8,0:0:0:0:
464,49,179562,5,8,0:0:0:0:
492,347,179724,1,8,0:0:0:0:
512,0,180049,5,8,0:0:0:0:
0,384,180373,1,8,0:0:0:0:
438,371,180697,5,8,0:0:0:0:
410,73,180859,1,8,0:0:0:0:
307,354,181183,5,8,0:0:0:0:
279,56,181345,1,8,0:0:0:0:
176,337,181670,5,8,0:0:0:0:
148,39,181832,1,8,0:0:0:0:
45,320,182156,5,8,0:0:0:0:
17,22,182318,2,0,P|74:7|125:26,1,100,8|0,0:0|0:0,0:0:0:0:
194,144,182642,1,8,0:0:0:0:
194,144,182968,6,0,P|188:102|201:66,1,75
194,144,183292,6,0,P|263:73|386:65,1,200,10|0,0:0|0:0,0:0:0:0:
330,205,183778,1,0,0:0:0:0:
90,124,183941,2,0,P|62:157|47:242,1,100,10|0,0:0|0:0,0:0:0:0:
209,324,184265,1,0,0:0:0:0:
225,124,184427,2,0,P|264:93|317:74,2,100,0|0|0,0:0|0:0|0:0,0:0:0:0:
504,166,184914,5,0,0:0:0:0:
438,93,185076,1,0,0:0:0:0:
297,279,185238,2,0,P|346:285|391:266,1,100,10|0,0:0|0:0,0:0:0:0:
319,110,185562,2,0,P|269:105|224:124,1,100,0|0,0:0|0:0,0:0:0:0:
512,306,185887,6,0,P|522:258|506:212,1,100
299,226,186211,1,0,0:0:0:0:
391,265,186373,1,0,0:0:0:0:
225,39,186535,2,0,P|174:51|135:100,1,100,10|0,0:0|0:0,0:0:0:0:
209,266,186860,1,0,0:0:0:0:
316,101,187022,1,0,0:0:0:0:
384,231,187184,5,0,0:0:0:0:
349,246,187265,1,0,0:0:0:0:
312,250,187346,1,0,0:0:0:0:
247,174,187508,1,0,0:0:0:0:
252,75,187670,1,0,0:0:0:0:
472,146,187832,5,10,0:0:0:0:
325,8,187995,1,8,0:0:0:0:
384,202,188157,1,8,0:0:0:0:
430,5,188319,1,8,0:0:0:0:
251,197,188481,6,0,P|206:166|183:87,1,100,10|0,0:0|0:0,0:0:0:0:
434,110,188805,1,0,0:0:0:0:
269,297,188968,1,0,0:0:0:0:
249,6,189130,1,10,0:0:0:0:
249,6,189778,5,0,0:0:0:0:
221,30,189859,1,0,0:0:0:0:
204,63,189940,1,0,0:0:0:0:
347,256,190102,1,0,0:0:0:0:
442,37,190264,1,0,0:0:0:0:
201,215,190426,1,10,0:0:0:0:
201,215,191076,5,8,0:0:0:0:
256,132,191238,1,8,0:0:0:0:
144,155,191400,1,8,0:0:0:0:
254,229,191562,1,8,0:0:0:0:
215,28,191725,1,10,0:0:0:0:
215,28,192049,5,0,0:0:0:0:
415,164,192211,1,8,0:0:0:0:
412,188,192292,1,8,0:0:0:0:
406,213,192373,1,8,0:0:0:0:
397,236,192454,1,8,0:0:0:0:
385,258,192535,1,8,0:0:0:0:
370,278,192616,1,8,0:0:0:0:
352,295,192697,1,8,0:0:0:0:
332,311,192778,1,8,0:0:0:0:
311,323,192859,1,8,0:0:0:0:
288,333,192940,1,8,0:0:0:0:
237,328,193022,5,8,0:0:0:0:
240,278,193103,1,8,0:0:0:0:
231,229,193184,1,8,0:0:0:0:
212,183,193265,1,8,0:0:0:0:
182,143,193346,5,8,0:0:0:0:
231,134,193427,1,8,0:0:0:0:
276,113,193508,1,8,0:0:0:0:
314,81,193589,1,8,0:0:0:0:
342,39,193670,6,0,P|400:14|506:45,1,129.999994049073,8|0,0:0|0:0,0:0:0:0:
441,260,193995,2,0,P|383:285|277:254,1,129.999994049073
180,25,194319,1,0,0:0:0:0:
147,24,194400,1,0,0:0:0:0:
115,31,194481,1,8,0:0:0:0:
90,260,194643,1,0,0:0:0:0:
352,92,194805,5,8,0:0:0:0:
377,112,194886,1,0,0:0:0:0:
397,137,194967,1,0,0:0:0:0:
411,166,195048,1,0,0:0:0:0:
420,198,195129,1,8,0:0:0:0:
165,341,195292,5,0,0:0:0:0:
125,218,195454,1,8,0:0:0:0:
379,270,195616,1,0,0:0:0:0:
256,311,195779,1,8,0:0:0:0:
308,55,195941,1,0,0:0:0:0:
322,85,196022,1,0,0:0:0:0:
330,116,196103,1,8,0:0:0:0:
58,145,196265,6,0,L|99:20,1,129.999994049073,0|8,0:0|0:0,0:0:0:0:
279,251,196589,1,0,0:0:0:0:
188,7,196752,1,8,0:0:0:0:
144,263,196914,1,0,0:0:0:0:
228,162,197076,1,8,0:0:0:0:
18,240,197238,1,0,0:0:0:0:
244,347,197400,6,0,P|280:285|283:227,1,129.999994049073,8|0,0:0|0:0,0:0:0:0:
116,84,197725,2,0,P|79:145|76:203,1,129.999994049073,8|0,0:0|0:0,0:0:0:0:
259,367,198049,2,0,P|295:305|298:247,1,129.999994049073,8|0,0:0|0:0,0:0:0:0:
132,106,198373,2,0,P|113:133|103:163,1,64.9999970245363,8|0,0:0|0:0,0:0:0:0:
194,317,198535,2,0,P|211:290|221:260,1,64.9999970245363,8|0,0:0|0:0,0:0:0:0:
0,101,198698,2,0,P|-1:132|5:164,1,64.9999970245363,8|0,0:0|0:0,0:0:0:0:
298,249,198860,6,0,P|298:181|277:120,1,129.999994049073,10|8,0:0|0:0,0:0:0:0:
34,271,199184,1,0,0:0:0:0:
311,337,199346,1,8,0:0:0:0:
105,142,199508,1,0,0:0:0:0:
108,270,199670,1,8,0:0:0:0:
197,178,199832,1,0,0:0:0:0:
69,180,199995,1,8,0:0:0:0:
346,16,200157,6,0,P|400:55|434:144,1,129.999994049073,0|8,0:0|0:0,0:0:0:0:
210,332,200481,1,0,0:0:0:0:
127,31,200643,1,8,0:0:0:0:
350,251,200805,1,0,0:0:0:0:
225,253,200968,1,8,0:0:0:0:
312,164,201130,1,0,0:0:0:0:
314,289,201292,1,8,0:0:0:0:
496,63,201454,6,0,P|437:19|373:8,1,129.999994049073,0|8,0:0|0:0,0:0:0:0:
263,277,201778,1,0,0:0:0:0:
231,286,201859,1,0,0:0:0:0:
199,287,201941,2,0,P|159:284|125:270,1,64.9999970245363
295,172,202103,1,0,0:0:0:0:
318,194,202184,1,0,0:0:0:0:
335,221,202266,2,0,P|352:257|357:293,1,64.9999970245363
186,202,202427,1,0,0:0:0:0:
193,171,202508,1,0,0:0:0:0:
208,142,202589,2,0,P|230:108|238:65,1,64.9999970245363
27,154,202751,6,0,L|55:233,1,64.9999970245363,8|0,0:0|0:0,0:0:0:0:
189,286,202914,1,8,0:0:0:0:
253,284,202995,1,8,0:0:0:0:
286,228,203076,5,8,0:0:0:0:
350,226,203157,1,8,0:0:0:0:
415,225,203238,2,0,L|493:221,1,64.9999970245363,8|0,0:0|0:0,0:0:0:0:
287,76,203400,1,10,0:0:0:0:
89,369,203643,5,10,0:0:0:0:
428,72,203887,5,10,0:0:0:0:
442,274,204049,2,0,P|356:256|311:186,1,129.999994049073,0|8,0:0|0:0,0:0:0:0:
301,100,204373,1,0,0:0:0:0:
26,223,204535,6,0,P|44:309|114:354,1,129.999994049073,8|0,0:0|0:0,0:0:0:0:
201,328,204859,1,8,0:0:0:0:
139,43,205022,1,0,0:0:0:0:
167,27,205103,1,0,0:0:0:0:
198,19,205184,1,8,0:0:0:0:
442,192,205346,6,0,P|383:255|322:274,1,129.999994049073,0|8,0:0|0:0,0:0:0:0:
312,278,205589,1,0,0:0:0:0:
278,279,205670,1,0,0:0:0:0:
247,268,205752,1,0,0:0:0:0:
208,238,205833,2,0,L|195:90,1,129.999994049073,8|0,0:0|0:0,0:0:0:0:
133,292,206157,1,8,0:0:0:0:
317,148,206319,1,0,0:0:0:0:
276,24,206481,1,8,0:0:0:0:
490,244,206643,5,0,0:0:0:0:
362,221,206805,1,8,0:0:0:0:
446,121,206968,1,0,0:0:0:0:
181,74,207130,2,0,P|147:134|143:235,1,129.999994049073,8|0,0:0|0:0,0:0:0:0:
184,314,207454,1,8,0:0:0:0:
459,171,207616,1,0,0:0:0:0:
446,121,207697,1,0,0:0:0:0:
426,77,207778,1,8,0:0:0:0:
396,40,207859,1,0,0:0:0:0:
344,1,207940,5,0,0:0:0:0:
244,170,208103,1,8,0:0:0:0:
181,58,208265,1,0,0:0:0:0:
403,190,208427,2,0,L|385:337,1,129.999994049073,8|0,0:0|0:0,0:0:0:0:
501,161,208751,1,8,0:0:0:0:
268,245,208914,2,0,L|286:392,1,129.999994049073,0|8,0:0|0:0,0:0:0:0:
480,85,209238,6,0,P|427:29|352:5,1,129.999994049073,0|8,0:0|0:0,0:0:0:0:
347,6,209481,1,0,0:0:0:0:
316,14,209562,1,0,0:0:0:0:
287,26,209643,1,0,0:0:0:0:
247,54,209724,2,0,L|231:183,1,129.999994049073,8|0,0:0|0:0,0:0:0:0:
160,16,210049,1,8,0:0:0:0:
363,238,210211,6,0,P|328:291|271:321,1,129.999994049073,0|8,0:0|0:0,0:0:0:0:
72,63,210535,1,0,0:0:0:0:
266,73,210697,1,0,0:0:0:0:
93,162,210859,1,8,0:0:0:0:
78,208,210940,1,8,0:0:0:0:
76,257,211021,1,8,0:0:0:0:
84,305,211102,1,8,0:0:0:0:
116,362,211183,1,8,0:0:0:0:
116,362,211508,5,0,0:0:0:0:
116,362,211832,5,0,0:0:0:0:
91,264,212157,5,0,0:0:0:0:
66,166,212482,5,0,0:0:0:0:
41,68,212806,5,0,0:0:0:0:
241,113,213130,5,0,0:0:0:0:
222,145,213211,1,0,0:0:0:0:
197,173,213292,1,0,0:0:0:0:
334,56,213454,1,0,0:0:0:0:
160,101,213616,1,0,0:0:0:0:
315,193,213778,1,0,0:0:0:0:
122,191,213941,2,0,B|93:244|132:279|132:279|117:335|176:362,1,200,0|0,0:0|0:0,0:0:0:0:
16,177,214427,5,0,0:0:0:0:
99,119,214752,5,0,0:0:0:0:
183,62,215077,5,0,0:0:0:0:
266,5,215401,5,0,0:0:0:0:
281,166,215724,5,0,0:0:0:0:
246,152,215805,1,0,0:0:0:0:
214,133,215886,1,0,0:0:0:0:
353,247,216048,1,0,0:0:0:0:
278,84,216210,1,0,0:0:0:0:
215,252,216373,5,8,0:0:0:0:
165,259,216454,1,8,0:0:0:0:
117,250,216535,1,8,0:0:0:0:
75,223,216616,1,8,0:0:0:0:
45,183,216697,5,8,0:0:0:0:
87,157,216778,1,8,0:0:0:0:
122,121,216859,1,8,0:0:0:0:
145,78,216940,1,8,0:0:0:0:
157,29,217022,5,2,0:0:0:0:
194,25,217103,1,0,0:0:0:0:
231,23,217184,1,8,0:0:0:0:
404,121,217346,1,0,0:0:0:0:
366,124,217427,1,0,0:0:0:0:
329,126,217508,1,8,0:0:0:0:
216,226,217670,1,0,0:0:0:0:
253,222,217751,1,0,0:0:0:0:
290,220,217832,1,8,0:0:0:0:
184,115,217995,2,0,L|114:84,2,50,0|0|8,0:0|0:0|0:0,0:0:0:0:
301,333,218319,5,0,0:0:0:0:
335,296,218400,1,0,0:0:0:0:
369,259,218481,1,8,0:0:0:0:
341,109,218643,1,0,0:0:0:0:
307,146,218724,1,0,0:0:0:0:
273,183,218805,1,8,0:0:0:0:
482,213,218968,1,0,0:0:0:0:
276,256,219130,1,8,0:0:0:0:
434,117,219292,2,0,L|508:100,2,50,0|0|8,0:0|0:0|0:0,0:0:0:0:
223,180,219616,6,0,L|312:184,1,50,0|0,0:0|0:0,0:0:0:0:
307,11,219778,1,8,0:0:0:0:
118,22,219941,1,0,0:0:0:0:
110,58,220022,1,0,0:0:0:0:
102,94,220103,1,8,0:0:0:0:
126,237,220265,1,0,0:0:0:0:
134,201,220346,1,0,0:0:0:0:
142,165,220427,1,8,0:0:0:0:
25,270,220589,2,0,L|61:336,2,50,0|0|8,0:0|0:0|0:0,0:0:0:0:
306,335,220914,5,0,0:0:0:0:
272,298,220995,1,0,0:0:0:0:
238,261,221076,1,8,0:0:0:0:
266,111,221238,1,0,0:0:0:0:
300,148,221319,1,0,0:0:0:0:
334,185,221400,1,8,0:0:0:0:
125,215,221563,1,0,0:0:0:0:
331,258,221725,1,8,0:0:0:0:
173,119,221887,2,0,L|118:81,2,50,0|0|8,0:0|0:0|0:0,0:0:0:0:
356,200,222211,6,0,L|267:188,1,50,0|0,0:0|0:0,0:0:0:0:
302,18,222373,1,8,0:0:0:0:
486,62,222536,1,0,0:0:0:0:
488,99,222617,1,0,0:0:0:0:
490,136,222698,1,8,0:0:0:0:
452,288,222859,1,0,0:0:0:0:
450,251,222940,1,0,0:0:0:0:
448,214,223021,1,8,0:0:0:0:
297,80,223184,2,0,L|224:107,1,50,0|0,0:0|0:0,0:0:0:0:
257,278,223346,1,8,0:0:0:0:
391,128,223508,5,0,0:0:0:0:
381,78,223589,1,0,0:0:0:0:
371,29,223670,1,8,0:0:0:0:
231,0,223832,1,0,0:0:0:0:
240,49,223913,1,0,0:0:0:0:
250,98,223994,1,8,0:0:0:0:
59,188,224157,1,0,0:0:0:0:
270,206,224319,1,8,0:0:0:0:
96,85,224481,2,0,L|74:31,2,50,0|0|0,0:0|0:0|0:0,0:0:0:0:
164,238,224805,5,0,0:0:0:0:
161,200,224886,1,0,0:0:0:0:
158,163,224967,1,8,0:0:0:0:
303,25,225130,1,0,0:0:0:0:
305,62,225211,1,0,0:0:0:0:
308,99,225292,1,8,0:0:0:0:
406,214,225454,1,0,0:0:0:0:
403,176,225535,1,0,0:0:0:0:
400,139,225616,1,8,0:0:0:0:
267,288,225778,2,0,L|351:284,2,50,0|0|8,0:0|0:0|0:0,0:0:0:0:
276,100,226103,5,0,0:0:0:0:
225,102,226184,1,0,0:0:0:0:
175,104,226265,1,8,0:0:0:0:
89,230,226427,1,0,0:0:0:0:
139,227,226508,1,0,0:0:0:0:
189,225,226589,1,8,0:0:0:0:
63,56,226752,1,0,0:0:0:0:
246,171,226914,2,0,B|287:215|261:261|261:261|288:309|238:351,1,200,10|0,0:0|0:0,0:0:0:0:
66,316,227400,6,0,P|91:233|161:183,1,175,2|0,0:0|0:0,0:0:0:0:
203,247,228049,2,0,P|237:178|161:108,1,175,2|0,0:0|0:0,0:0:0:0:
209,41,228697,2,0,P|277:88|311:176,1,175,2|0,0:0|0:0,0:0:0:0:
384,155,229346,1,8,0:0:0:0:
217,264,229508,1,8,0:0:0:0:
394,354,229670,1,8,0:0:0:0:
393,354,229995,6,0,P|457:297|462:211,1,175,2|0,0:0|0:0,0:0:0:0:
393,240,230643,2,0,P|416:154|495:144,1,175,2|0,0:0|0:0,0:0:0:0:
491,66,231292,2,0,P|434:67|368:99,1,125,2|0,0:0|0:0,0:0:0:0:
314,48,231778,1,0,0:0:0:0:
306,248,231941,1,8,0:0:0:0:
35,119,232184,5,8,0:0:0:0:
333,149,232427,5,8,0:0:0:0:
208,276,232589,6,0,P|158:206|169:121,1,175,2|0,0:0|0:0,0:0:0:0:
242,137,233238,2,0,P|213:59|130:55,1,175,2|0,0:0|0:0,0:0:0:0:
169,121,233887,2,0,P|87:117|57:37,1,175,2|0,0:0|0:0,0:0:0:0:
130,55,234535,1,8,0:0:0:0:
19,221,234697,1,8,0:0:0:0:
219,235,234859,1,8,0:0:0:0:
219,235,235184,6,0,P|227:152|305:123,1,175,2|0,0:0|0:0,0:0:0:0:
290,201,235832,2,0,P|375:156|367:77,1,175,2|0,0:0|0:0,0:0:0:0:
420,28,236481,1,2,0:0:0:0:
415,227,236643,5,0,0:0:0:0:
396,243,236724,1,0,0:0:0:0:
375,256,236805,1,0,0:0:0:0:
352,266,236886,1,0,0:0:0:0:
327,271,236967,1,0,0:0:0:0:
302,273,237048,1,0,0:0:0:0:
278,270,237129,1,0,0:0:0:0:
254,263,237210,1,0,0:0:0:0:
231,252,237291,1,0,0:0:0:0:
211,238,237372,1,0,0:0:0:0:
179,200,237454,5,8,0:0:0:0:
216,167,237535,1,8,0:0:0:0:
240,123,237616,1,8,0:0:0:0:
247,74,237697,1,8,0:0:0:0:
237,25,237778,6,0,P|208:12|183:5,1,50,8|0,0:0|0:0,0:0:0:0:
68,112,237941,1,8,0:0:0:0:
92,153,238022,1,0,0:0:0:0:
131,185,238103,2,0,L|194:204,1,50,8|0,0:0|0:0,0:0:0:0:
340,52,238265,1,8,0:0:0:0:
487,213,238427,5,0,0:0:0:0:
463,254,238508,1,0,0:0:0:0:
424,286,238589,2,0,L|361:305,1,50,8|0,0:0|0:0,0:0:0:0:
215,153,238751,1,0,0:0:0:0:
68,314,238914,2,0,L|116:341,1,50,8|0,0:0|0:0,0:0:0:0:
288,250,239076,5,0,0:0:0:0:
305,295,239157,1,0,0:0:0:0:
304,345,239238,1,8,0:0:0:0:
109,229,239400,2,0,L|133:152,1,66.6666666666667
309,124,239562,1,8,0:0:0:0:
415,318,239724,5,0,0:0:0:0:
448,281,239805,1,0,0:0:0:0:
467,235,239886,1,8,0:0:0:0:
470,185,239967,1,0,0:0:0:0:
456,138,240049,1,0,0:0:0:0:
398,155,240130,1,0,0:0:0:0:
339,145,240211,1,8,0:0:0:0:
291,111,240292,1,0,0:0:0:0:
262,59,240373,6,0,L|191:101,1,50,0|0,0:0|0:0,0:0:0:0:
158,224,240535,1,8,0:0:0:0:
170,245,240616,1,0,0:0:0:0:
193,254,240697,1,0,0:0:0:0:
217,249,240778,1,0,0:0:0:0:
232,230,240859,1,8,0:0:0:0:
244,226,240940,1,0,0:0:0:0:
256,226,241021,1,0,0:0:0:0:
268,231,241102,1,0,0:0:0:0:
276,240,241183,1,8,0:0:0:0:
280,251,241264,1,0,0:0:0:0:
280,264,241346,1,0,0:0:0:0:
103,258,241508,2,0,P|114:188|165:139,1,100,8|0,0:0|0:0,0:0:0:0:
403,95,241832,5,8,0:0:0:0:
437,162,241914,2,0,L|417:230,1,50,0|0,0:0|0:0,0:0:0:0:
330,119,242076,5,0,0:0:0:0:
296,52,242158,2,0,L|316:-16,1,50,8|0,0:0|0:0,0:0:0:0:
476,71,242319,1,0,0:0:0:0:
492,89,242400,1,0,0:0:0:0:
503,112,242481,1,8,0:0:0:0:
509,136,242562,1,0,0:0:0:0:
504,185,242643,6,0,P|479:178|455:178,1,50,8|0,0:0|0:0,0:0:0:0:
275,236,242805,2,0,P|299:242|323:242,1,50,8|0,0:0|0:0,0:0:0:0:
272,22,242968,5,0,0:0:0:0:
238,13,243049,1,0,0:0:0:0:
203,12,243130,1,8,0:0:0:0:
169,21,243211,1,0,0:0:0:0:
138,38,243292,5,0,0:0:0:0:
170,61,243373,1,0,0:0:0:0:
202,84,243454,1,8,0:0:0:0:
206,123,243535,5,0,0:0:0:0:
245,127,243616,1,0,0:0:0:0:
284,131,243697,1,0,0:0:0:0:
319,112,243778,2,0,P|356:117|392:147,1,50,8|0,0:0|0:0,0:0:0:0:
379,241,243941,5,0,0:0:0:0:
355,273,244022,1,0,0:0:0:0:
322,294,244103,1,8,0:0:0:0:
271,295,244184,5,0,0:0:0:0:
245,252,244265,1,0,0:0:0:0:
219,209,244346,1,0,0:0:0:0:
170,217,244427,5,8,0:0:0:0:
169,167,244508,1,0,0:0:0:0:
168,117,244589,1,0,0:0:0:0:
121,99,244670,5,0,0:0:0:0:
145,55,244751,1,8,0:0:0:0:
169,11,244832,1,0,0:0:0:0:
108,14,244914,5,0,0:0:0:0:
62,52,244995,1,0,0:0:0:0:
28,102,245076,1,8,0:0:0:0:
10,158,245157,1,0,0:0:0:0:
8,218,245238,1,0,0:0:0:0:
75,235,245319,1,0,0:0:0:0:
135,270,245400,1,8,0:0:0:0:
178,324,245481,1,0,0:0:0:0:
214,384,245562,6,0,B|277:354|277:354|330:370|330:370|418:338,1,200,0|8,0:0|0:0,0:0:0:0:
171,188,245887,2,0,B|199:163|199:163|192:127|192:127|223:82,1,100,0|0,0:0|0:0,0:0:0:0:
255,95,246049,2,0,P|287:117|346:98,1,100,8|0,0:0|0:0,0:0:0:0:
360,55,246211,2,0,P|396:103|377:272,1,200,0|8,0:0|0:0,0:0:0:0:
243,228,246535,2,0,P|280:264|356:267,1,100
397,238,246697,5,8,0:0:0:0:
172,39,246859,1,8,0:0:0:0:
238,333,247022,1,8,0:0:0:0:
358,57,247184,1,8,0:0:0:0:
99,210,247346,1,8,0:0:0:0:
397,238,247508,1,8,0:0:0:0:
411,190,247589,1,8,0:0:0:0:
409,165,247670,1,8,0:0:0:0:
399,141,247751,1,0,0:0:0:0:
366,103,247832,5,0,0:0:0:0:
332,139,247913,1,0,0:0:0:0:
288,161,247994,1,0,0:0:0:0:
238,169,248075,1,0,0:0:0:0:
187,170,248157,6,0,B|121:171|73:121|73:121|24:177|57:235|57:235|19:295|58:353,1,350
123,291,248805,2,0,P|169:271|218:274,1,100,0|0,0:0|0:0,0:0:0:0:
247,360,249049,2,0,P|291:324|311:264,1,100,0|0,0:0|0:0,0:0:0:0:
273,202,249292,2,0,L|329:190,1,50,0|0,0:0|0:0,0:0:0:0:
369,29,249454,6,0,B|291:15|176:68|176:68|178:128|123:146|123:146|128:197,1,350,0|0,0:0|0:0,0:0:0:0:
213,213,250103,2,0,P|168:268|126:274,1,100,0|0,0:0|0:0,0:0:0:0:
57,255,250346,2,0,P|68:325|101:351,1,100,0|0,0:0|0:0,0:0:0:0:
127,193,250589,2,0,L|67:173,1,50,0|0,0:0|0:0,0:0:0:0:
251,71,250751,6,0,B|310:63|341:103|341:103|403:99|426:138|426:138|365:197|397:315,1,350,0|0,0:0|0:0,0:0:0:0:
493,312,251400,2,0,L|388:401,1,100,0|0,0:0|0:0,0:0:0:0:
323,347,251643,2,0,L|234:242,1,100,0|0,0:0|0:0,0:0:0:0:
155,296,251887,2,0,L|197:351,1,50,0|0,0:0|0:0,0:0:0:0:
330,204,252049,6,0,P|262:174|192:196,1,150,0|0,0:0|0:0,0:0:0:0:
99,233,252373,2,0,P|97:159|147:106,1,150,0|0,0:0|0:0,0:0:0:0:
218,34,252697,2,0,P|151:6|82:29,1,150
192,196,253022,2,0,P|190:277|119:331,1,150,0|0,0:0|0:0,0:0:0:0:
57,253,253346,5,0,0:0:0:0:
45,203,253427,1,0,0:0:0:0:
34,154,253508,2,0,L|95:161,1,50,8|0,0:0|0:0,0:0:0:0:
325,224,253670,1,0,0:0:0:0:
297,267,253751,1,0,0:0:0:0:
270,309,253832,2,0,L|231:260,1,50,8|0,0:0|0:0,0:0:0:0:
114,54,253995,5,0,0:0:0:0:
163,43,254076,1,0,0:0:0:0:
212,31,254157,2,0,L|205:93,1,50,8|0,0:0|0:0,0:0:0:0:
143,322,254319,1,0,0:0:0:0:
101,295,254400,1,0,0:0:0:0:
58,269,254481,2,0,L|107:229,1,50,8|0,0:0|0:0,0:0:0:0:
313,111,254644,5,0,0:0:0:0:
324,160,254725,1,0,0:0:0:0:
336,209,254806,2,0,L|273:202,1,50,8|0,0:0|0:0,0:0:0:0:
45,140,254968,1,0,0:0:0:0:
72,98,255049,1,0,0:0:0:0:
98,55,255130,2,0,L|137:104,1,50,8|0,0:0|0:0,0:0:0:0:
256,310,255293,5,0,0:0:0:0:
207,321,255374,1,0,0:0:0:0:
158,333,255455,2,0,L|164:270,1,50,8|0,0:0|0:0,0:0:0:0:
227,42,255616,1,0,0:0:0:0:
269,69,255697,1,0,0:0:0:0:
311,96,255778,1,8,0:0:0:0:
353,123,255859,1,0,0:0:0:0:
378,194,255941,6,0,B|318:227|229:187|229:187|148:150|69:178,1,300
137,313,256589,6,0,P|192:314|243:283,1,100
236,245,256805,6,0,P|282:270|316:336,1,100
305,358,257022,6,0,P|360:359|419:320,1,100
400,286,257238,6,0,B|352:236|368:140|368:140|382:52|335:-16,1,300
27,149,257887,1,0,0:0:0:0:
255,250,258049,1,0,0:0:0:0:
109,49,258211,2,0,B|165:43|194:82|194:82|191:102|191:102|218:135|279:136,1,200
464,56,258697,5,0,0:0:0:0:
444,194,258859,1,0,0:0:0:0:
147,160,259022,5,0,0:0:0:0:
167,298,259184,2,0,L|174:344,1,34.9999989318848,0|0,0:0|0:0,0:0:0:0:
464,264,259508,6,0,L|457:310,2,34.9999989318848
258,28,259995,2,0,P|209:19|185:22,1,69.9999978637696
171,215,260481,2,0,L|179:215,1,8.7499997329712,0|0,0:0|0:0,0:0:0:0:
349,134,260643,1,0,0:0:0:0:
12,104,260805,2,0,L|6:155,1,34.9999989318848
239,140,261130,6,0,B|283:165|283:165|245:183|245:183|279:195|279:195|288:294|419:311,1,300.000011444092,0|0,0:0|0:0,0:0:0:0:
440,295,261535,1,0,0:0:0:0:
470,256,261616,1,0,0:0:0:0:
477,207,261697,1,0,0:0:0:0:
458,161,261778,5,0,0:0:0:0:
398,197,261859,1,0,0:0:0:0:
330,214,261940,1,0,0:0:0:0:
261,209,262021,1,0,0:0:0:0:
196,183,262103,5,0,0:0:0:0:
179,150,262184,1,0,0:0:0:0:
146,133,262265,1,0,0:0:0:0:
109,137,262346,1,0,0:0:0:0:
81,161,262427,1,0,0:0:0:0:
71,196,262508,1,0,0:0:0:0:
76,233,262589,5,0,0:0:0:0:
99,223,262670,1,0,0:0:0:0:
123,224,262751,1,0,0:0:0:0:
146,234,262832,1,0,0:0:0:0:
163,252,262913,1,0,0:0:0:0:
172,275,262994,1,0,0:0:0:0:
171,300,263076,6,0,L|125:337,1,50,0|0,0:0|0:0,0:0:0:0:
146,133,263238,1,0,0:0:0:0:
376,325,263400,1,0,0:0:0:0:
300,115,263562,1,0,0:0:0:0:
284,362,263724,5,0,0:0:0:0:
218,365,263805,1,0,0:0:0:0:
154,347,263886,1,0,0:0:0:0:
101,308,263967,1,0,0:0:0:0:
85,244,264049,1,0,0:0:0:0:
100,231,264130,1,0,0:0:0:0:
115,218,264211,1,0,0:0:0:0:
131,205,264292,1,0,0:0:0:0:
146,192,264373,5,0,0:0:0:0:
150,142,264454,1,0,0:0:0:0:
188,109,264535,1,0,0:0:0:0:
263,114,264616,1,0,0:0:0:0:
312,170,264697,5,0,0:0:0:0:
311,189,264778,1,0,0:0:0:0:
310,209,264859,1,0,0:0:0:0:
309,229,264940,1,0,0:0:0:0:
307,280,265022,6,0,L|427:318,1,100,0|0,0:0|0:0,0:0:0:0:
483,251,265184,2,0,L|398:158,1,100,0|0,0:0|0:0,0:0:0:0:
362,121,265346,1,0,0:0:0:0:
342,124,265427,1,0,0:0:0:0:
322,128,265508,1,0,0:0:0:0:
303,132,265589,1,0,0:0:0:0:
244,145,265670,5,0,0:0:0:0:
234,204,265751,1,0,0:0:0:0:
225,263,265832,1,0,0:0:0:0:
216,322,265913,1,0,0:0:0:0:
206,381,265995,5,0,0:0:0:0:
191,307,266076,1,0,0:0:0:0:
176,233,266157,1,0,0:0:0:0:
162,160,266238,1,0,0:0:0:0:
147,86,266319,5,0,0:0:0:0:
129,173,266400,1,0,0:0:0:0:
111,261,266481,2,0,L|101:325,1,50,0|0,0:0|0:0,0:0:0:0:
12,227,266643,5,0,0:0:0:0:
13,177,266724,1,0,0:0:0:0:
27,129,266805,1,0,0:0:0:0:
95,150,266887,1,0,0:0:0:0:
164,158,266968,1,0,0:0:0:0:
234,152,267049,1,0,0:0:0:0:
301,133,267130,6,0,B|357:121|357:121|439:175|439:175|516:163,1,200,0|0,0:0|0:0,0:0:0:0:
471,68,267373,2,0,L|368:21,1,100,0|0,0:0|0:0,0:0:0:0:
280,27,267535,2,0,B|252:68|252:68|157:95|157:95|191:182|191:182|133:263,1,300,0|0,0:0|0:0,0:0:0:0:
25,21,267941,6,0,L|139:12,1,100,0|0,0:0|0:0,0:0:0:0:
229,95,268103,2,0,L|115:86,1,100,0|0,0:0|0:0,0:0:0:0:
16,168,268265,2,0,L|130:159,1,100,8|0,0:0|0:0,0:0:0:0:
220,242,268427,2,0,L|106:233,1,100
16,316,268589,1,8,0:0:0:0:
168,363,268751,1,0,0:0:0:0:
363,133,268914,5,10,0:0:0:0:
313,350,273454,6,0,B|350:322|350:322|352:289|352:289|373:273|373:273|371:249|371:249|381:240|381:240|380:231,1,150.500002296448
398,196,274103,5,2,0:0:0:0:
324,128,274265,1,0,0:0:0:0:
256,201,274427,1,0,0:0:0:0:
330,269,274589,1,0,0:0:0:0:
116,278,274751,2,0,P|90:217|97:165,1,100,2|0,0:0|0:0,0:0:0:0:
55,344,275076,1,0,0:0:0:0:
177,212,275238,6,0,L|257:130,2,100,0|0|0,0:0|0:0|0:0,0:0:0:0:
182,339,275724,2,0,P|251:362|314:357,1,100,0|0,0:0|0:0,0:0:0:0:
340,170,276049,1,2,0:0:0:0:
434,200,276211,1,0,0:0:0:0:
246,140,276373,6,0,L|291:60,1,75,0|0,0:0|0:0,0:0:0:0:
264,41,276697,5,2,0:0:0:0:
164,23,276859,1,0,0:0:0:0:
146,123,277022,1,0,0:0:0:0:
246,140,277184,1,0,0:0:0:0:
70,264,277346,2,0,P|14:232|0:161,1,100,2|0,0:0|0:0,0:0:0:0:
58,349,277670,1,0,0:0:0:0:
82,179,277832,6,0,L|92:66,2,100,0|0|0,0:0|0:0|0:0,0:0:0:0:
161,271,278319,2,0,P|220:264|272:222,1,100,0|0,0:0|0:0,0:0:0:0:
213,47,278643,1,2,0:0:0:0:
362,53,278805,1,0,0:0:0:0:
64,41,278968,6,0,B|56:105|56:105|116:178|116:178|99:259,1,225.000008583069,2|0,0:0|0:0,0:0:0:0:
77,313,279292,5,0,0:0:0:0:
326,311,279454,1,0,0:0:0:0:
326,311,279941,5,0,0:0:0:0:
331,302,280022,1,0,0:0:0:0:
334,293,280103,1,0,0:0:0:0:
333,283,280184,1,0,0:0:0:0:
329,274,280265,1,0,0:0:0:0:
323,266,280346,1,0,0:0:0:0:
315,261,280427,2,0,L|231:258,1,50,0|0,0:0|0:0,0:0:0:0:
157,119,280589,5,8,0:0:0:0:
406,127,280751,1,8,0:0:0:0:
406,127,281238,5,8,0:0:0:0:
187,245,281400,1,8,0:0:0:0:
187,245,281887,5,8,0:0:0:0:
436,253,282049,1,8,0:0:0:0:
436,253,282535,5,0,0:0:0:0:
439,262,282616,1,0,0:0:0:0:
440,272,282697,1,0,0:0:0:0:
438,281,282778,1,0,0:0:0:0:
432,289,282859,1,0,0:0:0:0:
425,296,282940,1,0,0:0:0:0:
416,300,283021,2,0,L|332:288,1,50,0|0,0:0|0:0,0:0:0:0:
311,121,283184,5,8,0:0:0:0:
176,331,283346,1,8,0:0:0:0:
176,331,283832,5,8,0:0:0:0:
188,82,283994,1,8,0:0:0:0:
397,217,284157,2,0,B|323:254|323:254|185:203|185:203|103:250,1,300.000011444092,0|0,0:0|0:0,0:0:0:0:
120,206,285778,6,0,B|152:237|212:241|212:241|265:243|307:282,1,200,10|0,0:0|0:0,0:0:0:0:
419,183,286751,1,0,0:0:0:0:
385,117,286914,2,0,B|338:149|349:203|349:203|330:184|303:177,1,150,0|0,0:0|0:0,0:0:0:0:
58,347,287724,1,8,0:0:0:0:
458,340,288049,1,8,0:0:0:0:
284,244,288211,1,8,0:0:0:0:
455,142,288373,6,0,P|442:106|385:71,1,100,10|0,0:0|0:0,0:0:0:0:
265,152,289022,1,0,0:0:0:0:
397,221,289346,1,0,0:0:0:0:
358,159,289508,1,0,0:0:0:0:
290,289,289670,5,0,0:0:0:0:
253,298,289751,1,0,0:0:0:0:
216,298,289832,1,0,0:0:0:0:
149,163,289995,1,0,0:0:0:0:
299,172,290157,1,0,0:0:0:0:
98,273,290319,1,8,0:0:0:0:
98,273,290643,5,8,0:0:0:0:
297,286,290805,1,8,0:0:0:0:
209,108,290968,6,0,P|253:74|304:61,1,100,10|0,0:0|0:0,0:0:0:0:
366,83,291454,1,0,0:0:0:0:
311,133,291616,1,0,0:0:0:0:
311,133,292265,6,0,P|362:154|399:191,1,100,0|0,0:0|0:0,0:0:0:0:
411,256,292751,1,0,0:0:0:0:
415,105,292914,1,8,0:0:0:0:
109,362,293238,1,8,0:0:0:0:
306,328,293400,1,8,0:0:0:0:
178,174,293562,6,0,B|214:136|268:140|268:140|296:237|296:237|356:241|392:185,1,300,10|2,0:0|0:0,0:0:0:0:
351,50,294697,2,0,P|401:42|455:62,1,100,0|0,0:0|0:0,0:0:0:0:
479,204,295022,1,0,0:0:0:0:
334,158,295184,5,0,0:0:0:0:
309,157,295265,1,0,0:0:0:0:
284,161,295346,1,0,0:0:0:0:
261,170,295427,1,0,0:0:0:0:
239,183,295508,1,0,0:0:0:0:
221,200,295589,1,0,0:0:0:0:
205,219,295670,1,0,0:0:0:0:
194,242,295751,1,0,0:0:0:0:
183,291,295832,5,8,0:0:0:0:
133,298,295913,1,8,0:0:0:0:
85,285,295994,1,8,0:0:0:0:
46,255,296075,1,8,0:0:0:0:
22,211,296157,6,0,P|37:149|86:94,1,129.999994049073,8|8,0:0|0:0,0:0:0:0:
322,96,296481,2,0,P|307:158|258:213,1,129.999994049073,0|8,0:0|0:0,0:0:0:0:
3,311,296805,1,0,0:0:0:0:
17,339,296886,1,0,0:0:0:0:
41,361,296967,1,8,0:0:0:0:
257,268,297130,1,0,0:0:0:0:
13,88,297292,5,8,0:0:0:0:
38,67,297373,1,0,0:0:0:0:
67,52,297454,1,0,0:0:0:0:
98,42,297535,1,0,0:0:0:0:
130,39,297616,1,8,0:0:0:0:
244,313,297778,5,0,0:0:0:0:
114,319,297940,1,8,0:0:0:0:
229,87,298102,1,0,0:0:0:0:
237,215,298265,1,8,0:0:0:0:
3,99,298427,1,0,0:0:0:0:
35,94,298508,1,0,0:0:0:0:
67,94,298589,1,8,0:0:0:0:
243,326,298751,6,0,L|111:318,1,129.999994049073,0|8,0:0|0:0,0:0:0:0:
189,55,299076,1,0,0:0:0:0:
82,132,299238,1,8,0:0:0:0:
322,242,299400,1,0,0:0:0:0:
202,187,299562,1,8,0:0:0:0:
332,372,299724,1,0,0:0:0:0:
428,167,299887,6,0,P|388:107|336:80,1,129.999994049073,8|0,0:0|0:0,0:0:0:0:
136,171,300212,2,0,P|175:230|227:257,1,129.999994049073,8|0,0:0|0:0,0:0:0:0:
453,161,300536,2,0,P|413:101|361:74,1,129.999994049073,8|0,0:0|0:0,0:0:0:0:
163,165,300860,2,0,P|180:193|203:215,1,64.9999970245363,8|0,0:0|0:0,0:0:0:0:
380,198,301022,2,0,P|363:170|340:149,1,64.9999970245363,8|0,0:0|0:0,0:0:0:0:
103,283,301185,2,0,P|131:297|162:305,1,64.9999970245363,8|0,0:0|0:0,0:0:0:0:
363,76,301347,6,0,P|302:47|237:40,1,129.999994049073,8|8,0:0|0:0,0:0:0:0:
273,322,301670,1,0,0:0:0:0:
501,152,301832,1,8,0:0:0:0:
219,184,301994,1,0,0:0:0:0:
320,265,302156,1,8,0:0:0:0:
306,136,302318,1,0,0:0:0:0:
225,236,302481,1,8,0:0:0:0:
9,28,302643,6,0,P|93:10|186:20,1,129.999994049073,0|8,0:0|0:0,0:0:0:0:
320,265,302967,1,0,0:0:0:0:
7,298,303129,1,8,0:0:0:0:
263,115,303292,1,0,0:0:0:0:
208,233,303454,1,8,0:0:0:0:
162,110,303616,1,0,0:0:0:0:
280,162,303778,1,8,0:0:0:0:
45,335,303941,6,0,P|92:356|180:354,1,129.999994049073,0|8,0:0|0:0,0:0:0:0:
162,110,304265,1,0,0:0:0:0:
183,85,304346,1,0,0:0:0:0:
208,65,304427,1,8,0:0:0:0:
236,48,304508,1,0,0:0:0:0:
267,37,304589,1,0,0:0:0:0:
298,30,304670,1,0,0:0:0:0:
331,28,304751,1,8,0:0:0:0:
363,32,304832,1,0,0:0:0:0:
394,40,304913,1,0,0:0:0:0:
424,54,304994,1,0,0:0:0:0:
451,71,305076,2,0,P|472:98|488:139,1,64.9999970245363,8|0,0:0|0:0,0:0:0:0:
212,195,305238,5,8,0:0:0:0:
368,239,305400,1,8,0:0:0:0:
173,38,305562,1,8,0:0:0:0:
56,151,305724,1,8,0:0:0:0:
368,239,305887,1,8,0:0:0:0:
330,83,306049,1,8,0:0:0:0:
98,309,306211,5,8,0:0:0:0:
157,335,306292,1,8,0:0:0:0:
220,350,306373,1,8,0:0:0:0:
285,354,306454,1,8,0:0:0:0:
349,346,306535,6,0,P|410:312|458:242,1,129.999994049073,8|8,0:0|0:0,0:0:0:0:
387,134,306859,2,0,P|326:168|278:238,1,129.999994049073,0|8,0:0|0:0,0:0:0:0:
183,379,307184,1,0,0:0:0:0:
151,371,307265,1,0,0:0:0:0:
124,353,307346,1,8,0:0:0:0:
147,124,307508,1,0,0:0:0:0:
369,343,307670,5,8,0:0:0:0:
397,329,307751,1,0,0:0:0:0:
422,309,307832,1,0,0:0:0:0:
441,283,307913,1,0,0:0:0:0:
457,254,307994,1,8,0:0:0:0:
227,58,308157,5,0,0:0:0:0:
155,166,308319,1,8,0:0:0:0:
414,181,308481,1,0,0:0:0:0:
306,110,308644,1,8,0:0:0:0:
290,371,308806,1,0,0:0:0:0:
311,345,308887,1,0,0:0:0:0:
327,317,308968,1,8,0:0:0:0:
82,148,309130,6,0,L|66:278,1,129.999994049073,0|8,0:0|0:0,0:0:0:0:
325,139,309454,1,0,0:0:0:0:
141,326,309617,1,8,0:0:0:0:
207,74,309779,1,0,0:0:0:0:
243,199,309941,1,8,0:0:0:0:
81,42,310103,1,0,0:0:0:0:
333,39,310265,6,0,P|364:103|376:177,1,129.999994049073,8|0,0:0|0:0,0:0:0:0:
123,229,310589,1,8,0:0:0:0:
447,13,310832,5,8,0:0:0:0:
312,378,311076,5,8,0:0:0:0:
207,4,311319,5,8,0:0:0:0:
512,245,311562,5,8,0:0:0:0:
417,5,311724,2,0,P|349:-2|286:12,1,129.999994049073,8|8,0:0|0:0,0:0:0:0:
410,268,312048,1,0,0:0:0:0:
505,0,312210,1,8,0:0:0:0:
289,184,312372,1,0,0:0:0:0:
417,196,312534,1,8,0:0:0:0:
335,97,312696,1,0,0:0:0:0:
324,225,312859,1,8,0:0:0:0:
52,55,313022,6,0,P|128:15|220:-1,1,129.999994049073,0|8,0:0|0:0,0:0:0:0:
417,196,313346,1,0,0:0:0:0:
126,314,313508,1,8,0:0:0:0:
318,66,313671,1,0,0:0:0:0:
299,196,313833,1,8,0:0:0:0:
221,90,313995,1,0,0:0:0:0:
350,108,314157,1,8,0:0:0:0:
66,223,314319,6,0,P|125:282|189:281,1,129.999994049073,2|8,0:0|0:0,0:0:0:0:
221,90,314643,1,0,0:0:0:0:
253,95,314724,1,0,0:0:0:0:
285,100,314805,1,0,0:0:0:0:
317,105,314886,1,0,0:0:0:0:
349,110,314967,1,0,0:0:0:0:
381,115,315048,1,0,0:0:0:0:
432,123,315130,1,0,0:0:0:0:
483,131,315211,1,0,0:0:0:0:
505,177,315292,5,8,0:0:0:0:
509,228,315373,1,8,0:0:0:0:
497,279,315454,1,8,0:0:0:0:
472,324,315535,1,8,0:0:0:0:
423,367,315616,5,8,0:0:0:0:
360,348,315697,1,8,0:0:0:0:
310,331,315778,1,8,0:0:0:0:
260,315,315859,1,8,0:0:0:0:
247,263,315941,5,8,0:0:0:0:
197,247,316022,1,8,0:0:0:0:
147,231,316103,2,0,L|78:213,1,64.9999970245363,8|0,0:0|0:0,0:0:0:0:
57,376,316265,1,10,0:0:0:0:
468,197,316508,5,10,0:0:0:0:
52,34,316751,5,10,0:0:0:0:
51,243,316914,2,0,P|111:280|202:271,1,129.999994049073,0|8,0:0|0:0,0:0:0:0:
237,172,317238,1,0,0:0:0:0:
512,291,317400,6,0,P|482:348|429:384,1,129.999994049073,8|0,0:0|0:0,0:0:0:0:
315,322,317724,1,8,0:0:0:0:
396,26,317887,1,0,0:0:0:0:
368,10,317968,1,0,0:0:0:0:
337,1,318049,1,8,0:0:0:0:
94,174,318211,6,0,P|153:237|214:256,1,129.999994049073,0|8,0:0|0:0,0:0:0:0:
224,261,318454,1,0,0:0:0:0:
258,261,318535,1,0,0:0:0:0:
288,251,318617,1,0,0:0:0:0:
327,221,318698,2,0,L|340:73,1,129.999994049073,8|0,0:0|0:0,0:0:0:0:
402,275,319022,1,8,0:0:0:0:
218,131,319184,1,0,0:0:0:0:
259,7,319346,1,8,0:0:0:0:
45,227,319508,5,0,0:0:0:0:
174,219,319670,1,8,0:0:0:0:
103,112,319832,1,0,0:0:0:0:
373,95,319995,2,0,P|400:158|393:259,1,129.999994049073,8|0,0:0|0:0,0:0:0:0:
344,331,320319,1,8,0:0:0:0:
85,162,320481,1,8,0:0:0:0:
103,112,320562,1,8,0:0:0:0:
128,71,320643,1,8,0:0:0:0:
161,37,320724,1,8,0:0:0:0:
217,3,320805,5,8,0:0:0:0:
317,172,320968,1,8,0:0:0:0:
380,60,321130,1,0,0:0:0:0:
158,192,321292,2,0,L|177:331,1,129.999994049073,8|0,0:0|0:0,0:0:0:0:
59,163,321617,1,8,0:0:0:0:
298,221,321779,2,0,L|279:360,1,129.999994049073,0|8,0:0|0:0,0:0:0:0:
132,15,322103,6,0,P|205:-6|282:9,1,129.999994049073,0|8,0:0|0:0,0:0:0:0:
286,13,322346,1,0,0:0:0:0:
309,35,322427,1,0,0:0:0:0:
328,60,322508,1,0,0:0:0:0:
349,104,322589,2,0,L|298:223,1,129.999994049073,8|0,0:0|0:0,0:0:0:0:
443,115,322914,1,8,0:0:0:0:
156,206,323076,6,0,P|159:269|194:323,1,129.999994049073,0|8,0:0|0:0,0:0:0:0:
496,199,323400,1,0,0:0:0:0:
356,69,323562,1,8,0:0:0:0:
304,70,323643,1,8,0:0:0:0:
252,71,323724,2,8,L|162:73,1,64.9999970245363,8|8,0:0|0:0,0:0:0:0:
392,201,323887,5,8,0:0:0:0:
288,203,324049,1,8,0:0:0:0:
236,204,324130,1,8,0:0:0:0:
184,205,324211,2,8,L|76:208,1,64.9999970245363,8|8,0:0|0:0,0:0:0:0:
324,335,324373,5,8,0:0:0:0:
272,336,324454,1,8,0:0:0:0:
220,337,324535,2,8,L|111:339,1,64.9999970245363,8|8,0:0|0:0,0:0:0:0:
252,71,324697,1,10,0:0:0:0:
252,71,325670,5,0,0:0:0:0:
252,71,325995,6,0,P|305:91|375:168,1,119.999996337891,2|8,0:0|0:0,0:0:0:0:
285,299,326319,1,0,0:0:0:0:
285,299,326400,1,0,0:0:0:0:
285,299,326481,1,8,0:0:0:0:
205,137,326643,5,0,0:0:0:0:
126,227,326805,1,8,0:0:0:0:
87,114,326968,1,0,0:0:0:0:
8,205,327130,1,8,0:0:0:0:
49,8,327292,6,0,P|107:3|177:46,1,119.999996337891,0|8,0:0|0:0,0:0:0:0:
90,194,327616,1,0,0:0:0:0:
90,194,327697,1,0,0:0:0:0:
90,194,327778,1,8,0:0:0:0:
319,190,327941,5,0,0:0:0:0:
183,306,328103,1,8,0:0:0:0:
242,102,328265,1,0,0:0:0:0:
274,277,328427,1,8,0:0:0:0:
64,91,328589,6,0,P|102:49|187:28,1,119.999996337891,0|8,0:0|0:0,0:0:0:0:
321,110,328914,1,0,0:0:0:0:
321,110,328995,1,0,0:0:0:0:
321,110,329076,1,8,0:0:0:0:
156,180,329238,5,0,0:0:0:0:
250,254,329400,1,8,0:0:0:0:
139,300,329562,1,0,0:0:0:0:
234,373,329724,1,8,0:0:0:0:
21,285,329887,6,0,P|43:237|111:189,1,119.999996337891,2|8,0:0|0:0,0:0:0:0:
258,262,330211,1,0,0:0:0:0:
258,262,330292,1,0,0:0:0:0:
258,262,330373,1,8,0:0:0:0:
443,44,330535,6,0,P|399:14|317:6,1,119.999996337891,0|8,0:0|0:0,0:0:0:0:
338,243,330859,1,0,0:0:0:0:
128,126,331022,1,8,0:0:0:0:
428,123,331184,6,0,P|458:167|466:249,1,119.999996337891,0|8,0:0|0:0,0:0:0:0:
320,326,331508,1,0,0:0:0:0:
320,326,331589,1,0,0:0:0:0:
320,326,331670,1,8,0:0:0:0:
271,151,331832,5,0,0:0:0:0:
222,262,331995,1,8,0:0:0:0:
150,162,332157,1,0,0:0:0:0:
100,273,332319,1,8,0:0:0:0:
69,57,332481,6,0,P|135:24|205:45,1,119.999996337891,0|8,0:0|0:0,0:0:0:0:
316,161,332805,1,0,0:0:0:0:
316,161,332887,1,0,0:0:0:0:
316,161,332968,1,8,0:0:0:0:
81,209,333130,5,0,0:0:0:0:
209,335,333292,1,8,0:0:0:0:
162,125,333454,1,0,0:0:0:0:
118,301,333616,1,8,0:0:0:0:
316,161,333778,6,0,P|374:189|412:266,1,119.999996337891,0|8,0:0|0:0,0:0:0:0:
300,369,334103,1,0,0:0:0:0:
300,369,334184,1,0,0:0:0:0:
300,369,334265,1,8,0:0:0:0:
202,213,334427,5,0,0:0:0:0:
118,301,334589,1,8,0:0:0:0:
84,185,334751,1,0,0:0:0:0:
3,274,334914,1,8,0:0:0:0:
111,70,335076,5,8,0:0:0:0:
158,69,335157,1,8,0:0:0:0:
206,69,335238,1,8,0:0:0:0:
399,211,335400,1,8,0:0:0:0:
351,212,335481,1,8,0:0:0:0:
303,212,335562,1,8,0:0:0:0:
402,0,335724,5,8,0:0:0:0:
480,196,335887,1,8,0:0:0:0:
275,53,336049,1,8,0:0:0:0:
483,83,336212,1,8,0:0:0:0:
329,283,336373,5,0,0:0:0:0:
363,34,336535,1,8,0:0:0:0:
131,130,336697,1,0,0:0:0:0:
442,171,336859,2,0,P|470:248|470:318,1,119.999996337891,10|0,0:0|0:0,0:0:0:0:
301,343,337184,5,8,0:0:0:0:
280,224,337346,1,0,0:0:0:0:
394,266,337508,1,8,0:0:0:0:
145,311,337670,1,0,0:0:0:0:
339,148,337832,1,8,0:0:0:0:
101,62,337995,1,0,0:0:0:0:
304,304,338157,2,0,P|267:357|217:392,1,119.999996337891,8|0,0:0|0:0,0:0:0:0:
116,181,338481,5,8,0:0:0:0:
61,327,338643,1,0,0:0:0:0:
215,302,338805,1,8,0:0:0:0:
59,110,338968,1,0,0:0:0:0:
291,199,339130,1,8,0:0:0:0:
140,322,339292,1,0,0:0:0:0:
210,140,339454,2,0,P|265:101|340:111,1,119.999996337891,8|0,0:0|0:0,0:0:0:0:
319,280,339778,5,8,0:0:0:0:
439,280,339941,1,0,0:0:0:0:
379,177,340103,1,8,0:0:0:0:
259,383,340265,1,0,0:0:0:0:
199,279,340427,1,8,0:0:0:0:
439,280,340589,2,0,P|485:232|498:177,1,119.999996337891,0|8,0:0|0:0,0:0:0:0:
291,57,340914,5,0,0:0:0:0:
339,234,341076,1,8,0:0:0:0:
394,29,341238,1,0,0:0:0:0:
264,160,341400,1,8,0:0:0:0:
496,56,341562,5,0,0:0:0:0:
348,263,341724,1,8,0:0:0:0:
243,32,341887,1,0,0:0:0:0:
502,217,342049,2,0,P|491:293|458:346,1,119.999996337891,8|0,0:0|0:0,0:0:0:0:
332,193,342373,5,8,0:0:0:0:
254,285,342535,1,0,0:0:0:0:
374,306,342697,1,8,0:0:0:0:
178,147,342859,1,0,0:0:0:0:
428,187,343022,1,8,0:0:0:0:
269,383,343184,1,0,0:0:0:0:
319,72,343346,2,0,P|273:26|197:6,1,119.999996337891,8|0,0:0|0:0,0:0:0:0:
111,220,343670,5,8,0:0:0:0:
264,195,343832,1,0,0:0:0:0:
166,75,343995,1,8,0:0:0:0:
80,309,344157,1,0,0:0:0:0:
38,64,344319,1,8,0:0:0:0:
224,122,344481,1,0,0:0:0:0:
34,165,344643,2,0,P|6:227|10:293,1,119.999996337891,8|0,0:0|0:0,0:0:0:0:
179,307,344968,5,8,0:0:0:0:
191,188,345130,1,0,0:0:0:0:
82,238,345292,1,8,0:0:0:0:
334,264,345454,1,0,0:0:0:0:
103,368,345616,1,8,0:0:0:0:
129,116,345778,1,0,0:0:0:0:
213,302,345941,2,0,P|275:335|339:343,1,119.999996337891,8|0,0:0|0:0,0:0:0:0:
226,59,346265,5,8,0:0:0:0:
425,282,346427,1,8,0:0:0:0:
133,343,346589,2,0,P|104:287|107:222,1,119.999996337891,8|8,0:0|0:0,0:0:0:0:
110,217,346832,5,8,0:0:0:0:
118,204,346914,1,8,0:0:0:0:
297,194,347076,1,8,0:0:0:0:
291,208,347157,1,8,0:0:0:0:
283,221,347239,1,8,0:0:0:0:
151,59,347400,5,0,0:0:0:0:
293,80,347562,1,0,0:0:0:0:
204,193,347724,1,0,0:0:0:0:
346,214,347887,1,0,0:0:0:0:
137,333,348049,5,8,0:0:0:0:
135,317,348130,1,8,0:0:0:0:
135,302,348212,1,8,0:0:0:0:
312,277,348373,1,8,0:0:0:0:
314,293,348454,1,8,0:0:0:0:
314,308,348536,1,8,0:0:0:0:
142,142,348697,5,0,0:0:0:0:
331,114,348859,1,0,0:0:0:0:
157,245,349022,1,0,0:0:0:0:
227,67,349184,1,0,0:0:0:0:
253,283,349346,5,8,0:0:0:0:
269,285,349427,1,8,0:0:0:0:
284,285,349509,1,8,0:0:0:0:
382,135,349670,1,8,0:0:0:0:
368,133,349751,1,8,0:0:0:0:
352,134,349833,1,8,0:0:0:0:
426,329,349994,5,0,0:0:0:0:
479,196,350156,1,0,0:0:0:0:
337,216,350318,1,0,0:0:0:0:
389,83,350481,1,0,0:0:0:0:
196,238,350643,5,8,0:0:0:0:
179,233,350724,1,8,0:0:0:0:
165,229,350806,1,8,0:0:0:0:
202,54,350967,1,8,0:0:0:0:
217,57,351048,1,8,0:0:0:0:
231,62,351130,1,8,0:0:0:0:
46,215,351292,5,0,0:0:0:0:
141,366,351454,1,8,0:0:0:0:
319,359,351616,1,8,0:0:0:0:
402,200,351778,1,8,0:0:0:0:
46,215,351941,38,0,B|35:159|53:94|166:31|139:68|245:126|468:41|468:41|352:155|352:155|475:133|475:133|361:216|361:216|475:208|475:208|375:274|375:274|457:282|457:282|325:369|18:419|32:280|112:80|204:77|317:113|348:245|241:293|208:239,1,2006.00001224365,0|0,0:0|2:0,0:0:0:0:
