osu file format v14

[General]
AudioFilename: 12 gothic lolita agitator.mp3
AudioLeadIn: 0
PreviewTime: 221414
Countdown: 0
SampleSet: Soft
StackLeniency: 0.7
Mode: 0
LetterboxInBreaks: 0
WidescreenStoryboard: 1

[Editor]
Bookmarks: 96141,139959,175777,395414,458686
DistanceSpacing: 2.2
BeatDivisor: 4
GridSize: 8
TimelineZoom: 2.699998

[Metadata]
Title:Gothic Lolita Agitator
TitleUnicode:Gothic Lolita Agitator
Artist:Yousei Teikoku
ArtistUnicode:妖精帝國
Creator:Wintermute
Version:Depth of Winter
Source:
Tags:
BeatmapID:1041699
BeatmapSetID:374953

[Difficulty]
HPDrainRate:5.5
CircleSize:4.2
OverallDifficulty:8.5
ApproachRate:9.4
SliderMultiplier:1.9
SliderTickRate:2

[Events]
//Background and Video events
0,0,"GLA768.png",0,0
//Break Periods
2,257250,265541
2,348899,358450
//Storyboard Layer 0 (Background)
//Storyboard Layer 1 (Fail)
//Storyboard Layer 2 (Pass)
//Storyboard Layer 3 (Foreground)
//Storyboard Sound Samples

[TimingPoints]
142,363.636363636364,4,2,1,53,1,0
80505,-100,4,2,1,5,0,0
85596,363.636363636364,4,2,1,53,1,0
95777,-80,4,2,1,53,0,0
97232,-100,4,2,1,53,0,0
108868,-100,4,2,1,53,0,0
114141,-100,4,2,1,53,0,0
115050,-100,4,2,1,53,0,0
119050,-100,4,2,1,53,0,0
119777,-200,4,2,1,53,0,0
120505,-100,4,2,1,53,0,0
123414,-100,4,2,1,53,0,0
124141,-100,4,2,1,53,0,0
125777,-100,4,2,1,53,0,0
126686,-100,4,2,1,53,0,0
127232,-100,4,2,1,53,0,0
129232,-100,4,2,1,53,0,0
130686,-100,4,2,1,53,0,0
140868,-100,4,2,1,53,0,0
152505,-100,4,2,1,53,0,0
156868,-100,4,2,1,53,0,0
157777,-100,4,2,1,53,0,0
162686,-100,4,2,1,53,0,0
163414,-166.666666666667,4,2,1,53,0,0
164141,-100,4,2,1,53,0,0
169414,-100,4,2,1,53,0,0
170323,-100,4,2,1,53,0,0
187414,-80,4,2,1,53,0,1
219414,-100,4,2,1,53,0,1
222323,-80,4,2,1,53,0,0
227232,-200,4,2,1,53,0,0
227596,-80,4,2,1,53,0,0
232505,-200,4,2,1,53,0,0
233232,-80,4,2,1,53,0,0
233959,-100,4,2,1,53,0,0
245596,-100,4,2,1,53,0,0
266141,-200,4,2,1,45,0,0
268323,-100,4,2,1,53,0,0
289232,-300,4,2,1,53,0,0
300868,-166.666666666667,4,2,1,40,0,0
313973,363.636363636364,4,2,1,30,1,0
313973,-166.666666666667,4,2,1,30,0,0
325609,-166.666666666667,4,2,1,30,0,0
359063,-100,4,2,1,53,0,0
360518,-100,4,3,1,53,0,0
372154,-80,4,2,1,53,0,1
393972,-50,4,2,1,53,0,1
395427,-100,4,2,1,53,0,0
407063,-80,4,2,1,53,0,1
439063,-100,4,2,1,53,0,1
441972,-80,4,2,1,53,0,0
442699,-80,4,2,1,53,0,0
446699,-200,4,2,1,53,0,0
447790,-79.7448165869218,4,2,1,53,0,0
452699,-166.666666666667,4,2,1,53,0,0
453609,-100,4,2,1,53,0,0
473973,-300,4,2,1,53,0,0
475063,-66.6666666666667,4,2,1,53,0,0
476881,-100,4,2,1,53,0,0
500154,-80,4,2,1,53,0,1
505063,-200,4,2,1,53,0,1
505972,-80,4,2,1,53,0,1
510699,-200,4,2,1,53,0,1
511790,-80,4,2,1,53,0,1
516518,-200,4,2,1,53,0,1
517609,-80,4,2,1,53,0,1
521972,-100,4,2,1,53,0,1
524881,-200,4,2,1,53,0,0
552518,-166.666666666667,4,2,1,53,0,0

[Colours]
Combo1 : 192,192,192
Combo2 : 240,30,125
Combo3 : 30,125,240
Combo4 : 88,91,116

[HitObjects]
256,192,80505,12,0,84142,0:0:0:0:
256,192,84323,12,0,85414,0:0:0:0:
121,253,85595,5,12,0:0:0:0:
396,179,85777,1,0,0:0:0:0:
396,179,85868,1,0,0:0:0:0:
396,179,85959,2,0,P|403:127|384:73,1,95,8|0,0:0|0:0,0:0:0:0:
220,169,86322,1,8,0:0:0:0:
357,271,86504,1,0,0:0:0:0:
314,134,86686,1,8,0:0:0:0:
219,298,86868,1,0,0:0:0:0:
29,208,87050,6,4,P|89:198|156:220,1,95,8|0,0:0|0:0,0:0:0:0:
157,222,87322,1,0,0:0:0:0:
157,222,87413,1,8,0:0:0:0:
82,320,87595,1,0,0:0:0:0:
125,95,87777,5,8,0:0:0:0:
407,251,87959,1,8,0:0:0:0:
125,95,88141,1,8,0:0:0:0:
407,251,88323,1,8,0:0:0:0:
250,218,88504,6,0,P|268:171|253:101,1,95,12|0,0:0|0:0,0:0:0:0:
168,160,88777,1,0,0:0:0:0:
168,160,88868,1,8,0:0:0:0:
308,287,89050,1,0,0:0:0:0:
357,124,89231,1,8,0:0:0:0:
250,218,89413,1,0,0:0:0:0:
447,171,89595,2,0,P|452:114|437:43,1,95,8|0,0:0|0:0,0:0:0:0:
262,127,89959,5,8,0:0:0:0:
439,268,90140,1,0,0:0:0:0:
439,268,90231,1,0,0:0:0:0:
439,268,90322,1,8,0:0:0:0:
257,324,90504,1,0,0:0:0:0:
90,196,90686,5,8,0:0:0:0:
371,355,90868,1,8,0:0:0:0:
97,182,91050,1,8,0:0:0:0:
362,363,91231,1,8,0:0:0:0:
265,54,91413,5,4,0:0:0:0:
95,276,91595,1,8,0:0:0:0:
95,276,91686,1,0,0:0:0:0:
95,276,91777,2,0,P|92:226|99:171,1,95,8|0,0:0|0:0,0:0:0:0:
323,157,92140,1,8,0:0:0:0:
205,237,92322,1,0,0:0:0:0:
171,98,92504,1,8,0:0:0:0:
339,175,92686,1,0,0:0:0:0:
252,339,92868,6,12,P|201:348|134:327,1,95,12|0,0:0|0:0,0:0:0:0:
76,126,93232,1,8,0:0:0:0:
205,237,93414,1,0,0:0:0:0:
254,53,93596,5,8,0:0:0:0:
56,306,93777,1,8,0:0:0:0:
266,60,93959,1,8,0:0:0:0:
41,292,94141,1,8,0:0:0:0:
364,267,94323,6,0,P|379:217|361:146,1,95,4|8,0:0|0:0,0:0:0:0:
282,210,94595,1,0,0:0:0:0:
263,221,94686,2,0,P|253:275|274:352,1,95,0|8,0:0|0:0,0:0:0:0:
442,366,95050,5,12,0:0:0:0:
364,267,95232,1,0,0:0:0:0:
453,181,95414,1,12,0:0:0:0:
369,89,95596,1,0,0:0:0:0:
53,68,95777,5,12,0:0:0:0:
73,185,95959,1,0,0:0:0:0:
164,337,96141,5,12,0:0:0:0:
188,220,96323,1,0,0:0:0:0:
268,51,96505,5,12,0:0:0:0:
320,221,96687,1,0,0:0:0:0:
434,338,96868,5,12,0:0:0:0:
430,159,97050,1,0,0:0:0:0:
263,326,97231,5,4,0:0:0:0:
430,159,97413,1,8,0:0:0:0:
430,159,97504,1,0,0:0:0:0:
430,159,97596,2,0,P|434:101|420:36,1,95,0|8,0:0|0:0,0:0:0:0:
294,114,97959,1,0,0:0:0:0:
373,265,98141,1,8,0:0:0:0:
211,209,98323,1,8,0:0:0:0:
373,265,98505,1,8,0:0:0:0:
363,102,98686,6,0,P|313:96|238:111,1,95,0|8,0:0|0:0,0:0:0:0:
189,190,98959,1,0,0:0:0:0:
211,209,99050,2,0,P|261:215|334:200,1,95,0|8,0:0|0:0,0:0:0:0:
64,82,99414,5,8,0:0:0:0:
258,341,99596,1,8,0:0:0:0:
54,91,99777,1,8,0:0:0:0:
272,330,99959,1,8,0:0:0:0:
199,54,100141,5,4,0:0:0:0:
70,219,100323,1,8,0:0:0:0:
70,219,100414,1,0,0:0:0:0:
70,219,100505,1,0,0:0:0:0:
228,156,100686,1,8,0:0:0:0:
167,315,100868,1,0,0:0:0:0:
132,147,101050,1,8,0:0:0:0:
260,259,101232,1,0,0:0:0:0:
398,158,101414,1,8,0:0:0:0:
180,226,101596,5,8,0:0:0:0:
303,87,101777,1,8,0:0:0:0:
303,87,101868,1,0,0:0:0:0:
303,87,101959,2,0,P|310:131|299:194,1,95,0|8,0:0|0:0,0:0:0:0:
23,355,102323,5,8,0:0:0:0:
303,180,102505,1,8,0:0:0:0:
23,355,102686,1,8,0:0:0:0:
303,180,102868,1,8,0:0:0:0:
81,233,103050,6,0,P|73:181|87:131,1,95,4|8,0:0|0:0,0:0:0:0:
179,186,103323,1,0,0:0:0:0:
210,216,103414,2,0,P|206:271|169:331,1,95,0|8,0:0|0:0,0:0:0:0:
357,341,103777,5,0,0:0:0:0:
458,240,103959,1,8,0:0:0:0:
343,155,104141,1,0,0:0:0:0:
443,54,104323,1,8,0:0:0:0:
361,245,104505,5,4,0:0:0:0:
228,98,104686,1,8,0:0:0:0:
228,98,104777,1,0,0:0:0:0:
228,98,104868,1,0,0:0:0:0:
205,238,105050,1,8,0:0:0:0:
493,141,105232,5,8,0:0:0:0:
205,238,105414,1,8,0:0:0:0:
493,141,105596,1,8,0:0:0:0:
205,238,105777,1,8,0:0:0:0:
355,72,105959,5,4,0:0:0:0:
289,349,106141,2,0,L|227:352,2,47.5,8|0|0,0:0|0:0|0:0,0:0:0:0:
378,201,106505,1,8,0:0:0:0:
205,238,106686,1,4,0:0:0:0:
273,81,106868,1,8,0:0:0:0:
284,282,107050,2,0,P|291:214|275:178,1,95,4|8,0:0|0:0,0:0:0:0:
140,119,107414,5,12,0:0:0:0:
254,164,107596,1,0,0:0:0:0:
182,359,107777,5,12,0:0:0:0:
166,226,107959,1,0,0:0:0:0:
310,74,108141,5,12,0:0:0:0:
357,177,108323,1,0,0:0:0:0:
170,200,108505,5,12,0:0:0:0:
272,152,108686,1,0,0:0:0:0:
383,204,108868,6,0,P|394:255|385:322,1,95,4|8,0:0|0:0,0:0:0:0:
269,267,109232,1,8,0:0:0:0:
356,120,109414,1,8,0:0:0:0:
356,120,109505,1,0,0:0:0:0:
356,120,109596,1,0,0:0:0:0:
483,182,109777,1,8,0:0:0:0:
404,30,109959,2,0,P|358:17|312:25,1,95,0|8,0:0|0:0,0:0:0:0:
225,180,110323,5,0,0:0:0:0:
356,120,110505,1,8,0:0:0:0:
310,254,110686,1,0,0:0:0:0:
123,215,110868,2,0,P|121:157|136:114,1,95,8|0,0:0|0:0,0:0:0:0:
225,180,111232,1,8,0:0:0:0:
178,306,111414,1,0,0:0:0:0:
197,97,111596,1,8,0:0:0:0:
263,360,111777,5,0,0:0:0:0:
277,314,111868,1,0,0:0:0:0:
270,268,111960,1,8,0:0:0:0:
241,229,112051,1,0,0:0:0:0:
198,210,112143,1,0,0:0:0:0:
58,230,112323,1,8,0:0:0:0:
178,306,112505,1,0,0:0:0:0:
122,175,112686,1,8,0:0:0:0:
250,112,112868,1,0,0:0:0:0:
142,18,113050,1,8,0:0:0:0:
216,210,113232,5,0,0:0:0:0:
235,214,113323,1,0,0:0:0:0:
254,215,113413,1,8,0:0:0:0:
274,216,113504,1,0,0:0:0:0:
292,217,113595,1,0,0:0:0:0:
312,216,113686,1,0,0:0:0:0:
332,212,113777,1,8,0:0:0:0:
350,206,113868,1,0,0:0:0:0:
367,195,113959,5,2,0:0:0:0:
398,132,114050,1,0,0:0:0:0:
389,61,114141,1,8,0:0:0:0:
338,13,114232,1,0,0:0:0:0:
268,0,114323,5,0,0:0:0:0:
204,28,114414,1,0,0:0:0:0:
166,87,114505,1,0,0:0:0:0:
168,158,114596,1,0,0:0:0:0:
210,215,114686,6,0,L|301:262,1,95,4|8,0:0|0:0,0:0:0:0:
283,116,115050,1,0,0:0:0:0:
284,287,115232,1,8,0:0:0:0:
297,97,115414,1,0,0:0:0:0:
263,304,115596,1,8,0:0:0:0:
397,200,115777,1,0,0:0:0:0:
263,304,115959,1,8,0:0:0:0:
121,207,116141,6,0,P|125:148|139:110,1,95,4|8,0:0|0:0,0:0:0:0:
244,178,116505,1,0,0:0:0:0:
106,332,116685,1,8,0:0:0:0:
18,140,116868,1,0,0:0:0:0:
185,264,117050,1,8,0:0:0:0:
30,124,117231,1,8,0:0:0:0:
221,40,117413,1,8,0:0:0:0:
6,255,117595,5,4,0:0:0:0:
157,109,117777,1,8,0:0:0:0:
15,267,117959,1,0,0:0:0:0:
143,100,118141,1,8,0:0:0:0:
131,228,118323,5,4,0:0:0:0:
449,171,118505,1,8,0:0:0:0:
129,208,118686,1,4,0:0:0:0:
447,152,118868,1,8,0:0:0:0:
145,344,119050,5,0,0:0:0:0:
210,315,119141,1,0,0:0:0:0:
248,255,119232,1,8,0:0:0:0:
250,183,119323,1,0,0:0:0:0:
217,119,119414,1,0,0:0:0:0:
154,84,119505,1,0,0:0:0:0:
82,83,119596,1,8,0:0:0:0:
21,119,119686,1,0,0:0:0:0:
0,187,119777,6,0,B|4:304|4:304,1,95,4|0,0:0|0:0,0:0:0:0:
120,211,120505,5,4,0:0:0:0:
234,85,120686,1,8,0:0:0:0:
362,197,120868,1,0,0:0:0:0:
220,180,121050,1,8,0:0:0:0:
336,97,121232,1,8,0:0:0:0:
461,246,121414,2,0,P|473:200|466:154,1,95,8|8,0:0|0:0,0:0:0:0:
362,197,121777,1,8,0:0:0:0:
301,293,121959,6,0,P|342:307|399:303,1,95,0|8,0:0|0:0,0:0:0:0:
362,197,122232,1,0,0:0:0:0:
341,174,122323,2,0,P|290:170|237:187,1,95,0|8,0:0|0:0,0:0:0:0:
301,293,122686,1,0,0:0:0:0:
136,244,122868,1,8,0:0:0:0:
311,316,123050,1,0,0:0:0:0:
130,210,123232,1,8,0:0:0:0:
258,44,123414,5,4,0:0:0:0:
286,76,123505,1,0,0:0:0:0:
296,117,123596,1,8,0:0:0:0:
288,158,123686,1,0,0:0:0:0:
265,194,123777,1,0,0:0:0:0:
130,210,123959,1,8,0:0:0:0:
196,120,124141,1,0,0:0:0:0:
208,271,124323,1,8,0:0:0:0:
355,234,124505,2,0,B|394:265|394:265|408:308,1,95,0|8,0:0|0:0,0:0:0:0:
314,322,124868,5,0,0:0:0:0:
265,187,125050,1,8,0:0:0:0:
314,322,125232,1,0,0:0:0:0:
366,119,125414,1,8,0:0:0:0:
314,322,125596,5,8,0:0:0:0:
275,327,125686,1,0,0:0:0:0:
238,324,125777,1,8,0:0:0:0:
203,312,125868,1,0,0:0:0:0:
170,295,125959,2,0,L|125:253,1,47.5
262,139,126141,2,0,L|265:191,1,47.5,8|0,0:0|0:0,0:0:0:0:
39,304,126323,6,0,P|31:258|69:179,1,95,12|8,0:0|0:0,0:0:0:0:
135,262,126686,1,0,0:0:0:0:
262,139,126868,1,8,0:0:0:0:
240,241,127050,2,0,P|293:239|346:201,1,95,0|8,0:0|0:0,0:0:0:0:
262,139,127414,1,0,0:0:0:0:
251,135,127505,1,0,0:0:0:0:
242,130,127596,1,8,0:0:0:0:
233,127,127686,1,0,0:0:0:0:
223,124,127777,6,0,L|152:187,1,95,4|8,0:0|0:0,0:0:0:0:
291,287,128141,1,0,0:0:0:0:
426,127,128323,1,8,0:0:0:0:
342,205,128505,2,0,P|335:149|340:96,1,95,0|8,0:0|0:0,0:0:0:0:
480,204,128868,1,0,0:0:0:0:
485,227,128959,1,0,0:0:0:0:
486,251,129050,1,8,0:0:0:0:
483,274,129141,1,0,0:0:0:0:
477,297,129232,5,4,0:0:0:0:
305,302,129414,1,8,0:0:0:0:
263,136,129596,1,8,0:0:0:0:
390,249,129777,1,8,0:0:0:0:
268,103,129959,1,4,0:0:0:0:
388,273,130141,1,8,0:0:0:0:
464,58,130323,1,4,0:0:0:0:
389,293,130505,1,8,0:0:0:0:
176,194,130686,6,0,L|135:160,2,47.5,8|0|8,0:0|0:0|0:0,0:0:0:0:
375,157,131050,2,0,L|383:97,2,47.5,8|0|8,0:0|0:0|0:0,0:0:0:0:
76,342,131414,1,0,0:0:0:0:
143,364,131505,1,0,0:0:0:0:
213,363,131596,1,8,0:0:0:0:
278,335,131686,1,0,0:0:0:0:
325,281,131777,1,8,0:0:0:0:
345,212,131868,1,0,0:0:0:0:
342,140,131959,1,0,0:0:0:0:
302,80,132050,1,0,0:0:0:0:
241,42,132141,5,4,0:0:0:0:
176,194,132323,1,8,0:0:0:0:
326,111,132505,1,0,0:0:0:0:
156,94,132686,1,8,0:0:0:0:
249,246,132868,2,8,P|265:195|251:148,1,95
176,194,133232,1,0,0:0:0:0:
249,60,133414,1,8,0:0:0:0:
58,65,133596,5,0,0:0:0:0:
176,194,133777,1,8,0:0:0:0:
56,316,133959,1,0,0:0:0:0:
275,247,134141,1,8,0:0:0:0:
158,204,134323,2,0,P|153:256|173:320,1,95,0|8,0:0|0:0,0:0:0:0:
275,247,134686,1,0,0:0:0:0:
224,89,134868,1,8,0:0:0:0:
465,214,135050,5,0,0:0:0:0:
302,159,135232,1,8,0:0:0:0:
465,214,135414,2,0,L|424:251,1,47.5
306,154,135596,1,8,0:0:0:0:
210,295,135777,5,0,0:0:0:0:
415,125,135959,1,8,0:0:0:0:
210,295,136141,2,0,L|250:320,1,47.5
415,125,136323,1,8,0:0:0:0:
139,155,136505,5,0,0:0:0:0:
262,322,136686,1,8,0:0:0:0:
256,112,136868,1,0,0:0:0:0:
133,293,137050,1,8,0:0:0:0:
297,223,137232,1,8,0:0:0:0:
82,71,137414,1,8,0:0:0:0:
62,103,137505,1,0,0:0:0:0:
52,139,137596,1,0,0:0:0:0:
53,176,137686,1,0,0:0:0:0:
70,210,137777,1,8,0:0:0:0:
95,238,137868,1,0,0:0:0:0:
129,253,137959,5,4,0:0:0:0:
251,233,138141,1,8,0:0:0:0:
169,35,138323,5,4,0:0:0:0:
139,155,138504,1,8,0:0:0:0:
389,76,138686,5,4,0:0:0:0:
267,98,138868,1,8,0:0:0:0:
328,331,139050,5,4,0:0:0:0:
391,225,139232,1,8,0:0:0:0:
68,125,139414,5,4,0:0:0:0:
120,327,139596,1,8,0:0:0:0:
170,56,139777,5,4,0:0:0:0:
199,264,139959,1,8,0:0:0:0:
342,56,140141,5,4,0:0:0:0:
313,263,140323,1,8,0:0:0:0:
444,125,140505,5,4,0:0:0:0:
392,327,140687,1,8,0:0:0:0:
342,56,140868,5,4,0:0:0:0:
492,227,141050,1,8,0:0:0:0:
492,227,141141,1,0,0:0:0:0:
492,227,141232,2,0,P|439:237|362:217,1,95,0|8,0:0|0:0,0:0:0:0:
263,124,141596,1,0,0:0:0:0:
439,115,141777,1,8,0:0:0:0:
308,225,141959,1,0,0:0:0:0:
345,57,142141,1,8,0:0:0:0:
415,212,142323,5,0,0:0:0:0:
228,116,142505,1,8,0:0:0:0:
228,116,142595,1,0,0:0:0:0:
228,116,142686,2,0,P|222:162|227:216,1,95,0|8,0:0|0:0,0:0:0:0:
322,159,143050,5,8,0:0:0:0:
48,78,143232,1,8,0:0:0:0:
222,350,143414,1,8,0:0:0:0:
437,109,143596,1,8,0:0:0:0:
133,215,143777,5,4,0:0:0:0:
356,304,143959,1,8,0:0:0:0:
356,304,144050,1,0,0:0:0:0:
356,304,144141,2,0,P|367:255|357:203,1,95,0|8,0:0|0:0,0:0:0:0:
288,87,144505,1,0,0:0:0:0:
245,251,144686,1,8,0:0:0:0:
316,74,144868,1,0,0:0:0:0:
210,254,145050,1,8,0:0:0:0:
109,111,145232,5,0,0:0:0:0:
326,179,145414,1,8,0:0:0:0:
326,179,145505,1,0,0:0:0:0:
326,179,145596,1,0,0:0:0:0:
153,311,145777,1,8,0:0:0:0:
86,83,145959,5,8,0:0:0:0:
351,267,146141,1,8,0:0:0:0:
78,92,146323,1,8,0:0:0:0:
342,278,146505,1,8,0:0:0:0:
184,141,146686,5,4,0:0:0:0:
288,332,146868,1,8,0:0:0:0:
288,332,146959,1,0,0:0:0:0:
288,332,147050,2,0,P|297:276|282:211,1,95,0|8,0:0|0:0,0:0:0:0:
85,173,147414,1,0,0:0:0:0:
182,278,147596,1,8,0:0:0:0:
305,110,147777,1,0,0:0:0:0:
198,173,147959,1,8,0:0:0:0:
404,275,148141,5,4,0:0:0:0:
305,110,148323,1,8,0:0:0:0:
305,110,148414,1,0,0:0:0:0:
305,110,148505,1,0,0:0:0:0:
299,232,148686,1,8,0:0:0:0:
410,91,148868,5,8,0:0:0:0:
186,325,149050,1,8,0:0:0:0:
420,102,149232,1,8,0:0:0:0:
195,334,149414,1,8,0:0:0:0:
142,151,149596,5,4,0:0:0:0:
411,309,149777,1,8,0:0:0:0:
411,309,149868,1,0,0:0:0:0:
411,309,149959,2,0,P|421:263|414:217,1,95,0|8,0:0|0:0,0:0:0:0:
275,113,150323,1,12,0:0:0:0:
287,260,150505,1,8,0:0:0:0:
386,121,150686,1,12,0:0:0:0:
211,196,150868,1,0,0:0:0:0:
474,162,151050,6,0,P|478:109|465:62,1,95,4|8,0:0|0:0,0:0:0:0:
123,155,151414,6,0,P|119:208|132:255,1,95,4|8,0:0|0:0,0:0:0:0:
394,215,151777,6,0,L|383:88,1,95,4|8,0:0|0:0,0:0:0:0:
211,196,152141,6,0,L|235:316,1,95,4|8,0:0|0:0,0:0:0:0:
448,311,152505,6,0,P|395:324|323:303,1,95,4|8,0:0|0:0,0:0:0:0:
269,127,152868,1,0,0:0:0:0:
394,215,153050,1,8,0:0:0:0:
268,282,153232,1,0,0:0:0:0:
306,115,153414,1,8,0:0:0:0:
478,173,153596,2,0,P|482:218|462:297,1,95,0|8,0:0|0:0,0:0:0:0:
181,324,153959,6,0,P|180:280|197:200,1,95,4|8,0:0|0:0,0:0:0:0:
332,209,154232,1,0,0:0:0:0:
348,229,154323,2,0,P|355:276|354:324,2,95,0|8|0,0:0|0:0|0:0,0:0:0:0:
216,148,154867,1,8,0:0:0:0:
268,281,155050,1,8,0:0:0:0:
304,55,155232,1,8,0:0:0:0:
216,178,155413,5,0,0:0:0:0:
124,32,155596,2,0,P|109:92|134:157,1,95,8|0,0:0|0:0,0:0:0:0:
291,240,155959,1,8,0:0:0:0:
367,87,156141,1,0,0:0:0:0:
216,178,156323,1,8,0:0:0:0:
374,299,156505,2,0,P|386:239|363:178,1,95,0|8,0:0|0:0,0:0:0:0:
156,56,156868,5,0,0:0:0:0:
124,76,156959,1,0,0:0:0:0:
98,104,157050,1,8,0:0:0:0:
85,140,157141,1,0,0:0:0:0:
80,178,157232,1,0,0:0:0:0:
85,217,157323,1,0,0:0:0:0:
100,252,157414,1,8,0:0:0:0:
125,284,157505,1,0,0:0:0:0:
155,304,157596,1,0,0:0:0:0:
345,240,157777,1,8,0:0:0:0:
216,178,157959,1,0,0:0:0:0:
350,258,158141,1,8,0:0:0:0:
196,169,158323,5,4,0:0:0:0:
341,272,158505,1,8,0:0:0:0:
407,146,158686,1,0,0:0:0:0:
260,232,158868,1,8,0:0:0:0:
426,234,159050,1,0,0:0:0:0:
314,104,159232,1,8,0:0:0:0:
261,324,159414,2,0,B|240:278|261:232,1,95,0|8,0:0|0:0,0:0:0:0:
499,112,159777,5,4,0:0:0:0:
342,272,159959,1,8,0:0:0:0:
314,104,160141,1,0,0:0:0:0:
444,212,160323,1,8,0:0:0:0:
272,204,160505,1,0,0:0:0:0:
396,132,160686,1,8,0:0:0:0:
348,296,160868,1,8,0:0:0:0:
212,68,161050,1,8,0:0:0:0:
33,225,161232,6,0,B|38:273|84:340,1,95,4|8,0:0|0:0,0:0:0:0:
100,106,161596,1,0,0:0:0:0:
35,258,161777,6,0,B|56:301|122:348,1,95,8|4,0:0|0:0,0:0:0:0:
100,106,162141,1,8,0:0:0:0:
48,288,162323,6,0,B|83:322|161:344,1,95,4|8,0:0|0:0,0:0:0:0:
100,106,162686,1,0,0:0:0:0:
100,106,162777,1,0,0:0:0:0:
100,106,162868,1,0,0:0:0:0:
137,76,162959,1,0,0:0:0:0:
183,64,163050,1,0,0:0:0:0:
230,70,163141,1,0,0:0:0:0:
270,93,163232,1,0,0:0:0:0:
287,138,163323,1,0,0:0:0:0:
288,186,163414,6,0,B|229:173|229:173|182:198,1,113.999996520996,4|0,0:0|0:0,0:0:0:0:
167,219,163838,5,0,0:0:0:0:
166,229,163899,1,0,0:0:0:0:
165,241,163959,1,0,0:0:0:0:
166,252,164020,1,0,0:0:0:0:
168,262,164080,1,0,0:0:0:0:
171,274,164141,5,4,0:0:0:0:
332,328,164323,1,8,0:0:0:0:
400,172,164504,1,0,0:0:0:0:
263,239,164686,1,8,0:0:0:0:
428,280,164868,1,0,0:0:0:0:
268,220,165050,1,8,0:0:0:0:
428,280,165232,1,8,0:0:0:0:
500,124,165414,1,8,0:0:0:0:
340,40,165596,5,0,0:0:0:0:
339,77,165686,1,0,0:0:0:0:
345,114,165777,1,8,0:0:0:0:
357,150,165868,1,0,0:0:0:0:
378,181,165959,1,0,0:0:0:0:
278,320,166141,1,8,0:0:0:0:
256,150,166323,1,0,0:0:0:0:
175,245,166505,1,8,0:0:0:0:
345,220,166686,2,0,P|352:163|346:116,1,95,8|8,0:0|0:0,0:0:0:0:
278,320,167050,5,4,0:0:0:0:
311,338,167141,1,0,0:0:0:0:
348,343,167232,1,8,0:0:0:0:
385,337,167323,1,0,0:0:0:0:
419,321,167414,1,0,0:0:0:0:
475,159,167596,1,8,0:0:0:0:
345,220,167777,1,0,0:0:0:0:
276,94,167959,1,8,0:0:0:0:
389,141,168141,2,0,P|394:88|390:39,1,95,0|8,0:0|0:0,0:0:0:0:
242,194,168505,6,0,P|237:247|241:296,1,95,0|8,0:0|0:0,0:0:0:0:
276,94,168868,1,0,0:0:0:0:
149,200,169050,1,8,0:0:0:0:
276,314,169232,1,8,0:0:0:0:
152,106,169414,1,8,0:0:0:0:
114,113,169505,1,0,0:0:0:0:
82,134,169596,1,0,0:0:0:0:
62,166,169686,1,0,0:0:0:0:
57,203,169777,1,8,0:0:0:0:
63,240,169868,1,0,0:0:0:0:
79,274,169959,6,0,B|134:290|134:290|166:320,1,95,4|8,0:0|0:0,0:0:0:0:
263,177,170323,1,0,0:0:0:0:
161,315,170505,1,8,0:0:0:0:
296,170,170686,1,0,0:0:0:0:
122,331,170868,1,8,0:0:0:0:
330,164,171050,1,0,0:0:0:0:
348,167,171141,1,0,0:0:0:0:
366,173,171232,1,8,0:0:0:0:
383,180,171323,1,0,0:0:0:0:
400,188,171414,6,0,P|405:248|404:289,1,95,4|8,0:0|0:0,0:0:0:0:
215,192,171777,1,0,0:0:0:0:
404,282,171959,1,8,0:0:0:0:
210,99,172141,1,0,0:0:0:0:
359,364,172323,1,8,0:0:0:0:
305,45,172505,2,0,L|283:-9,1,47.5
309,151,172686,2,0,L|321:203,1,47.5,8|0,0:0|0:0,0:0:0:0:
259,274,172868,5,4,0:0:0:0:
59,163,173050,1,8,0:0:0:0:
210,99,173232,1,0,0:0:0:0:
125,247,173414,1,8,0:0:0:0:
44,74,173596,1,4,0:0:0:0:
374,294,173777,1,8,0:0:0:0:
346,154,173959,1,4,0:0:0:0:
237,246,174141,1,8,0:0:0:0:
443,209,174323,5,4,0:0:0:0:
456,139,174414,1,0,0:0:0:0:
423,75,174505,1,8,0:0:0:0:
358,44,174596,1,0,0:0:0:0:
290,62,174686,1,8,0:0:0:0:
173,174,174868,1,8,0:0:0:0:
346,154,175050,1,0,0:0:0:0:
163,207,175232,1,8,0:0:0:0:
352,119,175414,1,8,0:0:0:0:
163,248,175596,1,8,0:0:0:0:
98,30,175777,5,4,0:0:0:0:
85,65,175868,1,0,0:0:0:0:
76,102,175959,1,8,0:0:0:0:
72,139,176050,1,0,0:0:0:0:
74,176,176141,1,8,0:0:0:0:
414,354,176505,5,12,0:0:0:0:
427,319,176596,1,0,0:0:0:0:
436,282,176687,1,8,0:0:0:0:
440,245,176778,1,0,0:0:0:0:
438,208,176869,1,8,0:0:0:0:
283,160,177232,5,12,0:0:0:0:
65,351,177414,1,8,0:0:0:0:
29,34,177596,1,8,0:0:0:0:
284,187,177777,5,12,0:0:0:0:
36,337,177959,1,8,0:0:0:0:
55,19,178140,1,8,0:0:0:0:
280,215,178323,5,12,0:0:0:0:
10,320,178505,1,8,0:0:0:0:
84,9,178686,1,12,0:0:0:0:
79,42,178777,1,0,0:0:0:0:
79,75,178868,1,0,0:0:0:0:
83,108,178959,1,0,0:0:0:0:
89,140,179050,1,8,0:0:0:0:
373,261,179414,5,12,0:0:0:0:
330,265,179505,1,0,0:0:0:0:
287,259,179596,1,0,0:0:0:0:
246,246,179687,1,0,0:0:0:0:
213,218,179777,1,8,0:0:0:0:
213,218,180141,5,12,0:0:0:0:
344,31,180323,1,8,0:0:0:0:
442,339,180505,1,8,0:0:0:0:
226,135,180686,5,12,0:0:0:0:
447,76,180868,1,8,0:0:0:0:
324,375,181050,1,8,0:0:0:0:
290,81,181232,5,12,0:0:0:0:
497,178,181414,1,8,0:0:0:0:
211,328,181596,1,12,0:0:0:0:
203,315,181686,1,0,0:0:0:0:
195,303,181777,1,0,0:0:0:0:
186,291,181868,1,0,0:0:0:0:
180,277,181959,2,8,L|194:171,1,95,8|0,0:0|0:0,0:0:0:0:
404,56,182322,5,12,0:0:0:0:
414,65,182414,1,0,0:0:0:0:
424,74,182505,1,0,0:0:0:0:
434,83,182595,1,0,0:0:0:0:
445,91,182686,2,8,L|466:192,1,95,8|0,0:0|0:0,0:0:0:0:
323,157,183050,5,12,0:0:0:0:
112,68,183232,1,8,0:0:0:0:
248,361,183414,1,8,0:0:0:0:
328,174,183596,5,12,0:0:0:0:
135,49,183778,1,8,0:0:0:0:
218,362,183960,1,8,0:0:0:0:
330,191,184141,5,12,0:0:0:0:
162,36,184323,1,8,0:0:0:0:
190,357,184505,1,12,0:0:0:0:
206,324,184595,1,0,0:0:0:0:
211,286,184686,1,0,0:0:0:0:
208,248,184777,1,0,0:0:0:0:
194,212,184868,1,8,0:0:0:0:
194,212,185231,5,12,0:0:0:0:
222,237,185322,1,0,0:0:0:0:
257,251,185413,1,0,0:0:0:0:
295,252,185504,1,0,0:0:0:0:
331,242,185595,1,8,0:0:0:0:
0,187,185959,5,12,0:0:0:0:
279,145,186141,1,8,0:0:0:0:
16,167,186322,1,8,0:0:0:0:
296,120,186504,1,12,0:0:0:0:
177,31,186686,5,8,0:0:0:0:
72,316,186868,1,8,0:0:0:0:
208,22,187050,1,12,0:0:0:0:
48,325,187232,1,8,0:0:0:0:
214,170,187414,5,12,0:0:0:0:
370,244,187596,1,8,0:0:0:0:
404,220,187686,2,0,P|401:182|394:122,1,59.375,0|0,0:0|0:0,0:0:0:0:
142,102,187959,2,0,P|118:148|131:225,1,118.75,8|0,0:0|0:0,0:0:0:0:
254,336,188323,1,8,0:0:0:0:
214,170,188505,2,0,B|239:157|251:133|251:133|275:113|311:109,1,118.75,0|8,0:0|0:0,0:0:0:0:
495,259,188868,5,8,0:0:0:0:
455,199,188959,1,0,0:0:0:0:
390,168,189050,1,8,0:0:0:0:
320,181,189141,1,0,0:0:0:0:
270,231,189232,2,0,P|206:253|141:208,1,118.75,0|8,0:0|0:0,0:0:0:0:
64,84,189595,1,0,0:0:0:0:
214,170,189777,1,8,0:0:0:0:
97,305,189959,1,0,0:0:0:0:
119,164,190141,1,8,0:0:0:0:
220,287,190323,5,0,0:0:0:0:
258,315,190414,1,0,0:0:0:0:
304,327,190505,1,8,0:0:0:0:
350,319,190595,1,0,0:0:0:0:
389,294,190686,1,0,0:0:0:0:
214,170,190868,1,8,0:0:0:0:
311,221,191050,2,0,P|323:157|274:82,1,118.75,0|8,0:0|0:0,0:0:0:0:
130,237,191414,2,0,P|118:301|167:376,1,118.75,0|8,0:0|0:0,0:0:0:0:
426,333,191778,5,0,0:0:0:0:
456,296,191868,1,0,0:0:0:0:
474,252,191959,1,8,0:0:0:0:
476,204,192050,1,0,0:0:0:0:
466,157,192141,1,0,0:0:0:0:
248,62,192323,1,8,0:0:0:0:
238,108,192414,1,0,0:0:0:0:
254,153,192505,2,0,L|377:106,1,118.75,0|8,0:0|0:0,0:0:0:0:
102,129,192868,1,8,0:0:0:0:
85,198,192959,1,0,0:0:0:0:
92,268,193050,1,8,0:0:0:0:
143,317,193141,1,0,0:0:0:0:
209,343,193232,6,0,B|226:326|257:321|257:321|282:289|289:237,1,118.75,4|8,0:0|0:0,0:0:0:0:
225,204,193505,1,0,0:0:0:0:
225,204,193596,1,0,0:0:0:0:
341,62,193777,1,8,0:0:0:0:
473,235,193959,2,0,B|412:252|412:252|320:228,1,118.75,0|8,0:0|0:0,0:0:0:0:
320,165,194232,1,0,0:0:0:0:
342,166,194323,1,0,0:0:0:0:
394,327,194505,1,8,0:0:0:0:
244,95,194686,6,8,P|215:146|222:203,1,118.75,0|8,0:0|0:0,0:0:0:0:
55,336,195050,1,0,0:0:0:0:
105,165,195232,1,8,0:0:0:0:
157,272,195414,1,0,0:0:0:0:
245,78,195595,1,8,0:0:0:0:
136,150,195777,1,0,0:0:0:0:
264,272,195959,1,8,0:0:0:0:
423,192,196141,6,0,P|430:128|420:61,1,118.75,0|8,0:0|0:0,0:0:0:0:
268,170,196505,1,8,0:0:0:0:
388,301,196687,1,8,0:0:0:0:
333,94,196869,1,0,0:0:0:0:
485,184,197050,1,8,0:0:0:0:
317,248,197232,2,0,B|344:220|374:215|374:215|386:189|384:126,1,118.75,8|8,0:0|0:0,0:0:0:0:
64,172,197595,5,0,0:0:0:0:
37,219,197686,1,0,0:0:0:0:
34,273,197777,1,8,0:0:0:0:
58,320,197868,1,0,0:0:0:0:
102,351,197959,1,0,0:0:0:0:
159,356,198050,1,0,0:0:0:0:
208,333,198141,1,8,0:0:0:0:
240,289,198232,1,0,0:0:0:0:
143,250,198323,5,0,0:0:0:0:
176,208,198414,1,0,0:0:0:0:
225,188,198505,1,8,0:0:0:0:
277,194,198595,1,0,0:0:0:0:
319,226,198686,2,0,P|340:281|313:359,1,118.75,0|8,0:0|0:0,0:0:0:0:
240,289,199050,6,0,P|219:234|246:156,1,118.75,4|8,0:0|0:0,0:0:0:0:
389,93,199414,1,0,0:0:0:0:
319,226,199596,1,8,0:0:0:0:
206,71,199777,2,0,P|227:134|205:202,1,118.75,0|8,0:0|0:0,0:0:0:0:
120,136,200141,1,0,0:0:0:0:
206,295,200323,1,8,0:0:0:0:
29,116,200505,6,0,B|15:169|54:212|54:212|31:254|31:296,1,178.125,4|0,0:0|0:0,0:0:0:0:
40,318,200868,1,0,0:0:0:0:
206,295,201050,1,8,0:0:0:0:
143,227,201232,2,0,P|116:275|125:337,1,118.75,0|8,0:0|0:0,0:0:0:0:
300,370,201595,1,0,0:0:0:0:
206,295,201777,1,8,0:0:0:0:
314,135,201959,6,0,P|334:191|320:248,1,118.75,0|8,0:0|0:0,0:0:0:0:
235,195,202323,1,0,0:0:0:0:
338,50,202505,1,8,0:0:0:0:
462,178,202686,1,0,0:0:0:0:
353,319,202868,1,8,0:0:0:0:
337,183,203050,2,0,P|331:242|337:301,1,118.75,8|8,0:0|0:0,0:0:0:0:
229,295,203414,5,0,0:0:0:0:
235,266,203504,1,0,0:0:0:0:
236,236,203595,1,0,0:0:0:0:
233,206,203686,1,0,0:0:0:0:
226,178,203777,5,0,0:0:0:0:
242,108,203868,1,0,0:0:0:0:
302,70,203959,1,8,0:0:0:0:
373,67,204050,1,0,0:0:0:0:
433,105,204141,1,0,0:0:0:0:
461,170,204232,1,0,0:0:0:0:
448,240,204323,1,8,0:0:0:0:
393,285,204414,1,0,0:0:0:0:
322,291,204505,2,0,B|293:271|273:268|273:268|276:253|276:253|239:235|215:205,1,118.75,8|8,0:0|0:0,0:0:0:0:
15,95,204868,6,0,B|51:89|79:93|111:110|132:139|132:139|161:122|181:84,1,178.125,4|0,0:0|0:0,0:0:0:0:
42,203,205232,1,0,0:0:0:0:
224,315,205414,1,8,0:0:0:0:
166,106,205595,1,0,0:0:0:0:
97,308,205777,1,8,0:0:0:0:
272,185,205959,1,0,0:0:0:0:
57,288,206141,1,8,0:0:0:0:
178,241,206323,6,0,P|163:173|262:77,1,178.125,4|0,0:0|0:0,0:0:0:0:
259,94,206686,1,8,0:0:0:0:
347,314,206868,1,8,0:0:0:0:
272,185,207050,1,0,0:0:0:0:
444,138,207232,2,0,P|450:210|416:261,1,118.75,8|0,0:0|0:0,0:0:0:0:
349,47,207595,1,8,0:0:0:0:
354,182,207777,5,4,0:0:0:0:
453,33,207959,1,8,0:0:0:0:
453,33,208050,1,0,0:0:0:0:
453,33,208141,1,0,0:0:0:0:
295,116,208323,1,8,0:0:0:0:
428,249,208505,2,8,P|453:195|444:138,1,118.75
204,159,208868,2,8,P|195:101|220:48,1,118.75
295,116,209232,5,0,0:0:0:0:
304,156,209323,1,0,0:0:0:0:
297,197,209414,1,8,0:0:0:0:
274,231,209505,1,0,0:0:0:0:
239,253,209595,1,0,0:0:0:0:
197,259,209686,1,0,0:0:0:0:
158,247,209777,1,8,0:0:0:0:
125,220,209868,1,0,0:0:0:0:
55,206,209959,5,0,0:0:0:0:
7,259,210050,1,0,0:0:0:0:
8,330,210141,1,8,0:0:0:0:
65,372,210232,1,0,0:0:0:0:
133,351,210323,5,0,0:0:0:0:
196,288,210414,1,0,0:0:0:0:
284,276,210505,1,8,0:0:0:0:
366,308,210595,1,0,0:0:0:0:
441,355,210686,6,4,B|472:358|492:347|492:347|467:298|467:298|480:245|477:180,1,178.125,4|0,0:0|0:0,0:0:0:0:
443,144,211050,1,0,0:0:0:0:
266,168,211232,1,8,0:0:0:0:
370,218,211414,1,0,0:0:0:0:
299,54,211596,1,8,0:0:0:0:
364,243,211777,1,0,0:0:0:0:
162,260,211959,1,8,0:0:0:0:
162,260,212050,1,0,0:0:0:0:
162,260,212141,6,0,B|155:202|155:202|167:142,1,118.75,0|8,0:0|0:0,0:0:0:0:
264,262,212504,1,0,0:0:0:0:
124,373,212686,1,8,0:0:0:0:
42,149,212868,1,0,2:0:0:0:
61,178,212959,1,0,2:0:0:0:
66,213,213050,1,8,2:0:0:0:
62,248,213141,1,0,2:0:0:0:
51,282,213232,1,0,2:0:0:0:
214,352,213414,1,8,0:0:0:0:
186,152,213595,6,0,B|189:138|179:113|179:113|132:197|179:273,1,178.125,4|0,0:0|0:0,0:0:0:0:
264,237,213959,1,0,0:0:0:0:
463,158,214141,1,8,0:0:0:0:
269,254,214323,1,0,0:0:0:0:
469,126,214505,1,8,0:0:0:0:
351,328,214686,2,8,P|360:266|350:206,1,118.75,0|8,0:0|0:0,0:0:0:0:
292,122,214960,1,0,0:0:0:0:
269,136,215050,6,8,P|260:198|270:258,1,118.75,0|8,0:0|0:0,0:0:0:0:
477,304,215414,1,0,0:0:0:0:
380,112,215596,1,8,0:0:0:0:
451,313,215778,1,0,0:0:0:0:
240,33,215959,1,8,0:0:0:0:
169,53,216050,1,0,0:0:0:0:
127,112,216141,1,0,0:0:0:0:
109,180,216232,1,0,0:0:0:0:
134,248,216323,1,8,0:0:0:0:
188,296,216414,1,0,0:0:0:0:
259,295,216505,6,0,B|318:274|362:224|362:224|336:231|290:230,1,178.125,4|0,0:0|0:0,0:0:0:0:
244,168,216868,1,0,0:0:0:0:
441,287,217050,2,0,P|459:215|433:152,1,118.75,8|0,0:0|0:0,0:0:0:0:
261,19,217414,1,8,0:0:0:0:
363,225,217595,2,0,P|308:204|233:224,1,118.75,0|8,0:0|0:0,0:0:0:0:
148,352,217959,6,0,P|236:361|311:316,1,178.125,4|0,0:0|0:0,0:0:0:0:
296,290,218323,1,0,0:0:0:0:
150,123,218505,1,8,0:0:0:0:
206,228,218686,1,0,0:0:0:0:
283,94,218868,1,8,0:0:0:0:
295,290,219050,2,0,P|313:234|301:176,1,118.75,0|8,0:0|0:0,0:0:0:0:
149,65,219414,6,8,B|189:87|202:128|202:128|191:152|187:182|193:210|206:228,1,190,0|8,0:0|0:0,0:0:0:0:
313,290,219959,1,8,0:0:0:0:
301,176,220141,1,0,0:0:0:0:
412,228,220323,1,8,0:0:0:0:
200,322,220505,2,0,P|208:261|203:215,1,95,0|8,0:0|0:0,0:0:0:0:
41,250,220868,5,0,0:0:0:0:
42,220,221050,1,0,0:0:0:0:
43,191,221232,1,0,0:0:0:0:
44,162,221414,1,8,0:0:0:0:
47,133,221596,5,0,0:0:0:0:
105,91,221687,1,0,0:0:0:0:
176,94,221777,2,0,L|229:157,1,47.5,8|0,0:0|0:0,0:0:0:0:
235,260,221959,5,8,0:0:0:0:
293,302,222050,1,0,0:0:0:0:
364,299,222141,1,8,0:0:0:0:
419,254,222232,1,0,0:0:0:0:
324,196,222323,6,0,P|317:129|332:62,1,118.75,4|8,0:0|0:0,0:0:0:0:
469,189,222595,1,0,0:0:0:0:
495,203,222686,2,8,P|508:252|443:346,1,118.75,0|8,0:0|0:0,0:0:0:0:
456,335,222959,1,0,0:0:0:0:
456,335,223050,1,0,0:0:0:0:
212,341,223232,1,8,0:0:0:0:
419,254,223414,1,8,0:0:0:0:
97,332,223595,1,8,0:0:0:0:
318,79,223777,6,0,P|331:138|310:229,1,118.75,4|8,0:0|0:0,0:0:0:0:
212,341,224049,1,0,0:0:0:0:
185,316,224141,2,0,P|172:257|193:166,1,118.75,0|8,0:0|0:0,0:0:0:0:
238,131,224414,1,0,0:0:0:0:
238,131,224505,1,0,0:0:0:0:
326,324,224686,1,8,0:0:0:0:
221,110,224868,1,8,0:0:0:0:
465,336,225050,1,8,0:0:0:0:
198,79,225232,6,8,B|158:152|206:231,1,118.75,4|8,0:0|0:0,0:0:0:0:
438,178,225505,1,0,0:0:0:0:
415,154,225596,2,8,B|368:125|300:146,1,118.75,0|8,0:0|0:0,0:0:0:0:
271,229,225868,1,0,0:0:0:0:
271,229,225959,1,0,0:0:0:0:
428,50,226141,1,8,0:0:0:0:
372,262,226323,1,8,0:0:0:0:
166,42,226505,1,8,0:0:0:0:
359,376,226687,6,0,P|377:328|370:256,1,118.75,4|8,0:3|0:0,0:0:0:0:
52,80,227050,1,0,0:3:0:0:
192,304,227232,2,0,L|240:304,1,47.5,8|0,0:0|0:0,0:0:0:0:
12,250,227595,5,12,0:3:0:0:
286,22,227777,1,4,0:3:0:0:
500,307,227959,1,8,0:0:0:0:
109,360,228141,6,0,P|93:294|124:229,1,118.75,4|8,0:0|0:0,0:0:0:0:
192,304,228414,1,0,0:0:0:0:
192,304,228505,1,0,0:0:0:0:
412,34,228686,1,8,0:0:0:0:
438,101,228777,1,0,0:0:0:0:
410,166,228867,1,0,0:0:0:0:
200,281,229050,1,8,0:0:0:0:
352,98,229232,1,8,0:0:0:0:
250,364,229414,1,8,0:0:0:0:
44,168,229595,5,4,0:0:0:0:
274,50,229777,1,8,0:0:0:0:
267,121,229868,1,0,0:0:0:0:
305,180,229959,1,0,0:0:0:0:
40,257,230141,1,8,0:0:0:0:
107,232,230232,1,0,0:0:0:0:
134,166,230323,1,0,0:0:0:0:
26,23,230505,1,8,0:0:0:0:
200,246,230686,1,8,0:0:0:0:
402,45,230868,1,8,0:0:0:0:
44,168,231050,5,4,0:0:0:0:
272,336,231232,1,8,0:0:0:0:
298,270,231323,1,0,0:0:0:0:
301,199,231414,1,0,0:0:0:0:
494,149,231595,1,8,0:0:0:0:
460,86,231686,1,0,0:0:0:0:
402,45,231777,1,0,0:0:0:0:
200,246,231959,1,8,0:0:0:0:
411,214,232141,1,8,0:0:0:0:
169,62,232323,1,8,0:0:0:0:
230,236,232505,5,4,0:0:0:0:
378,51,232686,1,12,0:0:0:0:
293,323,232868,1,0,0:0:0:0:
44,182,233050,2,8,L|38:129,1,47.5
364,204,233413,5,12,0:0:0:0:
48,343,233595,1,4,0:0:0:0:
297,25,233777,1,8,0:0:0:0:
306,38,233959,6,4,P|315:90|275:163,1,95,8|8,0:0|0:0,0:0:0:0:
122,99,234232,1,0,0:0:0:0:
128,80,234323,2,0,P|180:71|253:111,1,95,0|8,0:0|0:0,0:0:0:0:
313,269,234686,1,0,0:0:0:0:
173,166,234868,1,8,0:0:0:0:
327,279,235050,1,0,0:0:0:0:
159,155,235232,1,8,0:0:0:0:
58,294,235414,5,0,0:0:0:0:
265,201,235595,1,8,0:0:0:0:
265,201,235686,1,0,0:0:0:0:
265,201,235777,2,0,P|273:130|263:76,1,95,0|8,0:0|0:0,0:0:0:0:
159,155,236141,5,8,0:0:0:0:
466,256,236323,1,8,0:0:0:0:
159,155,236505,1,8,0:0:0:0:
466,256,236686,1,8,0:0:0:0:
422,61,236868,6,0,P|367:47|312:66,1,95,4|8,0:0|0:0,0:0:0:0:
344,244,237140,1,0,0:0:0:0:
373,223,237232,2,0,P|382:172|369:131,1,95,0|8,0:0|0:0,0:0:0:0:
204,31,237595,1,0,0:0:0:0:
290,179,237777,1,8,0:0:0:0:
392,41,237959,1,0,0:0:0:0:
209,140,238140,1,8,0:0:0:0:
393,238,238322,5,0,0:0:0:0:
305,79,238504,1,8,0:0:0:0:
305,79,238595,1,0,0:0:0:0:
305,79,238686,2,0,B|322:124|322:124|312:195,1,95,0|8,0:0|0:0,0:0:0:0:
21,355,239050,5,8,0:0:0:0:
209,140,239232,1,8,0:0:0:0:
134,334,239413,1,8,0:0:0:0:
156,49,239595,1,8,0:0:0:0:
213,250,239777,5,4,0:0:0:0:
17,176,239959,1,8,0:0:0:0:
17,176,240049,1,0,0:0:0:0:
17,176,240141,2,0,P|11:115|21:47,1,95,0|8,0:0|0:0,0:0:0:0:
209,140,240504,1,0,0:0:0:0:
91,263,240686,1,8,0:0:0:0:
245,151,240868,1,0,0:0:0:0:
51,249,241049,1,8,0:0:0:0:
287,171,241232,6,0,L|346:152,2,47.5,4|0|8,0:0|0:0|0:0,0:0:0:0:
117,147,241595,1,0,0:0:0:0:
244,33,241777,1,8,0:0:0:0:
430,68,241959,5,8,0:0:0:0:
117,147,242141,1,8,0:0:0:0:
438,185,242323,1,8,0:0:0:0:
133,294,242505,1,8,0:0:0:0:
244,33,242686,5,4,0:0:0:0:
323,247,242868,1,8,0:0:0:0:
323,247,242959,1,0,0:0:0:0:
323,247,243050,2,0,B|339:196|339:196|329:141,1,95,0|8,0:0|0:0,0:0:0:0:
231,187,243413,1,4,0:0:0:0:
230,301,243595,1,8,0:0:0:0:
419,181,243777,1,4,0:0:0:0:
323,247,243959,1,8,0:0:0:0:
339,347,244141,6,0,P|387:324|421:272,1,95,4|8,0:0|0:0,0:0:0:0:
323,247,244505,6,0,P|360:208|374:148,1,95,4|8,0:0|0:0,0:0:0:0:
273,158,244868,6,0,P|294:109|287:47,1,95,4|8,0:0|0:0,0:0:0:0:
183,91,245232,1,12,0:0:0:0:
183,91,245414,1,8,0:0:0:0:
65,183,245595,5,4,0:0:0:0:
208,335,245777,1,8,0:0:0:0:
208,335,245868,1,0,0:0:0:0:
208,335,245959,1,0,0:0:0:0:
312,199,246141,1,8,0:0:0:0:
188,203,246323,1,0,0:0:0:0:
312,320,246505,1,8,0:0:0:0:
441,209,246686,1,0,0:0:0:0:
313,93,246868,1,8,0:0:0:0:
311,292,247050,6,0,P|319:244|307:177,1,95,0|8,0:0|0:0,0:0:0:0:
204,243,247322,1,0,0:0:0:0:
191,269,247414,2,0,P|199:323|220:371,1,95,0|8,0:0|0:0,0:0:0:0:
417,312,247777,5,8,0:0:0:0:
197,130,247959,1,8,0:0:0:0:
468,41,248141,1,8,0:0:0:0:
303,271,248322,1,8,0:0:0:0:
435,18,248504,5,4,0:0:0:0:
417,312,248686,1,8,0:0:0:0:
417,312,248777,1,0,0:0:0:0:
417,312,248868,2,0,P|421:259|398:203,1,95,0|8,0:0|0:0,0:0:0:0:
303,271,249232,1,0,0:0:0:0:
336,132,249414,1,8,0:0:0:0:
198,171,249596,1,0,0:0:0:0:
223,31,249777,1,8,0:0:0:0:
293,227,249959,5,4,0:0:0:0:
89,183,250140,1,8,0:0:0:0:
89,183,250232,1,0,0:0:0:0:
89,183,250323,1,0,0:0:0:0:
37,49,250505,1,8,0:0:0:0:
130,90,250686,5,8,0:0:0:0:
223,359,250868,1,8,0:0:0:0:
168,80,251049,1,8,0:0:0:0:
255,351,251231,1,8,0:0:0:0:
38,277,251413,5,4,0:0:0:0:
261,231,251595,1,8,0:0:0:0:
261,231,251686,1,0,0:0:0:0:
261,231,251777,2,0,P|271:180|252:111,1,95,0|8,0:0|0:0,0:0:0:0:
157,295,252140,1,0,0:0:0:0:
161,178,252322,1,8,0:0:0:0:
181,319,252504,1,0,0:0:0:0:
187,144,252686,1,8,0:0:0:0:
25,234,252868,6,8,P|21:179|33:105,1,95,4|8,0:0|0:0,0:0:0:0:
171,31,253143,1,0,0:0:0:0:
193,46,253232,2,8,P|197:101|185:175,1,95,0|8,0:0|0:0,0:0:0:0:
193,235,253597,5,8,0:0:0:0:
454,50,253777,1,8,0:0:0:0:
333,307,253958,1,8,0:0:0:0:
161,79,254140,1,8,0:0:0:0:
315,296,254322,5,4,0:0:0:0:
471,227,254504,1,8,0:0:0:0:
471,227,254595,1,0,0:0:0:0:
471,227,254686,2,0,P|480:179|466:101,1,95,0|8,0:0|0:0,0:0:0:0:
338,172,255050,5,4,0:0:0:0:
424,319,255232,1,8,0:0:0:0:
444,342,255413,5,4,0:0:0:0:
291,269,255595,1,8,0:0:0:0:
154,309,255777,6,0,P|149:253|162:204,1,95,4|8,0:0|0:0,0:0:0:0:
291,269,256141,6,0,P|296:213|283:164,1,95,4|8,0:0|0:0,0:0:0:0:
180,226,256505,6,0,P|175:170|188:121,1,95,4|8,0:0|0:0,0:0:0:0:
374,135,256869,6,0,P|379:79|366:30,1,95,4|8,0:0|0:0,0:0:0:0:
100,120,266141,5,0,0:0:0:0:
89,141,266323,1,0,0:0:0:0:
83,164,266505,1,0,0:0:0:0:
80,187,266686,1,0,0:0:0:0:
80,211,266868,1,0,0:0:0:0:
85,234,267050,1,0,0:0:0:0:
94,257,267232,1,0,0:0:0:0:
106,277,267414,6,0,L|219:277,1,95
254,197,267959,1,0,0:0:0:0:
201,277,268141,1,0,0:0:0:0:
419,343,268323,5,8,0:3:0:0:
452,264,268414,1,8,0:1:0:0:
426,182,268505,1,4,0:0:0:0:
104,82,268868,5,4,0:0:0:0:
251,168,269050,1,8,0:0:0:0:
104,82,269232,1,0,0:0:0:0:
81,251,269414,1,8,0:0:0:0:
183,114,269595,1,0,0:0:0:0:
193,256,269777,1,8,0:0:0:0:
51,159,269959,1,8,0:0:0:0:
200,276,270141,1,8,0:0:0:0:
393,179,270323,6,0,P|342:188|274:177,1,95,0|8,0:0|0:0,0:0:0:0:
239,94,270595,1,0,0:0:0:0:
259,74,270686,2,0,P|312:74|363:98,1,95,0|8,0:0|0:0,0:0:0:0:
442,260,271050,1,0,0:0:0:0:
290,183,271232,1,8,0:0:0:0:
444,108,271414,1,0,0:0:0:0:
340,266,271595,1,8,0:0:0:0:
160,203,271777,5,0,0:0:0:0:
162,184,271868,1,0,0:0:0:0:
163,165,271959,1,8,0:0:0:0:
163,145,272050,1,0,0:0:0:0:
164,126,272141,1,0,0:0:0:0:
290,183,272323,1,8,0:0:0:0:
167,302,272505,1,0,0:0:0:0:
69,162,272686,1,8,0:0:0:0:
252,262,272868,2,0,P|259:308|247:357,1,95,0|8,0:0|0:0,0:0:0:0:
81,261,273232,5,0,0:0:0:0:
193,132,273414,1,8,0:0:0:0:
167,302,273595,1,0,0:0:0:0:
93,147,273777,1,8,0:0:0:0:
244,227,273959,1,8,0:0:0:0:
286,247,274050,1,0,0:0:0:0:
333,248,274141,1,8,0:0:0:0:
378,232,274232,1,0,0:0:0:0:
412,199,274323,1,0,0:0:0:0:
430,155,274414,1,0,0:0:0:0:
430,107,274505,1,8,0:0:0:0:
408,65,274595,1,0,0:0:0:0:
371,34,274686,5,4,0:0:0:0:
193,132,274868,1,8,0:0:0:0:
314,135,275050,1,0,0:0:0:0:
175,100,275232,5,12,0:0:0:0:
254,240,275414,1,0,0:0:0:0:
259,30,275596,1,8,0:0:0:0:
172,322,275777,5,8,0:0:0:0:
148,286,275868,1,0,0:0:0:0:
139,244,275959,1,8,0:0:0:0:
146,201,276050,1,0,0:0:0:0:
168,164,276141,5,4,0:0:0:0:
356,190,276323,1,8,0:0:0:0:
254,240,276505,1,0,0:0:0:0:
87,79,276686,5,4,0:0:0:0:
248,241,276868,1,8,0:0:0:0:
54,88,277050,1,0,0:0:0:0:
19,321,277232,6,0,L|19:385,1,47.5,8|0,0:0|0:0,0:0:0:0:
159,226,277414,2,0,L|154:163,1,47.5,8|0,0:0|0:0,0:0:0:0:
19,321,277596,5,4,0:0:0:0:
159,226,277777,1,8,0:0:0:0:
282,345,277959,1,0,0:0:0:0:
422,248,278141,1,8,0:0:0:0:
286,144,278323,2,8,L|286:241,1,95,12|8,0:0|0:0,0:0:0:0:
189,98,278686,2,8,L|164:194,1,95,12|8,0:0|0:0,0:0:0:0:
386,149,279050,5,12,0:0:0:0:
381,112,279141,1,0,0:0:0:0:
363,79,279232,1,8,0:0:0:0:
333,56,279323,1,0,0:0:0:0:
296,45,279414,1,0,0:0:0:0:
59,74,279595,1,8,0:0:0:0:
286,144,279777,1,0,0:0:0:0:
63,228,279959,1,8,0:0:0:0:
263,331,280141,1,8,0:0:0:0:
173,123,280323,1,8,0:0:0:0:
168,265,280505,5,4,0:0:0:0:
375,244,280686,1,8,0:0:0:0:
263,331,280868,1,0,0:0:0:0:
216,196,281050,1,8,0:0:0:0:
318,96,281232,2,8,P|306:141|302:198,1,95
393,335,281595,1,0,0:0:0:0:
405,164,281777,1,8,0:0:0:0:
283,285,281959,5,0,0:0:0:0:
451,253,282141,1,8,0:0:0:0:
260,251,282323,1,0,0:0:0:0:
467,279,282505,1,8,0:0:0:0:
366,178,282686,1,0,0:0:0:0:
448,61,282868,1,8,0:0:0:0:
315,7,283050,2,0,P|308:55|310:103,1,95,0|8,0:0|0:0,0:0:0:0:
260,251,283414,5,0,0:0:0:0:
173,103,283596,1,8,0:0:0:0:
260,251,283777,2,0,L|302:276,1,47.5
173,103,283959,1,8,0:0:0:0:
135,308,284141,5,0,0:0:0:0:
282,86,284323,1,8,0:0:0:0:
135,308,284505,2,0,L|134:240,1,47.5
284,81,284686,1,8,0:0:0:0:
93,166,284868,5,0,0:0:0:0:
284,81,285050,1,8,0:0:0:0:
213,236,285232,1,0,0:0:0:0:
164,71,285414,1,8,0:0:0:0:
311,189,285595,1,8,0:0:0:0:
189,335,285777,1,8,0:0:0:0:
229,271,285867,1,0,0:0:0:0:
212,196,285958,1,0,0:0:0:0:
146,157,286049,1,0,0:0:0:0:
71,174,286140,1,8,0:0:0:0:
31,239,286231,1,0,0:0:0:0:
47,314,286323,5,4,0:0:0:0:
130,256,286505,1,8,0:0:0:0:
284,348,286686,5,0,0:0:0:0:
189,335,286868,1,8,0:0:0:0:
349,173,287050,5,4,0:0:0:0:
345,267,287231,1,8,0:0:0:0:
241,257,287414,5,4,0:0:0:0:
222,115,287596,1,8,0:0:0:0:
349,173,287777,1,4,0:0:0:0:
344,32,287959,1,8,0:0:0:0:
63,188,288141,5,4,0:0:0:0:
240,256,288323,1,8,0:0:0:0:
114,296,288505,5,4,0:0:0:0:
71,110,288686,1,8,0:0:0:0:
391,134,288868,5,4,0:0:0:0:
342,317,289050,1,8,0:0:0:0:
249,70,289232,2,0,B|256:41|239:20|217:6|189:13|169:35|161:64|174:87|199:101|218:97|218:97|209:112|206:122|206:122|233:139|248:158|260:183|264:220|249:251|231:273,1,380
155,208,292141,2,0,B|124:255|127:307|162:356|202:374|255:375|299:344|299:344|324:326|347:318|373:317|395:329,1,380
467,189,295050,6,0,B|467:214|452:233|452:233|421:162|446:90,1,190
321,51,296505,6,0,B|320:25|336:7|336:7|367:78|342:150,1,190
192,240,297959,6,0,B|192:216|207:193|246:178|269:139|277:108|253:77|238:62|215:62|192:69|184:77|184:77|176:69|153:62|130:62|114:77|91:108|99:139|137:162|161:193|161:209,1,443.333333333333
336,345,300868,6,4,P|325:313|349:215,1,113.999996520996,2|0,0:2|0:0,0:0:0:0:
435,179,301414,1,0,0:0:0:0:
436,290,301595,2,0,P|449:237|434:177,1,113.999996520996,8|0,0:0|0:0,0:0:0:0:
338,118,302141,1,0,0:0:0:0:
336,235,302323,1,2,0:0:0:0:
237,177,302505,1,0,0:0:0:0:
237,177,302595,1,0,0:0:0:0:
237,177,302686,2,0,L|237:100,1,56.9999982604981
126,150,303050,5,10,0:0:0:0:
200,271,303232,1,0,0:0:0:0:
126,150,303414,1,2,0:0:0:0:
200,271,303595,1,2,0:0:0:0:
13,166,303777,6,0,P|34:221|80:254,1,113.999996520996,6|0,0:0|0:0,0:0:0:0:
117,154,304322,1,0,0:0:0:0:
147,49,304505,2,0,P|146:105|118:154,1,113.999996520996,8|0,0:0|0:0,0:0:0:0:
38,76,305050,1,0,0:0:0:0:
26,218,305232,6,0,B|56:217|56:217|91:236,1,56.9999982604981,2|0,0:0|0:0,0:0:0:0:
99,261,305505,1,0,0:0:0:0:
99,261,305596,1,0,0:0:0:0:
27,349,305777,1,0,0:0:0:0:
99,261,305959,1,10,0:0:0:0:
148,363,306141,1,0,0:0:0:0:
208,202,306323,1,2,0:0:0:0:
252,307,306505,1,2,0:0:0:0:
148,363,306686,6,0,B|154:329|154:329|171:304,1,56.9999982604981,6|0,0:0|0:0,0:0:0:0:
333,350,306959,1,0,0:0:0:0:
339,331,307050,2,0,B|341:298|341:298|331:258,1,56.9999982604981
255,191,307414,1,10,0:0:0:0:
252,307,307595,1,0,0:0:0:0:
348,180,307777,1,0,0:0:0:0:
426,262,307959,1,0,0:0:0:0:
492,169,308141,6,0,B|494:137|494:137|487:107,1,56.9999982604981,2|0,0:0|0:0,0:0:0:0:
466,93,308414,1,0,0:0:0:0:
466,93,308505,1,2,0:0:0:0:
376,163,308686,1,0,0:0:0:0:
362,49,308868,1,10,0:0:0:0:
268,114,309050,1,0,0:0:0:0:
274,227,309232,1,2,0:0:0:0:
247,116,309414,1,2,0:0:0:0:
147,60,309596,6,0,B|112:59|112:59|76:75,1,56.9999982604981,2|2,0:0|0:0,0:0:0:0:
79,93,309868,1,0,0:0:0:0:
79,93,309959,1,0,0:0:0:0:
163,170,310141,1,0,0:0:0:0:
91,258,310323,1,10,0:0:0:0:
79,93,310505,1,0,0:0:0:0:
4,178,310686,2,0,P|0:214|3:251,1,56.9999982604981,2|2,0:0|0:0,0:0:0:0:
133,351,311050,5,0,0:0:0:0:
89,216,311232,1,2,0:0:0:0:
293,113,311414,5,10,0:0:0:0:
231,241,311596,1,0,0:0:0:0:
446,280,311777,5,2,2:0:0:0:
323,207,311959,1,0,2:0:0:0:
177,132,312141,5,10,2:0:0:0:
253,11,312323,1,0,2:0:0:0:
87,243,313973,6,0,B|84:273|70:300|70:300|80:316|83:357,1,113.999996520996,2|0,0:0|0:0,0:0:0:0:
144,189,314700,2,0,P|90:165|37:180,1,113.999996520996,2|0,0:0|0:0,0:0:0:0:
144,300,315427,2,0,B|172:319|204:324|204:324|227:309|260:308,1,113.999996520996,2|0,0:0|0:0,0:0:0:0:
227,134,316154,2,2,P|192:192|205:248,1,113.999996520996,2|0,0:0|0:0,0:0:0:0:
277,204,316700,1,0,0:0:0:0:
327,273,316882,6,0,P|362:215|349:159,1,113.999996520996,2|0,0:0|0:0,0:0:0:0:
219,84,317609,2,0,B|252:96|273:117|273:117|296:91|326:82,1,113.999996520996,2|0,0:0|0:0,0:0:0:0:
211,175,318336,2,0,B|189:155|171:153|171:153|167:161|167:161|131:147|90:169,1,113.999996520996,2|0,0:0|0:0,0:0:0:0:
269,228,319063,2,0,P|288:172|264:118,1,113.999996520996,2|0,0:0|0:0,0:0:0:0:
211,175,319609,1,0,0:0:0:0:
189,257,319791,6,0,B|192:289|192:289|220:287|220:287|240:309|275:310,1,113.999996520996,2|0,0:0|0:0,0:0:0:0:
397,230,320518,2,0,B|402:203|420:178|420:178|403:140|396:105,1,113.999996520996,2|0,0:0|0:0,0:0:0:0:
334,283,321245,2,0,B|349:304|376:315|376:315|402:309|402:309|451:324,1,113.999996520996,2|0,0:0|0:0,0:0:0:0:
325,205,321973,2,0,P|277:228|259:305,1,113.999996520996,2|0,0:0|0:0,0:0:0:0:
277,364,322518,1,0,0:0:0:0:
191,355,322700,6,0,P|136:363|82:328,1,113.999996520996,2|0,0:0|0:0,0:0:0:0:
146,171,323427,2,0,B|158:190|164:215|164:215|142:244|152:278,1,113.999996520996,2|0,0:0|0:0,0:0:0:0:
209,116,324154,2,0,P|146:88|95:106,1,113.999996520996,2|0,0:0|0:0,0:0:0:0:
193,245,324882,2,0,B|211:222|211:195|211:195|243:195|269:168,1,113.999996520996,2|0,0:0|0:0,0:0:0:0:
209,116,325427,1,0,0:0:0:0:
210,30,325609,6,0,B|251:33|273:61|273:61|336:47,1,113.999996520996,2|0,0:0|0:0,0:0:0:0:
300,135,326154,1,0,0:0:0:0:
352,202,326336,2,0,L|392:139,1,56.9999982604981,2|0,0:0|0:0,0:0:0:0:
363,70,326700,1,0,0:0:0:0:
280,46,326882,1,0,0:0:0:0:
228,202,327063,6,0,P|203:151|210:96,1,113.999996520996,2|0,0:0|0:0,0:0:0:0:
300,135,327791,2,0,P|326:182|320:242,1,113.999996520996,2|0,0:0|0:0,0:0:0:0:
415,158,328518,2,0,P|389:111|395:51,1,113.999996520996,2|0,0:0|0:0,0:0:0:0:
465,6,329063,1,0,0:0:0:0:
512,138,329245,2,0,P|503:111|485:88,1,56.9999982604981,2|0,0:0|0:0,0:0:0:0:
401,71,329609,1,0,0:0:0:0:
332,120,329791,1,0,0:0:0:0:
319,205,329973,6,0,P|270:234|206:221,1,113.999996520996,2|0,0:0|0:0,0:0:0:0:
254,149,330519,1,0,0:0:0:0:
201,82,330700,2,0,L|149:116,1,56.9999982604981,2|0,0:0|0:0,0:0:0:0:
107,186,331063,1,0,0:0:0:0:
71,108,331245,1,0,0:0:0:0:
186,195,331427,6,0,P|149:254|91:264,1,113.999996520996,2|0,0:0|0:0,0:0:0:0:
28,294,331973,1,0,0:0:0:0:
78,362,332154,2,0,B|98:341|98:341|131:343,1,56.9999982604981,2|0,0:0|0:0,0:0:0:0:
209,365,332518,1,0,0:0:0:0:
263,299,332700,1,0,0:0:0:0:
340,335,332882,6,0,B|366:322|400:328|400:328|427:313|438:283,1,113.999996520996,2|0,0:0|0:0,0:0:0:0:
354,139,333609,2,0,P|344:194|366:247,1,113.999996520996,2|0,0:0|0:0,0:0:0:0:
444,185,334336,2,0,B|454:208|454:208|466:178|465:143|454:114,1,113.999996520996,2|0,0:0|0:0,0:0:0:0:
406,51,334882,1,0,0:0:0:0:
376,131,335064,1,2,0:0:0:0:
310,75,335246,1,0,0:0:0:0:
294,159,335428,2,0,P|313:191|350:214,1,56.9999982604981
235,103,335791,6,0,P|214:81|170:62,1,56.9999982604981,2|0,0:0|0:0,0:0:0:0:
106,81,336155,1,0,0:0:0:0:
160,147,336337,1,0,0:0:0:0:
75,159,336519,2,0,L|104:212,1,56.9999982604981,2|0,0:0|0:0,0:0:0:0:
93,294,336882,2,0,L|148:305,1,56.9999982604981
229,331,337246,6,0,P|225:268|178:227,1,113.999996520996,2|0,0:0|0:0,0:0:0:0:
148,305,337791,1,0,0:0:0:0:
110,228,337973,2,2,P|118:196|137:170,1,56.9999982604981
208,141,338337,1,0,0:0:0:0:
211,244,338519,1,0,0:0:0:0:
211,244,338700,5,2,0:0:0:0:
292,93,339064,1,2,0:0:0:0:
291,304,339428,2,0,P|310:252|298:195,1,113.999996520996,2|0,0:0|0:0,0:0:0:0:
393,88,340154,6,0,P|373:139|386:197,1,113.999996520996,2|0,0:0|0:0,0:0:0:0:
490,151,340700,1,0,0:0:0:0:
464,232,340882,1,2,0:0:0:0:
385,195,341063,1,0,0:0:0:0:
363,277,341245,2,0,L|295:278,1,56.9999982604981
440,319,341609,6,0,P|449:262|423:213,1,113.999996520996,2|0,0:0|0:0,0:0:0:0:
363,277,342154,1,0,0:0:0:0:
296,223,342336,1,2,0:0:0:0:
350,157,342518,2,2,L|345:95,1,56.9999982604981
270,141,342882,1,0,0:0:0:0:
207,199,343063,6,0,B|186:175|184:144|184:144|157:126|126:128,1,113.999996520996,2|0,0:0|0:0,0:0:0:0:
116,211,343609,1,0,0:0:0:0:
34,186,343791,2,0,P|38:249|87:293,1,113.999996520996,2|0,0:0|0:0,0:0:0:0:
156,289,344336,1,0,0:0:0:0:
116,211,344518,6,0,P|183:206|226:237,1,113.999996520996,2|0,0:0|0:0,0:0:0:0:
375,302,345245,2,0,P|370:235|401:192,1,113.999996520996,2|0,0:0|0:0,0:0:0:0:
323,41,345973,2,0,P|328:108|297:151,1,113.999996520996,2|0,0:0|0:0,0:0:0:0:
214,160,346518,1,0,0:0:0:0:
245,80,346700,1,2,0:0:0:0:
303,145,346882,1,0,0:0:0:0:
380,109,347063,2,0,L|380:182,1,56.9999982604981
136,188,347427,6,0,L|135:254,1,56.9999982604981,2|0,0:0|0:0,0:0:0:0:
50,211,347791,1,0,0:0:0:0:
69,121,347973,1,0,0:0:0:0:
156,95,348154,1,2,0:0:0:0:
218,161,348336,1,0,0:0:0:0:
208,251,348518,2,0,L|235:315,1,56.9999982604981
61,81,359063,5,0,0:0:0:0:
137,280,359336,1,0,0:0:0:0:
162,258,359427,1,0,0:0:0:0:
416,41,359700,1,0,0:0:0:0:
422,48,359791,1,0,0:0:0:0:
428,54,359882,1,0,0:0:0:0:
434,60,359973,1,0,0:0:0:0:
440,65,360063,1,0,0:0:0:0:
445,72,360154,1,2,0:3:0:0:
444,214,360518,5,0,3:3:0:0:
460,258,360609,1,0,3:3:0:0:
452,304,360700,1,0,3:3:0:0:
422,341,360791,1,0,3:3:0:0:
379,360,360882,1,8,3:3:0:0:
193,262,361063,1,0,3:3:0:0:
232,235,361154,1,0,3:3:0:0:
279,226,361245,1,0,3:3:0:0:
326,237,361336,1,0,3:3:0:0:
365,265,361427,1,0,3:3:0:0:
108,246,361610,1,8,0:0:0:0:
281,327,361792,1,0,0:0:0:0:
186,119,361974,5,0,3:3:0:0:
193,262,362155,1,0,3:3:0:0:
273,78,362337,1,8,3:3:0:0:
84,55,362519,1,0,3:3:0:0:
249,178,362701,1,0,3:3:0:0:
108,161,362883,1,0,3:3:0:0:
328,228,363064,1,8,0:0:0:0:
337,181,363155,1,0,0:0:0:0:
327,134,363246,2,0,L|293:75,1,47.5
173,217,363428,5,4,0:0:0:0:
202,240,363519,1,0,0:0:0:0:
220,273,363610,1,0,0:0:0:0:
224,310,363701,1,0,0:0:0:0:
211,351,363792,1,8,0:0:0:0:
44,224,363974,1,0,0:0:0:0:
30,189,364064,1,0,0:0:0:0:
30,150,364155,1,0,0:0:0:0:
41,113,364246,1,0,0:0:0:0:
64,83,364337,1,0,0:0:0:0:
130,301,364519,1,8,0:0:0:0:
138,167,364701,1,0,0:0:0:0:
299,241,364883,6,0,P|312:309|305:358,1,95
227,302,365155,1,0,0:0:0:0:
227,302,365246,1,8,0:0:0:0:
393,342,365428,1,0,0:0:0:0:
395,294,365519,1,0,0:0:0:0:
388,246,365610,1,0,0:0:0:0:
375,200,365701,1,0,0:0:0:0:
352,157,365792,1,0,0:0:0:0:
227,302,365974,1,8,0:0:0:0:
180,248,366064,1,0,0:0:0:0:
177,177,366155,1,0,0:0:0:0:
216,117,366246,1,0,0:0:0:0:
280,83,366337,6,0,L|335:79,1,47.5
285,206,366519,2,0,L|352:184,1,47.5
416,111,366701,1,8,0:0:0:0:
318,317,366883,1,0,0:0:0:0:
488,280,367064,1,0,0:0:0:0:
467,268,367154,1,0,0:0:0:0:
446,257,367245,1,0,0:0:0:0:
425,246,367336,1,0,0:0:0:0:
404,235,367427,1,8,0:0:0:0:
202,94,367610,1,0,0:0:0:0:
108,302,367792,5,0,0:0:0:0:
80,262,367883,1,0,0:0:0:0:
72,215,367974,1,0,0:0:0:0:
83,169,368064,1,0,0:0:0:0:
114,133,368155,1,8,0:0:0:0:
228,307,368337,1,0,0:0:0:0:
313,177,368519,1,0,0:0:0:0:
284,198,368610,1,0,0:0:0:0:
251,212,368701,1,0,0:0:0:0:
216,219,368792,1,0,0:0:0:0:
181,220,368882,1,8,0:0:0:0:
53,54,369064,1,0,0:0:0:0:
216,96,369246,5,0,0:0:0:0:
237,87,369336,1,0,0:0:0:0:
260,79,369427,1,0,0:0:0:0:
282,72,369518,1,0,0:0:0:0:
304,63,369610,1,8,0:0:0:0:
498,139,369792,1,0,0:0:0:0:
368,302,369973,1,0,0:0:0:0:
386,269,370063,1,0,0:0:0:0:
394,232,370154,1,0,0:0:0:0:
387,194,370245,1,0,0:0:0:0:
369,159,370336,1,8,0:0:0:0:
177,244,370519,1,0,0:0:0:0:
474,299,370700,5,12,0:0:0:0:
277,231,370882,1,8,0:0:0:0:
409,77,371064,1,8,0:0:0:0:
455,339,371246,1,8,0:0:0:0:
206,317,371428,1,8,0:0:0:0:
272,342,371519,1,0,0:0:0:0:
340,323,371610,1,0,0:0:0:0:
383,266,371701,1,0,0:0:0:0:
381,194,371792,1,8,0:0:0:0:
336,138,371883,1,0,0:0:0:0:
266,121,371974,1,8,0:0:0:0:
202,150,372064,1,0,0:0:0:0:
168,213,372155,5,8,0:0:0:0:
432,105,372337,1,8,0:0:0:0:
277,231,372519,1,0,0:0:0:0:
94,79,372701,1,8,0:0:0:0:
345,126,372882,1,0,0:0:0:0:
394,186,372973,1,0,0:0:0:0:
398,262,373064,1,8,0:0:0:0:
358,327,373155,1,0,0:0:0:0:
287,357,373246,2,0,B|248:359|229:348|229:348|232:338|232:338|196:333|152:304|152:304,1,118.75,0|8,0:0|0:0,0:0:0:0:
230,39,373610,5,0,0:0:0:0:
277,231,373792,1,8,0:0:0:0:
36,127,373974,1,0,0:0:0:0:
389,97,374155,1,8,0:0:0:0:
212,367,374337,1,0,0:0:0:0:
163,314,374428,1,0,0:0:0:0:
142,245,374519,1,8,0:0:0:0:
146,172,374610,1,0,0:0:0:0:
178,108,374701,1,0,0:0:0:0:
411,292,374883,1,8,0:0:0:0:
178,108,375064,5,0,0:0:0:0:
459,59,375246,1,8,0:0:0:0:
239,246,375428,1,0,0:0:0:0:
475,358,375610,1,8,0:0:0:0:
325,69,375791,1,0,0:0:0:0:
267,110,375882,1,0,0:0:0:0:
237,175,375973,1,8,0:0:0:0:
239,246,376063,1,0,0:0:0:0:
273,310,376154,1,0,0:0:0:0:
386,207,376337,1,8,0:0:0:0:
127,327,376519,5,0,0:0:0:0:
127,327,376610,1,0,0:0:0:0:
127,327,376701,1,8,0:0:0:0:
386,207,376883,1,0,0:0:0:0:
77,86,377064,1,8,0:0:0:0:
212,337,377246,5,0,0:0:0:0:
212,337,377337,1,0,0:0:0:0:
212,337,377428,1,8,0:0:0:0:
398,121,377610,1,0,0:0:0:0:
398,121,377700,1,0,0:0:0:0:
398,121,377791,1,8,0:0:0:0:
44,165,377973,5,0,0:0:0:0:
306,43,378155,1,8,0:0:0:0:
238,320,378337,1,0,0:0:0:0:
68,179,378519,1,8,0:0:0:0:
350,137,378701,1,0,0:0:0:0:
295,182,378792,1,0,0:0:0:0:
225,196,378883,1,8,0:0:0:0:
155,182,378974,1,0,0:0:0:0:
97,140,379064,2,0,P|90:72|123:4,1,118.75,0|8,0:0|0:0,0:0:0:0:
481,185,379428,5,0,0:0:0:0:
212,92,379610,1,8,0:0:0:0:
465,223,379792,1,0,0:0:0:0:
226,67,379974,1,8,0:0:0:0:
383,298,380155,1,0,0:0:0:0:
357,231,380246,1,0,0:0:0:0:
373,161,380337,1,8,0:0:0:0:
427,115,380428,1,0,0:0:0:0:
497,105,380519,2,0,P|442:83|334:99,1,118.75,0|8,0:0|0:0,0:0:0:0:
69,318,380883,5,0,0:0:0:0:
300,109,381064,1,8,0:0:0:0:
188,336,381246,1,0,0:0:0:0:
48,139,381428,1,8,0:0:0:0:
297,276,381610,1,0,0:0:0:0:
338,217,381701,1,0,0:0:0:0:
350,146,381792,1,8,0:0:0:0:
339,75,381883,1,0,0:0:0:0:
302,13,381974,1,0,0:0:0:0:
121,200,382155,1,8,0:0:0:0:
391,291,382337,5,0,0:0:0:0:
189,88,382519,1,8,0:0:0:0:
376,302,382701,1,0,0:0:0:0:
204,74,382882,1,8,0:0:0:0:
47,310,383064,2,8,L|125:347,1,59.375,0|0,0:0|0:0,0:0:0:0:
248,213,383246,1,8,0:3:0:0:
61,15,383428,1,0,0:0:0:0:
45,102,383519,1,0,0:0:0:0:
80,183,383610,1,8,0:0:0:0:
160,220,383701,1,0,0:0:0:0:
248,213,383792,6,0,P|331:192|445:239,1,178.125,4|8,0:0|0:0,0:0:0:0:
445,254,384155,1,0,0:0:0:0:
236,303,384337,1,0,0:0:0:0:
321,106,384519,2,0,P|263:114|179:152,1,118.75,0|8,0:0|0:0,0:0:0:0:
49,373,384882,1,0,0:0:0:0:
326,226,385064,1,0,0:0:0:0:
112,207,385246,6,0,P|90:166|111:55,1,118.75,0|8,0:0|0:0,0:0:0:0:
286,7,385610,1,0,0:0:0:0:
194,351,385792,1,8,0:0:0:0:
206,135,385973,1,0,0:0:0:0:
298,327,386155,1,8,0:0:0:0:
206,135,386337,1,0,0:0:0:0:
398,41,386519,1,8,0:0:0:0:
270,240,386700,6,0,P|328:150|259:25,1,237.5
66,21,387246,1,8,0:0:0:0:
206,135,387428,1,0,0:0:0:0:
42,229,387610,1,8,0:0:0:0:
482,324,387792,1,0,0:0:0:0:
424,272,387883,1,0,0:0:0:0:
350,252,387974,1,8,0:0:0:0:
275,265,388064,1,0,0:0:0:0:
216,314,388155,6,0,P|143:335|50:187,1,237.5
151,226,388701,2,8,P|219:203|317:353,1,237.5
141,120,389246,1,8,0:0:0:0:
374,73,389428,1,8,0:0:0:0:
216,310,389610,6,0,B|209:349|209:349|183:309|171:261|212:165,1,178.125,4|0,0:0|0:0,0:0:0:0:
257,118,389974,1,0,0:0:0:0:
417,291,390155,1,8,0:0:0:0:
374,73,390337,2,0,P|353:133|368:198,1,118.75,0|8,0:0|0:0,0:0:0:0:
400,259,390610,1,0,0:0:0:0:
417,291,390700,1,0,0:0:0:0:
303,338,390883,1,8,0:0:0:0:
192,129,391064,5,0,0:0:0:0:
417,291,391337,1,0,0:0:0:0:
251,16,391610,1,8,0:0:0:0:
161,271,391791,2,0,P|97:204|6:210,1,178.125
57,306,392155,1,0,0:0:0:0:
368,132,392337,1,8,0:0:0:0:
379,327,392519,6,0,P|323:265|374:129,1,237.5,4|0,0:0|0:0,0:0:0:0:
426,227,393064,1,8,0:0:0:0:
194,334,393246,1,0,0:0:0:0:
289,90,393428,1,8,0:0:0:0:
379,327,393610,1,0,0:0:0:0:
320,259,393701,1,0,0:0:0:0:
231,249,393792,1,0,0:0:0:0:
145,275,393883,1,0,0:0:0:0:
81,337,393974,6,4,L|192:89,1,190,12|8,0:0|0:0,0:0:0:0:
465,291,394246,2,0,L|416:40,1,190,4|8,0:0|0:0,0:0:0:0:
398,17,394519,1,0,0:0:0:0:
248,351,394701,2,0,L|269:67,1,285,4|0,0:0|0:0,0:0:0:0:
34,98,395064,2,0,L|65:286,1,190,4|0,0:0|0:0,0:0:0:0:
154,345,395428,6,0,L|146:275,4,47.5,12|0|8|0|0,0:0|0:0|0:0|0:0|0:0,0:0:0:0:
151,96,396155,6,0,L|140:20,4,47.5,12|0|8|0|0,0:0|0:0|0:0|0:0|0:0,0:0:0:0:
413,281,396882,5,12,0:0:0:0:
133,331,397064,1,8,0:0:0:0:
6,75,397246,1,8,0:0:0:0:
399,301,397428,5,12,0:0:0:0:
114,312,397610,1,8,0:0:0:0:
24,41,397792,1,8,0:0:0:0:
382,320,397973,5,12,0:0:0:0:
99,291,398155,1,8,0:0:0:0:
47,10,398337,1,12,0:0:0:0:
58,47,398428,1,0,0:0:0:0:
66,84,398519,1,0,0:0:0:0:
74,120,398610,1,0,0:0:0:0:
83,156,398701,1,0,0:0:0:0:
329,113,399065,5,12,0:0:0:0:
296,108,399156,1,0,0:0:0:0:
262,104,399247,1,0,0:0:0:0:
228,105,399338,1,0,0:0:0:0:
195,112,399429,1,0,0:0:0:0:
319,348,399792,5,12,0:0:0:0:
99,291,399974,1,8,0:0:0:0:
414,184,400156,1,8,0:0:0:0:
262,128,400337,5,12,0:0:0:0:
319,348,400519,1,8,0:0:0:0:
426,35,400701,1,8,0:0:0:0:
194,241,400882,5,12,0:0:0:0:
414,184,401064,1,8,0:0:0:0:
99,77,401246,1,12,0:0:0:0:
96,91,401337,1,0,0:0:0:0:
94,105,401428,1,0,0:0:0:0:
94,119,401519,1,0,0:0:0:0:
94,133,401610,2,0,L|209:149,1,95
464,216,401974,5,12,0:0:0:0:
452,207,402064,1,0,0:0:0:0:
440,198,402155,1,0,0:0:0:0:
428,190,402246,1,0,0:0:0:0:
414,184,402337,2,0,L|303:200,1,95
86,290,402701,5,12,0:0:0:0:
320,67,402883,1,8,0:0:0:0:
386,285,403065,1,8,0:0:0:0:
163,51,403246,5,12,0:0:0:0:
386,285,403428,1,8,0:0:0:0:
168,351,403610,1,8,0:0:0:0:
402,128,403791,5,12,0:0:0:0:
168,351,403973,1,8,0:0:0:0:
102,133,404155,1,12,0:0:0:0:
135,150,404246,1,0,0:0:0:0:
172,153,404337,1,0,0:0:0:0:
208,143,404428,1,0,0:0:0:0:
239,122,404519,1,8,0:0:0:0:
402,128,404882,5,12,0:0:0:0:
380,159,404973,1,0,0:0:0:0:
356,189,405064,1,0,0:0:0:0:
328,214,405155,1,0,0:0:0:0:
297,236,405246,1,8,0:0:0:0:
105,254,405610,5,12,0:0:0:0:
239,122,405791,1,8,0:0:0:0:
96,255,405973,5,8,0:0:0:0:
248,115,406155,1,12,0:0:0:0:
85,255,406337,5,8,0:0:0:0:
258,107,406519,1,8,0:0:0:0:
74,256,406700,5,12,0:0:0:0:
270,100,406882,1,8,0:0:0:0:
62,257,407064,5,12,0:0:0:0:
283,93,407246,1,8,0:0:0:0:
283,93,407337,1,0,0:0:0:0:
283,93,407428,1,0,0:0:0:0:
143,120,407610,2,0,P|161:167|221:220,1,118.75,8|0,0:0|0:0,0:0:0:0:
349,221,407973,1,8,0:0:0:0:
253,326,408155,1,0,0:0:0:0:
283,93,408337,1,8,0:0:0:0:
455,173,408519,5,4,0:0:0:0:
465,216,408610,1,0,0:0:0:0:
459,259,408701,1,8,0:0:0:0:
437,298,408792,1,0,0:0:0:0:
403,326,408882,1,0,0:0:0:0:
195,166,409064,1,8,0:0:0:0:
349,221,409246,1,8,0:0:0:0:
181,160,409428,1,8,0:0:0:0:
312,104,409610,1,0,0:0:0:0:
217,296,409791,1,8,0:0:0:0:
49,208,409972,5,4,0:0:0:0:
95,217,410063,1,0,0:0:0:0:
141,205,410154,1,8,0:0:0:0:
179,177,410245,1,0,0:0:0:0:
202,135,410336,1,0,0:0:0:0:
92,100,410518,1,8,0:0:0:0:
125,310,410699,1,0,0:0:0:0:
305,194,410881,1,8,0:0:0:0:
121,303,411063,1,0,0:0:0:0:
311,205,411245,1,8,0:0:0:0:
240,112,411427,5,0,0:0:0:0:
199,173,411517,1,0,0:0:0:0:
201,246,411608,1,8,0:0:0:0:
246,303,411699,1,0,0:0:0:0:
316,323,411790,1,0,0:0:0:0:
454,73,411972,1,8,0:0:0:0:
388,99,412063,1,0,0:0:0:0:
311,205,412245,1,0,0:0:0:0:
377,231,412336,1,8,0:0:0:0:
138,342,412518,5,8,0:0:0:0:
103,279,412609,1,0,0:0:0:0:
87,210,412699,1,8,0:0:0:0:
105,138,412790,1,0,0:0:0:0:
151,83,412881,6,0,B|194:105|214:136|214:136|261:90,1,118.75,4|8,0:0|0:0,0:0:0:0:
195,222,413154,1,0,0:0:0:0:
374,37,413426,1,8,0:0:0:0:
231,327,413609,2,0,B|259:332|283:353|283:353|282:339|282:339|338:352|369:320,1,118.75,0|8,0:0|0:0,0:0:0:0:
310,243,413881,1,0,0:0:0:0:
86,324,414154,1,8,0:0:0:0:
409,237,414336,6,0,P|383:176|273:153,1,178.125,4|8,0:0|0:0,0:0:0:0:
256,175,414699,1,0,0:0:0:0:
462,335,414881,1,8,0:0:0:0:
310,243,415063,1,0,0:0:0:0:
458,125,415244,1,8,0:0:0:0:
256,175,415426,1,0,0:0:0:0:
339,3,415609,1,8,0:0:0:0:
87,173,415790,6,0,B|74:249|126:310,1,118.75,4|8,0:0|0:0,0:0:0:0:
168,80,416154,1,0,0:0:0:0:
336,227,416336,2,0,P|351:169|314:91,1,118.75,8|8,0:0|0:0,0:0:0:0:
208,287,416699,1,8,0:0:0:0:
438,157,416881,2,0,P|423:215|460:293,1,118.75,0|8,0:0|0:0,0:0:0:0:
493,70,417245,5,0,0:0:0:0:
423,56,417335,1,0,0:0:0:0:
359,87,417426,1,8,0:0:0:0:
335,154,417517,1,0,0:0:0:0:
438,157,417609,5,0,0:0:0:0:
417,89,417699,1,0,0:0:0:0:
352,57,417790,1,8,0:0:0:0:
281,68,417881,1,0,0:0:0:0:
238,125,417972,1,0,0:0:0:0:
238,196,418063,1,0,0:0:0:0:
281,252,418154,1,8,0:0:0:0:
350,266,418245,1,0,0:0:0:0:
410,229,418336,2,0,P|424:159|403:105,1,118.75,0|8,0:0|0:0,0:0:0:0:
116,254,418699,6,0,P|88:159|128:83,1,178.125,4|0,0:0|0:0,0:0:0:0:
202,77,419063,1,0,0:0:0:0:
182,328,419245,2,0,P|215:271|207:214,1,118.75,8|0,0:0|0:0,0:0:0:0:
13,131,419608,1,8,0:0:0:0:
116,253,419790,1,0,0:0:0:0:
259,148,419972,1,8,0:0:0:0:
21,280,420154,6,0,B|7:227|46:183|46:183|49:137|23:100,1,178.125,4|0,0:0|0:0,0:0:0:0:
91,47,420517,1,0,0:0:0:0:
246,257,420699,1,8,0:0:0:0:
176,91,420881,2,0,P|158:145|176:205,1,118.75,0|8,0:0|0:0,0:0:0:0:
346,151,421244,1,0,0:0:0:0:
259,37,421426,1,8,0:0:0:0:
424,208,421609,6,0,P|443:147|421:91,1,118.75,4|8,0:0|0:0,0:0:0:0:
253,148,421972,1,0,0:0:0:0:
389,312,422154,1,8,0:0:0:0:
346,151,422335,1,0,0:0:0:0:
206,313,422517,1,8,0:0:0:0:
403,229,422699,2,0,P|412:289|400:360,1,118.75,8|8,0:0|0:0,0:0:0:0:
127,277,423063,5,0,0:0:0:0:
87,218,423153,1,0,0:0:0:0:
86,146,423244,1,8,0:0:0:0:
124,85,423335,1,0,0:0:0:0:
191,58,423427,2,0,L|256:77,1,59.375
437,211,423609,5,0,0:0:0:0:
381,255,423700,1,0,0:0:0:0:
311,264,423791,1,0,0:0:0:0:
246,236,423882,1,0,0:0:0:0:
206,179,423972,5,8,0:0:0:0:
227,355,424153,1,8,0:0:0:0:
331,133,424336,1,8,0:0:0:0:
133,240,424518,6,0,P|112:192|196:84,1,178.125,4|0,0:0|0:0,0:0:0:0:
254,62,424881,1,0,0:0:0:0:
61,299,425063,1,8,0:0:0:0:
206,179,425244,1,0,0:0:0:0:
114,25,425426,1,8,0:0:0:0:
133,240,425608,1,0,0:0:0:0:
254,62,425790,1,8,0:0:0:0:
285,228,425972,6,0,P|211:272|132:239,1,178.125,4|0,0:0|0:0,0:0:0:0:
206,179,426335,1,8,0:0:0:0:
397,82,426517,1,0,0:0:0:0:
472,282,426699,1,0,0:0:0:0:
311,140,426881,1,8,0:0:0:0:
353,289,427063,1,0,0:0:0:0:
480,164,427245,1,8,0:0:0:0:
73,129,427426,5,4,0:0:0:0:
185,266,427608,1,8,0:0:0:0:
311,140,427790,1,0,0:0:0:0:
171,168,427972,1,8,0:0:0:0:
353,289,428154,2,8,B|389:246|389:246|381:165,1,118.75
210,55,428518,2,8,L|167:176,1,118.75
74,106,428881,5,0,0:0:0:0:
59,151,428972,1,0,0:0:0:0:
61,198,429063,1,8,0:0:0:0:
83,240,429154,1,0,0:0:0:0:
119,269,429244,1,0,0:0:0:0:
164,282,429335,1,0,0:0:0:0:
211,275,429426,1,8,0:0:0:0:
251,250,429517,1,0,0:0:0:0:
283,186,429608,5,0,0:0:0:0:
350,163,429699,1,0,0:0:0:0:
416,189,429790,1,8,0:0:0:0:
447,252,429881,1,0,0:0:0:0:
427,320,429972,5,0,0:0:0:0:
353,359,430063,1,0,0:0:0:0:
278,321,430154,1,8,0:0:0:0:
195,327,430244,1,0,0:0:0:0:
115,354,430336,2,4,P|46:305|43:215,1,178.125,4|0,0:0|0:0,0:0:0:0:
110,147,430699,2,0,P|139:196|132:257,1,118.75,0|8,0:0|0:0,0:0:0:0:
234,111,431063,1,0,0:0:0:0:
349,261,431245,1,8,0:0:0:0:
175,219,431427,1,0,0:0:0:0:
320,62,431609,1,8,0:0:0:0:
320,62,431699,1,0,0:0:0:0:
320,62,431790,6,8,P|330:121|308:177,1,118.75,0|8,0:0|0:0,0:0:0:0:
110,96,432153,1,0,0:0:0:0:
309,174,432335,1,8,0:0:0:0:
79,180,432518,1,0,0:0:0:0:
72,215,432609,1,0,0:0:0:0:
76,250,432700,1,8,0:0:0:0:
93,283,432791,1,0,0:0:0:0:
121,307,432881,1,0,0:0:0:0:
231,86,433063,1,12,0:0:0:0:
175,220,433245,6,0,B|211:240|222:279|222:279|275:264|327:296,1,178.125,4|0,0:0|0:0,0:0:0:0:
383,249,433609,1,0,0:0:0:0:
412,35,433790,1,8,0:0:0:0:
272,194,433972,1,0,0:0:0:0:
484,144,434154,1,8,0:0:0:0:
271,77,434336,2,8,P|261:140|280:212,1,118.75,0|8,0:0|0:0,0:0:0:0:
360,263,434609,1,0,0:0:0:0:
383,249,434699,6,8,P|386:184|347:118,1,118.75,4|8,0:0|0:0,0:0:0:0:
266,210,435063,1,0,0:0:0:0:
436,341,435245,1,8,0:0:0:0:
363,136,435427,1,0,0:0:0:0:
331,313,435609,1,8,0:0:0:0:
382,262,435699,1,0,0:0:0:0:
394,191,435790,1,0,0:0:0:0:
362,127,435881,1,0,0:0:0:0:
298,94,435972,1,8,0:0:0:0:
228,104,436063,1,0,0:0:0:0:
178,155,436154,6,0,B|158:203|179:250|179:250|222:232|268:247,1,178.125,4|0,0:0|0:0,0:0:0:0:
280,208,436517,1,0,0:0:0:0:
94,126,436699,2,0,B|81:188|81:188|84:291,1,118.75,8|0,0:0|0:0,0:0:0:0:
227,346,437063,1,8,0:0:0:0:
438,104,437245,1,8,0:0:0:0:
280,208,437427,1,8,0:0:0:0:
452,271,437608,6,0,P|420:189|439:103,1,178.125,4|0,0:0|0:0,0:0:0:0:
365,32,437973,1,0,0:0:0:0:
280,208,438154,2,0,P|297:142|273:88,1,118.75,8|0,0:0|0:0,0:0:0:0:
199,152,438518,1,8,0:0:0:0:
79,298,438700,2,0,P|141:303|201:261,1,118.75,0|8,0:0|0:0,0:0:0:0:
292,133,439063,6,8,P|251:72|143:75,1,190,0|8,0:0|0:0,0:0:0:0:
118,208,439609,1,8,0:0:0:0:
199,152,439791,1,0,0:0:0:0:
58,135,439973,1,8,0:0:0:0:
101,301,440154,2,0,P|155:294|211:237,1,95,0|8,0:0|0:0,0:0:0:0:
211,132,440519,5,0,0:0:0:0:
268,194,440701,1,8,0:0:0:0:
280,278,440882,1,0,0:0:0:0:
236,351,441063,1,8,0:0:0:0:
118,208,441245,5,0,0:0:0:0:
102,132,441336,1,0,0:0:0:0:
136,62,441427,1,8,0:0:0:0:
206,29,441518,1,0,0:0:0:0:
279,51,441609,1,8,0:0:0:0:
325,111,441699,1,0,0:0:0:0:
391,150,441790,1,8,0:0:0:0:
464,124,441881,1,0,0:0:0:0:
488,50,441972,6,0,L|330:21,1,118.75,4|8,0:0|0:0,0:0:0:0:
211,132,442244,1,0,0:0:0:0:
223,161,442336,2,8,P|282:175|355:157,1,118.75,0|8,0:0|0:0,0:0:0:0:
287,54,442608,1,0,0:0:0:0:
287,54,442699,1,0,0:0:0:0:
13,351,442881,1,8,0:0:0:0:
306,73,443063,1,8,0:0:0:0:
17,317,443244,1,8,0:0:0:0:
400,304,443427,6,0,P|421:243|386:167,1,118.75,4|8,0:0|0:0,0:0:0:0:
273,167,443698,1,0,0:0:0:0:
242,181,443790,2,0,P|221:242|256:318,1,118.75,0|8,0:0|0:0,0:0:0:0:
325,246,444063,1,0,0:0:0:0:
325,246,444154,1,0,0:0:0:0:
29,46,444336,1,8,0:0:0:0:
325,246,444518,1,8,0:0:0:0:
41,33,444699,1,8,0:0:0:0:
440,157,444881,6,8,B|457:88|432:5,1,118.75,4|8,0:0|0:0,0:0:0:0:
332,178,445154,1,0,0:0:0:0:
328,201,445245,2,8,P|333:261|354:339,1,118.75,0|8,0:0|0:0,0:0:0:0:
450,259,445517,1,0,0:0:0:0:
450,259,445608,1,0,0:0:0:0:
184,153,445790,1,8,0:0:0:0:
362,34,445972,1,8,0:0:0:0:
230,287,446154,1,8,0:0:0:0:
87,93,446336,6,0,P|71:145|93:223,1,118.75,4|8,0:3|0:0,0:0:0:0:
346,333,446699,1,4,0:3:0:0:
227,37,446881,2,0,L|167:70,1,47.5,8|0,0:0|0:0,0:0:0:0:
347,49,447245,5,8,0:3:0:0:
184,153,447427,1,4,0:3:0:0:
452,216,447609,1,8,0:0:0:0:
511,130,447790,6,0,P|441:113|377:146,1,119.129995437374,4|8,0:0|0:0,0:0:0:0:
360,211,448063,1,0,0:0:0:0:
360,211,448154,1,0,0:0:0:0:
105,272,448336,1,8,0:0:0:0:
146,213,448428,1,0,0:0:0:0:
184,153,448518,1,0,0:0:0:0:
160,32,448699,1,8,0:0:0:0:
245,251,448881,1,8,0:0:0:0:
458,60,449063,1,8,0:0:0:0:
232,132,449244,5,4,0:0:0:0:
398,178,449426,1,8,0:0:0:0:
405,249,449517,1,0,0:0:0:0:
407,320,449608,1,0,0:0:0:0:
139,241,449790,1,8,0:0:0:0:
185,186,449881,1,0,0:0:0:0:
232,132,449972,1,0,0:0:0:0:
223,345,450154,1,8,0:0:0:0:
25,264,450335,1,8,0:0:0:0:
298,243,450517,1,8,0:0:0:0:
105,329,450699,5,4,0:0:0:0:
286,61,450881,1,8,0:0:0:0:
317,123,450972,1,0,0:0:0:0:
302,192,451063,1,0,0:0:0:0:
96,140,451244,1,8,0:0:0:0:
162,113,451335,1,0,0:0:0:0:
232,132,451426,1,0,0:0:0:0:
406,294,451608,1,8,0:0:0:0:
170,229,451790,1,8,0:0:0:0:
378,55,451972,1,8,0:0:0:0:
279,369,452154,5,4,0:0:0:0:
433,169,452335,1,12,0:0:0:0:
233,15,452517,1,0,0:0:0:0:
79,215,452699,2,8,L|74:272,1,56.9999982604981
166,339,453062,5,12,0:0:0:0:
326,102,453244,1,0,0:0:0:0:
402,287,453427,1,8,0:0:0:0:
91,66,453609,5,12,0:0:0:0:
253,224,453790,1,8,0:0:0:0:
253,224,453881,1,0,0:0:0:0:
253,224,453972,1,0,0:0:0:0:
435,169,454154,1,8,0:0:0:0:
237,199,454336,1,0,0:0:0:0:
446,196,454518,1,8,0:0:0:0:
182,336,454699,2,0,P|156:285|148:218,1,95,0|8,0:0|0:0,0:0:0:0:
288,105,455063,5,0,0:0:0:0:
324,134,455154,1,0,0:0:0:0:
344,177,455245,1,8,0:0:0:0:
342,224,455336,1,0,0:0:0:0:
321,267,455427,1,0,0:0:0:0:
139,238,455609,1,8,0:0:0:0:
237,199,455790,5,0,0:0:0:0:
107,363,455972,1,8,0:0:0:0:
56,179,456154,1,0,0:0:0:0:
214,315,456336,1,8,0:0:0:0:
449,235,456518,5,0,0:0:0:0:
403,211,456608,1,0,0:0:0:0:
351,214,456699,1,8,0:0:0:0:
214,315,456881,1,0,0:0:0:0:
384,303,457063,1,8,0:0:0:0:
187,124,457245,1,0,0:0:0:0:
295,280,457427,1,8,0:0:0:0:
393,52,457609,1,0,0:0:0:0:
139,215,457790,1,8,0:0:0:0:
388,350,457972,6,0,L|383:271,2,47.5,8|0|0,0:0|0:0|0:0,0:0:0:0:
57,32,458336,2,0,L|62:111,2,47.5,8|0|0,0:0|0:0|0:0,0:0:0:0:
430,290,458699,6,0,L|400:217,2,47.5,8|0|0,0:0|0:0|0:0,0:0:0:0:
15,91,459063,2,0,L|45:164,1,47.5,8|0,0:0|0:0,0:0:0:0:
177,115,459245,2,0,L|98:69,1,47.5,8|0,0:0|0:0,0:0:0:0:
121,205,459427,5,4,0:0:0:0:
278,155,459609,1,8,0:0:0:0:
135,92,459790,1,0,0:0:0:0:
217,242,459972,1,8,0:0:0:0:
242,34,460154,2,0,P|288:29|356:55,1,95,0|8,0:0|0:0,0:0:0:0:
441,208,460518,1,0,0:0:0:0:
278,155,460699,1,8,0:0:0:0:
472,79,460881,6,0,P|492:155|432:248,1,190
269,286,461427,1,8,0:0:0:0:
373,146,461609,1,0,0:0:0:0:
250,28,461790,1,8,0:0:0:0:
290,194,461972,1,0,0:0:0:0:
134,123,462154,1,8,0:0:0:0:
316,294,462336,5,0,0:0:0:0:
280,107,462518,1,8,0:0:0:0:
94,143,462699,1,0,0:0:0:0:
137,328,462881,1,8,0:0:0:0:
298,200,463063,2,0,P|287:146|277:92,1,95,0|8,0:0|0:0,0:0:0:0:
178,61,463336,1,0,0:0:0:0:
205,131,463426,1,0,0:0:0:0:
211,207,463518,1,0,0:0:0:0:
179,276,463609,1,8,0:0:0:0:
112,316,463699,1,0,0:0:0:0:
36,325,463790,5,4,0:0:0:0:
95,129,463972,1,8,0:0:0:0:
187,360,464154,1,0,0:0:0:0:
21,203,464336,1,8,0:0:0:0:
201,62,464518,1,4,0:0:0:0:
112,316,464699,1,8,0:0:0:0:
18,46,464881,1,4,0:0:0:0:
61,119,464972,1,0,0:0:0:0:
139,151,465063,1,8,0:0:0:0:
224,144,465154,1,0,0:0:0:0:
298,101,465245,6,0,P|346:82|426:107,1,95,4|8,0:0|0:0,0:0:0:0:
490,229,465609,1,0,0:0:0:0:
357,179,465790,1,8,0:0:0:0:
481,110,465972,1,0,0:0:0:0:
371,288,466154,1,8,0:0:0:0:
221,122,466336,2,0,P|215:173|228:251,1,95,0|8,0:0|0:0,0:0:0:0:
357,179,466699,5,0,0:0:0:0:
361,155,466790,1,0,0:0:0:0:
363,132,466881,1,8,0:0:0:0:
363,108,466972,1,0,0:0:0:0:
361,84,467062,1,0,0:0:0:0:
115,145,467245,1,8,0:0:0:0:
269,136,467427,1,0,0:0:0:0:
188,42,467609,1,8,0:0:0:0:
154,241,467790,2,0,P|101:249|52:229,1,95,0|8,0:0|0:0,0:0:0:0:
228,44,468154,6,0,P|281:36|330:56,1,95,4|8,0:0|0:0,0:0:0:0:
370,235,468518,1,0,0:0:0:0:
269,136,468699,1,8,0:0:0:0:
409,111,468881,1,0,0:0:0:0:
262,260,469063,1,8,0:0:0:0:
75,165,469245,2,0,P|69:108|76:48,1,95,0|8,0:0|0:0,0:0:0:0:
163,125,469609,6,0,L|173:179,2,47.5,8|0|0,0:0|0:0|0:0,0:0:0:0:
289,190,469972,6,0,L|299:244,2,47.5,8|0|0,0:0|0:0|0:0,0:0:0:0:
425,234,470336,6,0,L|435:288,2,47.5,8|0|0,0:0|0:0|0:0,0:0:0:0:
60,161,470699,5,8,0:0:0:0:
42,200,470790,1,0,0:0:0:0:
37,242,470881,1,8,0:0:0:0:
43,285,470972,1,0,0:0:0:0:
61,323,471063,1,4,0:0:0:0:
285,298,471245,1,8,0:0:0:0:
285,126,471427,1,0,0:0:0:0:
158,240,471609,1,8,0:0:0:0:
363,206,471790,2,0,L|403:309,1,95,0|8,0:0|0:0,0:0:0:0:
158,240,472154,2,0,L|149:334,1,95,0|8,0:0|0:0,0:0:0:0:
363,206,472518,5,4,0:3:0:0:
410,103,472699,1,8,0:0:0:0:
123,88,472881,5,4,0:0:0:0:
229,129,473063,1,8,0:0:0:0:
363,206,473245,5,4,0:0:0:0:
256,231,473426,1,8,0:0:0:0:
192,315,473609,5,4,0:0:0:0:
144,211,473791,1,8,0:0:0:0:
455,278,473973,6,0,P|480:205|454:132,1,158.333333333333
363,206,475063,5,0,0:0:0:0:
290,161,475154,1,0,0:0:0:0:
205,159,475244,1,0,0:0:0:0:
133,205,475335,1,0,0:0:0:0:
97,284,475427,6,12,L|81:101,1,142.500005435944,12|8,0:0|0:0,0:0:0:0:
248,307,475790,2,12,P|239:221|266:135,1,142.500005435944,12|8,0:0|0:0,0:0:0:0:
410,76,476154,2,12,P|400:146|367:208,1,142.500005435944,12|8,0:0|0:0,0:0:0:0:
66,247,476518,2,12,L|3:84,1,142.500005435944,12|8,0:0|0:0,0:0:0:0:
299,70,476881,5,4,0:0:0:0:
195,206,477063,1,8,0:0:0:0:
353,269,477245,1,0,0:0:0:0:
221,105,477427,1,8,0:0:0:0:
82,265,477609,2,0,P|70:214|77:157,1,95,0|8,0:0|0:0,0:0:0:0:
355,175,477972,2,0,P|359:240|338:303,1,95,0|8,0:0|0:0,0:0:0:0:
149,364,478336,5,0,0:0:0:0:
188,337,478427,1,0,0:0:0:0:
210,296,478518,1,8,0:0:0:0:
213,249,478609,1,0,0:0:0:0:
195,206,478699,1,0,0:0:0:0:
56,106,478881,1,8,0:0:0:0:
113,267,479063,1,0,0:0:0:0:
306,186,479245,1,8,0:0:0:0:
189,111,479427,2,0,L|196:225,1,95,0|8,0:0|0:0,0:0:0:0:
490,165,479790,5,0,0:0:0:0:
448,123,479881,1,0,0:0:0:0:
390,113,479972,1,8,0:0:0:0:
337,137,480063,1,0,0:0:0:0:
306,186,480153,1,0,0:0:0:0:
432,355,480336,1,8,0:0:0:0:
402,210,480518,1,0,0:0:0:0:
272,321,480699,1,8,0:0:0:0:
483,269,480881,2,0,P|492:210|485:143,1,95,0|8,0:0|0:0,0:0:0:0:
171,210,481245,5,0,0:0:0:0:
272,321,481427,1,8,0:0:0:0:
180,177,481609,1,0,0:0:0:0:
255,350,481790,1,8,0:0:0:0:
200,148,481972,2,0,P|258:162|312:187,1,95,0|8,0:0|0:0,0:0:0:0:
186,270,482336,1,8,0:0:0:0:
117,239,482427,1,0,0:0:0:0:
79,175,482518,1,0,0:0:0:0:
85,100,482609,1,0,0:0:0:0:
132,43,482699,5,4,0:0:0:0:
300,208,482881,1,8,0:0:0:0:
354,41,483063,1,0,0:0:0:0:
200,148,483245,1,8,0:0:0:0:
427,129,483427,1,0,0:0:0:0:
427,129,483518,1,0,0:0:0:0:
427,129,483609,1,8,0:0:0:0:
327,298,483790,2,0,P|305:263|300:204,1,95,0|8,0:0|0:0,0:0:0:0:
403,225,484154,5,0,0:0:0:0:
264,68,484336,1,8,0:0:0:0:
142,238,484518,1,0,0:0:0:0:
298,210,484699,1,8,0:0:0:0:
129,54,484881,2,0,L|111:186,1,95,0|8,0:0|0:0,0:0:0:0:
313,255,485245,2,0,L|251:172,1,95,0|8,0:0|0:0,0:0:0:0:
46,297,485609,5,4,0:0:0:0:
269,337,485790,1,8,0:0:0:0:
269,337,485881,1,0,0:0:0:0:
269,337,485972,1,0,0:0:0:0:
81,171,486154,1,8,0:0:0:0:
158,291,486336,1,0,0:0:0:0:
266,198,486518,1,8,0:0:0:0:
85,77,486699,1,8,0:0:0:0:
84,100,486790,1,0,0:0:0:0:
83,124,486881,1,8,0:0:0:0:
82,148,486972,1,0,0:0:0:0:
81,171,487063,5,4,0:0:0:0:
326,269,487245,2,0,L|430:197,1,95,8|4,0:0|0:0,0:0:0:0:
82,197,487609,5,8,0:0:0:0:
359,196,487790,2,4,L|382:72,1,95,12|12,0:0|0:0,0:0:0:0:
83,221,488154,5,8,0:0:0:0:
147,269,488244,1,0,0:0:0:0:
227,257,488335,1,8,0:0:0:0:
274,191,488426,1,0,0:0:0:0:
259,111,488517,5,4,0:0:0:0:
83,221,488699,1,8,0:0:0:0:
251,342,488881,1,0,0:0:0:0:
172,169,489063,1,8,0:0:0:0:
157,310,489245,2,0,P|187:268|237:245,1,95,0|8,0:0|0:0,0:0:0:0:
433,271,489609,2,0,P|398:319|348:338,1,95,0|8,0:0|0:0,0:0:0:0:
172,169,489972,5,0,0:0:0:0:
338,238,490154,1,8,0:0:0:0:
413,84,490336,1,0,0:0:0:0:
267,174,490518,1,8,0:0:0:0:
456,180,490699,1,0,0:0:0:0:
332,108,490881,1,8,0:0:0:0:
364,347,491063,2,0,L|383:219,1,95,0|8,0:0|0:0,0:0:0:0:
162,74,491427,5,0,0:0:0:0:
164,97,491517,1,0,0:0:0:0:
166,121,491608,1,8,0:0:0:0:
168,144,491699,1,0,0:0:0:0:
171,168,491790,1,0,0:0:0:0:
244,323,491972,1,8,0:0:0:0:
362,152,492154,1,0,0:0:0:0:
338,146,492244,1,0,0:0:0:0:
315,140,492335,1,8,0:0:0:0:
292,134,492426,1,0,0:0:0:0:
269,128,492517,1,0,0:0:0:0:
91,273,492700,1,8,0:0:0:0:
276,229,492881,5,4,0:0:0:0:
276,229,492972,1,0,0:0:0:0:
276,229,493063,1,8,0:0:0:0:
91,273,493245,1,0,0:0:0:0:
36,90,493427,1,8,0:0:0:0:
283,265,493609,1,8,0:0:0:0:
334,213,493699,1,0,0:0:0:0:
345,142,493790,1,8,0:0:0:0:
332,71,493881,1,0,0:0:0:0:
234,129,493972,5,8,0:0:0:0:
288,175,494063,1,0,0:0:0:0:
359,180,494154,1,8,0:0:0:0:
420,144,494245,1,0,0:0:0:0:
448,78,494336,1,4,0:0:0:0:
242,38,494518,1,8,0:0:0:0:
171,192,494699,1,0,0:0:0:0:
79,47,494881,1,8,0:0:0:0:
264,142,495063,2,0,P|274:181|251:267,1,95,0|8,0:0|0:0,0:0:0:0:
102,288,495427,1,0,0:0:0:0:
167,99,495609,1,8,0:0:0:0:
171,192,495790,6,0,P|160:132|181:76,1,95,0|8,0:0|0:0,0:0:0:0:
370,44,496154,1,0,0:0:0:0:
326,248,496336,1,8,0:0:0:0:
264,142,496518,1,0,0:0:0:0:
433,151,496699,1,8,0:0:0:0:
313,322,496881,2,0,P|306:275|306:219,1,95,0|8,0:0|0:0,0:0:0:0:
384,53,497245,5,4,0:0:0:0:
305,227,497427,1,8,0:0:0:0:
305,227,497518,1,0,0:0:0:0:
305,227,497609,1,0,0:0:0:0:
189,77,497790,1,8,0:0:0:0:
349,140,497972,1,0,0:0:0:0:
186,199,498154,1,8,0:0:0:0:
425,82,498336,1,8,0:0:0:0:
445,137,498427,1,0,0:0:0:0:
429,193,498518,1,8,0:0:0:0:
384,230,498609,1,0,0:0:0:0:
326,234,498699,5,4,0:0:0:0:
106,61,498881,2,4,L|19:152,1,95,12|12,0:0|0:0,0:0:0:0:
339,211,499246,5,8,0:0:0:0:
173,18,499427,2,0,L|46:21,1,95,8|4,0:0|0:0,0:0:0:0:
219,283,499790,1,0,0:0:0:0:
269,334,499881,1,0,0:0:0:0:
338,352,499972,1,0,0:0:0:0:
407,335,500063,1,0,0:0:0:0:
457,285,500154,6,0,P|476:231|460:140,1,118.75,4|8,0:0|0:0,0:0:0:0:
361,81,500426,1,0,0:0:0:0:
333,96,500518,2,0,P|322:155|338:210,1,118.75,0|8,0:0|0:0,0:0:0:0:
366,222,500790,1,0,0:0:0:0:
366,222,500881,1,0,0:0:0:0:
446,90,501063,1,8,0:0:0:0:
233,66,501245,1,8,0:0:0:0:
340,328,501426,1,8,0:0:0:0:
349,71,501609,6,0,P|290:58|199:79,1,118.75,4|8,0:0|0:0,0:0:0:0:
133,155,501880,1,0,0:0:0:0:
149,182,501972,2,0,P|208:195|299:174,1,118.75,0|8,0:0|0:0,0:0:0:0:
282,170,502245,1,0,0:0:0:0:
282,170,502336,1,0,0:0:0:0:
138,66,502517,1,8,0:0:0:0:
52,262,502699,1,8,0:0:0:0:
264,72,502881,1,8,0:0:0:0:
157,329,503063,6,8,B|195:271|154:176,1,118.75,4|8,0:0|0:0,0:0:0:0:
32,240,503336,1,0,0:0:0:0:
52,262,503427,2,8,B|121:295|204:250,1,118.75,0|8,0:0|0:0,0:0:0:0:
251,202,503699,1,0,0:0:0:0:
251,202,503790,1,0,0:0:0:0:
111,135,503972,1,8,0:0:0:0:
304,44,504154,1,8,0:0:0:0:
251,324,504336,1,8,0:0:0:0:
198,0,504518,6,0,P|193:71|236:140,1,118.75,4|8,0:3|0:0,0:0:0:0:
398,355,504881,1,0,0:3:0:0:
351,44,505063,2,0,L|303:44,1,47.5,8|0,0:0|0:0,0:0:0:0:
500,134,505426,5,12,0:3:0:0:
225,340,505609,1,4,0:3:0:0:
12,77,505790,1,8,0:0:0:0:
97,26,505972,6,0,P|109:93|51:167,1,118.75,4|8,0:0|0:0,0:0:0:0:
12,77,506245,1,0,0:0:0:0:
12,77,506336,1,0,0:0:0:0:
100,350,506517,1,8,0:0:0:0:
74,283,506608,1,0,0:0:0:0:
102,218,506698,1,0,0:0:0:0:
312,103,506881,1,8,0:0:0:0:
160,286,507063,1,8,0:0:0:0:
262,20,507245,1,8,0:0:0:0:
468,216,507426,5,4,0:0:0:0:
238,334,507608,1,8,0:0:0:0:
245,263,507699,1,0,0:0:0:0:
207,204,507790,1,0,0:0:0:0:
472,127,507972,1,8,0:0:0:0:
405,152,508063,1,0,0:0:0:0:
378,218,508154,1,0,0:0:0:0:
486,361,508336,1,8,0:0:0:0:
312,138,508517,1,8,0:0:0:0:
110,339,508699,1,8,0:0:0:0:
468,216,508881,5,4,0:0:0:0:
240,48,509063,1,8,0:0:0:0:
214,114,509154,1,0,0:0:0:0:
211,185,509245,1,0,0:0:0:0:
18,235,509426,1,8,0:0:0:0:
52,298,509517,1,0,0:0:0:0:
110,339,509608,1,0,0:0:0:0:
312,138,509790,1,8,0:0:0:0:
121,234,509972,1,8,0:0:0:0:
402,342,510154,1,8,0:0:0:0:
282,148,510336,5,4,0:3:0:0:
134,333,510517,1,8,0:0:0:0:
219,61,510699,1,0,0:3:0:0:
468,202,510881,2,8,L|474:255,1,47.5,8|0,0:0|0:0,0:0:0:0:
118,163,511245,5,12,0:3:0:0:
464,41,511427,1,4,0:3:0:0:
174,351,511609,1,8,0:0:0:0:
57,331,511790,5,4,0:0:0:0:
99,273,511881,1,0,0:0:0:0:
166,250,511972,1,8,0:0:0:0:
236,263,512063,1,0,0:0:0:0:
287,312,512154,1,0,0:0:0:0:
351,342,512245,1,0,0:0:0:0:
421,336,512335,1,8,0:0:0:0:
474,288,512426,1,0,0:0:0:0:
489,218,512517,1,0,0:0:0:0:
118,163,512699,2,0,B|149:145|165:129|165:129|184:152|196:164|196:164|218:165|274:184,1,178.125,8|0,0:0|0:0,0:0:0:0:
371,230,513063,1,8,0:0:0:0:
174,351,513245,5,4,0:0:0:0:
151,283,513335,1,0,0:0:0:0:
83,259,513426,1,8,0:0:0:0:
27,212,513518,1,0,0:0:0:0:
12,142,513608,1,0,0:0:0:0:
47,79,513699,1,0,0:0:0:0:
115,60,513790,1,8,0:0:0:0:
183,79,513881,1,0,0:0:0:0:
252,63,513972,1,0,0:0:0:0:
371,230,514154,2,8,P|341:155|389:56,1,178.125,8|0,0:0|0:0,0:0:0:0:
476,34,514517,1,8,0:0:0:0:
454,150,514699,5,4,0:0:0:0:
482,215,514790,1,0,0:0:0:0:
469,285,514881,1,8,0:0:0:0:
415,332,514972,1,0,0:0:0:0:
344,332,515062,1,0,0:0:0:0:
285,289,515154,1,0,0:0:0:0:
219,259,515245,1,8,0:0:0:0:
148,265,515335,1,0,0:0:0:0:
86,300,515426,1,0,0:0:0:0:
371,230,515608,2,0,B|329:200|284:200|284:200|251:154|245:113,1,178.125,8|0,0:0|0:0,0:0:0:0:
351,122,515972,1,8,0:0:0:0:
193,362,516154,5,4,0:3:0:0:
57,111,516336,1,8,0:0:0:0:
371,230,516518,1,0,0:3:0:0:
181,189,516699,2,0,L|155:133,1,47.5,8|0,0:0|0:0,0:0:0:0:
73,204,517063,5,12,0:3:0:0:
280,42,517245,1,4,0:3:0:0:
223,336,517427,1,8,0:0:0:0:
439,180,517609,5,4,0:0:0:0:
481,123,517699,1,0,0:0:0:0:
445,61,517790,1,8,0:0:0:0:
373,55,517881,1,0,0:0:0:0:
343,120,517972,1,0,0:0:0:0:
272,131,518063,1,0,0:0:0:0:
210,94,518154,1,8,0:0:0:0:
182,28,518245,1,0,0:0:0:0:
111,15,518336,5,0,0:0:0:0:
59,295,518518,1,8,0:0:0:0:
280,42,518699,1,8,0:0:0:0:
7,126,518881,1,8,0:0:0:0:
197,338,519063,5,4,0:0:0:0:
145,289,519154,1,0,0:0:0:0:
139,217,519245,1,8,0:0:0:0:
176,156,519336,1,0,0:0:0:0:
244,137,519427,1,0,0:0:0:0:
309,164,519518,1,0,0:0:0:0:
365,120,519609,1,8,0:0:0:0:
366,49,519699,1,0,0:0:0:0:
308,7,519790,5,0,0:0:0:0:
242,243,519972,1,8,0:0:0:0:
487,127,520154,1,8,0:0:0:0:
225,56,520336,1,8,0:0:0:0:
398,340,520518,5,4,0:0:0:0:
434,278,520609,1,0,0:0:0:0:
421,208,520699,1,8,0:0:0:0:
360,170,520790,1,0,0:0:0:0:
312,223,520881,1,0,0:0:0:0:
243,241,520972,1,0,0:0:0:0:
175,217,521063,1,8,0:0:0:0:
133,159,521154,1,0,0:0:0:0:
129,87,521245,5,0,0:0:0:0:
472,54,521427,1,8,0:0:0:0:
249,118,521609,1,8,0:0:0:0:
490,21,521790,1,8,0:0:0:0:
358,320,521972,5,4,0:3:0:0:
249,118,522154,1,8,0:0:0:0:
163,220,522336,1,0,0:3:0:0:
130,90,522518,2,0,L|155:31,1,47.5,8|0,0:3|0:3,0:3:0:0:
154,121,522699,1,8,0:3:0:0:
52,262,522881,5,8,0:0:0:0:
357,340,523063,1,8,0:0:0:0:
424,34,523245,1,12,0:0:0:0:
