osu file format v14

[General]
AudioFilename: audio.mp3
AudioLeadIn: 0
PreviewTime: 158296
Countdown: 0
SampleSet: Soft
StackLeniency: 0.3
Mode: 0
LetterboxInBreaks: 0
WidescreenStoryboard: 1

[Editor]
Bookmarks: 11154,20296,29439,38582,47725,56868,75153,93439,103725,112868,122010,131153,140296,158582,176867,187153,187439,196295,204295,205438,223724,244294
DistanceSpacing: 0.3
BeatDivisor: 4
GridSize: 32
TimelineZoom: 2

[Metadata]
Title:Elusion
TitleUnicode:Ēlusion
Artist:Yousei Teikoku
ArtistUnicode:妖精帝國
Creator:IsomirDiAngelo
Version:Net0's Extra
Source:
Tags:net0 kyuusei argryos Άργυρóϛ das feenreich fairy empire yui itsuki rock japanese
BeatmapID:2509246
BeatmapSetID:1116379

[Difficulty]
HPDrainRate:6
CircleSize:4
OverallDifficulty:8.5
ApproachRate:9
SliderMultiplier:1.8
SliderTickRate:1

[Events]
//Background and Video events
0,0,"bg.jpg",0,0
//Break Periods
2,103731,112268
//Storyboard Layer 0 (Background)
//Storyboard Layer 1 (Fail)
//Storyboard Layer 2 (Pass)
//Storyboard Layer 3 (Foreground)
//Storyboard Layer 4 (Overlay)
//Storyboard Sound Samples

[TimingPoints]
11154,285.714285714286,4,2,1,50,1,0
19582,-100,4,2,1,50,0,0
19725,-158.730158730159,4,2,1,50,0,0
20296,-100,4,2,1,60,0,0
29154,-100,4,3,2,70,0,0
29439,-200,4,2,1,70,0,0
33725,-200,4,2,1,70,0,0
34011,-200,4,2,1,70,0,0
38011,-200,4,3,2,70,0,0
38154,-200,4,2,1,70,0,0
38296,-200,4,3,2,70,0,0
38582,-200,4,2,1,50,0,0
47725,-200,4,2,1,70,0,0
52082,-200,4,2,1,70,0,0
52296,-200,4,2,1,70,0,0
56582,-200,4,2,1,70,0,0
56868,-200,4,2,2,80,0,0
57011,-200,4,2,1,80,0,0
58868,-200,4,3,2,80,0,0
59011,-200,4,2,1,80,0,0
59154,-200,4,2,2,80,0,0
59296,-200,4,2,1,80,0,0
61439,-200,4,2,2,80,0,0
61582,-200,4,2,1,80,0,0
63439,-200,4,3,2,80,0,0
63582,-200,4,2,1,80,0,0
63725,-200,4,2,2,80,0,0
63868,-200,4,2,1,80,0,0
66011,-200,4,2,2,80,0,0
66154,-200,4,2,1,80,0,0
68011,-200,4,3,2,80,0,0
68154,-200,4,2,1,80,0,0
68296,-200,4,2,2,80,0,0
68439,-200,4,2,1,80,0,0
70582,-200,4,2,2,80,0,0
70725,-200,4,2,1,80,0,0
72582,-200,4,3,2,80,0,0
72725,-200,4,2,1,80,0,0
72868,-120.481927710843,4,2,2,80,0,0
73011,-120.481927710843,4,2,1,80,0,0
74011,-200,4,2,1,80,0,0
74154,-200,4,3,2,80,0,0
74582,-200,4,2,1,80,0,0
74868,-200,4,3,2,80,0,0
75154,-100,4,2,2,80,0,1
75296,-100,4,2,1,80,0,1
79725,-100,4,2,2,80,0,1
79868,-100,4,2,1,80,0,1
84296,-100,4,2,2,80,0,1
84439,-100,4,2,1,80,0,1
88868,-100,4,2,2,80,0,1
89011,-100,4,2,1,80,0,1
93154,-100,4,3,2,80,0,1
93439,-100,4,2,3,70,0,1
97725,-100,4,3,2,80,0,1
98011,-100,4,2,3,70,0,1
102011,-100,4,3,2,85,0,1
102154,-100,4,3,2,5,0,1
102296,-100,4,3,2,85,0,1
102439,-100,4,2,1,45,0,1
103725,-200,4,2,1,40,0,0
112582,-200,4,2,1,70,0,0
121011,-200,4,3,2,70,0,0
121439,-200,4,3,2,80,0,0
122011,-200,4,2,1,60,0,0
128154,-200,4,2,1,30,0,0
128296,-200,4,2,1,50,0,0
131154,-200,4,2,1,80,0,0
139582,-200,4,3,2,70,0,0
139725,-200,4,3,2,80,0,0
140011,-200,4,3,2,60,0,0
140296,-200,4,2,2,80,0,0
140439,-200,4,2,1,80,0,0
142296,-200,4,3,2,80,0,0
142439,-200,4,2,1,80,0,0
142582,-200,4,2,2,80,0,0
142725,-200,4,2,1,80,0,0
144868,-200,4,2,2,80,0,0
145011,-200,4,2,1,80,0,0
146868,-200,4,3,2,80,0,0
147011,-200,4,2,1,80,0,0
147154,-200,4,2,2,80,0,0
147296,-200,4,2,1,80,0,0
149154,-200,4,3,2,80,0,0
149439,-200,4,2,2,80,0,0
149582,-200,4,2,1,80,0,0
151439,-200,4,3,2,80,0,0
151582,-200,4,2,1,80,0,0
151725,-200,4,2,2,80,0,0
151868,-200,4,2,1,80,0,0
154011,-200,4,2,2,80,0,0
154154,-200,4,2,1,80,0,0
156296,-120.481927710843,4,2,2,80,0,0
156439,-120.481927710843,4,2,1,80,0,0
157439,-200,4,2,1,80,0,0
157582,-200,4,2,1,40,0,0
157725,-200,4,2,1,50,0,0
157868,-200,4,2,1,60,0,0
158011,-200,4,2,1,70,0,0
158296,-200,4,3,2,70,0,0
158582,-100,4,2,2,80,0,1
158725,-100,4,2,1,80,0,1
167725,-100,4,2,2,80,0,1
167796,-100,4,2,1,80,0,1
176296,-100,4,3,2,85,0,1
176582,-100,4,3,2,70,0,1
176725,-100,4,3,2,60,0,1
176867,-100,4,2,3,70,0,1
181154,-100,4,3,3,70,0,1
181439,-100,4,2,3,70,0,1
185439,-100,4,3,2,85,0,1
185582,-100,4,3,2,5,0,1
185725,-100,4,3,2,85,0,1
185868,-100,4,2,1,5,0,1
187154,-200,4,2,2,60,0,0
187296,-200,4,2,1,60,0,0
196011,-200,4,2,1,70,0,0
196296,-200,4,2,2,70,0,0
196439,-200,4,2,1,70,0,0
204868,-200,4,3,2,80,0,0
205011,-200,4,3,2,70,0,0
205439,-66.6666666666667,4,2,1,70,0,0
206582,-100,4,2,1,70,0,0
209582,-100,4,3,2,80,0,0
209725,-100,4,2,1,70,0,0
211868,-100,4,3,2,80,0,0
211939,-100,4,2,1,70,0,0
214439,-100,4,3,1,80,0,0
214582,-100,4,2,1,70,0,0
221011,-100,4,3,2,80,0,0
221082,-100,4,2,1,70,0,0
221725,-100,4,2,1,80,0,0
221868,-100,4,3,2,90,0,0
222011,-100,4,2,1,70,0,0
222154,-100,4,2,1,80,0,0
222296,-100,4,3,2,90,0,0
222439,-100,4,2,1,70,0,0
222582,-100,4,2,1,80,0,0
222725,-100,4,3,2,90,0,0
222868,-100,4,2,1,70,0,0
223011,-100,4,2,1,80,0,0
223296,-100,4,3,2,80,0,0
223439,-100,4,3,2,70,0,0
223582,-100,4,3,2,60,0,0
223724,-100,4,2,1,70,0,0
226011,-200,4,2,1,40,0,0
234296,-200,4,3,2,90,0,0
234725,-200,4,3,2,70,0,0
235152,-200,4,3,1,70,0,0
242154,-200,4,3,1,36,0,0
242296,-200,4,3,1,40,0,0
242439,-200,4,3,1,43,0,0
242582,-200,4,3,1,47,0,0
242725,-200,4,3,1,50,0,0
242868,-200,4,3,1,53,0,0
243011,-200,4,3,1,57,0,0
243154,-200,4,3,1,59,0,0
243296,-200,4,3,1,61,0,0
243439,-200,4,3,1,63,0,0
243582,-200,4,3,1,65,0,0
243725,-200,4,3,1,70,0,0
243868,-200,4,3,1,75,0,0
244011,-200,4,3,1,80,0,0
244154,-200,4,3,1,85,0,0
244296,-100,4,2,2,80,0,1
244439,-100,4,2,1,80,0,1
252439,-100,4,2,1,50,0,1
252511,-100,4,2,1,80,0,1
252582,-100,4,2,3,70,0,1
252654,-100,4,2,1,80,0,1
252725,-100,4,2,1,50,0,1
252868,-100,4,2,1,60,0,1
253154,-100,4,3,2,90,0,1
253437,-100,4,2,2,80,0,1
253511,-100,4,2,1,80,0,1
262296,-100,4,3,2,70,0,1
262582,-80,4,2,3,80,0,0
266582,-80,4,3,3,80,0,0
266654,-80,4,2,3,80,0,0
271725,-70.4225352112676,4,3,3,80,0,0
280296,-70.4225352112676,4,3,2,100,0,0
280582,-200,4,2,3,100,0,0
280866,-200,4,3,3,80,0,0

[Colours]
Combo1 : 154,90,75
Combo2 : 234,208,198

[HitObjects]
32,192,11153,5,6,0:0:0:0:
48,208,11582,1,2,0:0:0:0:
64,224,12011,1,0,0:0:0:0:
80,208,12439,1,0,0:0:0:0:
96,192,12868,5,0,0:0:0:0:
336,53,13153,1,0,0:0:0:0:
336,336,13439,5,2,0:0:0:0:
352,320,13868,1,2,0:0:0:0:
368,304,14297,1,0,0:0:0:0:
352,288,14725,1,0,0:0:0:0:
336,272,15154,5,0,0:0:0:0:
336,112,15439,1,4,0:0:0:0:
198,192,15725,5,2,0:0:0:0:
183,217,16154,1,2,0:0:0:0:
168,242,16582,1,0,0:0:0:0:
183,267,17011,1,0,0:0:0:0:
198,292,17439,5,4,0:0:0:0:
314,92,17725,1,0,0:0:0:0:
430,293,18011,5,6,0:0:0:0:
445,268,18440,1,2,0:0:0:0:
460,243,18868,1,0,0:0:0:0:
445,218,19297,1,0,0:0:0:0:
314,92,19582,1,0,3:0:0:0:
333,199,19725,1,8,0:0:0:0:
174,161,19868,2,0,L|242:161,1,56.6999982696534,8|4,0:0|0:0,0:0:0:0:
0,27,20296,5,6,3:2:0:0:
0,27,20725,1,2,0:0:0:0:
0,27,21154,1,2,3:2:0:0:
0,27,21582,1,10,0:0:0:0:
0,27,22011,2,0,L|0:132,1,90,2|0,3:2|3:0,0:0:0:0:
0,198,22296,1,2,3:2:0:0:
139,115,22582,5,6,3:2:0:0:
139,115,23011,1,2,0:0:0:0:
139,115,23440,1,2,3:2:0:0:
139,115,23868,1,10,0:0:0:0:
139,115,24297,2,0,L|139:220,1,90,2|0,3:2|3:0,0:0:0:0:
139,286,24582,1,10,3:2:0:0:
278,203,24868,5,6,3:2:0:0:
278,203,25296,1,2,0:0:0:0:
278,203,25725,1,2,3:2:0:0:
278,203,26154,1,2,3:2:0:0:
278,203,26582,2,0,L|278:308,1,90,2|0,3:2|3:0,0:0:0:0:
278,374,26868,1,2,3:2:0:0:
417,291,27154,5,6,3:2:0:0:
417,291,27583,1,2,0:0:0:0:
417,291,28011,1,2,3:2:0:0:
417,291,28440,1,10,0:0:0:0:
417,291,28868,2,0,L|417:201,1,90,2|0,3:2|3:0,0:0:0:0:
417,120,29154,1,0,3:2:0:0:
417,120,29296,1,0,3:0:0:0:
346,160,29439,6,0,L|256:160,1,90,6|0,3:2|3:0,0:0:0:0:
119,92,29868,2,0,L|209:92,1,90,2|0,0:0|0:0,0:0:0:0:
336,170,30296,2,0,L|246:170,1,90,2|0,3:2|3:0,0:0:0:0:
129,82,30725,2,0,L|219:82,1,90,10|0,0:0|0:0,0:0:0:0:
273,258,31154,1,2,3:2:0:0:
283,289,31439,2,0,L|279:244,1,45,2|0,3:2|3:0,0:0:0:0:
364,294,31725,6,0,L|356:383,1,90,6|0,3:2|3:0,0:0:0:0:
435,185,32154,2,0,L|443:275,1,90,2|0,0:0|0:0,0:0:0:0:
354,284,32582,2,0,L|346:373,1,90,2|0,3:2|3:0,0:0:0:0:
445,175,33011,2,0,L|453:264,1,90,10|0,0:0|0:0,0:0:0:0:
345,155,33439,2,0,P|316:133|298:108,1,67.5,2|0,3:2|0:0,0:0:0:0:
298,107,33725,2,0,L|305:62,1,45,6|0,3:2|3:0,0:0:0:0:
155,174,34011,6,0,L|67:190,1,90,6|0,3:2|3:0,0:0:0:0:
265,268,34439,2,0,L|353:283,1,90,2|0,0:0|0:0,0:0:0:0:
145,165,34868,2,0,L|56:180,1,90,2|0,3:2|3:0,0:0:0:0:
275,258,35296,2,0,L|363:273,1,90,10|0,0:2|0:0,0:0:0:0:
182,308,35725,2,0,L|171:265,1,45,2|0,3:2|3:0,0:0:0:0:
248,157,36011,2,0,L|259:113,1,45,10|0,3:2|3:0,0:0:0:0:
182,5,36296,5,6,3:2:0:0:
182,5,36582,1,0,3:0:0:0:
79,93,36725,2,0,L|55:179,1,90,2|0,0:0|0:0,0:0:0:0:
219,225,37154,2,0,L|156:162,1,90,2|0,3:2|3:0,0:0:0:0:
33,280,37582,2,0,L|120:257,1,90,10|0,0:0|0:0,0:0:0:0:
188,301,38011,1,2,3:2:0:0:
299,183,38296,1,0,3:2:0:0:
273,271,38439,1,0,3:0:0:0:
308,153,38582,6,0,P|326:83|304:13,3,135,4|0|8|0,3:1|0:0|0:0|0:0,0:0:0:0:
188,301,40296,1,8,0:0:0:0:
188,301,40582,2,0,L|176:344,1,45
236,109,40868,6,0,P|184:58|112:42,3,135,4|0|8|0,0:0|0:0|3:2|0:0,0:0:0:0:
304,286,42582,1,8,0:0:0:0:
304,286,42868,2,0,L|335:317,1,45
161,149,43154,6,0,P|91:168|41:222,3,135,4|0|4|0,0:0|0:0|3:2|0:0,0:0:0:0:
349,178,44868,1,8,0:0:0:0:
349,178,45154,2,0,L|392:166,1,45
158,233,45439,6,0,P|140:303|161:373,3,135,4|0|8|0,0:0|0:0|3:2|0:0,0:0:0:0:
277,85,47154,2,0,L|288:41,1,45,8|0,0:0|0:0,0:0:0:0:
161,101,47439,2,0,L|129:69,1,45
71,209,47725,6,0,L|121:209,2,45,6|0|0,3:1|0:0|3:1,0:0:0:0:
298,277,48154,2,0,L|249:277,2,45,2|0|0,0:1|3:1|0:0,0:0:0:0:
116,209,48582,2,0,L|166:209,2,45,2|0|0,3:1|0:0|3:1,0:0:0:0:
343,277,49011,2,0,L|294:277,2,45,10|0|0,0:1|3:1|0:0,0:0:0:0:
241,197,49439,2,0,L|245:152,1,45,2|0,3:1|3:1,0:0:0:0:
173,289,49725,2,0,L|168:333,1,45,2|0,3:1|3:1,0:0:0:0:
64,333,50011,6,0,L|59:288,2,45,2|0|0,3:1|0:0|3:1,0:0:0:0:
161,209,50439,2,0,L|165:164,2,45,2|0|0,0:1|3:1|0:0,0:0:0:0:
59,288,50868,2,0,L|54:243,2,45,2|0|0,3:1|0:0|3:1,0:0:0:0:
165,164,51296,2,0,L|169:119,2,45,10|0|0,0:1|3:1|0:0,0:0:0:0:
59,40,51725,2,0,P|30:62|12:87,1,67.5,2|0,3:1|0:0,0:0:0:0:
11,87,52011,2,0,L|55:94,1,45,10|0,3:1|3:1,0:0:0:0:
328,106,52296,6,0,L|284:113,2,45,2|0|0,3:1|0:0|3:1,0:0:0:0:
184,278,52725,2,0,L|228:271,2,45,2|0|0,0:1|3:1|0:0,0:0:0:0:
170,120,53154,2,0,L|177:164,2,45,2|0|0,3:1|0:0|3:1,0:0:0:0:
342,264,53582,2,0,L|335:220,2,45,10|0|0,0:1|3:1|0:0,0:0:0:0:
466,358,54011,2,0,L|422:347,1,45,2|0,3:1|3:1,0:0:0:0:
422,137,54296,2,0,L|465:126,1,45,10|0,3:1|3:1,0:0:0:0:
284,88,54582,5,2,3:1:0:0:
284,88,54868,1,0,3:1:0:0:
143,114,55011,2,0,L|99:103,2,45,2|0|0,0:1|3:1|0:0,0:0:0:0:
235,223,55439,2,0,L|247:266,2,45,2|0|0,3:1|0:0|3:1,0:0:0:0:
284,88,55868,2,0,L|315:55,2,45,10|0|0,0:1|3:1|0:0,0:0:0:0:
94,248,56296,2,0,L|81:291,1,45,14|0,3:1|0:0,0:0:0:0:
408,230,56582,2,0,L|376:199,1,45,0|0,3:0|3:0,0:0:0:0:
235,223,56868,5,6,0:0:0:0:
247,266,57011,1,0,0:0:0:0:
259,309,57154,1,0,0:0:0:0:
271,352,57296,1,10,0:0:0:0:
80,291,57582,1,2,0:0:0:0:
80,291,57868,1,2,0:0:0:0:
158,257,58011,5,2,0:0:0:0:
124,179,58154,2,0,L|66:203,1,45,2|2,3:2|0:0,0:0:0:0:
202,145,58439,1,2,0:0:0:0:
168,67,58582,2,0,L|110:91,2,45,10|0|2,0:0|3:0|0:2,0:0:0:0:
168,67,59154,5,6,0:0:0:0:
125,55,59297,1,0,0:0:0:0:
82,43,59440,1,2,0:0:0:0:
39,31,59582,1,10,0:0:0:0:
280,111,59868,1,2,0:0:0:0:
280,111,60154,1,2,0:0:0:0:
392,240,60296,2,0,L|368:182,1,45,2|2,0:0|3:2,0:0:0:0:
288,196,60582,1,2,0:0:0:0:
176,325,60725,2,0,L|200:267,1,45,2|10,0:0|0:0,0:0:0:0:
457,293,61154,1,8,0:0:0:0:
457,293,61296,1,8,0:0:0:0:
374,198,61439,5,6,0:0:0:0:
362,241,61582,1,0,0:0:0:0:
350,284,61725,1,0,0:0:0:0:
338,327,61867,1,10,0:0:0:0:
233,158,62154,1,2,0:0:0:0:
233,158,62439,1,2,0:0:0:0:
313,122,62582,5,2,0:0:0:0:
391,156,62725,2,0,L|367:214,1,45,0|2,3:2|0:0,0:0:0:0:
425,78,63010,1,2,0:0:0:0:
503,112,63153,2,0,L|479:170,2,45,10|0|2,0:0|3:0|0:2,0:0:0:0:
193,283,63725,6,0,L|136:195,1,90,6|0,0:0|0:0,0:0:0:0:
366,201,64154,2,0,L|318:293,1,90,10|0,0:0|0:0,0:0:0:0:
208,91,64582,2,0,L|312:87,2,90,2|2|0,3:2|0:0|0:0,0:0:0:0:
298,87,65439,1,8,0:0:0:0:
208,91,65582,1,0,3:0:0:0:
168,172,65725,2,0,L|166:216,1,45,4|0,0:0|0:0,0:0:0:0:
0,308,66011,5,6,0:0:0:0:
44,305,66154,1,0,0:0:0:0:
88,305,66297,1,0,0:0:0:0:
133,302,66439,1,10,0:0:0:0:
118,97,66725,1,2,0:0:0:0:
118,97,67011,1,2,0:0:0:0:
168,172,67154,1,2,0:0:0:0:
33,178,67297,2,0,L|77:176,1,45,2|2,3:2|0:0,0:0:0:0:
208,92,67582,1,2,0:0:0:0:
343,98,67725,2,0,L|298:96,2,45,10|0|2,0:0|3:0|0:2,0:0:0:0:
263,299,68296,5,6,0:0:0:0:
260,255,68439,1,0,0:0:0:0:
260,211,68582,1,2,0:0:0:0:
257,166,68724,1,10,0:0:0:0:
416,246,69011,1,2,0:0:0:0:
416,246,69297,1,2,0:0:0:0:
266,343,69439,2,0,L|308:329,1,45,2|2,0:0|3:2,0:0:0:0:
338,250,69725,1,2,0:0:0:0:
188,153,69868,2,0,L|230:166,1,45,2|10,0:0|0:0,0:0:0:0:
67,320,70297,1,8,0:0:0:0:
67,320,70439,1,8,0:0:0:0:
133,239,70582,5,6,0:0:0:0:
89,236,70725,1,0,0:0:0:0:
45,236,70868,1,0,0:0:0:0:
0,233,71010,1,10,0:0:0:0:
263,103,71296,1,2,0:0:0:0:
263,103,71582,1,2,0:0:0:0:
188,153,71725,1,2,0:0:0:0:
182,18,71868,2,0,L|184:62,1,45,0|2,3:2|0:0,0:0:0:0:
268,193,72153,1,2,0:0:0:0:
262,328,72296,2,0,L|264:283,2,45,10|0|2,0:0|3:0|0:2,0:0:0:0:
262,328,72868,6,0,B|324:358|413:362|471:293|411:202|315:210|267:162|297:88|370:49|474:96,1,522.90000757988,6|0,0:0|0:0,0:0:0:0:
454,185,74011,5,8,0:0:0:0:
376,232,74154,1,0,3:0:0:0:
288,252,74296,1,0,0:0:0:0:
196,243,74439,1,0,0:0:0:0:
113,207,74582,1,8,0:0:0:0:
113,207,74868,2,0,L|68:207,1,45
157,124,75154,6,0,L|229:124|261:12,1,180,6|0,0:0|3:0,0:0:0:0:
376,227,75582,1,0,0:0:0:0:
389,148,75725,2,0,L|317:148|285:260,1,180,12|0,0:0|3:0,0:0:0:0:
245,342,76154,1,0,0:0:0:0:
208,250,76296,1,0,0:0:0:0:
145,301,76439,6,0,L|273:301|289:245,1,180,0|0,3:0|3:0,0:0:0:0:
177,157,76868,2,0,L|49:157|33:213,1,180,14|0,0:0|0:0,0:0:0:0:
4,301,77296,1,0,0:0:0:0:
158,376,77439,2,0,L|68:376,2,90,2|0|0,3:2|0:0|3:0,0:0:0:0:
354,376,77868,2,0,L|444:376,2,90,2|12|0,0:0|0:0|0:0,0:0:0:0:
256,368,78296,2,0,L|256:279,1,90,2|0,3:2|0:0,0:0:0:0:
256,192,78582,1,2,0:0:0:0:
103,104,78725,2,0,L|180:148,1,90,0|0,3:0|0:0,0:0:0:0:
256,192,79011,1,0,3:0:0:0:
408,104,79154,2,0,L|331:148,1,90,12|0,0:0|0:0,0:0:0:0:
256,192,79439,1,2,0:0:0:0:
256,278,79582,1,2,0:0:0:0:
168,96,79725,6,0,L|120:128|120:256,1,180,6|0,3:2|3:0,0:0:0:0:
256,364,80154,1,2,0:0:0:0:
344,312,80296,2,0,L|392:280|392:157,1,180,12|2,0:0|3:2,0:0:0:0:
256,44,80725,1,0,0:0:0:0:
173,6,80868,1,2,0:0:0:0:
9,95,81011,2,0,B|89:175|177:87,1,180,0|2,3:0|3:2,0:0:0:0:
254,144,81439,1,12,0:0:0:0:
254,144,81725,2,0,L|254:242,1,90,2|0,0:0|0:0,0:0:0:0:
174,384,82011,6,0,L|174:294,1,90,2|0,0:0|0:0,0:0:0:0:
174,203,82296,1,0,3:0:0:0:
267,326,82439,2,0,B|387:326|387:214,1,180,2|2,0:0|0:0,0:0:0:0:
505,18,82868,2,0,B|386:18|387:122,1,180,2|0,3:2|0:0,0:0:0:0:
387,121,83439,1,0,0:0:0:0:
299,170,83582,1,0,3:0:0:0:
211,219,83725,1,12,0:0:0:0:
215,249,84011,1,8,0:0:0:0:
198,149,84154,1,8,0:0:0:0:
182,49,84296,6,0,L|238:49|286:185,1,180,6|0,3:2|3:0,0:0:0:0:
510,353,84725,2,0,L|454:353|406:217,1,180,2|0,0:0|0:0,0:0:0:0:
377,142,85154,1,2,3:2:0:0:
332,229,85296,1,0,0:0:0:0:
287,316,85439,6,0,B|207:380|95:292,1,180,2|0,0:0|0:0,0:0:0:0:
412,236,85868,2,0,L|441:321,2,90,2|12|0,3:2|0:0|0:0,0:0:0:0:
279,165,86296,2,0,L|249:79,1,90,2|0,0:0|0:0,0:0:0:0:
40,48,86582,6,0,B|88:128|32:224,1,180,2|0,3:2|3:0,0:0:0:0:
152,168,87011,2,0,B|104:256|152:344,1,180,2|0,0:0|0:0,0:0:0:0:
29,384,87439,2,0,L|-1:298,1,90,2|0,3:2|0:0,0:0:0:0:
269,296,87725,2,0,B|362:342|437:280,2,180,2|0|12,0:0|0:0|0:0,0:0:0:0:
269,296,88582,1,2,0:0:0:0:
269,196,88725,1,2,0:0:0:0:
183,246,88868,6,0,L|97:276,2,90,6|0|0,3:2|0:0|3:0,0:0:0:0:
182,146,89296,1,2,0:0:0:0:
353,66,89439,2,0,L|269:96,1,90,12|0,0:0|0:0,0:0:0:0:
269,196,89725,1,2,3:2:0:0:
269,296,89868,1,0,0:0:0:0:
365,324,90011,6,0,B|421:276|365:236|365:236|365:156,1,180,2|0,0:0|0:0,0:0:0:0:
445,36,90439,2,0,B|389:84|445:124|445:124|445:204,1,180,2|0,3:2|0:0,0:0:0:0:
512,276,90868,1,2,0:0:0:0:
512,276,91011,1,2,0:0:0:0:
365,324,91154,6,0,B|261:348|217:244,1,180,2|0,0:0|3:0,0:0:0:0:
0,180,91582,1,2,0:0:0:0:
29,85,91725,2,0,B|133:61|175:160,2,180,12|2|0,0:0|3:2|0:0,0:0:0:0:
0,180,92439,1,8,0:0:0:0:
93,303,92582,2,0,L|93:213,1,90,0|0,3:0|3:0,0:0:0:0:
93,213,92868,1,8,0:0:0:0:
256,325,93154,1,0,0:0:0:0:
256,325,93439,6,0,B|335:258|419:303,1,135,4|0,3:2|0:0,0:0:0:0:
424,302,93725,1,0,0:0:0:0:
256,325,93868,6,0,B|265:221|356:194,1,135,4|0,3:2|0:0,0:0:0:0:
359,189,94154,1,0,0:0:0:0:
256,325,94296,6,0,B|189:245|234:161,1,135,4|0,3:2|0:0,0:0:0:0:
233,155,94582,1,0,0:0:0:0:
256,325,94725,6,0,B|152:316|125:225,1,135,4|0,3:2|0:0,0:0:0:0:
120,220,95011,1,0,0:0:0:0:
149,5,95154,2,0,B|147:64|95:122,1,90,4|0,3:2|0:0,0:0:0:0:
346,90,95439,1,8,0:0:0:0:
346,90,95725,6,0,B|356:193|447:219,1,135,4|0,3:2|0:0,0:0:0:0:
450,223,96011,1,0,0:0:0:0:
346,90,96154,6,0,B|280:171|326:253,1,135,4|0,3:2|0:0,0:0:0:0:
324,258,96440,1,0,0:0:0:0:
346,90,96582,6,0,B|242:101|216:192,1,135,4|0,3:2|0:0,0:0:0:0:
210,195,96868,1,0,0:0:0:0:
346,90,97011,6,0,B|264:24|182:70,1,135,4|0,3:2|0:0,0:0:0:0:
174,70,97297,1,0,0:0:0:0:
512,110,97439,1,12,3:2:0:0:
512,110,97725,1,0,0:0:0:0:
346,90,97868,1,0,0:0:0:0:
354,312,98011,6,0,B|372:210|291:159,1,135,4|0,3:2|0:0,0:0:0:0:
289,155,98297,1,0,0:0:0:0:
354,312,98440,6,0,B|439:252|417:159,1,135,4|0,3:2|0:0,0:0:0:0:
420,154,98726,1,0,0:0:0:0:
354,312,98868,6,0,B|456:330|507:249,1,135,4|0,3:2|0:0,0:0:0:0:
512,246,99154,1,0,0:0:0:0:
354,312,99297,6,0,B|413:397|506:375,1,135,4|0,3:2|0:0,0:0:0:0:
512,377,99583,1,0,0:0:0:0:
346,90,99725,2,0,B|359:147|324:216,1,90,4|0,3:2|0:0,0:0:0:0:
158,312,100011,1,8,0:0:0:0:
158,312,100296,6,0,B|139:210|220:159,1,135,4|0,3:2|0:0,0:0:0:0:
223,155,100582,1,0,0:0:0:0:
158,312,100725,6,0,B|72:252|94:159,1,135,4|0,3:2|0:0,0:0:0:0:
92,154,101011,1,0,0:0:0:0:
158,312,101153,6,0,B|55:330|4:249,1,135,4|0,3:2|0:0,0:0:0:0:
0,246,101439,1,0,0:0:0:0:
158,312,101582,6,0,B|98:397|5:375,1,135,12|0,3:2|0:0,0:0:0:0:
0,377,101868,1,0,0:0:0:0:
92,154,102011,2,0,B|124:194|92:242,1,90,0|0,3:0|0:0,0:0:0:0:
4,162,102296,2,0,B|-20:114|4:66,2,90
512,175,112868,6,0,L|419:175,1,90,6|0,3:2|3:0,0:0:0:0:
423,0,113296,2,0,L|423:92,1,90,2|0,0:0|0:0,0:0:0:0:
248,89,113725,2,0,L|340:89,1,90,2|0,3:2|3:0,0:0:0:0:
337,264,114154,2,0,L|337:171,1,90,2|0,0:0|0:0,0:0:0:0:
336,349,114582,1,2,3:2:0:0:
336,381,114868,2,0,L|271:386,1,45,2|0,3:2|0:0,0:0:0:0:
120,291,115154,6,0,L|210:284,1,90,2|0,3:2|3:0,0:0:0:0:
337,174,115582,2,0,L|247:166,1,90,2|0,0:0|0:0,0:0:0:0:
110,281,116011,2,0,L|199:273,1,90,2|0,3:2|3:0,0:0:0:0:
347,163,116439,2,0,L|257:155,1,90,2|0,0:0|0:0,0:0:0:0:
408,49,116868,2,0,P|430:78|455:96,1,67.5,2|0,3:2|0:0,0:0:0:0:
456,96,117154,2,0,L|501:89,1,45,2|0,3:2|3:0,0:0:0:0:
466,297,117439,6,0,L|453:209,1,90,2|0,3:2|3:0,0:0:0:0:
344,361,117868,2,0,L|357:272,1,90,2|0,0:0|0:0,0:0:0:0:
477,288,118296,2,0,L|463:199,1,90,2|0,3:2|3:0,0:0:0:0:
333,351,118725,2,0,L|346:262,1,90,2|0,0:0|0:0,0:0:0:0:
233,230,119154,2,0,L|169:245,1,45,2|4,3:2|0:0,0:0:0:0:
152,140,119439,2,0,L|88:124,1,45,2|0,3:2|0:0,0:0:0:0:
189,24,119725,5,2,3:2:0:0:
189,24,120011,1,0,3:0:0:0:
270,114,120154,2,0,L|362:135,1,90,2|0,0:0|0:0,0:0:0:0:
189,24,120582,2,0,L|96:45,1,90,2|0,3:2|3:0,0:0:0:0:
280,124,121011,1,0,0:0:0:0:
367,144,121154,1,0,0:0:0:0:
179,34,121439,5,0,0:0:0:0:
3,76,121725,1,0,0:0:0:0:
91,53,121868,1,0,0:0:0:0:
104,183,122011,6,0,P|79:114|95:43,2,135,4|8|0,3:1|0:0|3:0,0:0:0:0:
104,183,123296,2,0,L|110:281,1,90,0|0,3:0|3:0,0:0:0:0:
236,319,123725,1,8,3:2:0:0:
236,319,124011,2,0,L|251:360,1,45
171,132,124297,6,0,P|218:76|288:54,2,135,4|8|0,3:2|0:0|3:0,0:0:0:0:
171,132,125582,2,0,L|92:184,1,90,0|0,3:0|0:0,0:0:0:0:
119,315,126011,1,0,3:2:0:0:
119,315,126297,2,0,L|90:348,1,45,8|0,0:0|0:0,0:0:0:0:
250,166,126583,6,0,P|321:178|375:228,2,135,4|8|0,3:2|0:0|3:0,0:0:0:0:
250,166,127868,2,0,L|155:119,1,90,8|0,0:0|3:0,0:0:0:0:
65,211,128297,1,8,3:2:0:0:
162,225,128439,1,8,0:0:0:0:
65,211,128583,2,0,L|21:202,1,45,0|8,0:0|0:0,0:0:0:0:
260,249,128868,6,0,P|284:317|269:388,2,135,4|8|0,3:2|0:0|3:0,0:0:0:0:
260,249,130154,2,0,L|153:255,1,90,8|0,0:0|0:0,0:0:0:0:
128,112,130583,2,0,L|113:69,1,45,8|0,0:0|0:0,0:0:0:0:
245,118,130868,2,0,L|274:83,1,45,8|8,0:0|0:0,0:0:0:0:
347,220,131154,6,0,L|347:175,2,45,6|0|8,3:1|0:0|0:0,0:0:0:0:
433,351,131582,1,2,3:1:0:0:
433,351,131725,2,0,L|433:306,1,45,0|0,0:0|3:0,0:0:0:0:
347,175,132011,2,0,L|347:130,2,45,10|0|0,3:1|0:0|3:0,0:0:0:0:
433,306,132439,2,0,L|433:261,2,45,2|8|0,3:1|0:0|0:0,0:0:0:0:
477,178,132868,2,0,L|432:174,1,45,2|0,3:1|3:0,0:0:0:0:
347,261,133154,2,0,L|302:264,1,45,10|0,0:1|0:0,0:0:0:0:
212,132,133439,6,0,L|216:177,2,45,2|0|8,3:1|0:0|0:0,0:0:0:0:
179,338,133868,1,2,3:1:0:0:
179,338,134011,2,0,L|182:293,1,45,0|0,0:0|3:0,0:0:0:0:
131,132,134296,2,0,L|135:177,2,45,10|0|0,3:1|0:0|3:0,0:0:0:0:
98,338,134725,2,0,L|101:293,2,45,2|8|0,3:1|0:0|0:0,0:0:0:0:
48,213,135154,2,0,P|19:191|1:166,1,67.5,2|0,3:1|0:0,0:0:0:0:
0,166,135440,2,0,L|44:159,1,45,10|0,0:1|0:0,0:0:0:0:
169,57,135725,6,0,L|125:50,2,45,2|0|8,3:1|0:0|0:0,0:0:0:0:
293,132,136154,1,2,3:1:0:0:
293,132,136296,2,0,L|337:125,1,45,0|0,0:0|3:0,0:0:0:0:
169,207,136582,2,0,L|125:200,2,45,10|0|0,3:1|0:0|3:0,0:0:0:0:
293,282,137011,2,0,L|337:275,2,45,2|8|0,3:1|0:0|0:0,0:0:0:0:
169,207,137439,2,0,L|176:163,1,45,2|0,3:1|3:0,0:0:0:0:
293,132,137725,2,0,L|286:88,1,45,10|0,0:1|0:0,0:0:0:0:
169,57,138011,6,0,L|162:13,2,45,6|0|8,3:1|0:0|0:0,0:0:0:0:
293,282,138439,1,2,3:1:0:0:
293,282,138582,2,0,L|300:326,1,45,0|0,0:0|3:0,0:0:0:0:
246,57,138868,2,0,L|239:13,2,45,10|0|0,3:1|0:0|3:0,0:0:0:0:
370,282,139296,2,0,L|377:326,2,45,2|8|0,3:1|0:0|0:0,0:0:0:0:
195,231,139725,2,0,L|151:238,1,45,2|0,3:1|3:0,0:0:0:0:
420,107,140011,2,0,L|464:100,1,45,0|0,0:1|0:0,0:0:0:0:
293,216,140296,5,6,0:0:0:0:
356,183,140439,1,0,0:0:0:0:
322,121,140582,1,0,0:0:0:0:
259,154,140725,1,10,0:0:0:0:
260,155,141011,1,2,0:0:0:0:
370,282,141296,1,2,0:0:0:0:
195,231,141439,1,2,0:0:0:0:
195,231,141725,1,2,3:2:0:0:
272,297,141868,1,2,0:0:0:0:
322,121,142011,1,10,0:0:0:0:
49,128,142296,1,2,0:2:0:0:
49,128,142582,5,6,0:0:0:0:
83,65,142725,1,0,0:0:0:0:
145,99,142868,1,2,0:0:0:0:
112,162,143011,1,10,0:0:0:0:
112,162,143297,1,2,0:0:0:0:
169,363,143582,1,2,0:0:0:0:
150,296,143725,1,2,0:0:0:0:
169,363,144011,1,2,0:0:0:0:
150,296,144154,1,2,0:0:0:0:
131,229,144296,1,10,0:0:0:0:
178,36,144583,1,8,0:0:0:0:
178,36,144725,1,8,0:0:0:0:
216,96,144868,5,6,0:0:0:0:
254,156,145011,1,0,0:0:0:0:
287,94,145154,1,0,0:0:0:0:
320,32,145296,1,10,0:0:0:0:
320,32,145582,1,2,0:0:0:0:
382,221,145868,1,2,0:0:0:0:
419,313,146011,1,2,0:0:0:0:
345,379,146154,1,2,3:2:0:0:
286,324,146296,1,2,0:0:0:0:
226,267,146439,1,2,0:0:0:0:
345,379,146582,1,10,0:0:0:0:
226,267,146868,1,2,0:2:0:0:
32,317,147154,6,0,L|32:227,1,90,6|0,0:0|0:0,0:0:0:0:
196,184,147582,2,0,L|118:229,1,90,10|0,0:0|0:0,0:0:0:0:
0,108,148011,2,0,L|77:153,2,90,2|2|0,3:2|0:0|0:0,0:0:0:0:
0,108,148868,1,8,0:0:0:0:
44,30,149011,1,0,3:0:0:0:
121,75,149154,2,0,L|174:105,1,45
236,142,149439,5,6,0:0:0:0:
254,211,149582,1,0,0:0:0:0:
323,193,149725,1,0,0:0:0:0:
304,124,149868,1,10,0:0:0:0:
304,124,150154,1,2,0:0:0:0:
182,336,150439,1,2,0:0:0:0:
146,273,150582,1,2,0:0:0:0:
182,211,150725,1,2,3:2:0:0:
254,211,150868,1,2,0:0:0:0:
290,274,151011,1,2,0:0:0:0:
254,336,151154,1,10,0:0:0:0:
254,336,151439,1,2,0:2:0:0:
96,324,151725,5,6,0:0:0:0:
46,274,151868,1,0,0:0:0:0:
97,224,152011,1,2,0:0:0:0:
146,273,152153,1,10,0:0:0:0:
146,273,152440,1,2,0:0:0:0:
97,80,152725,1,2,0:0:0:0:
97,152,152868,1,2,0:0:0:0:
101,228,153011,1,2,3:2:0:0:
101,228,153154,1,2,0:0:0:0:
97,152,153296,1,2,0:0:0:0:
97,80,153439,1,10,0:0:0:0:
254,336,153726,1,8,0:0:0:0:
254,336,153868,1,8,0:0:0:0:
290,274,154011,5,6,0:0:0:0:
326,212,154154,1,0,0:0:0:0:
290,150,154296,1,0,0:0:0:0:
254,88,154439,1,10,0:0:0:0:
254,88,154725,1,2,0:0:0:0:
469,212,155011,1,2,0:0:0:0:
397,212,155154,1,2,0:0:0:0:
326,212,155296,1,0,3:2:0:0:
290,150,155439,1,2,0:0:0:0:
254,88,155582,1,2,0:0:0:0:
361,150,155725,1,10,0:0:0:0:
254,336,156011,1,2,0:2:0:0:
96,0,156296,6,0,B|15:0|-96:72|15:148|96:148|176:148|292:224|176:296|96:296,1,522.90000757988,6|0,0:0|0:0,0:0:0:0:
39,224,157440,1,8,0:0:0:0:
117,158,157583,1,8,0:0:0:0:
208,120,157725,1,8,0:0:0:0:
299,158,157868,1,8,0:0:0:0:
377,224,158011,1,8,0:0:0:0:
251,354,158296,5,0,0:0:0:0:
226,345,158368,1,0,0:0:0:0:
207,330,158439,1,0,0:0:0:0:
204,305,158511,1,0,0:0:0:0:
208,279,158582,6,0,L|111:279,1,90,6|0,3:2|0:0,0:0:0:0:
377,224,158868,2,0,L|474:224,1,90,8|0,3:2|0:0,0:0:0:0:
380,135,159154,2,0,L|316:135|292:199|244:199,1,180,0|8,3:0|3:2,0:0:0:0:
232,111,159582,1,0,3:0:0:0:
122,159,159725,6,0,L|122:62,1,90,0|0,0:0|3:0,0:0:0:0:
12,111,160011,2,0,L|12:208,1,90,8|0,3:2|0:0,0:0:0:0:
72,343,160296,2,0,L|136:343|160:279|208:279,1,180,2|8,3:2|3:2,0:0:0:0:
220,367,160725,1,0,0:0:0:0:
295,266,160868,6,0,L|330:178,2,90,6|0|8,3:2|0:0|3:2,0:0:0:0:
484,265,161296,2,0,L|449:177,2,90,2|0|0,0:0|3:0|3:0,0:0:0:0:
390,256,161725,2,0,L|390:346,1,90,10|0,3:2|3:0,0:0:0:0:
332,186,162011,5,2,0:0:0:0:
332,186,162154,1,0,3:0:0:0:
455,185,162296,1,8,3:2:0:0:
455,185,162439,1,0,0:0:0:0:
388,107,162582,2,0,L|388:17,1,90,0|0,3:2|3:0,0:0:0:0:
265,29,162868,1,10,3:2:0:0:
210,187,163011,1,2,0:0:0:0:
20,55,163154,6,0,B|76:55|76:55|132:-9|196:71,1,180,6|8,3:2|3:2,0:0:0:0:
47,137,163582,1,2,0:0:0:0:
292,111,163725,2,0,B|236:111|236:111|180:175|116:95,1,180,0|10,3:0|3:2,0:0:0:0:
265,29,164154,1,0,3:0:0:0:
138,200,164296,6,0,B|58:120|146:32,2,180,2|10|0,0:0|3:2|3:2,0:0:0:0:
181,276,165011,1,0,3:0:0:0:
128,371,165154,2,0,L|83:293,1,90,10|0,3:2|0:0,0:0:0:0:
244,199,165439,6,0,L|289:276,1,90,6|0,3:2|0:0,0:0:0:0:
225,354,165725,1,8,3:2:0:0:
387,260,165868,2,0,B|490:200|434:103,1,180,2|2,0:0|3:2,0:0:0:0:
189,51,166297,2,0,B|85:110|138:200,1,180,10|0,3:2|0:0,0:0:0:0:
137,198,166868,1,8,3:2:0:0:
203,271,167011,1,0,0:0:0:0:
290,224,167154,1,0,3:2:0:0:
219,154,167296,1,0,3:0:0:0:
207,252,167439,1,8,3:2:0:0:
195,350,167582,1,0,0:0:0:0:
97,367,167725,6,0,L|41:367|-7:231,1,180,6|8,3:2|3:2,0:0:0:0:
39,81,168154,2,0,L|95:81|143:217,1,180,2|0,0:0|3:0,0:0:0:0:
19,165,168582,1,10,3:2:0:0:
116,281,168725,1,0,3:0:0:0:
207,252,168868,6,0,L|286:212|368:252,1,180,2|10,0:0|3:2,0:0:0:0:
450,312,169296,2,0,L|371:352|289:312,1,180,0|0,0:0|3:0,0:0:0:0:
286,113,169725,2,0,L|366:152,1,90,10|0,3:2|0:0,0:0:0:0:
446,92,170011,6,0,B|377:24|286:14,1,180,6|8,3:2|3:2,0:0:0:0:
47,174,170439,2,0,B|115:241|234:255,1,180,2|0,0:0|3:0,0:0:0:0:
207,153,170868,2,0,L|126:113,1,90,10|0,3:2|3:0,0:0:0:0:
366,152,171154,6,0,B|356:242|288:311,2,180,2|8|0,0:0|3:2|3:2,0:0:0:0:
370,156,172011,1,10,3:2:0:0:
370,156,172154,1,2,0:0:0:0:
446,92,172296,6,0,L|446:-4,2,90,6|0|8,3:2|0:0|3:2,0:0:0:0:
463,190,172725,1,2,0:0:0:0:
446,288,172868,2,0,L|446:384,1,90,0|0,3:0|3:0,0:0:0:0:
352,252,173154,1,10,3:2:0:0:
370,156,173296,1,0,3:0:0:0:
258,216,173439,6,0,B|178:288|90:216,1,180,2|8,0:0|3:2,0:0:0:0:
3,356,173868,2,0,B|83:284|171:356,1,180,2|0,0:0|3:0,0:0:0:0:
179,139,174296,1,10,3:2:0:0:
179,139,174439,1,0,0:0:0:0:
95,220,174582,2,0,C|39:132|71:68,1,180,6|8,3:2|3:2,0:0:0:0:
258,216,175011,2,0,C|314:304|282:368,2,180,6|0|0,3:2|3:0|0:0,0:0:0:0:
383,85,175725,6,0,B|407:45|471:45,1,90,8|0,3:2|3:0,0:0:0:0:
463,181,176011,2,0,B|431:213|367:213,1,90,8|0,3:2|3:0,0:0:0:0:
258,216,176296,1,0,0:0:0:0:
272,177,176368,1,0,0:0:0:0:
272,141,176439,1,0,0:0:0:0:
260,111,176511,1,0,0:0:0:0:
248,86,176582,1,0,0:0:0:0:
243,63,176654,1,0,0:0:0:0:
244,45,176725,1,0,0:0:0:0:
247,31,176796,1,0,0:0:0:0:
258,1,176868,6,0,B|345:56|422:0,1,135,4|0,3:2|0:0,0:0:0:0:
427,0,177154,1,0,0:0:0:0:
258,1,177297,6,0,B|281:102|375:116,1,135,4|0,3:2|0:0,0:0:0:0:
378,120,177583,1,0,0:0:0:0:
258,1,177725,6,0,B|202:89|259:166,1,135,4|0,3:2|0:0,0:0:0:0:
257,172,178011,1,0,0:0:0:0:
258,1,178154,6,0,B|156:24|142:118,1,135,4|0,3:2|0:0,0:0:0:0:
137,123,178440,1,0,0:0:0:0:
297,367,178583,2,0,B|286:308|227:258,1,90,4|0,3:2|0:0,0:0:0:0:
465,365,178868,1,8,0:0:0:0:
465,365,179154,6,0,B|373:318|381:223,1,135,4|0,3:2|0:0,0:0:0:0:
379,220,179440,1,0,0:0:0:0:
297,367,179582,6,0,B|291:264|377:224,1,135,4|0,3:2|0:0,0:0:0:0:
379,220,179868,1,0,0:0:0:0:
211,223,180011,6,0,B|297:166|374:221,1,135,4|0,3:2|0:0,0:0:0:0:
379,220,180297,1,0,0:0:0:0:
293,77,180440,6,0,B|384:123|376:218,1,135,4|0,3:2|0:0,0:0:0:0:
379,220,180726,1,0,0:0:0:0:
126,79,180868,1,12,3:2:0:0:
126,79,181154,1,0,0:0:0:0:
293,77,181296,1,0,0:0:0:0:
158,300,181439,6,0,B|140:198|221:147,1,135,4|0,3:2|0:0,0:0:0:0:
223,143,181725,1,0,0:0:0:0:
158,300,181868,6,0,B|73:240|95:147,1,135,4|0,3:2|0:0,0:0:0:0:
92,142,182154,1,0,0:0:0:0:
158,300,182296,6,0,B|56:318|5:237,1,135,4|0,3:2|0:0,0:0:0:0:
0,234,182582,1,0,0:0:0:0:
158,300,182725,6,0,B|99:385|6:363,1,135,4|0,3:2|0:0,0:0:0:0:
0,365,183011,1,0,0:0:0:0:
166,78,183153,2,0,B|153:135|188:204,1,90,4|0,3:2|0:0,0:0:0:0:
344,340,183439,1,8,0:0:0:0:
344,340,183725,6,0,B|376:242|303:181,1,135,4|0,3:2|0:0,0:0:0:0:
302,176,184011,1,0,0:0:0:0:
464,222,184153,6,0,B|395:145|306:177,1,135,4|0,3:2|0:0,0:0:0:0:
302,176,184439,1,0,0:0:0:0:
423,59,184582,6,0,B|322:79|305:173,1,135,4|0,3:2|0:0,0:0:0:0:
302,176,184868,1,0,0:0:0:0:
261,15,185011,6,0,B|228:112|301:173,1,135,4|0,3:2|0:0,0:0:0:0:
302,176,185297,1,0,0:0:0:0:
344,340,185439,1,0,3:0:0:0:
344,340,185725,1,0,0:0:0:0:
512,0,187154,6,0,L|416:0,1,90,6|2,3:2|3:2,0:0:0:0:
352,64,187582,1,0,0:0:0:0:
352,64,187654,1,0,0:0:0:0:
352,64,187725,2,0,L|256:64,1,90,2|0,3:2|3:0,0:0:0:0:
262,64,188296,6,0,L|358:64,1,90,0|0,3:0|3:0,0:0:0:0:
422,128,188724,1,0,0:0:0:0:
422,128,188796,1,0,0:0:0:0:
422,128,188868,2,0,L|515:128,1,90,0|0,3:0|3:0,0:0:0:0:
512,128,189439,6,0,L|416:128,1,90,2|2,3:2|3:2,0:0:0:0:
352,192,189867,1,0,0:0:0:0:
352,192,189939,1,0,0:0:0:0:
352,192,190010,2,0,L|256:192,1,90,2|0,3:2|3:0,0:0:0:0:
262,192,190582,6,0,L|358:192,1,90,0|0,3:0|3:0,0:0:0:0:
422,256,191010,1,0,0:0:0:0:
422,256,191082,1,0,0:0:0:0:
422,256,191153,2,0,L|518:256,1,90,0|0,3:0|3:0,0:0:0:0:
352,320,191582,1,0,0:0:0:0:
256,320,191725,6,0,L|160:320,1,90,2|2,3:2|3:2,0:0:0:0:
96,256,192153,1,0,0:0:0:0:
96,256,192225,1,0,0:0:0:0:
96,256,192296,2,0,L|0:256,1,90,2|0,3:2|3:0,0:0:0:0:
6,256,192868,6,0,L|102:256,1,90,0|0,3:0|3:0,0:0:0:0:
166,192,193296,1,0,0:0:0:0:
166,192,193368,1,0,0:0:0:0:
166,192,193439,2,0,L|262:192,1,90,2|0,3:2|3:0,0:0:0:0:
256,192,194011,6,0,L|160:192,1,90,2|2,3:2|3:2,0:0:0:0:
96,128,194439,1,0,0:0:0:0:
96,128,194511,1,0,0:0:0:0:
96,128,194582,2,0,L|0:128,1,90,2|0,3:2|3:0,0:0:0:0:
6,128,195154,6,0,L|102:128,1,90,0|0,3:0|3:0,0:0:0:0:
166,64,195582,1,0,0:0:0:0:
166,64,195654,1,0,0:0:0:0:
166,64,195725,2,0,L|246:64,1,45,0|0,3:0|0:0,0:0:0:0:
90,131,196011,5,8,3:2:0:0:
85,310,196296,5,6,3:2:0:0:
108,220,196582,1,10,3:2:0:0:
87,226,196868,2,0,L|58:233,1,22.5,0|2,3:0|3:2,0:0:0:0:
108,220,197154,1,8,3:2:0:0:
287,225,197439,5,0,3:2:0:0:
197,202,197725,1,8,3:2:0:0:
203,223,198011,2,0,L|210:251,1,22.5,0|0,3:0|3:2,0:0:0:0:
197,202,198297,1,8,3:2:0:0:
202,23,198582,5,2,3:2:0:0:
179,113,198868,1,10,3:2:0:0:
200,107,199154,2,0,L|228:99,1,22.5,0|2,3:0|3:2,0:0:0:0:
179,113,199440,1,8,3:2:0:0:
0,108,199725,5,0,3:2:0:0:
90,131,200011,1,8,3:2:0:0:
84,110,200296,2,0,L|76:81,1,22.5,0|0,3:0|3:2,0:0:0:0:
90,131,200583,1,8,3:2:0:0:
304,273,200868,5,2,3:2:0:0:
394,250,201154,1,10,3:2:0:0:
388,271,201439,2,0,L|380:299,1,22.5,0|2,3:0|3:2,0:0:0:0:
394,250,201725,1,8,3:2:0:0:
301,98,202011,5,0,3:2:0:0:
329,183,202296,1,8,3:2:0:0:
350,178,202582,2,0,L|378:170,1,22.5,0|2,3:0|3:2,0:0:0:0:
329,183,202867,1,8,3:2:0:0:
243,340,203154,5,2,3:2:0:0:
303,273,203439,1,10,3:2:0:0:
288,257,203725,2,0,L|267:236,1,22.5,0|2,3:0|3:2,0:0:0:0:
303,273,204011,1,8,3:2:0:0:
329,183,204154,6,0,L|329:132,1,45,0|0,0:0|3:0,0:0:0:0:
330,52,204439,1,8,3:2:0:0:
244,51,204582,1,8,3:2:0:0:
243,137,204725,1,8,3:2:0:0:
158,50,204868,6,0,L|158:23,1,22.5
158,80,205011,2,0,L|158:112,1,22.5
161,154,205154,1,0,0:0:0:0:
164,205,205296,1,0,0:0:0:0:
164,205,205439,6,0,B|95:150|14:191|-41:287|14:369|95:410|164:369|205:286|205:286|246:205|314:150|396:205|451:287|410:382|311:423|246:369,1,945.000036048891,6|0,0:1|0:0,0:0:0:0:
453,383,206582,6,0,B|481:348|476:290,1,90,2|0,3:1|0:0,0:0:0:0:
472,254,206796,2,0,B|471:234|456:212,2,45,2|8|0,0:1|0:0|0:0,0:0:0:0:
512,272,207011,1,2,3:1:0:0:
372,173,207154,2,0,B|344:138|349:80,1,90,2|0,0:1|3:0,0:0:0:0:
483,0,207439,2,0,B|511:35|506:93,1,90,8|0,3:2|0:0,0:0:0:0:
281,174,207725,2,0,L|191:174,1,90,6|0,3:1|0:0,0:0:0:0:
348,88,208011,1,8,3:2:0:0:
100,174,208154,6,0,B|20:94|108:6,1,180,2|0,0:1|3:0,0:0:0:0:
195,9,208582,2,0,B|197:53|160:98,1,90,8|0,3:2|0:0,0:0:0:0:
191,174,208868,1,2,3:1:0:0:
108,181,209011,1,2,3:1:0:0:
108,181,209082,1,2,0:1:0:0:
108,181,209154,2,0,L|108:241,3,45,8|2|2|0,0:0|0:1|3:1|0:0,0:0:0:0:
108,270,209439,1,0,3:0:0:0:
198,315,209582,1,2,3:1:0:0:
288,270,209725,2,0,L|378:270,1,90,2|2,0:1|0:1,0:0:0:0:
468,270,210011,5,6,3:1:0:0:
468,267,210082,1,0,0:0:0:0:
468,264,210154,1,0,0:0:0:0:
468,261,210225,1,0,0:0:0:0:
468,258,210296,1,10,0:0:0:0:
468,255,210368,1,0,0:0:0:0:
468,252,210439,1,2,0:0:0:0:
468,249,210511,1,0,0:0:0:0:
486,231,210582,5,2,0:1:0:0:
486,228,210653,1,0,0:0:0:0:
486,225,210725,1,0,3:0:0:0:
486,222,210796,1,0,0:0:0:0:
486,219,210867,1,10,0:0:0:0:
486,216,210939,1,0,0:0:0:0:
486,213,211010,1,0,0:0:0:0:
486,210,211082,1,0,0:0:0:0:
504,192,211154,6,0,L|504:128,3,45,6|0|0|0,3:1|0:0|3:0|0:0,0:0:0:0:
472,115,211439,2,0,L|426:69,3,45,10|0|0|0,0:1|0:0|3:0|0:0,0:0:0:0:
394,83,211725,2,0,L|330:83,3,45
303,83,212011,2,0,L|303:173,1,90,10|0,0:1|0:0,0:0:0:0:
66,128,212296,6,0,B|146:48|234:136,1,180,6|8,3:1|0:0,0:0:0:0:
303,173,212725,1,0,0:0:0:0:
228,218,212868,1,2,0:1:0:0:
144,188,213011,1,0,3:0:0:0:
228,218,213154,2,0,L|236:307,1,90,10|0,0:1|0:0,0:0:0:0:
224,127,213439,6,0,L|215:37,1,90,2|0,3:1|3:0,0:0:0:0:
140,82,213725,1,8,0:0:0:0:
299,67,213868,1,0,3:0:0:0:
228,218,214011,1,0,0:0:0:0:
144,188,214154,1,0,3:0:0:0:
303,173,214296,1,8,0:0:0:0:
239,337,214439,2,0,L|242:383,1,45
236,307,214582,6,0,B|155:396|72:321,1,180,6|8,3:1|0:0,0:0:0:0:
474,283,215011,2,0,B|393:193|310:268,1,180,2|0,0:1|3:0,0:0:0:0:
512,91,215439,2,0,B|477:127|477:171,1,90,10|0,0:1|0:0,0:0:0:0:
226,173,215725,6,0,B|152:77|240:9,1,180,2|8,3:1|0:0,0:0:0:0:
318,376,216154,2,0,B|391:280|303:212,1,180,2|0,3:1|3:0,0:0:0:0:
512,375,216582,2,0,B|476:340|431:340,1,90,10|0,0:1|0:0,0:0:0:0:
89,298,216868,6,0,B|169:378|257:290,1,180,6|8,0:1|0:0,0:0:0:0:
169,141,217296,1,2,0:1:0:0:
169,141,217368,1,0,0:0:0:0:
169,141,217439,2,0,L|169:233,1,90,0|0,0:0|3:0,0:0:0:0:
121,49,217725,2,0,L|228:48,1,90,10|0,0:1|0:0,0:0:0:0:
347,125,218011,2,0,L|297:125,3,45,2|0|0|0,3:1|0:0|3:0|0:0,0:0:0:0:
258,125,218296,1,10,0:1:0:0:
73,124,218439,1,2,3:1:0:0:
73,124,218725,1,0,3:0:0:0:
169,231,218868,2,0,L|168:141,1,90,10|2,0:1|0:1,0:0:0:0:
256,0,219154,6,0,L|256:96,1,90,6|0,3:1|0:0,0:0:0:0:
255,192,219439,5,10,0:1:0:0:
257,195,219510,1,0,0:0:0:0:
254,198,219582,1,0,0:0:0:0:
258,202,219653,1,0,0:0:0:0:
252,205,219724,1,2,0:1:0:0:
259,209,219796,1,0,0:0:0:0:
252,212,219867,1,0,3:0:0:0:
260,215,219939,1,0,0:0:0:0:
251,219,220010,1,10,0:1:0:0:
261,222,220081,1,0,0:0:0:0:
250,226,220153,1,0,0:0:0:0:
262,229,220224,1,0,0:0:0:0:
249,232,220296,1,2,3:1:0:0:
263,236,220367,1,0,0:0:0:0:
248,239,220439,1,0,3:0:0:0:
264,243,220510,1,0,0:0:0:0:
247,246,220581,1,10,0:1:0:0:
265,250,220653,1,0,0:0:0:0:
246,253,220724,1,0,3:0:0:0:
266,256,220796,1,0,0:0:0:0:
245,260,220867,1,2,0:1:0:0:
267,263,220939,1,0,0:0:0:0:
244,267,221011,1,0,0:0:0:0:
268,270,221082,1,0,0:0:0:0:
243,273,221153,1,10,0:1:0:0:
269,277,221224,1,2,0:1:0:0:
242,280,221296,1,2,0:1:0:0:
270,284,221367,1,2,0:1:0:0:
241,287,221439,1,6,3:1:0:0:
256,384,221725,5,10,0:1:0:0:
160,282,221868,1,0,0:0:0:0:
160,282,221939,1,0,0:0:0:0:
160,282,222011,2,0,L|160:192,1,90,8|10,0:0|0:1,0:0:0:0:
384,218,222296,1,0,0:0:0:0:
384,218,222367,1,0,0:0:0:0:
384,218,222439,2,0,L|384:128,1,90,8|10,0:0|0:1,0:0:0:0:
256,0,222725,1,0,0:0:0:0:
256,0,222796,1,0,0:0:0:0:
256,0,222868,1,8,0:0:0:0:
160,64,223011,5,8,0:0:0:0:
352,128,223154,1,10,0:1:0:0:
192,192,223296,1,0,0:0:0:0:
320,256,223439,1,0,0:0:0:0:
224,320,223582,1,0,0:0:0:0:
288,384,223725,1,6,3:1:0:0:
256,192,223796,12,0,225868,0:0:0:0:
385,254,226011,6,0,P|403:191|383:128,1,135,6|0,0:0|0:0,0:0:0:0:
383,128,226725,1,0,0:0:0:0:
256,32,227011,1,0,0:0:0:0:
256,32,227154,6,0,L|256:224,1,180,2|0,0:0|0:0,0:0:0:0:
256,212,228011,1,0,0:0:0:0:
320,319,228296,6,0,P|256:340|193:321,1,135,6|0,0:0|0:0,0:0:0:0:
193,321,229011,1,0,0:0:0:0:
131,212,229296,2,0,L|86:212,1,45,0|2,0:0|0:0,0:0:0:0:
193,249,229582,1,0,0:0:0:0:
256,212,229725,2,0,L|301:212,1,45
193,175,230011,1,0,0:0:0:0:
193,62,230582,6,0,P|256:43|320:64,1,135,6|0,0:0|0:0,0:0:0:0:
320,64,231296,1,0,0:0:0:0:
256,141,231582,1,0,0:0:0:0:
256,141,231725,6,0,L|64:141,1,180,2|0,0:0|0:0,0:0:0:0:
15,213,232582,1,2,0:0:0:0:
15,213,232868,6,0,P|-4:276|16:339,2,135,6|0|0,0:0|0:0|0:0,0:0:0:0:
15,213,234011,1,2,0:0:0:0:
283,238,234296,5,0,0:0:0:0:
229,238,234439,1,0,0:0:0:0:
202,192,234582,1,0,0:0:0:0:
170,192,234868,5,0,0:0:0:0:
213,265,235011,1,0,0:0:0:0:
298,265,235154,2,0,L|364:265,2,45,6|0|0,0:2|0:0|0:0,0:0:0:0:
255,339,235582,5,2,0:2:0:0:
256,191,235725,2,0,L|289:133,2,45,8|2|0,0:2|0:2|0:0,0:0:0:0:
298,265,236154,5,2,0:2:0:0:
171,191,236296,2,0,L|138:133,2,45,2|0|0,0:2|0:0|0:0,0:0:0:0:
256,191,236724,5,0,0:0:0:0:
128,265,236868,2,0,L|61:265,2,45,10|0|2,0:2|0:0|0:2,0:0:0:0:
171,191,237296,1,0,0:0:0:0:
171,339,237439,6,0,L|138:396,2,45,6|0|0,0:2|0:0|0:0,0:0:0:0:
128,265,237867,1,2,0:2:0:0:
171,191,238011,6,0,L|204:248,2,45,8|2|0,0:2|0:2|0:0,0:0:0:0:
214,117,238439,1,10,0:2:0:0:
128,117,238582,1,2,0:2:0:0:
128,117,238868,1,0,0:0:0:0:
214,117,239011,1,0,0:0:0:0:
300,117,239154,2,0,L|400:117,1,90,10|0,0:2|0:2,0:0:0:0:
348,191,239582,5,0,0:0:0:0:
433,191,239725,2,0,L|499:191,2,45,6|0|0,0:2|0:0|0:0,0:0:0:0:
390,117,240153,5,2,0:2:0:0:
391,265,240296,2,0,L|424:322,2,45,8|2|0,0:2|0:2|0:0,0:0:0:0:
433,191,240725,5,10,0:2:0:0:
306,265,240868,2,0,L|273:322,2,45,2|0|0,0:2|0:0|0:0,0:0:0:0:
391,265,241295,5,0,0:0:0:0:
264,192,241439,2,0,L|197:192,1,45,10|0,0:2|0:0,0:0:0:0:
512,311,241725,5,2,0:2:0:0:
512,311,242011,5,14,0:2:0:0:
434,358,242154,1,8,0:2:0:0:
346,378,242296,1,8,0:2:0:0:
254,369,242439,1,8,0:2:0:0:
171,333,242582,1,8,0:2:0:0:
103,273,242725,1,8,0:2:0:0:
58,194,242868,1,8,0:2:0:0:
46,104,243011,1,8,0:2:0:0:
129,71,243154,5,8,0:2:0:0:
212,38,243296,1,8,0:2:0:0:
245,121,243439,1,8,0:2:0:0:
190,192,243582,5,8,0:2:0:0:
245,121,243724,1,8,0:2:0:0:
315,177,243867,1,8,0:2:0:0:
303,266,244011,5,8,0:2:0:0:
315,177,244153,1,8,0:2:0:0:
403,190,244296,6,0,B|443:166|443:102,1,90,6|0,3:2|0:0,0:0:0:0:
344,366,244582,2,0,B|240:390|196:286,1,180,8|0,3:2|3:0,0:0:0:0:
184,202,245011,1,0,3:0:0:0:
437,273,245154,2,0,B|477:297|477:361,2,90,8|0|0,3:2|3:0|0:0,0:0:0:0:
347,277,245582,1,0,3:0:0:0:
110,315,245725,2,0,B|214:339|258:235,1,180,8|2,3:2|3:2,0:0:0:0:
335,197,246154,1,0,3:0:0:0:
259,148,246296,2,0,B|219:124|219:60,1,90,8|0,3:2|0:0,0:0:0:0:
464,40,246582,6,0,L|368:40|333:115,1,180,6|8,3:2|3:2,0:0:0:0:
48,328,247011,2,0,L|144:328|178:252,1,180,2|0,0:0|3:0,0:0:0:0:
220,171,247439,1,10,3:2:0:0:
319,340,247582,1,0,3:0:0:0:
360,248,247725,2,0,L|264:248|229:323,1,180,2|8,0:0|3:2,0:0:0:0:
178,251,248154,1,0,0:0:0:0:
220,171,248296,2,0,L|170:85,1,90,0|0,3:2|3:0,0:0:0:0:
89,93,248582,1,10,3:2:0:0:
89,93,248725,1,2,0:0:0:0:
263,5,248868,6,0,B|319:-51|407:-3|399:69,1,180,6|8,3:2|3:2,0:0:0:0:
184,78,249296,1,2,0:0:0:0:
423,157,249439,2,0,B|367:213|279:165|287:93,1,180,0|10,3:0|3:2,0:0:0:0:
507,88,249868,1,0,3:0:0:0:
461,264,250011,6,0,B|397:256|373:200|373:200|437:144,1,180,2|10,0:0|3:2,0:0:0:0:
301,248,250439,2,0,B|237:256|213:312|213:312|277:368,1,180,0|0,0:0|3:0,0:0:0:0:
424,365,250868,2,0,B|400:325|336:325,1,90,10|0,3:2|0:0,0:0:0:0:
59,302,251154,6,0,B|105:305|142:252,1,90,6|0,3:2|0:0,0:0:0:0:
59,213,251439,1,8,3:2:0:0:
295,85,251582,2,0,B|191:61|147:165,1,180,2|2,0:0|3:2,0:0:0:0:
256,197,252011,1,10,3:2:0:0:
256,197,252296,5,0,1:0:0:0:
256,204,252367,1,0,1:0:0:0:
256,212,252438,1,8,1:0:0:0:
256,219,252510,1,0,1:0:0:0:
256,227,252581,1,4,1:2:0:0:
256,234,252653,1,0,1:0:0:0:
256,242,252724,1,8,1:0:0:0:
256,249,252796,1,0,1:0:0:0:
256,257,252867,1,8,1:2:0:0:
256,264,252938,1,8,1:0:0:0:
256,272,253010,1,8,0:0:0:0:
256,279,253081,1,8,0:0:0:0:
256,289,253154,2,0,L|256:388,1,90
378,331,253439,6,0,B|481:322|512:229,1,180,6|8,3:2|3:2,0:0:0:0:
443,46,253868,2,0,B|475:140|413:227,1,180,2|0,0:0|3:0,0:0:0:0:
347,186,254296,5,10,3:2:0:0:
367,94,254439,1,0,3:0:0:0:
323,277,254582,2,0,L|259:341|163:341,1,180,2|10,0:0|3:2,0:0:0:0:
92,175,255011,2,0,L|155:111|253:111,1,180,0|0,0:0|3:0,0:0:0:0:
294,31,255439,2,0,B|204:31,1,90,10|0,3:2|0:0,0:0:0:0:
0,152,255725,2,0,B|63:88,2,90,6|0|8,3:2|0:0|3:2,0:0:0:0:
426,218,256154,2,0,B|349:275|234:250,1,180,2|0,0:0|3:0,0:0:0:0:
301,78,256582,2,0,B|304:125|252:162,1,90,10|0,3:2|3:0,0:0:0:0:
0,152,256868,2,0,B|97:130|169:194,1,180,2|8,0:0|3:2,0:0:0:0:
0,152,257439,2,0,B|-3:105|49:68,1,90,0|0,3:2|3:0,0:0:0:0:
124,37,257725,1,10,3:2:0:0:
191,97,257868,1,2,0:0:0:0:
279,233,258011,6,0,B|215:161|287:49,1,180,6|8,3:2|3:2,0:0:0:0:
167,193,258439,2,0,B|231:273|167:361,1,180,2|0,0:0|3:0,0:0:0:0:
51,229,258868,2,0,B|48:182|100:145,1,90,10|0,3:2|3:0,0:0:0:0:
436,238,259154,6,0,B|364:318|268:222,1,180,2|8,0:0|3:2,0:0:0:0:
364,198,259582,2,0,B|452:110|524:214,1,180,2|0,0:0|3:0,0:0:0:0:
179,152,260011,1,10,3:2:0:0:
179,152,260296,6,0,B|243:64|171:-24,1,180,6|8,3:2|3:2,0:0:0:0:
91,152,260725,2,0,B|283:152,1,180,2|0,3:2|3:0,0:0:0:0:
15,53,261154,2,0,L|105:53,1,90,10|0,3:2|0:0,0:0:0:0:
182,152,261439,2,0,L|92:152,1,90,8|0,0:0|3:0,0:0:0:0:
169,251,261725,2,0,L|259:251,1,90,8|0,0:0|3:0,0:0:0:0:
336,350,262011,2,0,L|246:350,1,90,8|0,0:0|3:0,0:0:0:0:
151,344,262296,1,0,0:0:0:0:
58,331,262439,1,0,0:0:0:0:
0,183,262582,6,0,B|29:94|123:80,1,168.75,4|0,3:2|0:0,0:0:0:0:
121,80,262868,1,0,0:0:0:0:
58,331,263011,6,0,B|-16:274|1:180,1,168.75,4|0,3:2|0:0,0:0:0:0:
0,182,263296,1,0,0:0:0:0:
217,325,263439,6,0,B|139:376|56:330,1,168.75,4|0,3:2|0:0,0:0:0:0:
57,330,263725,1,0,0:0:0:0:
263,172,263868,6,0,B|286:262|215:325,1,168.75,4|0,3:2|0:0,0:0:0:0:
215,324,264154,1,0,0:0:0:0:
188,91,264296,6,0,B|237:111|262:171,1,112.5,4|0,3:2|0:0,0:0:0:0:
499,9,264582,6,0,B|505:60|466:113,1,112.5,8|0,0:0|0:0,0:0:0:0:
512,183,264868,6,0,B|482:94|388:80,1,168.75,4|0,3:2|0:0,0:0:0:0:
389,80,265154,1,0,0:0:0:0:
454,331,265297,6,0,B|528:274|510:180,1,168.75,4|0,3:2|0:0,0:0:0:0:
510,181,265583,1,0,0:0:0:0:
295,325,265725,6,0,B|372:376|455:330,1,168.75,4|0,3:2|0:0,0:0:0:0:
454,330,266011,1,0,0:0:0:0:
249,172,266154,6,0,B|225:262|296:325,1,168.75,4|0,3:2|0:0,0:0:0:0:
295,324,266440,1,0,0:0:0:0:
323,91,266582,6,0,B|274:110|248:171,1,112.5,0|0,3:2|0:0,0:0:0:0:
13,9,266868,6,0,B|6:60|45:113,1,112.5,12|0,3:2|0:0,0:0:0:0:
386,189,267154,6,0,B|386:94|386:62|322:62|322:91,1,168.75,4|0,3:2|0:0,0:0:0:0:
322,90,267439,1,0,0:0:0:0:
313,279,267582,6,0,B|402:249|433:239|413:179|385:188,1,168.75,4|0,3:2|0:0,0:0:0:0:
384,188,267867,1,0,0:0:0:0:
205,237,268011,6,0,B|260:313|279:339|331:301|313:278,1,168.75,4|0,3:2|0:0,0:0:0:0:
312,277,268296,1,0,0:0:0:0:
211,120,268439,6,0,B|155:196|136:222|188:259|205:236,1,168.75,4|0,3:2|0:0,0:0:0:0:
205,235,268724,1,0,0:0:0:0:
323,91,268868,6,0,B|240:64|229:66|200:81,1,112.5,4|0,3:2|0:0,0:0:0:0:
387,188,269154,1,8,0:0:0:0:
387,188,269439,6,0,B|377:282|373:314|310:307|313:278,1,168.75,4|0,3:2|0:0,0:0:0:0:
312,278,269724,1,0,0:0:0:0:
323,89,269867,6,0,B|408:128|438:141|411:198|385:187,1,168.75,4|0,3:2|0:0,0:0:0:0:
383,186,270154,1,0,0:0:0:0:
211,120,270296,6,0,B|273:50|295:26|342:69|322:90,1,168.75,4|0,3:2|0:0,0:0:0:0:
321,90,270582,1,0,0:0:0:0:
205,237,270724,6,0,B|157:155|141:127|196:96|211:121,1,168.75,4|0,3:2|0:0,0:0:0:0:
210,120,271011,1,0,0:0:0:0:
313,278,271153,6,0,B|227:296|216:293|189:275,1,112.5,12|0,0:0|0:0,0:0:0:0:
3,368,271439,2,0,B|88:386|99:383|126:365,1,112.5,12|0,0:0|0:0,0:0:0:0:
64,128,271725,6,0,L|64:255,1,127.799993564759,4|0,0:2|0:0,0:0:0:0:
0,64,272011,1,0,0:0:0:0:
192,256,272154,6,0,L|192:128,1,127.799993564759,12|0,0:2|0:0,0:0:0:0:
128,320,272440,1,0,0:0:0:0:
320,128,272582,6,0,L|320:255,1,127.799993564759,4|0,0:2|0:0,0:0:0:0:
256,64,272868,1,0,0:0:0:0:
448,256,273011,6,0,L|448:128,1,127.799993564759,12|0,0:2|0:0,0:0:0:0:
384,320,273297,1,0,0:0:0:0:
256,192,273439,2,0,L|256:64,1,127.799993564759,12|0,0:2|0:0,0:0:0:0:
256,192,273725,2,0,L|256:320,1,127.799993564759,12|0,0:2|0:0,0:0:0:0:
128,384,274011,6,0,L|0:384,1,127.799993564759,12|0,0:2|0:0,0:0:0:0:
192,320,274297,1,0,0:0:0:0:
384,320,274439,6,0,L|511:320,1,127.799993564759,12|0,0:2|0:0,0:0:0:0:
320,256,274725,1,0,0:0:0:0:
128,256,274868,6,0,L|0:256,1,127.799993564759,12|0,0:2|0:0,0:0:0:0:
192,192,275154,1,0,0:0:0:0:
384,192,275296,6,0,L|511:192,1,127.799993564759,12|0,0:2|0:0,0:0:0:0:
320,128,275582,1,0,0:0:0:0:
128,128,275725,2,0,L|0:128,1,127.799993564759,4|0,0:2|0:0,0:0:0:0:
384,64,276011,2,0,L|511:64,1,127.799993564759,12|0,0:2|0:0,0:0:0:0:
448,256,276296,6,0,L|448:128,1,127.799993564759,4|0,0:2|0:0,0:0:0:0:
512,320,276582,1,0,0:0:0:0:
320,128,276725,6,0,L|320:255,1,127.799993564759,12|0,0:2|0:0,0:0:0:0:
384,64,277011,1,0,0:0:0:0:
192,256,277153,6,0,L|192:128,1,127.799993564759,4|0,0:2|0:0,0:0:0:0:
256,320,277439,1,0,0:0:0:0:
64,128,277582,6,0,L|64:255,1,127.799993564759,12|0,0:2|0:0,0:0:0:0:
128,64,277868,1,0,0:0:0:0:
320,128,278011,2,0,L|320:0,1,127.799993564759,12|0,0:2|0:0,0:0:0:0:
192,256,278297,2,0,L|192:384,1,127.799993564759,12|0,0:2|0:0,0:0:0:0:
320,128,278582,6,0,L|383:17,1,127.799993564759,12|0,0:2|0:0,0:0:0:0:
384,192,278868,1,0,0:0:0:0:
192,160,279011,6,0,L|128:49,1,127.799993564759,12|0,0:2|0:0,0:0:0:0:
128,224,279297,1,0,0:0:0:0:
384,192,279439,6,0,L|447:81,1,127.799993564759,12|0,0:2|0:0,0:0:0:0:
448,256,279725,1,0,0:0:0:0:
128,224,279868,6,0,L|64:113,1,127.799993564759,12|0,0:2|0:0,0:0:0:0:
64,288,280154,1,0,0:0:0:0:
256,384,280296,6,0,L|256:192,1,191.699990347138,0|0,0:2|0:0,0:0:0:0:
256,192,280582,1,10,3:2:0:0:
